<?xml version="1.0" standalone="no"?>
<!DOCTYPE svg PUBLIC "-//W3C//DTD SVG 1.1//EN" "http://www.w3.org/Graphics/SVG/1.1/DTD/svg11.dtd" >
<svg xmlns="http://www.w3.org/2000/svg">
<metadata></metadata>
<defs>
<font id="ge_ss_twomedium" horiz-adv-x="0" >
<font-face units-per-em="2048" ascent="1638" descent="-410" />
<missing-glyph horiz-adv-x="491" />
<glyph unicode="&#x627;&#x653;" horiz-adv-x="438" d="M27 1528l18 -70q40 55 86 55q51 0 119 -51t102 -51q55 0 111 86l-19 72q-46 -58 -94 -58q-32 0 -108 52q-74 51 -111 51q-54 0 -104 -86zM145 0h228v1323h-228v-1323z" />
<glyph unicode="&#x627;&#x654;" horiz-adv-x="438" d="M76 1427h354v95h-166q-37 21 -37 75q0 31 19.5 54.5t50.5 23.5q48 0 57 -45l74 39q-44 90 -129 90q-67 0 -113.5 -47.5t-46.5 -118.5q0 -9 19 -71h-82v-95zM145 0h228v1323h-228v-1323z" />
<glyph unicode="&#x648;&#x654;" horiz-adv-x="1075" d="M127 467q0 -205 121.5 -336t318.5 -131q159 0 217 104q-3 -122 -58 -189.5t-161 -70.5v-182q445 0 445 367v432q0 206 -121.5 338.5t-321.5 132.5q-194 0 -317 -129.5t-123 -335.5zM315 1047h455v129h-197q-36 14 -36 71q0 78 59 78q39 0 57 -53l115 53q-53 121 -172 121 q-82 0 -137.5 -58.5t-55.5 -144.5q0 -21 11 -67h-99v-129zM356 467q0 107 56 181.5t145 74.5q98 0 157.5 -73t59.5 -193q0 -104 -58.5 -177t-148.5 -73q-92 0 -151.5 75.5t-59.5 184.5z" />
<glyph unicode="&#x627;&#x655;" horiz-adv-x="438" d="M84 -326v-94h354v94h-166q-36 20 -36 78q0 32 19.5 56t49.5 24q48 0 57 -45l74 35q-43 94 -129 94q-66 0 -113 -49t-47 -121q0 -10 19 -72h-82zM145 0h228v1323h-228v-1323z" />
<glyph unicode="&#x64a;&#x654;" horiz-adv-x="1554" d="M66 360q0 -300 202 -499q204 -201 502 -201h14q296 0 500 201q205 199 205 499v220h-506q59 139 168 192q87 43 258 43v213q-331 0 -510.5 -174t-179.5 -498h541q-38 -477 -482 -477q-234 0 -360 144q-123 135 -123 362v203h-229v-228zM68 731h510v137h-259 q-28 36 -28 90q0 119 92 119q65 0 86 -65l96 65q-53 121 -190 121q-93 0 -155 -66t-62 -163q0 -57 20 -101h-110v-137z" />
<glyph unicode="&#x64c;&#x651;" arabic-form="isolated" d="M-59 1866q28 22 55 22t42 -16t15 -43q0 -65 -43 -92q6 -12 27 -47q78 0 141.5 21t100 53t56 66t19.5 64q0 44 -27.5 79.5t-78.5 35.5q-42 0 -68 -30.5t-26 -71.5q0 -62 55 -111q-20 -18 -65 -33.5t-78 -15.5q36 39 36 92q0 90 -77 90q-64 0 -84 -63zM25 1622l32 -160 q15 -78 86 -78q45 0 71 29.5t28 81.5q41 -68 90 -68q45 0 69.5 21t24.5 53q0 25 -2 39l-35 160l-65 -17l28 -137q2 -8 2 -18q0 -31 -26 -31q-54 0 -66 62l-22 108l-66 -16l23 -107q2 -8 2 -24q0 -28 -16.5 -45t-32.5 -17q-22 0 -31 37l-31 139zM203 1907q0 53 51 53 q20 0 36.5 -16.5t16.5 -36.5q0 -45 -61 -82q-43 27 -43 82z" />
<glyph unicode="&#x64d;&#x651;" arabic-form="isolated" d="M20 1884l33 -158q15 -77 86 -77q45 0 71 29t28 79q40 -67 90 -67q45 0 70.5 21t25.5 52q0 18 -6 39l-33 160l-66 -14l31 -140v-18q0 -31 -26 -31q-25 0 -42.5 17t-23.5 47l-22 106l-68 -14l25 -109q2 -6 2 -24q0 -27 -17 -43.5t-33 -16.5q-21 0 -30 35l-31 141zM53 1376 q79 16 153.5 32.5t107 23.5t38.5 8q91 22 97 88l-316 -74q-63 -21 -80 -78zM78 1505q291 61 297 62q92 21 98 90l-315 -74q-62 -21 -80 -78z" />
<glyph unicode="&#x64e;&#x651;" arabic-form="isolated" d="M61 1661q274 57 299 61q88 21 97 90l-316 -75q-59 -21 -80 -76zM84 1597l33 -157q15 -78 88 -78q44 0 70 30t28 81q40 -70 90 -70q45 0 69.5 22.5t24.5 53.5q0 15 -6 39l-32 155l-66 -12l31 -139q2 -6 2 -19q0 -28 -29 -28q-51 0 -63 61l-23 109l-70 -17l23 -106 q4 -20 4 -25q0 -29 -15 -45t-34 -16q-23 0 -29 37l-30 139z" />
<glyph unicode="&#x64f;&#x651;" arabic-form="isolated" d="M33 1718l28 -47q76 0 139.5 21t101 53t57.5 66.5t20 64.5q0 43 -28.5 79t-78.5 36q-45 0 -70.5 -31t-25.5 -72q0 -62 55 -108q-23 -23 -86.5 -42.5t-111.5 -19.5zM66 1610l32 -158q15 -78 86 -78q47 0 72 29t27 82q40 -70 92 -70q45 0 69.5 21t24.5 53q0 17 -6 41 l-33 156l-65 -15l30 -137q2 -8 2 -18q0 -31 -28 -31q-54 0 -66 61l-22 109l-66 -17l23 -104q2 -10 2 -25q0 -29 -16.5 -45t-33.5 -16q-21 0 -30 35l-29 139zM225 1888q0 54 51 54q23 0 38.5 -16.5t15.5 -37.5q0 -44 -62 -82q-43 27 -43 82z" />
<glyph unicode="&#x650;&#x651;" arabic-form="isolated" d="M74 1731l32 -158q15 -76 87 -76q47 0 71.5 28.5t26.5 80.5q41 -68 90 -68q45 0 69.5 21t24.5 53q0 7 -4 39l-33 157l-65 -14l28 -139q2 -6 2 -17q0 -30 -26 -30q-54 0 -66 61l-22 109l-66 -15l23 -108q2 -8 2 -25q0 -28 -16 -43.5t-33 -15.5q-22 0 -31 35l-31 139z M133 1366q79 16 153.5 32.5t107 23.5t38.5 8q87 21 96 90l-315 -76q-63 -21 -80 -78z" />
<glyph unicode="&#xfe8e;&#x64b;" horiz-adv-x="708" arabic-form="final" d="M86 1395q274 57 299 61q89 21 98 90l-317 -73q-62 -21 -80 -78zM111 1522l20 4q72 15 142 30t100.5 21t36.5 8q89 21 98 88l-318 -74q-61 -21 -79 -77zM145 373q0 -169 82 -267q87 -106 254 -106h269v233h-136q-129 0 -176 35q-65 47 -65 197v856h-228v-948z" />
<glyph unicode="&#x627;&#x64b;" horiz-adv-x="438" arabic-form="isolated" d="M66 1395q274 57 299 61q89 21 98 90l-318 -73q-60 -21 -79 -78zM90 1522q295 62 299 63q89 21 98 88l-317 -74q-62 -21 -80 -77zM145 0h228v1323h-228v-1323z" />
<glyph unicode="&#xfedf;&#xfee0;&#xfeea;" horiz-adv-x="2504" arabic-form="isolated" d="M66 631q0 -216 114.5 -348.5t308.5 -132.5q155 0 263 153q35 -137 136 -220t234 -83h971q344 0 344 371v950h-227v-872q0 -130 -31.5 -173t-122.5 -43h-368q51 57 51 238v829h-228v-841q0 -128 -36.5 -177t-124.5 -49h-125q-230 0 -230 246v649h-506 q-196 0 -309.5 -133.5t-113.5 -363.5zM293 633q0 144 69.5 230.5t188.5 86.5h207v-297q0 -134 -65 -223.5t-175 -89.5q-100 0 -162.5 85.5t-62.5 207.5zM1411 1495q0 -96 94 -96q73 0 97 88q26 -88 94 -88q90 0 90 96v160h-68v-142q0 -43 -28 -43q-27 0 -42.5 21t-15.5 55 v109h-67v-109q0 -34 -15 -55t-43 -21q-25 0 -28 43v142h-68v-160z" />
<glyph unicode="&#xfedf;&#xfe82;" horiz-adv-x="1187" arabic-form="isolated" d="M106 1386l19 -69q40 55 86 55q51 0 119 -51t102 -51q55 0 111 86l-19 71q-45 -57 -94 -57q-34 0 -108 51q-76 52 -111 52q-55 0 -105 -87zM145 0h613q165 0 262.5 87.5t97.5 234.5v999h-223v-846q0 -139 -57 -196q-46 -46 -140 -46l-256 943h-241l258 -943h-314v-233z " />
<glyph unicode="&#xfee0;&#xfe82;" horiz-adv-x="1388" arabic-form="final" d="M106 1386l19 -69q40 55 86 55q51 0 119 -51t102 -51q55 0 111 86l-19 71q-45 -57 -94 -57q-34 0 -108 51q-76 52 -111 52q-55 0 -105 -87zM145 0h1282v233h-317q8 39 8 89v999h-223v-846q0 -139 -57 -196q-46 -46 -140 -46l-256 943h-241l258 -943h-314v-233z" />
<glyph unicode="&#xfedf;&#xfe84;" horiz-adv-x="1187" arabic-form="isolated" d="M145 0h613q165 0 262.5 87.5t97.5 234.5v999h-223v-846q0 -139 -57 -196q-46 -46 -140 -46l-256 943h-241l258 -943h-314v-233zM145 1274h355v94h-166q-37 21 -37 76q0 31 19.5 54.5t50.5 23.5q48 0 57 -45l74 39q-44 90 -129 90q-67 0 -113.5 -47.5t-46.5 -118.5 q0 -14 18 -72h-82v-94z" />
<glyph unicode="&#xfee0;&#xfe84;" horiz-adv-x="1388" arabic-form="final" d="M145 0h1282v233h-317q8 39 8 89v999h-223v-846q0 -139 -57 -196q-46 -46 -140 -46l-256 943h-241l258 -943h-314v-233zM145 1274h355v94h-166q-37 21 -37 76q0 31 19.5 54.5t50.5 23.5q48 0 57 -45l74 39q-44 90 -129 90q-67 0 -113.5 -47.5t-46.5 -118.5q0 -14 18 -72 h-82v-94z" />
<glyph unicode="&#xfedf;&#xfe88;" horiz-adv-x="1187" arabic-form="isolated" d="M145 0h613q165 0 262.5 87.5t97.5 234.5v999h-223v-846q0 -139 -57 -196q-46 -46 -140 -46l-256 943h-241l258 -943h-314v-233zM158 -326v-94h354v94h-166q-37 21 -37 78q0 32 20 56t50 24q48 0 57 -45l74 35q-43 94 -129 94q-66 0 -113 -49t-47 -121q0 -10 19 -72h-82z " />
<glyph unicode="&#xfee0;&#xfe88;" horiz-adv-x="1388" arabic-form="final" d="M145 0h1282v233h-317q8 39 8 89v999h-223v-846q0 -139 -57 -196q-46 -46 -140 -46l-256 943h-241l258 -943h-314v-233zM158 -326v-94h354v94h-166q-37 21 -37 78q0 32 20 56t50 24q48 0 57 -45l74 35q-43 94 -129 94q-66 0 -113 -49t-47 -121q0 -10 19 -72h-82z" />
<glyph unicode="&#xfedf;&#xfe8e;" horiz-adv-x="1187" arabic-form="isolated" d="M145 0h613q165 0 262.5 87.5t97.5 234.5v999h-223v-846q0 -139 -57 -196q-46 -46 -140 -46l-256 943h-241l258 -943h-314v-233z" />
<glyph unicode="&#xfee0;&#xfe8e;" horiz-adv-x="1388" arabic-form="final" d="M145 0h1285v233h-320q8 39 8 89v999h-223v-846q0 -139 -57 -196q-46 -46 -140 -46l-256 943h-241l258 -943h-314v-233z" />
<glyph unicode="&#x671;" horiz-adv-x="438" arabic-form="isolated" d="M-2 1436h481q0 248 -147 266h-15q-36 0 -86 -29q-74 -48 -127 -166v121l-49 2v-131h-57v-63zM143 1497q88 137 176 137q89 -3 89 -131v-8zM145 0h228v1323h-228v-1323z" />
<glyph unicode="&#x671;" horiz-adv-x="708" arabic-form="final" d="M-2 1436h481q0 248 -147 266h-15q-36 0 -86 -29q-74 -48 -127 -166v121l-49 2v-131h-57v-63zM143 1497q88 137 176 137q89 -3 89 -131v-8zM145 373q0 -169 82 -267q87 -106 254 -106h269v233h-136q-129 0 -176 35q-65 47 -65 197v856h-228v-948z" />
<glyph unicode="&#x67e;" horiz-adv-x="2088" arabic-form="final" d="M66 580q0 -580 651 -580h1397v233h-388q52 58 52 238v459h-230v-471q0 -109 -24 -156q-34 -70 -138 -70h-696q-186 0 -280 66q-117 80 -117 281v350h-227v-350zM690 -135v-230h223v230h-223zM887 -459v-229h225v229h-225zM1077 -135v-230h226v230h-226z" />
<glyph unicode="&#x67e;" horiz-adv-x="616" arabic-form="initial" d="M-74 -135v-230h226v230h-226zM-16 0h221q344 0 344 371v559h-230v-481q0 -111 -16 -148q-35 -68 -145 -68h-174v-233zM125 -459v-229h225v229h-225zM315 -135v-230h226v230h-226z" />
<glyph unicode="&#x67e;" horiz-adv-x="882" arabic-form="medial" d="M-43 -135v-230h225v230h-225zM-33 0h946v233h-393q49 58 49 238v459h-227v-471q0 -108 -25 -156q-37 -70 -137 -70h-213v-233zM156 -459v-229h223v229h-223zM346 -135v-230h223v230h-223z" />
<glyph unicode="&#x6a4;" horiz-adv-x="2195" arabic-form="final" d="M66 580q0 -580 651 -580h381q292 0 454 113q155 -113 457 -113h229v233h-217q-152 0 -190 23q93 73 149 193q50 106 50 217q0 74 -27 133q-66 147 -176 227q-119 88 -275 88q-154 0 -273.5 -84t-176.5 -231q-25 -64 -25 -142q0 -112 49 -213q52 -114 148 -188 q-38 -23 -191 -23h-393q-186 0 -280 66q-117 80 -117 281v309h-227v-309zM1237 1274h225v229h-225v-229zM1292 678q0 108 64 178q72 78 196 78q125 0 197 -78q66 -72 66 -178q0 -167 -136 -262q-43 -33 -127 -76q-63 31 -125 76q-135 99 -135 262zM1436 1599h223v228h-223 v-228zM1626 1274h225v229h-225v-229z" />
<glyph unicode="&#x6a4;" horiz-adv-x="1226" arabic-form="initial" d="M-27 0h729q204 0 331.5 133.5t127.5 337.5t-129 341.5t-330 137.5q-204 0 -333 -132t-129 -341q0 -132 59 -244h-326v-233zM399 1118h224v228h-224v-228zM475 479q0 119 60 190.5t159 71.5q102 0 167 -76t65 -194q0 -115 -60 -187.5t-159 -72.5q-101 0 -166.5 78 t-65.5 190zM594 1440h225v229h-225v-229zM786 1118h224v228h-224v-228z" />
<glyph unicode="&#x6a4;" horiz-adv-x="1314" arabic-form="medial" d="M-35 0h252q295 0 453 113q162 -113 456 -113h228v233h-213q-153 0 -191 23q99 77 150 193q49 104 49 217q0 105 -42 192t-110.5 141.5t-152.5 84.5t-172 30q-155 0 -274.5 -84t-176.5 -231q-24 -61 -24 -142q0 -110 47 -213q53 -115 151 -188q-41 -23 -190 -23h-240v-233 zM360 1274h226v229h-226v-229zM410 678q0 107 65 178q72 78 197 78q124 0 196 -78q64 -70 64 -178q0 -168 -135 -262q-40 -31 -125 -76q-69 34 -127 76q-135 99 -135 262zM557 1599h225v228h-225v-228zM748 1274h225v229h-225v-229z" />
<glyph unicode="&#x686;" horiz-adv-x="1411" arabic-form="final" d="M66 168q0 -254 170 -389q150 -117 405 -117h164v240h-248q-109 0 -186 71q-76 70 -76 185q0 128 72 204t190 76h277q27 -151 157 -278q168 -160 402 -160h53v233h-53q-110 0 -195 70q-124 97 -151 322q-35 293 -181 431t-409 138q-92 0 -176 -35v-196q58 32 159 32 q153 0 241.5 -76.5t117.5 -244.5h-252q-215 0 -340 -119q-141 -132 -141 -387zM397 186h160v164h-160v-164zM537 -43h159v162h-159v-162zM672 186h162v164h-162v-164z" />
<glyph unicode="&#x686;" horiz-adv-x="1464" arabic-form="initial" d="M-43 0h1442v143q0 481 -291 674q-165 113 -393 113q-137 0 -271 -58q-121 -53 -219 -145q81 -124 111 -180q74 83 184 129q91 39 172 39q226 0 352 -156q107 -134 107 -326h-1194v-233zM408 -135v-230h225v230h-225zM604 -459v-229h225v229h-225zM795 -135v-230h225v230 h-225z" />
<glyph unicode="&#x686;" horiz-adv-x="1585" arabic-form="medial" d="M-33 0h1645v233h-217q-27 424 -308 598q-159 99 -372 99q-137 0 -271 -58q-121 -53 -219 -145q81 -124 111 -180q74 83 184 129q91 39 172 39q226 0 352 -156q107 -134 107 -326h-1184v-233zM442 -135v-230h224v230h-224zM641 -459v-229h223v229h-223zM831 -135v-230h224 v230h-224z" />
<glyph unicode="&#x698;" horiz-adv-x="907" arabic-form="final" d="M-14 1118h225v230h-225v-230zM86 -143v-197q211 0 342.5 88.5t157.5 251.5h366v233h-352v697h-229v-783q0 -147 -71 -218.5t-214 -71.5zM182 1444h226v227h-226v-227zM373 1118h225v230h-225v-230z" />
<glyph unicode="&#x6cc;" horiz-adv-x="630" arabic-form="initial" d="M-53 -219v-230h225v230h-225zM-18 0h241q342 0 342 371v559h-229v-481q0 -105 -17 -148q-35 -68 -145 -68h-192v-233zM334 -219v-230h225v230h-225z" />
<glyph unicode="&#x6cc;" horiz-adv-x="884" arabic-form="medial" d="M-47 -219v-230h225v230h-225zM-33 0h946v233h-393q49 58 49 238v459h-227v-471q0 -108 -25 -156q-37 -70 -137 -70h-213v-233zM340 -219v-230h225v230h-225z" />
<glyph unicode="&#x622;" horiz-adv-x="708" arabic-form="final" d="M27 1528l18 -70q40 55 86 55q51 0 119 -51t102 -51q55 0 111 86l-19 72q-46 -58 -94 -58q-32 0 -108 52q-74 51 -111 51q-54 0 -104 -86zM145 373q0 -169 82 -267q87 -106 254 -106h269v233h-136q-129 0 -176 35q-65 47 -65 197v856h-228v-948z" />
<glyph unicode="&#x623;" horiz-adv-x="708" arabic-form="final" d="M76 1427h354v95h-166q-37 21 -37 75q0 31 19.5 54.5t50.5 23.5q48 0 57 -45l74 39q-44 90 -129 90q-67 0 -113.5 -47.5t-46.5 -118.5q0 -9 19 -71h-82v-95zM145 373q0 -169 82 -267q87 -106 254 -106h269v233h-136q-129 0 -176 35q-65 47 -65 197v856h-228v-948z" />
<glyph unicode="&#x624;" horiz-adv-x="1271" arabic-form="final" d="M127 477q0 -201 130.5 -339t317.5 -138h220q-48 -158 -228 -158v-180q400 0 447 338h278v233h-280v238q0 201 -119.5 331t-306.5 130q-197 0 -328 -127.5t-131 -327.5zM315 1047h455v129h-197q-36 14 -36 71q0 78 59 78q39 0 57 -53l115 53q-53 121 -172 121 q-82 0 -137.5 -58.5t-55.5 -144.5q0 -21 11 -67h-99v-129zM360 489q0 103 60.5 167.5t161.5 64.5q87 0 139 -56.5t61 -150.5v-281h-202q-92 0 -156 75t-64 181z" />
<glyph unicode="&#x625;" horiz-adv-x="708" arabic-form="final" d="M145 373q0 -169 82 -267q87 -106 254 -106h269v233h-136q-129 0 -176 35q-65 47 -65 197v856h-228v-948zM158 -326v-94h354v94h-166q-37 21 -37 78q0 32 20 56t50 24q48 0 57 -45l74 35q-43 94 -129 94q-66 0 -113 -49t-47 -121q0 -10 19 -72h-82z" />
<glyph unicode="&#x626;" horiz-adv-x="1835" arabic-form="final" d="M66 371q0 -198 93.5 -361.5t255 -256.5t355.5 -93q253 0 439 141.5t235 378.5q49 -74 96 -110.5t120.5 -53t201.5 -16.5v233h-86q-88 0 -153 49t-128 164q-136 244 -405 244h-91v-209q12 2 37 2q97 0 152 -60t55 -157q0 -159 -135 -272t-332 -113q-222 0 -351.5 139 t-129.5 377v203h-229v-229zM68 731h507v137h-258q-28 36 -28 90q0 119 92 119q65 0 86 -65l96 65q-53 121 -188 121q-96 0 -156.5 -65.5t-60.5 -163.5q0 -55 18 -101h-108v-137z" />
<glyph unicode="&#x626;" horiz-adv-x="618" arabic-form="initial" d="M-16 0h221q344 0 344 371v442h-230v-364q0 -108 -16 -148q-35 -68 -145 -68h-174v-233zM39 932h510v137h-258q-29 37 -29 90q0 117 92 117q65 0 86 -64l97 64q-52 125 -187 125q-96 0 -158.5 -66t-62.5 -164q0 -55 21 -102h-111v-137z" />
<glyph unicode="&#x626;" horiz-adv-x="882" arabic-form="medial" d="M-33 0h946v233h-393q49 58 49 238v342h-227v-354q0 -108 -25 -156q-37 -70 -137 -70h-213v-233zM61 932h508l2 137h-258q-30 35 -30 90q0 115 92 115q67 0 88 -62l96 64q-53 123 -188 123q-96 0 -157.5 -66t-61.5 -164q0 -53 18 -100h-109v-137z" />
<glyph unicode="&#x627;" horiz-adv-x="708" arabic-form="final" d="M145 373q0 -169 82 -267q87 -106 254 -106h269v233h-136q-129 0 -176 35q-65 47 -65 197v856h-228v-948z" />
<glyph unicode="&#x628;" horiz-adv-x="2088" arabic-form="final" d="M66 580q0 -580 651 -580h1397v233h-388q52 58 52 238v459h-230v-471q0 -109 -24 -156q-34 -70 -138 -70h-696q-186 0 -280 66q-117 80 -117 281v350h-227v-350zM885 -219v-230h225v230h-225z" />
<glyph unicode="&#x628;" horiz-adv-x="616" arabic-form="initial" d="M-16 0h221q342 0 342 371v559h-228v-481q0 -108 -16 -148q-35 -68 -145 -68h-174v-233zM322 -219v-230h223v230h-223z" />
<glyph unicode="&#x628;" horiz-adv-x="882" arabic-form="medial" d="M-33 0h946v233h-393q49 58 49 238v459h-227v-471q0 -108 -25 -156q-37 -70 -137 -70h-213v-233zM342 -221v-230h225v230h-225z" />
<glyph unicode="&#x629;" horiz-adv-x="1343" arabic-form="final" d="M66 631q0 -216 114.5 -348.5t308.5 -132.5q155 0 263 153q35 -137 136 -220t234 -83h248v233h-145q-230 0 -230 246v649h-506q-196 0 -309.5 -133.5t-113.5 -363.5zM293 633q0 144 69.5 230.5t188.5 86.5h207v-297q0 -134 -65 -223.5t-175 -89.5q-100 0 -162.5 85.5 t-62.5 207.5zM365 1294h225v230h-225v-230zM752 1294h225v230h-225v-230z" />
<glyph unicode="&#x62a;" horiz-adv-x="2088" arabic-form="final" d="M66 580q0 -580 651 -580h1397v233h-388q52 58 52 238v459h-230v-471q0 -109 -24 -156q-34 -70 -138 -70h-696q-186 0 -280 66q-117 80 -117 281v350h-227v-350zM618 932h226v227h-226v-227zM1008 932h225v227h-225v-227z" />
<glyph unicode="&#x62a;" horiz-adv-x="630" arabic-form="initial" d="M-53 1118h225v228h-225v-228zM-18 0h241q342 0 342 371v559h-229v-481q0 -105 -17 -148q-35 -68 -145 -68h-192v-233zM334 1118h225v228h-225v-228z" />
<glyph unicode="&#x62a;" horiz-adv-x="882" arabic-form="medial" d="M-45 1120h225v228h-225v-228zM-33 0h946v233h-393q49 58 49 238v459h-227v-471q0 -108 -25 -156q-37 -70 -137 -70h-213v-233zM344 1120h225v228h-225v-228z" />
<glyph unicode="&#x62b;" horiz-adv-x="2088" arabic-form="final" d="M66 580q0 -580 651 -580h1401v233h-392q52 58 52 238v459h-230v-471q0 -109 -24 -156q-34 -70 -138 -70h-696q-186 0 -280 66q-117 80 -117 281v350h-227v-350zM612 932h224v227h-224v-227zM811 1253h223v230h-223v-230zM1001 932h224v227h-224v-227z" />
<glyph unicode="&#x62b;" horiz-adv-x="630" arabic-form="initial" d="M-27 0h250q342 0 342 371v559h-229v-481q0 -109 -17 -148q-35 -68 -145 -68h-201v-233zM-16 1118h221v203h-221v-203zM158 1413h221v203h-221v-203zM338 1118h221v203h-221v-203z" />
<glyph unicode="&#x62b;" horiz-adv-x="882" arabic-form="medial" d="M-47 1118h225v228h-225v-228zM-33 0h946v233h-393q49 58 49 238v459h-227v-471q0 -108 -25 -156q-37 -70 -137 -70h-213v-233zM152 1440h223v229h-223v-229zM342 1118h225v228h-225v-228z" />
<glyph unicode="&#x62c;" horiz-adv-x="1411" arabic-form="final" d="M66 168q0 -254 170 -389q150 -117 405 -117h164v240h-248q-109 0 -186 71q-76 70 -76 185q0 128 72 204t190 76h277q27 -151 157 -278q168 -160 402 -160h53v233h-53q-110 0 -195 70q-124 97 -151 322q-35 293 -181 431t-409 138q-92 0 -176 -35v-196q58 32 159 32 q153 0 241.5 -76.5t117.5 -244.5h-252q-215 0 -340 -119q-141 -132 -141 -387zM520 55h225v228h-225v-228z" />
<glyph unicode="&#x62c;" horiz-adv-x="1464" arabic-form="initial" d="M-43 0h1442v143q0 481 -291 674q-165 113 -393 113q-137 0 -271 -58q-121 -53 -219 -145q81 -124 111 -180q74 83 184 129q91 39 172 39q226 0 352 -156q107 -134 107 -326h-1194v-233zM598 -221v-230h225v230h-225z" />
<glyph unicode="&#x62c;" horiz-adv-x="1585" arabic-form="medial" d="M-33 0h1645v233h-217q-27 424 -308 598q-159 99 -372 99q-137 0 -271 -58q-121 -53 -219 -145q81 -124 111 -180q74 83 184 129q91 39 172 39q226 0 352 -156q107 -134 107 -326h-1184v-233zM598 -219v-230h225v230h-225z" />
<glyph unicode="&#x62d;" horiz-adv-x="1411" arabic-form="final" d="M66 168q0 -254 170 -389q150 -117 405 -117h164v240h-248q-109 0 -186 71q-76 70 -76 185q0 128 72 204t190 76h277q27 -151 157 -278q168 -160 402 -160h53v233h-53q-110 0 -195 70q-124 97 -151 322q-35 293 -181 431t-409 138q-92 0 -176 -35v-196q58 32 159 32 q153 0 241.5 -76.5t117.5 -244.5h-252q-215 0 -340 -119q-141 -132 -141 -387z" />
<glyph unicode="&#x62d;" horiz-adv-x="1464" arabic-form="initial" d="M-43 0h1442v143q0 481 -291 674q-165 113 -393 113q-137 0 -271 -58q-121 -53 -219 -145q81 -124 111 -180q74 83 184 129q91 39 172 39q226 0 352 -156q107 -134 107 -326h-1194v-233z" />
<glyph unicode="&#x62d;" horiz-adv-x="1585" arabic-form="medial" d="M-33 0h1645v233h-217q-27 424 -308 598q-159 99 -372 99q-137 0 -271 -58q-121 -53 -219 -145q81 -124 111 -180q74 83 184 129q91 39 172 39q226 0 352 -156q107 -134 107 -326h-1184v-233z" />
<glyph unicode="&#x62e;" horiz-adv-x="1411" arabic-form="final" d="M66 168q0 -254 170 -389q150 -117 405 -117h164v240h-248q-109 0 -186 71q-76 70 -76 185q0 128 72 204t190 76h277q27 -151 157 -278q168 -160 402 -160h53v233h-53q-110 0 -195 70q-124 97 -151 322q-35 293 -181 431t-409 138q-92 0 -176 -35v-196q58 32 159 32 q153 0 241.5 -76.5t117.5 -244.5h-252q-215 0 -340 -119q-141 -132 -141 -387zM399 1321h224v229h-224v-229z" />
<glyph unicode="&#x62e;" horiz-adv-x="1464" arabic-form="initial" d="M-43 0h1442v143q0 481 -291 674q-165 113 -393 113q-137 0 -271 -58q-121 -53 -219 -145q81 -124 111 -180q74 83 184 129q91 39 172 39q226 0 352 -156q107 -134 107 -326h-1194v-233zM598 1122h225v228h-225v-228z" />
<glyph unicode="&#x62e;" horiz-adv-x="1585" arabic-form="medial" d="M-33 0h1645v233h-217q-27 424 -308 598q-159 99 -372 99q-137 0 -271 -58q-121 -53 -219 -145q81 -124 111 -180q74 83 184 129q91 39 172 39q226 0 352 -156q107 -134 107 -326h-1184v-233zM598 1122h225v228h-225v-228z" />
<glyph unicode="&#x62f;" horiz-adv-x="1390" arabic-form="final" d="M127 0h1329v233h-356q-3 526 -414 664q-76 26 -123 29q-58 4 -213 4v-209q122 0 207 -19q311 -68 311 -469h-741v-233z" />
<glyph unicode="&#x630;" horiz-adv-x="1390" arabic-form="final" d="M127 0h1329v233h-356q-3 526 -414 664q-76 26 -123 29q-58 4 -213 4v-209q122 0 207 -19q311 -68 311 -469h-741v-233zM457 1122h223v228h-223v-228z" />
<glyph unicode="&#x631;" horiz-adv-x="907" arabic-form="final" d="M86 -143v-197q211 0 342.5 88.5t157.5 251.5h366v233h-352v697h-229v-783q0 -147 -71 -218.5t-214 -71.5z" />
<glyph unicode="&#x632;" horiz-adv-x="907" arabic-form="final" d="M86 -143v-197q211 0 342.5 88.5t157.5 251.5h366v233h-352v697h-229v-783q0 -147 -71 -218.5t-214 -71.5zM373 1118h225v228h-225v-228z" />
<glyph unicode="&#x633;" horiz-adv-x="2807" arabic-form="final" d="M66 360q0 -296 194 -499q189 -201 455 -201q268 0 456 209q55 58 97 131h1554v233h-350q51 108 51 254v443h-231v-471q0 -226 -174 -226h-224q48 51 48 250v447h-232v-469q0 -228 -174 -228h-186q10 68 10 127v570h-232v-543q0 -203 -100 -344q-120 -164 -313 -164 q-196 0 -316 164q-102 144 -102 344v543h-231v-570z" />
<glyph unicode="&#x633;" horiz-adv-x="1787" arabic-form="initial" d="M-27 0h1340q176 0 286.5 133.5t110.5 353.5v443h-231v-471q0 -226 -174 -226h-224q47 50 47 250v447h-231v-469q0 -228 -174 -228h-213v13q37 58 37 237v447h-232v-455q0 -242 -174 -242h-168v-233z" />
<glyph unicode="&#x633;" horiz-adv-x="1998" arabic-form="medial" d="M-45 0h2077v233h-351q52 110 52 254v443h-232v-471q0 -226 -174 -226h-223q47 50 47 250v447h-231v-469q0 -228 -175 -228h-213v13q37 58 37 237v447h-231v-455q0 -242 -174 -242h-209v-233z" />
<glyph unicode="&#x634;" horiz-adv-x="2807" arabic-form="final" d="M66 360q0 -296 194 -499q189 -201 455 -201q268 0 456 209q55 58 97 131h1554v233h-350q51 108 51 254v443h-231v-471q0 -226 -174 -226h-224q48 51 48 250v447h-232v-469q0 -228 -174 -228h-186q10 68 10 127v570h-232v-543q0 -203 -100 -344q-120 -164 -313 -164 q-196 0 -316 164q-102 144 -102 344v543h-231v-570zM1518 1118h223v228h-223v-228zM1712 1440h225v229h-225v-229zM1905 1118h223v228h-223v-228z" />
<glyph unicode="&#x634;" horiz-adv-x="1787" arabic-form="initial" d="M-27 0h1340q176 0 286.5 133.5t110.5 353.5v443h-231v-471q0 -226 -174 -226h-224q47 50 47 250v447h-231v-469q0 -228 -174 -228h-213v13q37 58 37 237v447h-232v-455q0 -242 -174 -242h-168v-233zM705 1118h223v228h-223v-228zM899 1440h225v229h-225v-229zM1092 1118 h223v228h-223v-228z" />
<glyph unicode="&#x634;" horiz-adv-x="1998" arabic-form="medial" d="M-45 0h2077v233h-351q52 110 52 254v443h-232v-471q0 -226 -174 -226h-223q47 50 47 250v447h-231v-469q0 -228 -175 -228h-213v13q37 58 37 237v447h-231v-455q0 -242 -174 -242h-209v-233zM727 1118h223v228h-223v-228zM922 1440h225v229h-225v-229zM1114 1118h223v228 h-223v-228z" />
<glyph unicode="&#x635;" horiz-adv-x="2740" arabic-form="final" d="M66 360q0 -189 87.5 -350.5t237 -255.5t324.5 -94q171 0 315.5 87.5t237.5 252.5h1487v233h-242q-9 701 -528 701q-165 0 -328.5 -99.5t-296.5 -283.5v379h-232v-543q0 -218 -116.5 -363t-296.5 -145q-120 0 -216 67t-149 183t-53 258v543h-231v-570zM1362 233 q97 215 264 355.5t336 140.5q105 0 177 -68t104 -177t32 -251h-913z" />
<glyph unicode="&#x635;" horiz-adv-x="1779" arabic-form="initial" d="M-27 0h1715q10 127 10 213q0 721 -529 721q-165 0 -328 -99.5t-296 -283.5v280h-230v-356q0 -242 -174 -242h-168v-233zM547 233q97 215 264 355.5t336 140.5q146 0 231.5 -116t85.5 -314l-4 -66h-913z" />
<glyph unicode="&#x635;" horiz-adv-x="1923" arabic-form="medial" d="M-88 0h2032v233h-242q-9 701 -528 701q-166 0 -329.5 -100.5t-299.5 -286.5v284h-230v-356q0 -242 -174 -242h-229v-233zM551 233q97 215 264 355.5t336 140.5q146 0 231.5 -116t85.5 -314l-4 -66h-913z" />
<glyph unicode="&#x636;" horiz-adv-x="2740" arabic-form="final" d="M66 360q0 -189 87.5 -350.5t237 -255.5t324.5 -94q171 0 315.5 87.5t237.5 252.5h1487v233h-242q-9 701 -528 701q-165 0 -328.5 -99.5t-296.5 -283.5v379h-232v-543q0 -218 -116.5 -363t-296.5 -145q-120 0 -216 67t-149 183t-53 258v543h-231v-570zM1362 233 q97 215 264 355.5t336 140.5q105 0 177 -68t104 -177t32 -251h-913zM1843 1118h225v228h-225v-228z" />
<glyph unicode="&#x636;" horiz-adv-x="1779" arabic-form="initial" d="M-27 0h1715q10 127 10 213q0 721 -529 721q-165 0 -328 -99.5t-296 -283.5v280h-230v-356q0 -242 -174 -242h-168v-233zM547 233q97 215 264 355.5t336 140.5q146 0 231.5 -116t85.5 -314l-4 -66h-913zM1028 1118h225v228h-225v-228z" />
<glyph unicode="&#x636;" horiz-adv-x="1923" arabic-form="medial" d="M-88 0h2032v233h-242q-9 701 -528 701q-166 0 -329.5 -100.5t-299.5 -286.5v284h-230v-356q0 -242 -174 -242h-229v-233zM551 233q97 215 264 355.5t336 140.5q146 0 231.5 -116t85.5 -314l-4 -66h-913zM1032 1118h225v228h-225v-228z" />
<glyph unicode="&#x637;" horiz-adv-x="1794" arabic-form="final" d="M66 0h1751v233h-232q-6 701 -526 701q-331 0 -604 -354l26 741h-227v-1088h-188v-233zM436 233q97 215 264 355.5t336 140.5q147 0 232.5 -117t85.5 -313l-4 -66h-914z" />
<glyph unicode="&#x637;" horiz-adv-x="1740" arabic-form="initial" d="M-33 0h1698q10 127 10 213q0 721 -530 721q-327 0 -600 -354l24 741h-225v-1088h-377v-233zM522 233q106 222 269 359t333 137q148 0 232 -116.5t84 -313.5v-66h-918z" />
<glyph unicode="&#x637;" horiz-adv-x="1914" arabic-form="medial" d="M-23 0h1960v233h-231q-9 701 -530 701q-329 0 -605 -354l29 741h-225v-1088h-398v-233zM553 233q101 219 267 357.5t335 138.5q147 0 231 -116t84 -314q0 -43 -2 -66h-915z" />
<glyph unicode="&#x638;" horiz-adv-x="1794" arabic-form="final" d="M66 0h1751v233h-232q-6 701 -526 701q-331 0 -604 -354l26 741h-227v-1088h-188v-233zM436 233q97 215 264 355.5t336 140.5q147 0 232.5 -117t85.5 -313q0 -13 -4 -59v-7h-914zM899 1118h225v228h-225v-228z" />
<glyph unicode="&#x638;" horiz-adv-x="1740" arabic-form="initial" d="M-33 0h1698q10 127 10 213q0 721 -530 721q-327 0 -600 -354l24 741h-225v-1088h-377v-233zM522 233q106 222 269 359t333 137q148 0 232 -116.5t84 -313.5v-66h-918zM985 1118h225v228h-225v-228z" />
<glyph unicode="&#x638;" horiz-adv-x="1914" arabic-form="medial" d="M-43 0h2001v233h-252q-9 701 -530 701q-329 0 -605 -354l29 741h-225v-1088h-418v-233zM553 233q101 219 267 357.5t335 138.5q147 0 231 -116t84 -314q0 -43 -2 -66h-915zM1028 1118h223v228h-223v-228z" />
<glyph unicode="&#x639;" horiz-adv-x="1523" arabic-form="final" d="M66 150q0 -229 150 -359.5t405 -130.5h350v227h-367q-148 0 -233.5 68t-85.5 188q0 269 319 269h334q46 -172 205 -292t350 -120h53v233h-55q-138 0 -230.5 108t-115.5 296h-187q-48 0 -114.5 1t-85.5 1h-31q-57 20 -99 95t-42 157q0 107 56.5 174.5t150.5 67.5 q115 0 168 -111l172 82q-105 217 -336 217q-182 0 -302 -122t-120 -312q0 -149 76 -256q-175 -29 -280 -160t-105 -321z" />
<glyph unicode="&#x639;" horiz-adv-x="1179" arabic-form="initial" d="M-20 0h1134v233h-577q-74 83 -74 220q0 119 55 198q63 90 174 90q162 0 215 -157l197 94q-51 124 -158.5 194t-243.5 70q-209 0 -340 -143t-131 -350q0 -117 45 -216h-296v-233z" />
<glyph unicode="&#x639;" horiz-adv-x="1482" arabic-form="medial" d="M-35 0h344q228 0 453 147q52 -58 131 -98q94 -49 182 -49h436v233h-385q-65 0 -90 5q-40 9 -82 51q110 76 236 229q118 146 145 227q-248 213 -583 213q-292 0 -555 -167v-218q114 -27 241 -110q126 -80 174 -152q-70 -47 -147 -63q-59 -15 -160 -15h-340v-233zM442 676 q159 84 316 84q160 0 297 -82q-41 -61 -115 -135q-85 -82 -149 -113q-152 177 -349 246z" />
<glyph unicode="&#x63a;" horiz-adv-x="1523" arabic-form="final" d="M66 150q0 -229 150 -359.5t405 -130.5h350v227h-367q-148 0 -233.5 68t-85.5 188q0 269 319 269h334q46 -172 205 -292t350 -120h53v233h-55q-138 0 -230.5 108t-115.5 296h-187q-48 0 -114.5 1t-85.5 1h-31q-57 20 -99 95t-42 157q0 107 56.5 174.5t150.5 67.5 q115 0 168 -111l172 82q-105 217 -336 217q-182 0 -302 -122t-120 -312q0 -149 76 -256q-175 -29 -280 -160t-105 -321zM684 1479h223v227h-223v-227z" />
<glyph unicode="&#x63a;" horiz-adv-x="1179" arabic-form="initial" d="M-20 0h1134v233h-577q-74 83 -74 220q0 119 55 198q63 90 174 90q162 0 215 -157l197 94q-51 124 -158.5 194t-243.5 70q-209 0 -340 -143t-131 -350q0 -117 45 -216h-296v-233zM584 1122h225v228h-225v-228z" />
<glyph unicode="&#x63a;" horiz-adv-x="1482" arabic-form="medial" d="M-35 0h344q228 0 453 147q52 -58 131 -98q94 -49 182 -49h430v233h-379q-65 0 -90 5q-40 9 -82 51q110 76 236 229q118 146 145 227q-248 213 -583 213q-292 0 -555 -167v-218q114 -27 241 -110q126 -80 174 -152q-70 -47 -147 -63q-59 -15 -160 -15h-340v-233zM442 676 q159 84 316 84q160 0 297 -82q-41 -61 -115 -135q-85 -82 -149 -113q-152 177 -349 246zM641 1122h225v228h-225v-228z" />
<glyph unicode="&#x641;" horiz-adv-x="2195" arabic-form="final" d="M66 580q0 -580 651 -580h381q292 0 454 113q155 -113 457 -113h229v233h-217q-152 0 -190 23q93 73 149 193q50 106 50 217q0 74 -27 133q-66 147 -176 227q-119 88 -275 88q-154 0 -273.5 -84t-176.5 -231q-25 -64 -25 -142q0 -112 49 -213q52 -114 148 -188 q-38 -23 -191 -23h-393q-186 0 -280 66q-117 80 -117 281v309h-227v-309zM1292 678q0 108 64 178q72 78 196 78q125 0 197 -78q66 -72 66 -178q0 -167 -136 -262q-43 -33 -127 -76q-63 31 -125 76q-135 99 -135 262zM1436 1274h223v229h-223v-229z" />
<glyph unicode="&#x641;" horiz-adv-x="1226" arabic-form="initial" d="M-27 0h729q204 0 331.5 133.5t127.5 337.5t-129 341.5t-330 137.5q-204 0 -333 -132t-129 -341q0 -132 59 -244h-326v-233zM475 479q0 119 60 190.5t159 71.5q102 0 167 -76t65 -194q0 -115 -60 -187.5t-159 -72.5q-101 0 -166.5 78t-65.5 190zM590 1122h223v228h-223 v-228z" />
<glyph unicode="&#x641;" horiz-adv-x="1314" arabic-form="medial" d="M-35 0h252q295 0 453 113q162 -113 456 -113h228v233h-213q-153 0 -191 23q99 77 150 193q49 104 49 217q0 105 -42 192t-110.5 141.5t-152.5 84.5t-172 30q-155 0 -274.5 -84t-176.5 -231q-24 -61 -24 -142q0 -110 47 -213q53 -115 151 -188q-41 -23 -190 -23h-240v-233 zM410 678q0 107 65 178q72 78 197 78q124 0 196 -78q64 -70 64 -178q0 -168 -135 -262q-40 -31 -125 -76q-69 34 -127 76q-135 99 -135 262zM547 1274h225v229h-225v-229z" />
<glyph unicode="&#x642;" horiz-adv-x="1656" arabic-form="final" d="M66 332q0 -187 89 -341t247 -242.5t352 -88.5q437 0 612 340h326v233h-262v330q0 432 -426 432q-208 0 -322.5 -129.5t-114.5 -345.5q0 -244 147.5 -382t409.5 -138q-136 -133 -376 -133q-212 0 -338.5 133t-126.5 356v357h-217v-381zM696 1118h226v228h-226v-228z M801 522q0 143 52 222t151 79q213 0 213 -309v-281h-93q-157 0 -240 73t-83 216zM1085 1118h226v228h-226v-228z" />
<glyph unicode="&#x642;" horiz-adv-x="1226" arabic-form="initial" d="M-27 0h729q204 0 331.5 133.5t127.5 337.5t-129 341.5t-330 137.5q-204 0 -333 -132t-129 -341q0 -132 59 -244h-326v-233zM395 1124h223v228h-223v-228zM475 479q0 119 60 190.5t159 71.5q102 0 167 -76t65 -194q0 -115 -60 -187.5t-159 -72.5q-101 0 -166.5 78 t-65.5 190zM784 1124h224v228h-224v-228z" />
<glyph unicode="&#x642;" horiz-adv-x="1314" arabic-form="medial" d="M-35 0h252q295 0 453 113q162 -113 456 -113h228v233h-213q-153 0 -191 23q99 77 150 193q49 104 49 217q0 105 -42 192t-110.5 141.5t-152.5 84.5t-172 30q-155 0 -274.5 -84t-176.5 -231q-24 -61 -24 -142q0 -110 47 -213q53 -115 151 -188q-41 -23 -190 -23h-240v-233 zM360 1274h226v229h-226v-229zM410 678q0 107 65 178q72 78 197 78q124 0 196 -78q64 -70 64 -178q0 -168 -135 -262q-40 -31 -125 -76q-69 34 -127 76q-135 99 -135 262zM750 1274h225v229h-225v-229z" />
<glyph unicode="&#x643;" horiz-adv-x="2088" arabic-form="final" d="M66 580q0 -580 651 -580h1417v233h-408q52 58 52 238v850h-230v-862q0 -109 -24 -156q-34 -70 -138 -70h-696q-186 0 -280 66q-117 80 -117 281v350h-227v-350zM676 797h510v137h-258q-29 37 -29 92q0 117 92 117q65 0 86 -66l97 66q-52 123 -189 123q-96 0 -158.5 -67 t-62.5 -165q0 -51 22 -100h-110v-137z" />
<glyph unicode="&#x643;" horiz-adv-x="1400" arabic-form="initial" d="M-35 0h1370v143q0 481 -291 674q-165 113 -393 113h-100l276 391h-272l-403 -606h473q225 0 354 -156q111 -135 111 -326h-1125v-233z" />
<glyph unicode="&#x643;" horiz-adv-x="1550" arabic-form="medial" d="M-35 0h1614v233h-246q-27 425 -307 598q-164 99 -375 99h-100l276 391h-272l-403 -606h473q225 0 354 -156q111 -135 111 -326h-1125v-233z" />
<glyph unicode="&#x644;" horiz-adv-x="1636" arabic-form="final" d="M66 360q0 -189 87.5 -350.5t237 -255.5t324.5 -94q170 0 318 90.5t235 249.5h426v233h-346q12 64 12 127v961h-232v-934q0 -218 -116.5 -363t-296.5 -145q-122 0 -218.5 68t-148 183.5t-51.5 256.5v174h-231v-201z" />
<glyph unicode="&#x644;" horiz-adv-x="614" arabic-form="initial" d="M-37 0h242q344 0 344 371v950h-230v-872q0 -108 -16 -148q-35 -68 -145 -68h-195v-233z" />
<glyph unicode="&#x644;" horiz-adv-x="882" arabic-form="medial" d="M-33 0h938v233h-385q49 58 49 238v850h-227v-862q0 -108 -25 -156q-37 -70 -137 -70h-213v-233z" />
<glyph unicode="&#x645;" horiz-adv-x="1955" arabic-form="final" d="M66 -340h229v680q0 166 68 262t184 96h168q-58 -104 -58 -239q0 -205 130.5 -342t332.5 -137q249 0 375 188q174 -168 408 -168h100v233h-102q-90 0 -149 33.5t-109 121t-97 249.5q-38 133 -155 214t-271 81h-573q-226 0 -353.5 -147.5t-127.5 -397.5v-727zM893 461 q0 115 60.5 188.5t158.5 73.5q104 0 167.5 -77.5t63.5 -194.5q0 -116 -61 -188.5t-156 -72.5q-102 0 -167.5 77.5t-65.5 193.5z" />
<glyph unicode="&#x645;" horiz-adv-x="1230" arabic-form="initial" d="M-35 0h369q132 -182 371 -182q202 0 330 133.5t128 339.5q0 204 -128.5 341.5t-329.5 137.5q-204 0 -333.5 -132.5t-129.5 -338.5q0 -19 4 -55l2 -11h-283v-233zM477 301q0 115 62 188.5t159 73.5q101 0 165.5 -77t64.5 -195q0 -116 -60.5 -188t-156.5 -72 q-102 0 -168 77t-66 193z" />
<glyph unicode="&#x645;" horiz-adv-x="1271" arabic-form="medial" d="M-37 0h313q132 -178 367 -178q239 0 371 178h293v233h-205v60q0 203 -127 342q-125 137 -332 137q-204 0 -334 -133q-127 -133 -127 -338q0 -45 2 -68h-221v-233zM418 303q0 109 53 180q61 82 166 82q108 0 174 -84q55 -76 55 -186q0 -111 -53 -182q-60 -78 -164 -78 q-103 0 -167 77.5t-64 190.5z" />
<glyph unicode="&#x646;" horiz-adv-x="1638" arabic-form="final" d="M66 360q0 -296 194 -499q189 -201 455 -201q174 0 323 94q144 88 230 246h413v233h-333q12 64 12 127v570h-232v-543q0 -203 -100 -344q-120 -164 -313 -164q-196 0 -316 164q-102 144 -102 344v543h-231v-570zM606 1118h225v228h-225v-228z" />
<glyph unicode="&#x646;" horiz-adv-x="616" arabic-form="initial" d="M-37 0h242q344 0 344 371v559h-230v-481q0 -108 -16 -148q-35 -68 -145 -68h-195v-233zM322 1118h223v228h-223v-228z" />
<glyph unicode="&#x646;" horiz-adv-x="882" arabic-form="medial" d="M-33 0h946v233h-393q49 58 49 238v459h-227v-471q0 -108 -25 -156q-37 -70 -137 -70h-213v-233zM344 1118h225v228h-225v-228z" />
<glyph unicode="&#x647;" horiz-adv-x="1343" arabic-form="final" d="M66 631q0 -216 114.5 -348.5t308.5 -132.5q155 0 263 153q35 -137 136 -220t234 -83h248v233h-145q-230 0 -230 246v651h-260q-18 -2 -246 -2q-196 0 -309.5 -133.5t-113.5 -363.5zM293 633q0 144 69.5 230.5t188.5 86.5h207v-297q0 -134 -65 -223.5t-175 -89.5 q-100 0 -162.5 85.5t-62.5 207.5z" />
<glyph unicode="&#x647;" horiz-adv-x="1538" arabic-form="initial" d="M-33 0h1483q20 117 20 244q0 386 -189.5 650.5t-516.5 330.5l-27 -219q146 -30 262.5 -134.5t181 -258t64.5 -324.5q0 -38 -2 -56h-270q53 127 53 213q0 183 -111.5 290.5t-293.5 107.5q-184 0 -295 -108.5t-111 -289.5q0 -86 53 -213h-301v-233zM432 446 q0 95 50.5 155.5t138.5 60.5t138 -60.5t50 -155.5t-52.5 -157t-135.5 -62t-136 62.5t-53 156.5z" />
<glyph unicode="&#x647;" horiz-adv-x="1615" arabic-form="medial" d="M-29 0h1667v233h-182q0 390 -188 657.5t-518 334.5l-29 -219q146 -30 262.5 -133t181 -254.5t64.5 -321.5q0 -41 -2 -64h-271q54 130 54 213q0 183 -111 290.5t-293 107.5t-293.5 -107.5t-111.5 -290.5q0 -86 53 -213h-283v-233zM418 446q0 95 50 155.5t138 60.5 q85 0 137 -59.5t52 -156.5q0 -93 -54 -156t-135 -63q-83 0 -135.5 62t-52.5 157z" />
<glyph unicode="&#x648;" horiz-adv-x="1271" arabic-form="final" d="M127 477q0 -201 130.5 -339t317.5 -138h220q-48 -158 -228 -158v-180q400 0 447 338h278v233h-280v238q0 201 -119.5 331t-306.5 130q-197 0 -328 -127.5t-131 -327.5zM360 489q0 103 60.5 167.5t161.5 64.5q87 0 139 -56.5t61 -150.5v-281h-202q-92 0 -156 75t-64 181z " />
<glyph unicode="&#x649;" horiz-adv-x="1835" arabic-form="final" d="M66 371q0 -198 93.5 -361.5t255 -256.5t355.5 -93q253 0 439 141.5t235 378.5q49 -74 96 -110.5t120.5 -53t201.5 -16.5v233h-86q-88 0 -153 49t-128 164q-136 244 -405 244h-91v-209q12 2 37 2q97 0 152 -60t55 -157q0 -159 -135 -272t-332 -113q-222 0 -351.5 139 t-129.5 377v203h-229v-229z" />
<glyph unicode="&#x64a;" horiz-adv-x="1835" arabic-form="final" d="M66 371q0 -198 93.5 -361.5t255 -256.5t355.5 -93q253 0 439 141.5t235 378.5q49 -74 96 -110.5t120.5 -53t201.5 -16.5v233h-86q-88 0 -153 49t-128 164q-136 244 -405 244h-91v-209q12 2 37 2q97 0 152 -60t55 -157q0 -159 -135 -272t-332 -113q-222 0 -351.5 139 t-129.5 377v203h-229v-229zM465 -565v-228h225v228h-225zM852 -565v-228h225v228h-225z" />
<glyph unicode="&#x64a;" horiz-adv-x="630" arabic-form="initial" d="M-53 -219v-230h225v230h-225zM-18 0h241q342 0 342 371v559h-229v-481q0 -105 -17 -148q-35 -68 -145 -68h-192v-233zM334 -219v-230h225v230h-225z" />
<glyph unicode="&#x64a;" horiz-adv-x="884" arabic-form="medial" d="M-47 -219v-230h225v230h-225zM-37 0h944v233h-385q51 57 51 238v459h-227v-471q0 -109 -24 -156q-37 -70 -140 -70h-219v-233zM340 -219v-230h225v230h-225z" />
<glyph unicode=" "  horiz-adv-x="491" />
<glyph unicode="&#x09;" horiz-adv-x="491" />
<glyph unicode="&#xa0;" horiz-adv-x="491" />
<glyph unicode="!" horiz-adv-x="471" d="M74 0h248v260h-248v-260zM74 823q0 -1 22 -164l47 -327h107l47 327l14 82q11 57 11 82v510h-248v-510z" />
<glyph unicode="&#x22;" horiz-adv-x="514" d="M43 1405l55 -557h62l51 557h-168zM299 1405l55 -557h62l51 557h-168z" />
<glyph unicode="$" horiz-adv-x="1177" d="M66 72q197 -126 491 -156v-231h90v231q463 46 463 412q0 180 -154 272q-83 50 -309 102v320q75 -9 152 -39q53 -20 125 -55l127 151q-196 117 -404 138v221h-92v-219q-211 -21 -315 -93q-134 -96 -134 -301q0 -264 451 -352v-354q-179 15 -356 110zM348 868q0 82 68 117 q50 24 141 35v-303q-98 22 -135 41q-74 38 -74 110zM647 119v336q223 -30 223 -152q0 -90 -71 -137q-41 -25 -152 -47z" />
<glyph unicode="'" horiz-adv-x="258" d="M43 1405l55 -557h62l51 557h-168z" />
<glyph unicode="(" horiz-adv-x="634" d="M72 596q0 -515 434 -872q31 -23 45 -33l84 110q-155 125 -244 344q-88 216 -88 471q0 379 184 633q49 69 144 166l-86 96q-160 -121 -273 -274q-200 -280 -200 -641z" />
<glyph unicode=")" horiz-adv-x="753" d="M127 -213l88 -96q171 131 270 272q203 286 203 641q0 369 -219 656q-90 116 -215 217q-41 31 -43 34l-84 -112q156 -126 242 -344q88 -216 88 -469q0 -378 -187 -635q-47 -65 -143 -164z" />
<glyph unicode="*" horiz-adv-x="700" d="M66 274l227 15l-129 -197l92 -59l94 221l101 -211l96 49l-135 199l223 -12v100l-227 -23l129 195l-88 59l-99 -225l-94 225l-96 -61l131 -195l-225 25v-105z" />
<glyph unicode="+" horiz-adv-x="1302" d="M143 492h392v-408h229v408h395v194h-395v410h-229v-410h-392v-194z" />
<glyph unicode="-" horiz-adv-x="907" d="M143 471h621v205h-621v-205z" />
<glyph unicode="." horiz-adv-x="423" d="M51 0h250v258h-250v-258z" />
<glyph unicode="/" horiz-adv-x="858" d="M0 0h225l633 1333h-225z" />
<glyph unicode="0" horiz-adv-x="573" d="M143 354l287 -143v317l-287 142v-316z" />
<glyph unicode="1" horiz-adv-x="514" d="M143 0h228v1294l-228 -166v-1128z" />
<glyph unicode="2" horiz-adv-x="1077" d="M143 0h228v688q0 165 84 293q95 141 258 141h221v201q-102 -2 -221 -2q-151 0 -261.5 -53.5t-177.5 -155t-99 -237.5t-32 -310v-565z" />
<glyph unicode="3" horiz-adv-x="1163" d="M143 0h228v739h284q186 0 301 86q131 98 131 281v207h-221v-154q0 -52 -2 -80.5t-12.5 -63.5t-30.5 -52.5t-57.5 -30t-93.5 -12.5q19 7 33 23.5t20.5 33.5t9.5 45.5t3.5 42.5t0.5 41v207h-180v-154q0 -47 -3.5 -77t-14.5 -58t-31 -43t-54 -24t-83 -9v365h-228v-1313z" />
<glyph unicode="4" horiz-adv-x="1015" d="M100 375q0 -165 126 -270t319 -105h370v190h-370q-95 0 -154 56.5t-59 148.5q0 103 58 161t155 58h119v154h-111q-79 0 -135 51t-56 125q0 89 48.5 141t142.5 52h317v184h-356q-169 0 -276 -88t-107 -232q0 -245 250 -319q-281 -53 -281 -307z" />
<glyph unicode="5" horiz-adv-x="1138" d="M92 578q0 -232 126.5 -365t346.5 -133q217 0 343 137t126 363q0 211 -200 426q-162 174 -277 215q-104 -39 -268 -224q-197 -226 -197 -419zM315 571q0 103 82 243.5t162 182.5q55 -30 112 -103.5t93.5 -163t36.5 -159.5q0 -131 -66 -207.5t-176 -76.5q-113 0 -178.5 76 t-65.5 208z" />
<glyph unicode="6" horiz-adv-x="1077" d="M143 1122v201q102 -2 222 -2q151 0 261.5 -53.5t177 -155t98.5 -237.5t32 -310v-565h-227v688q0 165 -84 293q-95 141 -258 141h-222z" />
<glyph unicode="7" horiz-adv-x="1124" d="M102 1321l314 -1321h299l307 1321h-250l-201 -1067l-235 1067h-234z" />
<glyph unicode="8" horiz-adv-x="1124" d="M102 0h234l235 1069l201 -1069h250l-307 1321h-299z" />
<glyph unicode="9" horiz-adv-x="1142" d="M82 864q0 -214 106 -344q121 -145 344 -145q150 0 242 108v-483h225v858q0 197 -133 330t-334 133q-199 0 -325 -129q-125 -125 -125 -328zM330 850q0 110 51 178q60 84 162 84q103 0 168 -86q55 -76 55 -184q0 -105 -51 -176q-60 -84 -162 -84t-168 84q-55 76 -55 184z " />
<glyph unicode=":" horiz-adv-x="444" d="M51 0h250v258h-250v-258zM51 449h250v260h-250v-260z" />
<glyph unicode="&#x3c;" horiz-adv-x="1110" d="M254 477l479 -477h244l-479 477l479 479h-244z" />
<glyph unicode="=" horiz-adv-x="1220" d="M113 279h993v198h-993v-198zM113 668h993v196h-993v-196z" />
<glyph unicode="&#x3e;" horiz-adv-x="1110" d="M154 -20h223l479 477l-479 479h-223l479 -479z" />
<glyph unicode="[" horiz-adv-x="520" d="M66 -272h387v137h-183v1468h183v137h-387v-1742z" />
<glyph unicode="\" horiz-adv-x="980" d="M57 1333l633 -1333h223l-632 1333h-224z" />
<glyph unicode="]" horiz-adv-x="520" d="M66 -133v-139h387v1742h-387v-135h184v-1468h-184z" />
<glyph unicode="_" horiz-adv-x="782" d="M33 -33v-172h715v172h-715z" />
<glyph unicode="{" horiz-adv-x="768" d="M74 592q172 -112 172 -205v-414q0 -137 88 -198q80 -68 291 -68l59 4q2 10 2 35t-2 33q-172 2 -239.5 42.5t-55.5 151.5v414q0 111 -147 205q72 56 109.5 109t37.5 94v413q0 123 62 160q55 43 231 43v19q0 39 -4 59q-232 0 -332 -65.5t-100 -215.5v-413q0 -61 -43 -115 q-41 -54 -125 -88h-4z" />
<glyph unicode="|" horiz-adv-x="270" d="M70 -289h129v1774h-129v-1774z" />
<glyph unicode="}" horiz-adv-x="768" d="M72 -254q0 25 2 33q172 2 239.5 42.5t55.5 151.5v414q0 111 147 205q-72 56 -109.5 109t-37.5 94v413q0 123 -62 160q-55 43 -231 43v19q0 39 4 59q232 0 332 -65.5t100 -215.5v-413q0 -61 43 -115q41 -54 125 -88h4q-172 -112 -172 -205v-414q0 -137 -88 -198 q-80 -68 -291 -68l-59 4q-2 10 -2 35z" />
<glyph unicode="&#xab;" horiz-adv-x="743" d="M59 383q0 -222 201 -387l82 72q-75 85 -98 137q-33 65 -33 168q0 191 131 307l-78 78q-205 -150 -205 -375zM358 383q0 -223 203 -387l80 72q-74 87 -96 137q-33 65 -33 168q0 190 129 307l-76 78q-207 -151 -207 -375z" />
<glyph unicode="&#xad;" horiz-adv-x="907" d="M143 471h621v205h-621v-205z" />
<glyph unicode="&#xbb;" horiz-adv-x="833" d="M184 68l82 -72q203 164 203 387q0 224 -207 375l-78 -78q131 -116 131 -307q0 -105 -32 -168q-22 -50 -99 -137zM485 68l82 -72q199 163 199 387q0 225 -203 375l-78 -78q129 -117 129 -307q0 -101 -30 -168q-24 -49 -99 -137z" />
<glyph unicode="&#xd7;" horiz-adv-x="1093" d="M143 289l133 -139l271 290l272 -290l131 139l-272 291l272 290l-131 140l-272 -291l-271 291l-133 -140l273 -290z" />
<glyph unicode="&#xf7;" horiz-adv-x="1355" d="M143 485h1069v211h-1069v-211zM563 117h228v254h-228v-254zM563 811h230v254h-230v-254z" />
<glyph unicode="&#x60c;" horiz-adv-x="425" d="M51 0h252v258h-119q0 142 103 154v108q-113 -24 -162 -61q-74 -59 -74 -174v-285z" />
<glyph unicode="&#x61b;" horiz-adv-x="425" d="M51 0h250v258h-250v-258zM51 453h252v260h-119q0 142 103 151v111q-113 -24 -162 -64q-74 -56 -74 -172v-286z" />
<glyph unicode="&#x61f;" horiz-adv-x="1042" d="M80 961q0 -174 139 -289q17 -13 41 -29.5t31 -21.5q79 -50 102 -95q23 -44 23 -129q0 -43 -2 -53h223v47q0 202 -53 279q-25 37 -97 90q-84 58 -100 78q-47 53 -47 123q0 76 59.5 128t139.5 52q103 0 163 -69t60 -179l227 27q-9 115 -35 176q-102 260 -430 260 q-182 0 -309 -103q-135 -108 -135 -292zM399 0h250v258h-250v-258z" />
<glyph unicode="&#x621;" horiz-adv-x="1062" d="M127 0h868v233h-438q-51 57 -51 156q0 83 37 135q43 64 121 64q110 0 145 -111l164 113q-43 98 -128.5 153.5t-191.5 55.5q-161 0 -270 -115q-104 -113 -104 -278q0 -95 34 -173h-186v-233z" />
<glyph unicode="&#x627;" horiz-adv-x="438" d="M145 0h228v1323h-228v-1323z" />
<glyph unicode="&#x628;" horiz-adv-x="1845" d="M66 580q0 -580 651 -580h743q151 0 234.5 86.5t83.5 241.5v602h-226v-445q0 -157 -86 -213q-56 -39 -215 -39h-561q-186 0 -280 66q-117 80 -117 281v350h-227v-350zM885 -219v-230h225v230h-225z" />
<glyph unicode="&#x629;" horiz-adv-x="1087" d="M66 504q0 -217 136.5 -360.5t350.5 -143.5q215 0 349 141t134 355q0 221 -136 363t-347 142q-212 0 -349.5 -139t-137.5 -358zM242 1190h225v227h-225v-227zM303 506q0 128 65 209.5t177 81.5q115 0 185.5 -85t70.5 -216q0 -126 -66.5 -207.5t-175.5 -81.5 q-110 0 -183 85.5t-73 213.5zM631 1190h225v227h-225v-227z" />
<glyph unicode="&#x62a;" horiz-adv-x="1845" d="M66 580q0 -580 651 -580h743q151 0 234.5 86.5t83.5 241.5v602h-226v-445q0 -157 -86 -213q-56 -39 -215 -39h-561q-186 0 -280 66q-117 80 -117 281v350h-227v-350zM612 932h224v227h-224v-227zM1001 932h224v227h-224v-227z" />
<glyph unicode="&#x62b;" horiz-adv-x="1845" d="M66 580q0 -580 651 -580h743q151 0 234.5 86.5t83.5 241.5v602h-226v-445q0 -157 -86 -213q-56 -39 -215 -39h-561q-186 0 -280 66q-117 80 -117 281v350h-227v-350zM612 932h224v227h-224v-227zM811 1253h223v230h-223v-230zM1001 932h224v227h-224v-227z" />
<glyph unicode="&#x62c;" horiz-adv-x="1112" d="M66 168q0 -254 170 -389q150 -117 405 -117h164v240h-248q-109 0 -186 71q-76 70 -76 185q0 128 72 204t190 76h490v187q0 201 -125 366q-155 203 -465 203q-92 0 -176 -35v-196q58 32 159 32q153 0 241.5 -76.5t117.5 -244.5h-252q-215 0 -340 -119q-141 -132 -141 -387 zM545 55h225v228h-225v-228z" />
<glyph unicode="&#x62d;" horiz-adv-x="1112" d="M66 168q0 -254 170 -389q150 -117 405 -117h164v240h-248q-109 0 -186 71q-76 70 -76 185q0 128 72 204t190 76h490v187q0 201 -125 366q-155 203 -465 203q-92 0 -176 -35v-196q58 32 159 32q153 0 241.5 -76.5t117.5 -244.5h-252q-215 0 -340 -119q-141 -132 -141 -387 z" />
<glyph unicode="&#x62e;" horiz-adv-x="1112" d="M66 168q0 -254 170 -389q150 -117 405 -117h164v240h-248q-109 0 -186 71q-76 70 -76 185q0 128 72 204t190 76h490v187q0 201 -125 366q-155 203 -465 203q-92 0 -176 -35v-196q58 32 159 32q153 0 241.5 -76.5t117.5 -244.5h-252q-215 0 -340 -119q-141 -132 -141 -387 zM489 1321h226v229h-226v-229z" />
<glyph unicode="&#x62f;" horiz-adv-x="1165" d="M127 0h973v233q-3 526 -414 664q-76 26 -123 29q-58 4 -213 4v-209q122 0 207 -19q311 -68 311 -469h-741v-233z" />
<glyph unicode="&#x630;" horiz-adv-x="1165" d="M127 0h973v233q-3 526 -414 664q-76 26 -123 29q-58 4 -213 4v-209q122 0 207 -19q311 -68 311 -469h-741v-233zM457 1122h223v228h-223v-228z" />
<glyph unicode="&#x631;" horiz-adv-x="665" d="M86 -143v-197q266 0 390 123.5t124 398.5v748h-229v-783q0 -147 -71 -218.5t-214 -71.5z" />
<glyph unicode="&#x632;" horiz-adv-x="665" d="M86 -143v-197q266 0 390 123.5t124 398.5v748h-229v-783q0 -147 -71 -218.5t-214 -71.5zM373 1118h225v228h-225v-228z" />
<glyph unicode="&#x633;" horiz-adv-x="2607" d="M66 360q0 -296 194 -499q189 -201 455 -201q268 0 456 209q55 58 97 131h856q155 0 264 109q133 133 133 378v443h-231v-471q0 -226 -174 -226h-224q47 50 47 250v447h-231v-469q0 -228 -174 -228h-184q10 68 10 127v570h-232v-543q0 -203 -100 -344q-120 -164 -313 -164 q-196 0 -316 164q-102 144 -102 344v543h-231v-570z" />
<glyph unicode="&#x634;" horiz-adv-x="2607" d="M66 360q0 -296 194 -499q189 -201 455 -201q268 0 456 209q55 58 97 131h856q155 0 264 109q133 133 133 378v443h-231v-471q0 -226 -174 -226h-224q47 50 47 250v447h-231v-469q0 -228 -174 -228h-184q10 68 10 127v570h-232v-543q0 -203 -100 -344q-120 -164 -313 -164 q-196 0 -316 164q-102 144 -102 344v543h-231v-570zM1516 1118h223v228h-223v-228zM1710 1440h225v229h-225v-229zM1903 1118h223v228h-223v-228z" />
<glyph unicode="&#x635;" horiz-adv-x="2598" d="M66 360q0 -189 87.5 -350.5t237 -255.5t324.5 -94q171 0 315.5 87.5t237.5 252.5h1239q10 127 10 213q0 721 -528 721q-166 0 -329.5 -100.5t-299.5 -286.5v383h-232v-543q0 -218 -116.5 -363t-296.5 -145q-120 0 -216 67t-149 183t-53 258v543h-231v-570zM1366 233 q97 215 264 355.5t336 140.5q146 0 232 -116t86 -314l-5 -66h-913z" />
<glyph unicode="&#x636;" horiz-adv-x="2598" d="M66 360q0 -189 87.5 -350.5t237 -255.5t324.5 -94q171 0 315.5 87.5t237.5 252.5h1239q10 127 10 213q0 721 -528 721q-166 0 -329.5 -100.5t-299.5 -286.5v383h-232v-543q0 -218 -116.5 -363t-296.5 -145q-120 0 -216 67t-149 183t-53 258v543h-231v-570zM1366 233 q97 215 264 355.5t336 140.5q146 0 232 -116t86 -314l-5 -66h-913zM1847 1118h226v228h-226v-228z" />
<glyph unicode="&#x637;" horiz-adv-x="1660" d="M66 0h1519q10 127 10 213q0 721 -530 721q-329 0 -602 -354l26 741h-227v-1088h-196v-233zM444 233q97 215 264 355.5t336 140.5q147 0 232.5 -117t85.5 -313l-4 -66h-914z" />
<glyph unicode="&#x638;" horiz-adv-x="1660" d="M66 0h1519q10 127 10 213q0 721 -530 721q-329 0 -602 -354l26 741h-227v-1088h-196v-233zM444 233q97 215 264 355.5t336 140.5q147 0 232.5 -117t85.5 -313l-4 -66h-914zM907 1118h223v228h-223v-228z" />
<glyph unicode="&#x639;" horiz-adv-x="1210" d="M66 150q0 -221 155 -355.5t400 -134.5h350v227h-367q-148 0 -233.5 68t-85.5 188q0 269 319 269h541v227h-418q-57 20 -99 95t-42 157q0 107 56.5 174.5t150.5 67.5q115 0 168 -111l172 82q-105 217 -336 217q-182 0 -302 -122t-120 -312q0 -122 76 -256 q-175 -29 -280 -160t-105 -321z" />
<glyph unicode="&#x63a;" horiz-adv-x="1210" d="M66 150q0 -221 155 -355.5t400 -134.5h350v227h-367q-148 0 -233.5 68t-85.5 188q0 269 319 269h541v227h-418q-57 20 -99 95t-42 157q0 107 56.5 174.5t150.5 67.5q115 0 168 -111l172 82q-105 217 -336 217q-182 0 -302 -122t-120 -312q0 -122 76 -256 q-175 -29 -280 -160t-105 -321zM684 1479h223v227h-223v-227z" />
<glyph unicode="&#x640;" horiz-adv-x="405" d="M-10 0h432v233h-432v-233z" />
<glyph unicode="&#x641;" horiz-adv-x="1947" d="M66 580q0 -286 157.5 -433t470.5 -147h727q204 0 331.5 133.5t127.5 337.5t-129 341.5t-330 137.5q-203 0 -333 -133.5t-130 -339.5q0 -117 58 -246v2h-326q-208 0 -302.5 81.5t-94.5 265.5v309h-227v-309zM1196 479q0 120 59.5 191t159.5 71q101 0 165.5 -76.5 t64.5 -193.5q0 -113 -59 -186.5t-161 -73.5q-101 0 -165 77t-64 191zM1311 1118h225v228h-225v-228z" />
<glyph unicode="&#x642;" horiz-adv-x="1497" d="M66 332q0 -187 89 -341t247 -242.5t352 -88.5q188 0 343.5 89t245 243t89.5 340q0 221 -2 231q0 202 -117 317t-314 115q-195 0 -307 -117.5t-112 -320.5q0 -202 115.5 -320t310.5 -118q113 0 196 57q-46 -138 -172 -223.5t-282 -85.5q-212 0 -338.5 133t-126.5 356v357 h-217v-381zM694 1118h226v228h-226v-228zM793 561q0 114 61 191t150 77q92 0 152.5 -78t60.5 -202q0 -112 -58 -184t-153 -72q-97 0 -155 74.5t-58 193.5zM1083 1118h226v228h-226v-228z" />
<glyph unicode="&#x643;" horiz-adv-x="1845" d="M66 580q0 -580 651 -580h743q151 0 234.5 86.5t83.5 241.5v993h-226v-836q0 -157 -86 -213q-56 -39 -215 -39h-561q-186 0 -280 66q-117 80 -117 281v350h-227v-350zM676 797h510v137h-258q-29 37 -29 92q0 117 92 117q65 0 86 -66l97 66q-52 123 -189 123 q-96 0 -158.5 -67t-62.5 -165q0 -51 22 -100h-110v-137z" />
<glyph unicode="&#x644;" horiz-adv-x="1425" d="M66 360q0 -189 87.5 -350.5t237 -255.5t324.5 -94q174 0 323.5 96t235.5 257t86 347v961h-232v-934q0 -141 -52.5 -257t-147 -183.5t-213.5 -67.5q-122 0 -218.5 68.5t-148 184t-51.5 255.5v174h-231v-201z" />
<glyph unicode="&#x645;" horiz-adv-x="1648" d="M66 -340h229v680q0 166 68 262t184 96h168q-58 -104 -58 -241q0 -132 58.5 -241t165 -172.5t239.5 -63.5q201 0 330 134t129 337q0 134 -57.5 243.5t-163 173.5t-238.5 64h-577q-224 0 -350.5 -148t-126.5 -397v-727zM893 459q0 114 59 188t160 74q104 0 167.5 -76.5 t63.5 -193.5q0 -115 -60.5 -188t-156.5 -73q-102 0 -167.5 77.5t-65.5 191.5z" />
<glyph unicode="&#x646;" horiz-adv-x="1425" d="M66 360q0 -296 194 -499q189 -201 455 -201q268 0 456 209q189 207 189 491v570h-232v-543q0 -203 -100 -344q-120 -164 -313 -164q-196 0 -316 164q-102 144 -102 344v543h-231v-570zM606 1118h225v228h-225v-228z" />
<glyph unicode="&#x647;" horiz-adv-x="1087" d="M66 504q0 -217 136.5 -360.5t350.5 -143.5q215 0 349 141t134 355q0 221 -136 363t-347 142q-212 0 -349.5 -139t-137.5 -358zM303 506q0 128 65 209.5t177 81.5q115 0 185.5 -85t70.5 -216q0 -126 -66.5 -207.5t-175.5 -81.5q-110 0 -183 85.5t-73 213.5z" />
<glyph unicode="&#x648;" horiz-adv-x="1075" d="M127 467q0 -205 121.5 -336t318.5 -131q159 0 217 104q-3 -122 -58 -189.5t-161 -70.5v-182q445 0 445 367v432q0 206 -121.5 338.5t-321.5 132.5q-194 0 -317 -129.5t-123 -335.5zM356 467q0 107 56 181.5t145 74.5q98 0 157.5 -73t59.5 -193q0 -104 -58.5 -177 t-148.5 -73q-92 0 -151.5 75.5t-59.5 184.5z" />
<glyph unicode="&#x649;" horiz-adv-x="1554" d="M66 360q0 -195 93 -356t254.5 -252.5t356.5 -91.5h14q193 0 355 92t256 253t94 355v220h-506q56 131 149 183t277 52v213q-331 0 -510.5 -174t-179.5 -498h541q-38 -477 -484 -477q-223 0 -352 137t-129 369v203h-229v-228z" />
<glyph unicode="&#x64a;" horiz-adv-x="1554" d="M66 360q0 -300 202 -499q204 -201 502 -201h14q296 0 500 201q205 199 205 499v220h-506q59 139 168 192q87 43 258 43v213q-331 0 -510.5 -174t-179.5 -498h541q-38 -477 -484 -477q-232 0 -358 144q-123 135 -123 362v203h-229v-228zM465 -565v-228h225v228h-225z M852 -565v-228h225v228h-225z" />
<glyph unicode="&#x64b;" d="M25 1368q289 61 299 62q89 21 98 90l-318 -74q-60 -21 -79 -78zM49 1495l21 4q275 59 278 60q89 21 98 88l-317 -74q-62 -21 -80 -78z" />
<glyph unicode="&#x64c;" d="M25 1544q30 23 57 23q53 0 53 -60q0 -67 -43 -94q4 -8 9.5 -16.5t10.5 -17t7 -11.5q78 0 142 20.5t101 52.5t56.5 66t19.5 64q0 46 -28 81.5t-80 35.5q-42 0 -68 -31.5t-26 -71.5q0 -65 57 -110q-20 -19 -65.5 -35.5t-77.5 -16.5q34 40 34 95q0 90 -75 90q-63 0 -84 -64z M285 1585q0 53 51 53q21 0 38 -16t17 -39q0 -42 -63 -82q-43 27 -43 84z" />
<glyph unicode="&#x64d;" d="M16 -842q289 61 299 62q90 21 99 90l-318 -74q-58 -21 -80 -78zM41 -715l20 4q66 14 140.5 30t103.5 22t35 8q89 21 98 88l-317 -74q-58 -21 -80 -78z" />
<glyph unicode="&#x64e;" d="M41 1364q274 57 299 61q89 21 98 88l-317 -73q-59 -21 -80 -76z" />
<glyph unicode="&#x64f;" d="M45 1417q27 -45 29 -49q50 0 131 23q93 28 140.5 78t47.5 104q0 44 -28.5 79.5t-79.5 35.5q-42 0 -64 -25q-33 -33 -33 -76q0 -64 58 -110q-22 -19 -84 -39q-62 -21 -117 -21zM240 1587q0 51 51 51q21 0 38 -15.5t17 -35.5q0 -48 -63 -82q-43 27 -43 82z" />
<glyph unicode="&#x650;" d="M20 -711q79 16 153.5 32.5t107 23.5t38.5 8q88 21 97 88l-316 -74q-63 -21 -80 -78z" />
<glyph unicode="&#x651;" d="M51 1597l33 -155q7 -38 30.5 -58t57.5 -20q45 0 70 29t28 80q41 -68 90 -68q45 0 70 21.5t25 52.5q0 15 -6 39l-31 157l-68 -12l29 -141q2 -6 2 -17q0 -30 -27 -30q-51 0 -63 63l-23 107l-67 -15l22 -108q4 -16 4 -25q0 -21 -14.5 -40t-34.5 -19q-22 0 -31 35l-30 141z " />
<glyph unicode="&#x652;" d="M45 1522q0 -75 38.5 -116.5t96.5 -41.5q70 0 108 37.5t38 99.5q0 11 -4 39q-24 115 -134 115q-69 0 -106 -36.5t-37 -96.5zM109 1528q0 76 73 76q35 0 56.5 -34t21.5 -75q0 -35 -18 -56.5t-52 -21.5q-38 0 -59.5 32.5t-21.5 78.5z" />
<glyph unicode="&#x653;" d="M-35 1528l19 -70q40 55 86 55q50 0 118 -51t103 -51q54 0 110 86l-18 72q-46 -58 -94 -58q-33 0 -109 52q-74 51 -110 51q-55 0 -105 -86z" />
<glyph unicode="&#x654;" d="M14 1427h355v95h-166q-37 21 -37 75q0 31 19.5 54.5t50.5 23.5q48 0 57 -45l74 39q-44 90 -129 90q-67 0 -113.5 -47.5t-46.5 -118.5q0 -13 18 -71h-82v-95z" />
<glyph unicode="&#x655;" d="M23 -326v-94h354v94h-166q-37 21 -37 78q0 32 20 56t50 24q48 0 57 -45l74 35q-43 94 -129 94q-66 0 -113 -49t-47 -121q0 -14 18 -72h-81z" />
<glyph unicode="&#x660;" horiz-adv-x="573" d="M143 354l287 -143v317l-287 142v-316z" />
<glyph unicode="&#x661;" horiz-adv-x="514" d="M143 0h228v1294l-228 -166v-1128z" />
<glyph unicode="&#x662;" horiz-adv-x="1077" d="M143 0h228v688q0 165 84 293q95 141 258 141h221v201q-102 -2 -221 -2q-151 0 -261.5 -53.5t-177.5 -155t-99 -237.5t-32 -310v-565z" />
<glyph unicode="&#x663;" horiz-adv-x="1163" d="M143 0h228v739h284q186 0 301 86q131 98 131 281v207h-221v-154q0 -36 -1 -57t-4.5 -47.5t-10.5 -41.5t-19.5 -31t-31.5 -24t-46 -13t-63 -5q22 14 33 46t12.5 55.5t1.5 64.5v207h-200v-154q0 -58 -5.5 -93.5t-23 -64t-50.5 -41t-87 -12.5v365h-228v-1313z" />
<glyph unicode="&#x664;" horiz-adv-x="1015" d="M100 375q0 -165 126 -270t319 -105h370v190h-370q-95 0 -154 56.5t-59 148.5q0 103 58 161t155 58h119v154h-111q-79 0 -135 51t-56 125q0 89 48.5 141t142.5 52h317v184h-356q-169 0 -276 -88t-107 -232q0 -245 250 -319q-281 -53 -281 -307z" />
<glyph unicode="&#x665;" horiz-adv-x="1138" d="M92 578q0 -232 126.5 -365t346.5 -133q217 0 343 137t126 363q0 211 -200 426q-162 174 -277 215q-104 -39 -268 -224q-197 -226 -197 -419zM315 571q0 103 82 243.5t162 182.5q55 -30 112 -103.5t93.5 -163t36.5 -159.5q0 -131 -66 -207.5t-176 -76.5q-113 0 -178.5 76 t-65.5 208z" />
<glyph unicode="&#x666;" horiz-adv-x="1077" d="M143 1122v201q102 -2 222 -2q151 0 261.5 -53.5t177 -155t98.5 -237.5t32 -310v-565h-227v688q0 165 -84 293q-95 141 -258 141h-222z" />
<glyph unicode="&#x667;" horiz-adv-x="1124" d="M102 1321l314 -1321h299l307 1321h-250l-201 -1067l-235 1067h-234z" />
<glyph unicode="&#x668;" horiz-adv-x="1124" d="M102 0h234l235 1069l201 -1069h250l-307 1321h-299z" />
<glyph unicode="&#x669;" horiz-adv-x="1142" d="M82 864q0 -214 106 -344q121 -145 344 -145q150 0 242 108v-483h225v858q0 197 -133 330t-334 133q-199 0 -325 -129q-125 -125 -125 -328zM330 850q0 110 51 178q60 84 162 84q103 0 168 -86q55 -76 55 -184q0 -105 -51 -176q-60 -84 -162 -84t-168 84q-55 76 -55 184z " />
<glyph unicode="&#x66a;" horiz-adv-x="880" d="M66 0h202l545 1323h-203zM186 1077h197v189h-197v-189zM510 66h199v188h-199v-188z" />
<glyph unicode="&#x66b;" horiz-adv-x="387" d="M49 47h119q0 -141 -102 -153v-109q111 23 161 61q74 59 74 174v285h-252v-258z" />
<glyph unicode="&#x66c;" horiz-adv-x="387" d="M49 47h119q0 -141 -102 -153v-109q111 23 161 61q74 59 74 174v285h-252v-258z" />
<glyph unicode="&#x66d;" horiz-adv-x="1024" d="M115 502l239 -191l-106 -284l35 -27l233 193l232 -193l34 31l-104 282l237 189l-18 41l-283 -41l-77 293h-41l-80 -293l-283 43z" />
<glyph unicode="&#x670;" d="M47 1524h70v356h-70v-356z" />
<glyph unicode="&#x67e;" horiz-adv-x="1845" d="M66 580q0 -580 651 -580h743q151 0 234.5 86.5t83.5 241.5v602h-226v-445q0 -157 -86 -213q-56 -39 -215 -39h-561q-186 0 -280 66q-117 80 -117 281v350h-227v-350zM657 -135v-230h226v230h-226zM856 -459v-229h223v229h-223zM1044 -135v-230h226v230h-226z" />
<glyph unicode="&#x686;" horiz-adv-x="1112" d="M66 168q0 -254 170 -389q150 -117 405 -117h164v240h-248q-109 0 -186 71q-76 70 -76 185q0 128 72 204t190 76h490v187q0 201 -125 366q-155 203 -465 203q-92 0 -176 -35v-196q58 32 159 32q153 0 241.5 -76.5t117.5 -244.5h-252q-215 0 -340 -119q-141 -132 -141 -387 zM397 186h160v164h-160v-164zM537 -43h159v162h-159v-162zM672 186h162v164h-162v-164z" />
<glyph unicode="&#x698;" horiz-adv-x="665" d="M-14 1118h225v230h-225v-230zM86 -143v-197q266 0 390 123.5t124 398.5v748h-229v-783q0 -147 -71 -218.5t-214 -71.5zM182 1444h226v227h-226v-227zM373 1118h225v230h-225v-230z" />
<glyph unicode="&#x6a4;" horiz-adv-x="1947" d="M66 580q0 -286 157.5 -433t470.5 -147h727q204 0 331.5 133.5t127.5 337.5t-129 341.5t-330 137.5q-203 0 -333 -133.5t-130 -339.5q0 -117 58 -246v2h-326q-208 0 -302.5 81.5t-94.5 265.5v309h-227v-309zM1118 1118h225v228h-225v-228zM1196 479q0 120 59.5 191 t159.5 71q101 0 165.5 -76.5t64.5 -193.5q0 -113 -59 -186.5t-161 -73.5q-101 0 -165 77t-64 191zM1315 1440h223v229h-223v-229zM1505 1118h226v228h-226v-228z" />
<glyph unicode="&#x6f0;" horiz-adv-x="573" d="M143 354l287 -143v317l-287 142v-316z" />
<glyph unicode="&#x6f1;" horiz-adv-x="514" d="M143 0h228v1294l-228 -166v-1128z" />
<glyph unicode="&#x6f2;" horiz-adv-x="1077" d="M143 0h228v688q0 165 84 293q95 141 258 141h221v201q-102 -2 -221 -2q-151 0 -261.5 -53.5t-177.5 -155t-99 -237.5t-32 -310v-565z" />
<glyph unicode="&#x6f3;" horiz-adv-x="1163" d="M143 0h228v739h284q186 0 301 86q131 98 131 281v207h-221v-154q0 -36 -1 -57t-4.5 -47.5t-10.5 -41.5t-19.5 -31t-31.5 -24t-46 -13t-63 -5q22 14 33 46t12.5 55.5t1.5 64.5v207h-200v-154q0 -58 -5.5 -93.5t-23 -64t-50.5 -41t-87 -12.5v365h-228v-1313z" />
<glyph unicode="&#x6f4;" horiz-adv-x="1015" d="M100 375q0 -165 126 -270t319 -105h370v190h-370q-95 0 -154 56.5t-59 148.5q0 103 58 161t155 58h119v154h-111q-79 0 -135 51t-56 125q0 89 48.5 141t142.5 52h317v184h-356q-169 0 -276 -88t-107 -232q0 -245 250 -319q-281 -53 -281 -307z" />
<glyph unicode="&#x6f5;" horiz-adv-x="1138" d="M92 578q0 -232 126.5 -365t346.5 -133q217 0 343 137t126 363q0 211 -200 426q-162 174 -277 215q-104 -39 -268 -224q-197 -226 -197 -419zM315 571q0 103 82 243.5t162 182.5q55 -30 112 -103.5t93.5 -163t36.5 -159.5q0 -131 -66 -207.5t-176 -76.5q-113 0 -178.5 76 t-65.5 208z" />
<glyph unicode="&#x6f6;" horiz-adv-x="1077" d="M143 1122v201q102 -2 222 -2q151 0 261.5 -53.5t177 -155t98.5 -237.5t32 -310v-565h-227v688q0 165 -84 293q-95 141 -258 141h-222z" />
<glyph unicode="&#x6f7;" horiz-adv-x="1124" d="M102 1321l314 -1321h299l307 1321h-250l-201 -1067l-235 1067h-234z" />
<glyph unicode="&#x6f8;" horiz-adv-x="1124" d="M102 0h234l235 1069l201 -1069h250l-307 1321h-299z" />
<glyph unicode="&#x6f9;" horiz-adv-x="1142" d="M82 864q0 -214 106 -344q121 -145 344 -145q150 0 242 108v-483h225v858q0 197 -133 330t-334 133q-199 0 -325 -129q-125 -125 -125 -328zM330 850q0 110 51 178q60 84 162 84q103 0 168 -86q55 -76 55 -184q0 -105 -51 -176q-60 -84 -162 -84t-168 84q-55 76 -55 184z " />
<glyph unicode="&#x2000;" horiz-adv-x="1004" />
<glyph unicode="&#x2001;" horiz-adv-x="2009" />
<glyph unicode="&#x2002;" horiz-adv-x="1004" />
<glyph unicode="&#x2003;" horiz-adv-x="2009" />
<glyph unicode="&#x2004;" horiz-adv-x="669" />
<glyph unicode="&#x2005;" horiz-adv-x="502" />
<glyph unicode="&#x2006;" horiz-adv-x="334" />
<glyph unicode="&#x2007;" horiz-adv-x="334" />
<glyph unicode="&#x2008;" horiz-adv-x="251" />
<glyph unicode="&#x2009;" horiz-adv-x="401" />
<glyph unicode="&#x200a;" horiz-adv-x="111" />
<glyph unicode="&#x200c;" horiz-adv-x="40" d="M0 0h41v1479h-41v-1479z" />
<glyph unicode="&#x200d;" horiz-adv-x="40" d="M-104 1358l28 -27l76 76v-1407h41v1407l76 -76l28 27l-96 98l96 96l-28 29l-97 -98l-96 98l-28 -29l98 -96z" />
<glyph unicode="&#x200e;" horiz-adv-x="40" d="M0 0h41v1438h160l-78 -78l29 -29l122 125l-122 125l-29 -29l74 -73h-197v-1479z" />
<glyph unicode="&#x200f;" horiz-adv-x="40" d="M-233 1456l122 -125l29 29l-78 78h160v-1438h41v1479h-197l74 73l-29 29z" />
<glyph unicode="&#x2010;" horiz-adv-x="929" d="M49 393h862v80h-862v-80z" />
<glyph unicode="&#x2011;" horiz-adv-x="907" d="M143 471h621v205h-621v-205z" />
<glyph unicode="&#x2012;" horiz-adv-x="907" d="M143 471h621v205h-621v-205z" />
<glyph unicode="&#x2013;" horiz-adv-x="1310" d="M143 471h1024v205h-1024v-205z" />
<glyph unicode="&#x2014;" horiz-adv-x="2334" d="M143 471h2048v205h-2048v-205z" />
<glyph unicode="&#x201c;" horiz-adv-x="546" d="M70 938h163v147q-60 -3 -63 52q-3 99 96 188h-51q-145 -133 -145 -221v-166zM289 938h164v147q-61 -3 -64 52q-3 99 96 188h-53q-143 -131 -143 -221v-166z" />
<glyph unicode="&#x201d;" horiz-adv-x="546" d="M70 938h51q145 133 145 219v168h-162v-149q61 3 64 -52q3 -98 -98 -186zM289 938h51q145 133 145 219v168h-161v-149q61 3 61 -52q3 -97 -96 -186z" />
<glyph unicode="&#x202f;" horiz-adv-x="401" />
<glyph unicode="&#x205f;" horiz-adv-x="502" />
<glyph unicode="&#x2421;" horiz-adv-x="1452" d="M78 117h194q42 0 84 10q162 40 162 260q0 217 -162 254q-27 8 -94 8h-184v-532zM150 180v406h112q57 0 90 -11q94 -37 94 -188q0 -114 -53 -170q-40 -37 -129 -37h-114zM582 117h399v63h-326v180h293v64h-293v162h314v63h-387v-532zM1047 117h333v63h-260v469h-73v-532z " />
<glyph unicode="&#x25fc;" horiz-adv-x="1024" d="M0 0z" />
<glyph unicode="&#xfd3e;" horiz-adv-x="634" d="M72 596q0 -515 434 -872q31 -23 45 -33l84 110q-155 125 -244 344q-88 216 -88 471q0 379 184 633q49 69 144 166l-86 96q-160 -121 -273 -274q-200 -280 -200 -641z" />
<glyph unicode="&#xfd3f;" horiz-adv-x="753" d="M127 -213l88 -96q171 131 270 272q203 286 203 641q0 369 -219 656q-90 116 -215 217q-41 31 -43 34l-84 -112q156 -126 242 -344q88 -216 88 -469q0 -378 -187 -635q-47 -65 -143 -164z" />
<glyph unicode="&#xfeff;" />
<glyph horiz-adv-x="681" />
<glyph horiz-adv-x="573" />
<glyph horiz-adv-x="559" />
<glyph />
</font>
</defs>
</svg>
