<?xml version="1.0" standalone="no"?>
<!DOCTYPE svg PUBLIC "-//W3C//DTD SVG 1.1//EN" "http://www.w3.org/Graphics/SVG/1.1/DTD/svg11.dtd" >
<svg xmlns="http://www.w3.org/2000/svg">
<metadata></metadata>
<defs>
<font id="ge_ss_twobold" horiz-adv-x="0" >
<font-face units-per-em="2048" ascent="1638" descent="-410" />
<missing-glyph horiz-adv-x="419" />
<glyph unicode="&#x627;&#x653;" horiz-adv-x="524" d="M430 0v1321h-287v-1321h287zM543 1495l-39 111q-59 -68 -105 -68q-11 0 -103.5 38t-117.5 38q-70 0 -135 -86l41 -113q50 68 94 68q24 0 112.5 -37t110.5 -37q71 0 142 86z" />
<glyph unicode="&#x627;&#x654;" horiz-adv-x="538" d="M430 0v1321h-287v-1321h287zM467 1434v106h-160q-28 9 -28 57q0 62 47 62q33 0 45 -43l92 43q-41 96 -137 96q-66 0 -110 -47.5t-44 -116.5q0 -29 8 -53h-80v-104h367z" />
<glyph unicode="&#x648;&#x654;" horiz-adv-x="1110" d="M1042 41v418q0 203 -128.5 338t-325.5 135q-202 0 -331.5 -130t-129.5 -339q0 -205 131.5 -340t329.5 -135q145 0 203 94q0 -87 -74 -139t-172 -52v-229h28q469 0 469 379zM756 459q0 -94 -44 -149.5t-120 -55.5q-82 0 -130 60.5t-48 150.5q0 91 46.5 149t121.5 58 q77 0 125.5 -59.5t48.5 -153.5zM819 1044v130h-198q-35 15 -35 71q0 78 57 78q44 0 59 -53l115 53q-53 121 -172 121q-82 0 -137 -58.5t-55 -146.5q0 -27 12 -65h-100v-130h454z" />
<glyph unicode="&#x627;&#x655;" horiz-adv-x="524" d="M430 0v1321h-287v-1321h287zM453 -408v107h-162q-27 9 -27 57q0 62 47 62q32 0 47 -41l93 43q-41 96 -138 96q-68 0 -112.5 -47t-44.5 -117q0 -22 10 -55h-82v-105h369z" />
<glyph unicode="&#x64a;&#x654;" horiz-adv-x="1609" d="M600 727v154h-231q-41 15 -41 84q0 90 67 90q50 0 68 -62l137 62q-62 139 -203 139q-97 0 -161 -67.5t-64 -170.5q0 -34 12 -75h-116v-154h532zM1542 598h-475q102 147 274 147h123v279h-123q-278 0 -452 -195q-170 -194 -170 -501h534q-6 -88 -34 -158 q-48 -111 -158.5 -177.5t-255.5 -66.5q-146 0 -257 66t-159 178q-37 90 -37 215v219h-286v-246q0 -299 210 -497q213 -201 523 -201h12q307 0 520 201q211 199 211 497v240z" />
<glyph unicode="&#x64c;&#x651;" arabic-form="isolated" d="M455 1898q0 46 -34 78.5t-79 32.5q-42 0 -72 -32t-30 -79q0 -62 47 -100q-46 -28 -107 -37q27 27 27 72q0 40 -24 68t-64 28q-39 0 -66 -25t-33 -71q35 41 72 41q47 0 47 -47q0 -27 -16.5 -55t-34.5 -29q40 -55 41 -55q80 0 145 20t103 52t58 67.5t20 70.5zM539 1522 l-33 153l-82 -16l31 -137q0 -2 1 -6t1 -5q0 -26 -27 -26q-42 3 -51 51l-23 109l-84 -19l23 -108q4 -12 4 -19q-2 -6 -5 -14.5t-14 -22.5t-24 -14t-20 27l-31 137l-80 -17l33 -155q15 -74 90 -74q54 0 73.5 18.5t32.5 71.5q39 -57 84 -57q50 0 77.5 24.5t27.5 59.5 q0 11 -4 39zM352 1942q39 0 39 -37q0 -41 -51 -70q-37 27 -37 61q0 18 15.5 32t33.5 14z" />
<glyph unicode="&#x64d;&#x651;" arabic-form="isolated" d="M496 1831l-35 154l-80 -19l33 -149q0 -23 -23 -23t-35 11t-18 38l-25 109l-84 -19l25 -106q2 -6 2 -19q-1 -6 -4 -14.5t-13.5 -22.5t-23.5 -14q-15 0 -22 27l-31 137l-80 -16l33 -156q15 -78 90 -78q52 0 73.5 19.5t32.5 72.5q40 -55 84 -55q50 0 77.5 23t27.5 59 q0 9 -4 41zM563 1683l-325 -77q-76 -25 -91 -90q40 8 101.5 19.5t92.5 17.5t74 16.5t64.5 19.5t44 23t31 31.5t8.5 39.5zM543 1542l-328 -76q-73 -25 -88 -92q43 9 103.5 21t93 18.5t74 16.5t63 19t43 22.5t30 31t9.5 39.5z" />
<glyph unicode="&#x64e;&#x651;" arabic-form="isolated" d="M463 1839l-328 -76q-75 -24 -90 -92q44 9 103.5 20.5t93 18t75 16t63.5 19t43 23t30 31t10 40.5zM487 1534l-30 154l-84 -17l30 -137q3 -6 3 -14q0 -21 -23 -21q-42 0 -53 49l-23 111l-84 -19l25 -108v-21l-2 -5q-1 -4 -4 -11.5t-7.5 -14.5t-11 -12.5t-14.5 -5.5 q-17 0 -23 25l-30 139l-80 -16l30 -158q18 -74 93 -74q51 0 72.5 19t33.5 71q40 -55 84 -55q51 0 78 23.5t27 60.5q0 13 -7 37z" />
<glyph unicode="&#x64f;&#x651;" arabic-form="isolated" d="M406 1894q0 46 -33.5 79.5t-77.5 33.5t-75.5 -32t-31.5 -81q0 -60 50 -98q-53 -44 -205 -47l45 -66q146 11 237 67t91 144zM487 1524l-30 153l-84 -16l30 -137q3 -6 3 -15q0 -20 -23 -20q-42 0 -53 49l-23 111l-84 -19l25 -108v-21l-2 -5q-1 -4 -4 -11.5t-7.5 -14.5 t-11 -12.5t-14.5 -5.5q-17 0 -23 25l-30 139l-80 -17l33 -157q15 -74 92 -74q51 0 72 19t32 71q40 -55 84 -55q51 0 78 23.5t27 60.5q0 13 -7 37zM303 1939q39 0 39 -38q0 -35 -53 -70q-37 34 -37 63q0 18 16 31.5t35 13.5z" />
<glyph unicode="&#x650;&#x651;" arabic-form="isolated" d="M451 1673l-33 158l-82 -21l29 -137q2 -4 2 -14q0 -21 -21 -21q-41 0 -53 52l-23 108l-84 -18l23 -109q2 -6 2 -18l-1 -5q-1 -4 -4 -11.5t-7.5 -14.5t-11.5 -12.5t-15 -5.5q-16 0 -22 24l-31 137l-82 -16l33 -154q15 -77 90 -77q53 0 74 19t34 71q41 -56 82 -56 q51 0 79 24t28 60q0 16 -6 37zM510 1534l-326 -76q-75 -24 -90 -92q42 9 101 20.5t92 18t75 16.5t64 19.5t44 23t31 31t9 39.5z" />
<glyph unicode="&#xfe8e;&#x64b;" horiz-adv-x="737" arabic-form="final" d="M535 1708l-328 -78q-75 -24 -90 -90q44 9 103 20.5t93 18t75 16t63 19t43.5 23t30.5 31t10 40.5zM512 1567l-326 -76q-75 -24 -90 -92q45 10 104.5 21.5t93.5 18.5t75 16.5t63 19t42.5 22.5t29 30.5t8.5 39.5zM760 0v274h-84q-78 0 -127.5 13t-75 42t-34.5 65t-9 93v834 h-287v-983q0 -159 91 -248.5t255 -89.5h271z" />
<glyph unicode="&#x627;&#x64b;" horiz-adv-x="524" arabic-form="isolated" d="M430 0v1321h-287v-1321h287zM535 1708l-328 -78q-75 -24 -90 -90q44 9 103 20.5t93 18t75 16t63 19t43.5 23t30.5 31t10 40.5zM512 1567l-326 -76q-75 -24 -90 -92q45 10 104.5 21.5t93.5 18.5t75 16.5t63 19t42.5 22.5t29 30.5t8.5 39.5z" />
<glyph unicode="&#xfedf;&#xfee0;&#xfeea;" horiz-adv-x="2443" arabic-form="isolated" d="M1767 1632h-84v-141q0 -33 -20 -33q-24 0 -36.5 17t-12.5 45v112h-84v-112q0 -27 -11.5 -43.5t-35.5 -16.5q-23 0 -23 31v141h-84v-159q0 -95 101 -95q43 0 60 12.5t36 57.5q32 -76 94 -76q51 0 75.5 24.5t24.5 76.5v159zM2378 395v924h-287v-844q0 -201 -139 -201h-262 q34 93 34 207v838h-288v-848q0 -197 -146 -197q-76 0 -128 16t-78.5 46t-37 65t-10.5 82v645q-547 0 -547 -2q-200 0 -311.5 -135t-111.5 -366q0 -216 110.5 -356t292.5 -140q213 0 291 123q98 -250 344 -250h921q160 0 256.5 111t96.5 282zM741 647q0 -127 -52 -203.5 t-142 -76.5q-85 0 -141 76.5t-56 185.5q0 121 58 205t145 84h188v-271z" />
<glyph unicode="&#xfedf;&#xfe82;" horiz-adv-x="1241" arabic-form="isolated" d="M1176 336v983h-283v-836q0 -206 -145 -209l-254 908h-304l259 -908h-306v-274h680q149 0 252 92q101 94 101 244zM578 1376l-39 111q-59 -68 -105 -68q-27 0 -102 37q-74 39 -119 39q-70 0 -135 -86l41 -113q50 68 94 68q43 0 113 -37t110 -37q71 0 142 86z" />
<glyph unicode="&#xfee0;&#xfe82;" horiz-adv-x="1474" arabic-form="final" d="M1536 0v274h-365q33 90 33 207v838h-284v-848q0 -80 -13 -106q-35 -91 -133 -91h-26l-252 908h-303l258 -908h-308v-274h1393zM578 1376l-39 111q-59 -68 -105 -68q-27 0 -102 37q-74 39 -119 39q-70 0 -135 -86l41 -113q50 68 94 68q43 0 113 -37t110 -37q71 0 142 86z " />
<glyph unicode="&#xfedf;&#xfe84;" horiz-adv-x="1243" arabic-form="isolated" d="M1178 336v983h-283v-836q0 -206 -145 -209l-254 908h-303l258 -908h-306v-274h680q149 0 252 92q101 94 101 244zM510 1303v106h-160q-28 9 -28 57q0 62 47 62q33 0 45 -43l92 43q-41 96 -137 96q-66 0 -110 -47.5t-44 -116.5q0 -29 8 -53h-80v-104h367z" />
<glyph unicode="&#xfee0;&#xfe84;" horiz-adv-x="1476" arabic-form="final" d="M1538 0v274h-364q32 88 32 207v838h-284v-848q0 -80 -13 -106q-35 -91 -133 -91h-26l-252 908h-303l258 -908h-308v-274h1393zM510 1303v106h-160q-28 9 -28 57q0 62 47 62q33 0 45 -43l92 43q-41 96 -137 96q-66 0 -110 -47.5t-44 -116.5q0 -29 8 -53h-80v-104h367z" />
<glyph unicode="&#xfedf;&#xfe88;" horiz-adv-x="1241" arabic-form="isolated" d="M1176 336v983h-283v-836q0 -206 -145 -209l-254 908h-304l259 -908h-306v-274h680q149 0 252 92q101 94 101 244zM537 -408v107h-162q-27 9 -27 57q0 62 47 62q32 0 47 -41l93 43q-41 96 -138 96q-68 0 -112.5 -47t-44.5 -117q0 -22 10 -55h-82v-105h369z" />
<glyph unicode="&#xfee0;&#xfe88;" horiz-adv-x="1474" arabic-form="final" d="M1536 0v274h-365q33 90 33 207v838h-284v-848q0 -80 -13 -106q-35 -91 -133 -91h-26l-252 908h-303l258 -908h-308v-274h1393zM537 -408v107h-162q-27 9 -27 57q0 62 47 62q32 0 47 -41l93 43q-41 96 -138 96q-68 0 -112.5 -47t-44.5 -117q0 -22 10 -55h-82v-105h369z " />
<glyph unicode="&#xfedf;&#xfe8e;" horiz-adv-x="1241" arabic-form="isolated" d="M1176 336v983h-283v-836q0 -206 -145 -209l-254 908h-304l259 -908h-306v-274h680q149 0 252 92q101 94 101 244z" />
<glyph unicode="&#xfee0;&#xfe8e;" horiz-adv-x="1474" arabic-form="final" d="M1536 0v274h-365q33 90 33 207v838h-284v-848q0 -80 -13 -106q-35 -91 -133 -91h-26l-252 908h-303l258 -908h-308v-274h1393z" />
<glyph unicode="&#x671;" horiz-adv-x="524" arabic-form="isolated" d="M430 0v1321h-287v-1321h287zM539 1450q-3 250 -156 268h-8q-40 0 -94 -26q-79 -47 -117 -129v84h-68v-121l-55 -2v-74h498zM453 1524h-244q77 112 158 112h4q58 0 82 -112z" />
<glyph unicode="&#x671;" horiz-adv-x="737" arabic-form="final" d="M539 1450q-3 250 -156 268h-8q-40 0 -94 -26q-79 -47 -117 -129v84h-68v-121l-55 -2v-74h498zM453 1524h-244q77 112 158 112h4q58 0 82 -112zM760 0v274h-84q-78 0 -127.5 13t-75 42t-34.5 65t-9 93v834h-287v-983q0 -159 91 -248.5t255 -89.5h271z" />
<glyph unicode="&#x67e;" horiz-adv-x="2117" arabic-form="final" d="M2136 0v274h-334q33 90 33 207v447h-287v-457q0 -197 -145 -197h-653q-199 0 -287 52q-115 65 -115 247v357h-282v-357q0 -573 677 -573h1393zM1237 -365v203h-217v-203h217zM907 -365v203h-215v-203h215zM1071 -641v203h-217v-203h217z" />
<glyph unicode="&#x67e;" horiz-adv-x="659" arabic-form="initial" d="M594 395v533h-287v-453q0 -201 -145 -201h-211v-274h272q182 0 283 125q88 107 88 270zM592 -365v203h-215v-203h215zM264 -365v203h-217v-203h217zM428 -641v203h-217v-203h217z" />
<glyph unicode="&#x67e;" horiz-adv-x="880" arabic-form="medial" d="M901 0v274h-336q35 96 35 207v447h-289v-457q0 -197 -145 -197h-189v-274h924zM614 -365v203h-215v-203h215zM287 -365v203h-217v-203h217zM451 -641v203h-218v-203h218z" />
<glyph unicode="&#x6a4;" horiz-adv-x="2158" arabic-form="final" d="M1653 1546v213h-228v-213h228zM1835 1249v213h-229v-213h229zM1487 1249v213h-230v-213h230zM2200 0v274h-162q-131 0 -166 2q133 154 133 349q0 77 -25 157q-47 149 -170 236.5t-284 87.5q-160 0 -283 -87.5t-170 -236.5q-24 -76 -24 -157q0 -196 135 -349 q-37 -2 -168 -2h-266q-198 0 -287 50q-115 65 -115 249v355h-282v-355q0 -573 675 -573h275q356 0 510 59q171 -59 512 -59h162zM1626 412q-54 -41 -100 -62q-48 23 -99 62q-120 86 -120 229q0 96 60.5 161.5t158.5 65.5q101 0 161 -65t60 -162q0 -143 -121 -229z" />
<glyph unicode="&#x6a4;" horiz-adv-x="1222" arabic-form="initial" d="M809 1352v213h-231v-213h231zM989 1053v213h-229v-213h229zM641 1053v213h-229v-213h229zM1157 467q0 216 -132.5 339.5t-348.5 123.5q-214 0 -338.5 -125.5t-124.5 -339.5q0 -106 33 -191h-277v-274h719q212 0 340.5 130t128.5 337zM872 459q0 -101 -50.5 -164.5 t-135.5 -63.5q-89 0 -140.5 65t-51.5 173q0 101 48.5 166t129.5 65h18q182 0 182 -241z" />
<glyph unicode="&#x6a4;" horiz-adv-x="1280" arabic-form="medial" d="M791 1542v213h-230v-213h230zM973 1245v213h-232v-213h232zM625 1245v213h-230v-213h230zM1391 0v274h-232q-125 0 -168 17q133 151 133 336q0 211 -136.5 345t-340.5 134q-200 0 -338.5 -134.5t-138.5 -344.5q0 -185 133 -336q-39 -17 -168 -17h-229v-274h229 q299 0 512 76q213 -76 512 -76h232zM748 412q-57 -41 -101 -62q-108 55 -162.5 126t-54.5 171q0 103 60.5 169.5t156.5 66.5q100 0 159.5 -68t59.5 -168q0 -151 -118 -235z" />
<glyph unicode="&#x686;" horiz-adv-x="1435" arabic-form="final" d="M811 184v111h-121v-111h121zM627 184v111h-121v-111h121zM719 31v110h-121v-110h121zM1454 0v274h-35q-287 0 -342 314q-19 301 -172.5 462.5t-427.5 161.5q-68 0 -143 -16v-254q64 23 125 23q273 0 329 -273q-257 -3 -296 -10q-195 -32 -310.5 -168.5t-115.5 -337.5 q0 -242 155 -378t449 -136h190v285h-211q-297 0 -297 223q0 240 297 240h189q72 -200 225 -305t375 -105h16z" />
<glyph unicode="&#x686;" horiz-adv-x="1488" arabic-form="initial" d="M1053 -365v203h-217v-203h217zM725 -365v203h-217v-203h217zM887 -641v203h-215v-203h215zM1425 0v94q0 406 -182 630.5t-530 225.5q-300 0 -508 -217q35 -47 82 -111t61 -83q63 64 158 105.5t186 41.5q178 0 298.5 -118.5t129.5 -293.5h-1159v-274h1464z" />
<glyph unicode="&#x686;" horiz-adv-x="1617" arabic-form="medial" d="M1683 0v274h-258q-52 454 -383 611q-139 65 -319 65q-298 0 -506 -217q35 -47 82 -111t61 -83q61 64 156 105.5t186 41.5q195 0 316 -133q108 -117 117 -279h-1164v-274h1712zM1065 -365v203h-217v-203h217zM737 -365v203h-217v-203h217zM899 -641v203h-217v-203h217z " />
<glyph unicode="&#x698;" horiz-adv-x="935" arabic-form="final" d="M657 1083v236h-254v-236h254zM979 0v274h-303v654h-289v-764q0 -270 -283 -270v-232q487 0 558 338h317zM285 1083v236h-254v-236h254zM459 1403v235h-254v-235h254z" />
<glyph unicode="&#x6cc;" horiz-adv-x="659" arabic-form="initial" d="M594 395v533h-287v-453q0 -201 -145 -201h-182v-274h243q180 0 281 125q90 110 90 270zM575 -340v238h-256v-238h256zM188 -340v238h-254v-238h254z" />
<glyph unicode="&#x6cc;" horiz-adv-x="886" arabic-form="medial" d="M907 0v274h-334q33 90 33 207v447h-289v-457q0 -197 -143 -197h-188v-274h921zM578 -340v238h-254v-238h254zM193 -340v238h-254v-238h254z" />
<glyph unicode="&#x622;" horiz-adv-x="737" arabic-form="final" d="M543 1495l-39 111q-59 -68 -105 -68q-11 0 -103.5 38t-117.5 38q-70 0 -135 -86l41 -113q50 68 94 68q24 0 112.5 -37t110.5 -37q71 0 142 86zM760 0v274h-84q-78 0 -127.5 13t-75 42t-34.5 65t-9 93v834h-287v-983q0 -159 91 -248.5t255 -89.5h271z" />
<glyph unicode="&#x623;" horiz-adv-x="737" arabic-form="final" d="M467 1434v106h-160q-28 9 -28 57q0 62 47 62q33 0 45 -43l92 43q-41 96 -137 96q-66 0 -110 -47.5t-44 -116.5q0 -29 8 -53h-80v-104h367zM760 0v274h-84q-78 0 -127.5 13t-75 42t-34.5 65t-9 93v834h-287v-983q0 -159 91 -248.5t255 -89.5h271z" />
<glyph unicode="&#x624;" horiz-adv-x="1275" arabic-form="final" d="M1313 0v274h-266v187q0 204 -129 336.5t-326 132.5q-205 0 -335 -128.5t-130 -334.5q0 -203 131.5 -335t333.5 -132q142 0 176 12q-18 -66 -71.5 -93.5t-151.5 -27.5v-229h30q417 0 467 338h271zM760 274h-166q-79 0 -127.5 58t-48.5 147q0 85 43.5 139t122.5 54 q80 0 128 -54t48 -145v-199zM819 1044v130h-198q-35 15 -35 71q0 78 57 78q44 0 59 -53l115 53q-53 121 -172 121q-82 0 -137 -58.5t-55 -146.5q0 -27 12 -65h-100v-130h454z" />
<glyph unicode="&#x625;" horiz-adv-x="737" arabic-form="final" d="M537 -408v107h-162q-27 9 -27 57q0 62 47 62q32 0 47 -41l93 43q-41 96 -138 96q-68 0 -112.5 -47t-44.5 -117q0 -22 10 -55h-82v-105h369zM760 0v274h-84q-78 0 -127.5 13t-75 42t-34.5 65t-9 93v834h-287v-983q0 -159 91 -248.5t255 -89.5h271z" />
<glyph unicode="&#x626;" horiz-adv-x="2023" arabic-form="final" d="M653 791v165h-250q-47 18 -47 93q0 98 76 98q53 0 74 -68l145 68q-65 151 -217 151q-106 0 -177 -74t-71 -184q0 -31 17 -84h-127v-165h577zM2032 0v299h-50q-104 0 -164.5 30t-99.5 105q-159 307 -499 307q-136 0 -136 -2v-272q27 6 54 6q84 0 145 -54.5t61 -139.5 q0 -103 -67.5 -186.5t-174 -128t-227.5 -44.5q-233 0 -362 135t-129 363v239h-311v-268q0 -158 62.5 -298.5t168.5 -241.5t253.5 -159.5t311.5 -58.5q181 0 340 63t267.5 177.5t140.5 259.5q131 -131 401 -131h15z" />
<glyph unicode="&#x626;" horiz-adv-x="643" arabic-form="initial" d="M578 928v153h-232q-43 15 -43 84q0 90 68 90q49 0 67 -61l137 63q-62 140 -200 140q-98 0 -163 -69t-65 -169q0 -37 15 -80h-117v-151h533zM578 395v420h-287v-340q0 -89 -25 -137q-34 -64 -121 -64h-176v-274h236q181 0 282 125q91 111 91 270z" />
<glyph unicode="&#x626;" horiz-adv-x="880" arabic-form="medial" d="M608 928v153h-229q-43 15 -43 84q0 90 70 90q47 0 65 -61l135 63q-59 140 -198 140q-98 0 -164 -69t-66 -169q0 -31 17 -80h-117v-151h530zM901 0v274h-336q35 96 35 207v332h-289v-342q0 -197 -145 -197h-189v-274h924z" />
<glyph unicode="&#x627;" horiz-adv-x="737" arabic-form="final" d="M760 0v274h-84q-78 0 -127.5 13t-75 42t-34.5 65t-9 93v834h-287v-983q0 -159 91 -248.5t255 -89.5h271z" />
<glyph unicode="&#x628;" horiz-adv-x="2117" arabic-form="final" d="M2136 0v274h-334q33 90 33 207v447h-287v-457q0 -197 -145 -197h-653q-199 0 -287 52q-115 65 -115 247v355h-282v-355q0 -573 677 -573h1393zM1116 -340v238h-256v-238h256z" />
<glyph unicode="&#x628;" horiz-adv-x="659" arabic-form="initial" d="M594 395v533h-287v-453q0 -201 -145 -201h-182v-274h243q180 0 281 125q90 110 90 270zM578 -340v238h-254v-238h254z" />
<glyph unicode="&#x628;" horiz-adv-x="880" arabic-form="medial" d="M901 0v274h-336q35 96 35 207v447h-289v-457q0 -197 -145 -197h-189v-274h924zM571 -340v238h-254v-238h254z" />
<glyph unicode="&#x629;" horiz-adv-x="1355" arabic-form="final" d="M934 1319v237h-254v-237h254zM549 1319v237h-254v-237h254zM1393 0v274h-148q-104 0 -156.5 53.5t-52.5 155.5v645q-547 0 -547 -2q-200 0 -311.5 -135t-111.5 -366q0 -216 110.5 -356t292.5 -140q213 0 291 123q99 -252 344 -252h289zM741 647q0 -127 -52 -203.5 t-142 -76.5q-85 0 -141 76.5t-56 185.5q0 121 58 205t145 84h188v-271z" />
<glyph unicode="&#x62a;" horiz-adv-x="2117" arabic-form="final" d="M1284 928v237h-256v-237h256zM897 928v237h-256v-237h256zM2136 0v274h-334q33 90 33 207v447h-287v-457q0 -197 -145 -197h-653q-199 0 -287 52q-115 65 -115 247v357h-282v-357q0 -573 677 -573h1393z" />
<glyph unicode="&#x62a;" horiz-adv-x="659" arabic-form="initial" d="M575 1083v236h-256v-236h256zM188 1083v236h-254v-236h254zM594 395v533h-287v-453q0 -201 -145 -201h-182v-274h243q180 0 281 125q90 110 90 270z" />
<glyph unicode="&#x62a;" horiz-adv-x="880" arabic-form="medial" d="M578 1083v236h-254v-236h254zM193 1083v236h-254v-236h254zM901 0v274h-336q35 96 35 207v447h-289v-457q0 -197 -145 -197h-189v-274h924z" />
<glyph unicode="&#x62b;" horiz-adv-x="2117" arabic-form="final" d="M1096 1255v238h-256v-238h256zM1290 930v235h-256v-235h256zM903 930v235h-256v-235h256zM2136 0v274h-334q33 90 33 207v447h-287v-457q0 -197 -145 -197h-653q-199 0 -287 52q-115 65 -115 247v357h-282v-357q0 -573 677 -573h1393z" />
<glyph unicode="&#x62b;" horiz-adv-x="659" arabic-form="initial" d="M379 1421v236h-254v-236h254zM575 1083v236h-256v-236h256zM188 1083v236h-254v-236h254zM594 395v533h-287v-453q0 -201 -145 -201h-182v-274h243q180 0 281 125q90 110 90 270z" />
<glyph unicode="&#x62b;" horiz-adv-x="882" arabic-form="medial" d="M383 1421v236h-254v-236h254zM578 1083v236h-254v-236h254zM193 1083v236h-254v-236h254zM905 0v274h-336q33 90 33 207v447h-287v-457q0 -197 -145 -197h-188v-274h923z" />
<glyph unicode="&#x62c;" horiz-adv-x="1435" arabic-form="final" d="M1454 0v274h-35q-287 0 -342 314q-19 301 -172.5 462.5t-427.5 161.5q-68 0 -143 -16v-254q64 23 125 23q273 0 329 -273q-257 -3 -296 -10q-195 -32 -310.5 -168.5t-115.5 -337.5q0 -242 155 -378t449 -136h190v285h-211q-297 0 -297 223q0 240 297 240h189 q72 -200 225 -305t375 -105h16zM788 74v235h-256v-235h256z" />
<glyph unicode="&#x62c;" horiz-adv-x="1492" arabic-form="initial" d="M1425 0v94q0 406 -182 630.5t-530 225.5q-300 0 -508 -217q35 -47 82 -111t61 -83q63 64 158 105.5t186 41.5q178 0 298.5 -118.5t129.5 -293.5h-1159v-274h1464zM870 -340v238h-256v-238h256z" />
<glyph unicode="&#x62c;" horiz-adv-x="1617" arabic-form="medial" d="M1683 0v274h-258q-52 454 -383 611q-139 65 -319 65q-298 0 -506 -217q35 -47 82 -111t61 -83q61 64 156 105.5t186 41.5q195 0 316 -133q108 -117 117 -279h-1164v-274h1712zM872 -340v238h-254v-238h254z" />
<glyph unicode="&#x62d;" horiz-adv-x="1435" arabic-form="final" d="M1454 0v274h-35q-287 0 -342 314q-19 301 -172.5 462.5t-427.5 161.5q-68 0 -143 -16v-254q64 23 125 23q273 0 329 -273q-257 -3 -296 -10q-195 -32 -310.5 -168.5t-115.5 -337.5q0 -242 155 -378t449 -136h190v285h-211q-297 0 -297 223q0 240 297 240h189 q72 -200 225 -305t375 -105h16z" />
<glyph unicode="&#x62d;" horiz-adv-x="1492" arabic-form="initial" d="M1425 0v94q0 406 -182 630.5t-530 225.5q-300 0 -508 -217q35 -47 82 -111t61 -83q63 64 158 105.5t186 41.5q178 0 298.5 -118.5t129.5 -293.5h-1159v-274h1464z" />
<glyph unicode="&#x62d;" horiz-adv-x="1617" arabic-form="medial" d="M1642 0v274h-217q-52 454 -383 611q-139 65 -319 65q-298 0 -506 -217q35 -47 82 -111t61 -83q61 64 156 105.5t186 41.5q195 0 316 -133q108 -117 117 -279h-1164v-274h1671z" />
<glyph unicode="&#x62e;" horiz-adv-x="1435" arabic-form="final" d="M786 1319v237h-256v-237h256zM1454 0v274h-35q-287 0 -342 314q-19 301 -172.5 462.5t-427.5 161.5q-68 0 -143 -16v-254q64 23 125 23q273 0 329 -273q-257 -3 -296 -10q-195 -32 -310.5 -168.5t-115.5 -337.5q0 -242 155 -378t449 -136h190v285h-211q-297 0 -297 223 q0 240 297 240h189q72 -200 225 -305t375 -105h16z" />
<glyph unicode="&#x62e;" horiz-adv-x="1492" arabic-form="initial" d="M834 1083v236h-256v-236h256zM1425 0v94q0 406 -182 630.5t-530 225.5q-300 0 -508 -217q35 -47 82 -111t61 -83q63 64 158 105.5t186 41.5q178 0 298.5 -118.5t129.5 -293.5h-1159v-274h1464z" />
<glyph unicode="&#x62e;" horiz-adv-x="1617" arabic-form="medial" d="M846 1083v236h-254v-236h254zM1642 0v274h-217q-52 454 -383 611q-139 65 -319 65q-298 0 -506 -217q35 -47 82 -111t61 -83q61 64 156 105.5t186 41.5q195 0 316 -133q108 -117 117 -279h-1164v-274h1671z" />
<glyph unicode="&#x62f;" horiz-adv-x="1417" arabic-form="final" d="M1454 0v276h-297q0 463 -424 613q-110 39 -383 39v-240q273 0 396.5 -99t123.5 -315h-743v-274h1327z" />
<glyph unicode="&#x630;" horiz-adv-x="1417" arabic-form="final" d="M733 1083v236h-256v-236h256zM1454 0v276h-297q0 463 -424 613q-110 39 -383 39v-240q273 0 396.5 -99t123.5 -315h-743v-274h1327z" />
<glyph unicode="&#x631;" horiz-adv-x="935" arabic-form="final" d="M979 0v274h-303v654h-289v-764q0 -270 -283 -270v-232q487 0 558 338h317z" />
<glyph unicode="&#x632;" horiz-adv-x="935" arabic-form="final" d="M657 1083v236h-254v-236h254zM979 0v274h-303v654h-289v-764q0 -270 -283 -270v-232q487 0 558 338h317z" />
<glyph unicode="&#x633;" horiz-adv-x="2795" arabic-form="final" d="M2824 0v274h-334q37 93 37 209v445h-289v-469q0 -185 -145 -185h-182q35 93 35 207v447h-287v-469q0 -185 -146 -185h-153q4 54 4 82v68q2 18 2 57v447h-2v2h-289v-547q0 -186 -82 -311q-100 -146 -276 -146q-181 0 -277 146q-84 128 -84 311v547h-286v-574 q0 -297 186 -495q189 -201 461 -201q285 3 469 211q49 58 92 129h1546z" />
<glyph unicode="&#x633;" horiz-adv-x="1873" arabic-form="initial" d="M-66 0h1430q153 0 274 109q150 135 150 374v445h-289v-469q0 -185 -145 -185h-183q35 93 35 207v447h-286v-469q0 -185 -146 -185h-182q35 93 35 207v447h-289v-457q0 -82 -12 -106q-35 -91 -133 -91h-259v-274z" />
<glyph unicode="&#x633;" horiz-adv-x="2058" arabic-form="medial" d="M2085 0v274h-334q37 93 37 209v445h-289v-469q0 -185 -145 -185h-183q35 93 35 207v447h-286v-469q0 -185 -146 -185h-182q35 93 35 207v447h-289v-459q0 -104 -36 -149.5t-109 -45.5h-218v-274h2110z" />
<glyph unicode="&#x634;" horiz-adv-x="2795" arabic-form="final" d="M2824 0v274h-334q37 93 37 209v445h-289v-469q0 -185 -145 -185h-182q35 93 35 207v447h-287v-469q0 -185 -146 -185h-153q4 54 4 82v68q2 18 2 57v447h-2v2h-289v-547q0 -186 -82 -311q-100 -146 -276 -146q-181 0 -277 146q-84 128 -84 311v547h-286v-574 q0 -297 186 -495q189 -201 461 -201q285 3 469 211q49 58 92 129h1546zM1729 1083v236h-256v-236h256zM1917 1421v236h-254v-236h254zM2114 1083v236h-254v-236h254z" />
<glyph unicode="&#x634;" horiz-adv-x="1873" arabic-form="initial" d="M1788 483v445h-289v-469q0 -185 -145 -185h-183q35 93 35 207v447h-286v-469q0 -185 -146 -185h-182q35 93 35 207v447h-289v-457q0 -107 -36 -152t-109 -45h-259v-274h504l2 -2v2h924q180 0 302 137t122 346zM993 1083v236h-256v-236h256zM1182 1421v236h-254v-236h254z M1378 1083v236h-254v-236h254z" />
<glyph unicode="&#x634;" horiz-adv-x="2058" arabic-form="medial" d="M2085 0v274h-334q37 93 37 209v445h-289v-469q0 -185 -145 -185h-183q35 93 35 207v447h-286v-469q0 -185 -146 -185h-182q35 93 35 207v447h-289v-459q0 -104 -36 -149.5t-109 -45.5h-259v-274h2151zM989 1083v236h-256v-236h256zM1178 1421v236h-254v-236h254z M1374 1083v236h-254v-236h254z" />
<glyph unicode="&#x635;" horiz-adv-x="2770" arabic-form="final" d="M2793 0v274h-223q-20 316 -164 487t-395 171q-171 0 -341 -97t-306 -270v365h-289v-547q0 -205 -97 -331t-261 -126q-166 0 -263.5 127.5t-97.5 329.5v547h-286v-574q0 -193 86 -353t234.5 -251.5t326.5 -91.5q360 0 561 340h1515zM2271 274h-839q239 408 557 408 q132 0 208 -104t76 -267z" />
<glyph unicode="&#x635;" horiz-adv-x="1939" arabic-form="initial" d="M1829 0q10 105 10 188q0 351 -145.5 547.5t-417.5 196.5q-172 0 -343 -99t-308 -276v272h-287v-358q0 -107 -36 -152t-109 -45h-259v-274h1895zM1538 274h-840q239 408 557 408q132 0 208.5 -104t76.5 -267z" />
<glyph unicode="&#x635;" horiz-adv-x="2035" arabic-form="medial" d="M2054 0v274h-223q-20 316 -164 487t-395 171q-171 0 -341 -97t-306 -270v264h-287v-358q0 -107 -36 -152t-109 -45h-259v-274h2120zM1532 274h-840q239 408 557 408q132 0 208.5 -104t76.5 -267z" />
<glyph unicode="&#x636;" horiz-adv-x="2770" arabic-form="final" d="M2793 0v274h-223q-20 316 -164 487t-395 171q-171 0 -341 -97t-306 -270v365h-289v-547q0 -205 -97 -331t-261 -126q-166 0 -263.5 127.5t-97.5 329.5v547h-286v-574q0 -193 86 -353t234.5 -251.5t326.5 -91.5q360 0 561 340h1515zM2271 274h-839q239 408 557 408 q132 0 208 -104t76 -267zM2089 1083v236h-256v-236h256z" />
<glyph unicode="&#x636;" horiz-adv-x="1939" arabic-form="initial" d="M1829 0q10 105 10 188q0 351 -145.5 547.5t-417.5 196.5q-172 0 -343 -99t-308 -276v272h-287v-358q0 -107 -36 -152t-109 -45h-259v-274h1895zM1538 274h-840q239 408 557 408q132 0 208.5 -104t76.5 -267zM1356 1083v236h-256v-236h256z" />
<glyph unicode="&#x636;" horiz-adv-x="2035" arabic-form="medial" d="M2054 0v274h-223q-20 316 -164 487t-395 171q-171 0 -341 -97t-306 -270v264h-287v-358q0 -107 -36 -152t-109 -45h-259v-274h2120zM1532 274h-840q239 408 557 408q93 0 158.5 -57.5t95 -147.5t29.5 -203zM1350 1083v236h-256v-236h256z" />
<glyph unicode="&#x637;" horiz-adv-x="1861" arabic-form="final" d="M1882 0v274h-223q-19 313 -163.5 485.5t-395.5 172.5q-307 0 -574 -283l27 670h-287v-1045h-200v-274h1816zM1360 274h-840q239 408 555 408q134 0 209.5 -103.5t75.5 -275.5v-29z" />
<glyph unicode="&#x637;" horiz-adv-x="1775" arabic-form="initial" d="M1698 0q10 105 10 188q0 350 -145 547t-418 197q-302 0 -572 -283l27 670h-285v-1045h-419v-274h1802zM1407 274h-840q239 408 557 408q131 0 208 -102t77 -265q0 -27 -2 -41z" />
<glyph unicode="&#x637;" horiz-adv-x="1910" arabic-form="medial" d="M1931 0v274h-223q-23 318 -166.5 488t-394.5 170q-304 0 -574 -283l27 670h-285v-1045h-327v-274h1943zM1407 274h-840q239 408 557 408q131 0 208 -102t77 -265q0 -27 -2 -41z" />
<glyph unicode="&#x638;" horiz-adv-x="1861" arabic-form="final" d="M1178 1083v236h-256v-236h256zM1882 0v274h-223q-19 313 -163.5 485.5t-395.5 172.5q-307 0 -574 -283l27 670h-287v-1045h-200v-274h1816zM1178 1083h-256v236h256v-236zM1360 274h-840q239 408 555 408q134 0 208.5 -103.5t76.5 -275.5v-29zM1178 1083v236h-256v-236 h256z" />
<glyph unicode="&#x638;" horiz-adv-x="1775" arabic-form="initial" d="M1249 1083v236h-256v-236h256zM1698 0q10 105 10 188q0 350 -145 547t-418 197q-302 0 -572 -283l27 670h-285v-1045h-419v-274h1802zM1407 274h-840q239 408 557 408q131 0 208 -102t77 -265q0 -27 -2 -41z" />
<glyph unicode="&#x638;" horiz-adv-x="1910" arabic-form="medial" d="M1202 1083v236h-254v-236h254zM1931 0v274h-223q-23 318 -166.5 488t-394.5 170q-304 0 -574 -283l27 670h-285v-1045h-327v-274h1943zM1202 1083h-254v236h254v-236zM1407 274h-840q239 408 557 408q131 0 208 -102t77 -265q0 -27 -2 -41zM1202 1083v236h-254v-236h254z " />
<glyph unicode="&#x639;" horiz-adv-x="1548" arabic-form="final" d="M1569 0v274h-23q-174 0 -260 95.5t-86 292.5h-459q-114 43 -114 202q0 95 48.5 156t123.5 61q117 0 157 -118l230 106q-51 118 -152.5 184t-230.5 66q-193 0 -320 -135t-127 -332q0 -107 50 -219q-164 -51 -252 -174t-88 -297q0 -237 150 -369.5t433 -132.5h377v277h-393 q-291 0 -291 225q0 118 69 170.5t222 52.5h342q131 -382 575 -385h19z" />
<glyph unicode="&#x639;" horiz-adv-x="1189" arabic-form="initial" d="M1122 0v274h-475q-115 47 -115 211q0 94 43 152q46 70 134 70q122 0 163 -121l236 108q-54 122 -158.5 191t-234.5 69q-202 0 -334 -141q-129 -141 -129 -342q0 -88 41 -197h-324v-274h1153z" />
<glyph unicode="&#x639;" horiz-adv-x="1662" arabic-form="medial" d="M1708 0v274h-467q-99 0 -154 52q110 67 236 211q115 133 150 217q-293 225 -633 225q-290 0 -568 -166v-235q116 -20 250 -103q112 -70 156 -131q-113 -70 -266 -70h-447v-274h451q123 0 254 41q117 40 192 102q137 -143 318 -143h528zM1118 678q-22 -38 -94 -100 q-77 -70 -133 -95q-69 81 -127 123q-57 42 -148 82q117 57 244 57t258 -67z" />
<glyph unicode="&#x63a;" horiz-adv-x="1548" arabic-form="final" d="M926 1464v238h-254v-238h254zM1569 0v274h-23q-174 0 -260 95.5t-86 292.5h-459q-114 43 -114 202q0 95 48.5 156t123.5 61q117 0 157 -118l230 106q-51 118 -152.5 184t-230.5 66q-193 0 -320 -135t-127 -332q0 -107 50 -219q-164 -51 -252 -174t-88 -297 q0 -237 150 -369.5t433 -132.5h377v277h-393q-291 0 -291 225q0 118 69 170.5t222 52.5h342q131 -382 575 -385h19z" />
<glyph unicode="&#x63a;" horiz-adv-x="1189" arabic-form="initial" d="M844 1083v236h-254v-236h254zM1122 0v274h-475q-115 47 -115 211q0 94 43 152q46 70 134 70q122 0 163 -121l236 108q-54 122 -158.5 191t-234.5 69q-202 0 -334 -141q-129 -141 -129 -342q0 -88 41 -197h-328v-274h1157z" />
<glyph unicode="&#x63a;" horiz-adv-x="1662" arabic-form="medial" d="M991 1126v236h-256v-236h256zM1708 0v274h-467q-99 0 -154 52q110 67 236 211q115 133 150 217q-293 225 -633 225q-290 0 -568 -166v-235q116 -20 250 -103q112 -70 156 -131q-113 -70 -266 -70h-447v-274h451q123 0 254 41q117 40 192 102q137 -143 318 -143h528z M1118 678q-22 -38 -94 -100q-77 -70 -133 -95q-69 81 -127 123q-57 42 -148 82q117 57 244 57t258 -67z" />
<glyph unicode="&#x641;" horiz-adv-x="2158" arabic-form="final" d="M1651 1284v236h-254v-236h254zM2177 0v274h-139q-131 0 -166 2q133 154 133 349q0 77 -25 157q-47 149 -170 236.5t-284 87.5q-160 0 -283 -87.5t-170 -236.5q-24 -76 -24 -157q0 -196 135 -349q-37 -2 -168 -2h-266q-199 0 -287 52q-115 65 -115 247v355h-282v-355 q0 -573 675 -573h275q342 0 510 59q171 -59 512 -59h139zM1626 412q-54 -41 -100 -62q-48 23 -99 62q-120 86 -120 229q0 96 60.5 161.5t158.5 65.5q101 0 161 -65t60 -162q0 -143 -121 -229z" />
<glyph unicode="&#x641;" horiz-adv-x="1249" arabic-form="initial" d="M821 1085v236h-254v-236h254zM1184 467q0 219 -133 340q-132 123 -349 123q-213 0 -337.5 -125.5t-124.5 -339.5q0 -109 32 -191h-307v-274h750q214 0 340 129q129 129 129 338zM899 459q0 -96 -45 -158q-52 -70 -141 -70q-95 0 -148 74q-45 62 -45 164q0 91 41 156 q49 75 135 75h21q182 0 182 -241z" />
<glyph unicode="&#x641;" horiz-adv-x="1282" arabic-form="medial" d="M770 1284v236h-254v-236h254zM1325 0v274h-166q-125 0 -168 17q133 151 133 336q0 79 -24 155q-47 150 -168 237t-285 87q-161 0 -281.5 -87t-170.5 -237q-25 -80 -25 -155q0 -185 133 -336q-39 -17 -168 -17h-186v-274h186q299 0 512 76q213 -76 512 -76h166zM748 412 q-57 -41 -101 -62q-45 22 -98 62q-119 85 -119 235q0 96 53 164q66 72 164 72q100 0 159.5 -68t59.5 -168q0 -151 -118 -235z" />
<glyph unicode="&#x642;" horiz-adv-x="1736" arabic-form="final" d="M1327 1094v225h-244v-225h244zM954 1094v225h-241v-225h241zM1759 0v274h-274v279q0 204 -124 322t-337 118q-197 0 -320.5 -137.5t-123.5 -345.5q0 -223 138.5 -366t360.5 -146q-115 -80 -303 -80q-205 0 -319.5 117t-114.5 321v367h-276v-391q0 -191 97 -346 t260.5 -240.5t358.5 -85.5q215 0 378.5 89.5t248.5 250.5h350zM1212 504v-230h-47q-147 0 -225 61.5t-78 178.5q0 107 47.5 182.5t130.5 75.5q172 0 172 -268z" />
<glyph unicode="&#x642;" horiz-adv-x="1249" arabic-form="initial" d="M1018 1083v236h-254v-236h254zM631 1083v236h-254v-236h254zM1184 467q0 219 -133 340q-132 123 -349 123q-213 0 -337.5 -125.5t-124.5 -339.5q0 -109 32 -191h-292v-274h735q214 0 340 129q129 129 129 338zM899 459q0 -96 -45 -158q-52 -70 -141 -70q-95 0 -148 74 q-45 62 -45 164q0 91 41 156q49 75 135 75h21q182 0 182 -241z" />
<glyph unicode="&#x642;" horiz-adv-x="1282" arabic-form="medial" d="M969 1284v236h-254v-236h254zM582 1284v236h-254v-236h254zM1325 0v274h-166q-125 0 -168 17q133 151 133 336q0 79 -24 155q-47 150 -168 237t-285 87q-161 0 -281.5 -87t-170.5 -237q-25 -80 -25 -155q0 -185 133 -336q-39 -17 -168 -17h-186v-274h186q299 0 512 76 q213 -76 512 -76h166zM748 412q-57 -41 -101 -62q-45 22 -98 62q-119 85 -119 235q0 96 53 164q66 72 164 72q100 0 159.5 -68t59.5 -168q0 -151 -118 -235z" />
<glyph unicode="&#x643;" horiz-adv-x="2117" arabic-form="final" d="M1208 727v156h-231q-45 15 -45 84q0 88 69 88q49 0 70 -62l133 64q-62 139 -200 139q-97 0 -161.5 -67.5t-64.5 -170.5q0 -30 13 -77h-117v-154h534zM2138 0v274h-336q35 96 35 207v838h-287v-834q0 -86 -20.5 -129t-78 -62.5t-173.5 -19.5h-528q-222 0 -312 68t-90 233 v353h-282v-353q0 -575 677 -575h1395z" />
<glyph unicode="&#x643;" horiz-adv-x="1466" arabic-form="initial" d="M1401 0v106q0 365 -152 579.5t-442 244.5h-158l258 389h-340l-409 -653h516q161 0 277.5 -111.5t138.5 -280.5h-1180v-274h1491z" />
<glyph unicode="&#x643;" horiz-adv-x="1636" arabic-form="medial" d="M1669 0v274h-262q-46 410 -320 574q-113 67 -266 82h-153l256 389h-342l-406 -653h516q166 0 283 -117q110 -110 131 -275h-1126v-274h1689z" />
<glyph unicode="&#x644;" horiz-adv-x="1638" arabic-form="final" d="M1667 0v274h-307v1045h-287v-936q0 -215 -94.5 -336t-263.5 -121t-266 126t-97 331v176h-286v-203q0 -193 86 -353t234.5 -251.5t326.5 -91.5q179 0 326.5 90t232.5 250h395z" />
<glyph unicode="&#x644;" horiz-adv-x="643" arabic-form="initial" d="M578 395v924h-287v-844q0 -201 -146 -201h-211v-274h271q181 0 282 125q91 111 91 270z" />
<glyph unicode="&#x644;" horiz-adv-x="880" arabic-form="medial" d="M901 0v274h-336q35 96 35 207v838h-289v-848q0 -197 -145 -197h-195v-274h930z" />
<glyph unicode="&#x645;" horiz-adv-x="1976" arabic-form="final" d="M1987 0v274h-15q-165 3 -241.5 70t-116.5 244q-36 157 -157 248.5t-298 91.5h-584q-229 0 -369 -148.5t-140 -396.5v-723h282v678q0 311 240 311h131q-33 -82 -33 -190q0 -211 126 -338t337 -127q253 0 385 164q167 -158 440 -158h13zM1346 467q0 -242 -183 -242h-20 q-78 0 -127 65.5t-49 168.5t51 169t139 66q86 0 137.5 -62t51.5 -165z" />
<glyph unicode="&#x645;" horiz-adv-x="1251" arabic-form="initial" d="M1186 291q0 211 -130 337t-351 126q-219 0 -341 -129t-122 -351h-285v-274h369q126 -176 389 -176q213 0 342 130t129 337zM901 281q0 -100 -51 -162t-135 -62q-91 0 -142 65t-51 171q0 102 49 166.5t127 64.5h21q182 0 182 -243z" />
<glyph unicode="&#x645;" horiz-adv-x="1337" arabic-form="medial" d="M1378 0v274h-239q0 225 -127.5 352.5t-352.5 127.5q-221 0 -342.5 -128t-121.5 -352h-230v-274h314q129 -176 389 -176q257 0 383 176h327zM854 281q0 -103 -49.5 -163.5t-136.5 -60.5q-89 0 -140 65.5t-51 170.5q0 101 48.5 166t125.5 65h21q182 0 182 -243z" />
<glyph unicode="&#x646;" horiz-adv-x="1638" arabic-form="final" d="M854 1083v236h-254v-236h254zM1692 0v274h-332v654h-287v-545q0 -201 -97.5 -329t-260.5 -128q-166 0 -263.5 126t-97.5 331v545h-288v-572q0 -193 86 -353t234.5 -251.5t326.5 -91.5q179 0 326.5 90t232.5 250h420z" />
<glyph unicode="&#x646;" horiz-adv-x="659" arabic-form="initial" d="M575 1083v236h-256v-236h256zM594 395v533h-287v-453q0 -201 -145 -201h-182v-274h243q180 0 281 125q90 110 90 270z" />
<glyph unicode="&#x646;" horiz-adv-x="880" arabic-form="medial" d="M578 1083v236h-256v-236h256zM901 0v274h-336q35 96 35 207v447h-289v-457q0 -197 -145 -197h-189v-274h924z" />
<glyph unicode="&#x647;" horiz-adv-x="1355" arabic-form="final" d="M1393 0v274h-148q-104 0 -156.5 53.5t-52.5 155.5v645q-547 0 -547 -2q-200 0 -311.5 -135t-111.5 -366q0 -216 110.5 -356t292.5 -140q213 0 291 123q99 -252 344 -252h289zM741 647q0 -127 -52 -203.5t-142 -76.5q-85 0 -141 76.5t-56 185.5q0 121 58 205t145 84h188 v-271z" />
<glyph unicode="&#x647;" horiz-adv-x="1583" arabic-form="initial" d="M1466 0q52 204 52 381q0 305 -150 516q-94 135 -257 230t-327 110l-24 -276q152 -16 261 -97t162.5 -205t55.5 -280l-4 -105h-199q37 81 37 179q0 189 -119.5 298t-312.5 109q-194 0 -314 -111t-120 -296q0 -100 39 -179h-305v-274h1525zM801 455q0 -77 -45.5 -130 t-114.5 -53t-113.5 52.5t-44.5 130.5q0 77 42.5 125.5t115.5 48.5q74 0 117 -48.5t43 -125.5z" />
<glyph unicode="&#x647;" horiz-adv-x="1693" arabic-form="medial" d="M1718 0v274h-184l4 107q-6 315 -149 516q-93 135 -256.5 230t-325.5 110l-27 -276q152 -16 261.5 -97t163 -205t55.5 -280l-5 -105h-198q39 79 39 179q0 187 -121 297t-313 110q-194 0 -314.5 -111.5t-120.5 -295.5q0 -100 39 -179h-295v-274h1747zM821 455 q0 -77 -45.5 -130t-113.5 -53t-113 53.5t-45 129.5q0 77 42.5 125.5t115.5 48.5t116 -48.5t43 -125.5z" />
<glyph unicode="&#x648;" horiz-adv-x="1275" arabic-form="final" d="M1313 0v274h-266v187q0 204 -129 336.5t-326 132.5q-205 0 -335 -128.5t-130 -334.5q0 -203 131.5 -335t333.5 -132q142 0 176 12q-35 -121 -199 -121h-24v-229h30q417 0 467 338h271zM760 274h-166q-79 0 -127.5 58t-48.5 147q0 85 43.5 139t122.5 54t127.5 -54.5 t48.5 -144.5v-199z" />
<glyph unicode="&#x649;" horiz-adv-x="1861" arabic-form="final" d="M1870 0v274h-45q-95 0 -151.5 28t-92.5 97q-148 283 -459 283q-125 0 -125 -2v-250q24 6 50 6q77 0 133.5 -50.5t56.5 -129.5q0 -92 -62 -169t-161 -119t-209 -42q-215 0 -334 125t-119 334v219h-286v-246q0 -146 57 -276t155 -222.5t233.5 -146t287.5 -53.5 q253 0 447 128t241 333q121 -121 368 -121h15z" />
<glyph unicode="&#x64a;" horiz-adv-x="1861" arabic-form="final" d="M1870 0v274h-45q-95 0 -151.5 28t-92.5 97q-148 283 -459 283q-125 0 -125 -2v-250q24 6 50 6q77 0 133.5 -50.5t56.5 -129.5q0 -92 -62 -169t-161 -119t-209 -42q-215 0 -334 125t-119 334v219h-286v-246q0 -146 57 -276t155 -222.5t233.5 -146t287.5 -53.5 q253 0 447 128t241 333q121 -121 368 -121h15zM1149 -766v236h-254v-236h254zM764 -766v236h-256v-236h256z" />
<glyph unicode="&#x64a;" horiz-adv-x="659" arabic-form="initial" d="M594 395v533h-287v-453q0 -201 -145 -201h-182v-274h243q180 0 281 125q90 110 90 270zM575 -340v238h-256v-238h256zM188 -340v238h-254v-238h254z" />
<glyph unicode="&#x64a;" horiz-adv-x="886" arabic-form="medial" d="M907 0v274h-334q33 90 33 207v447h-289v-457q0 -197 -143 -197h-188v-274h921zM578 -340v238h-254v-238h254zM193 -340v238h-254v-238h254z" />
<glyph unicode=" "  horiz-adv-x="419" />
<glyph unicode="&#x09;" horiz-adv-x="419" />
<glyph unicode="&#xa0;" horiz-adv-x="419" />
<glyph unicode="!" horiz-adv-x="481" d="M352 926v393h-286v-393q62 -363 86 -514h110zM352 0v274h-286v-274h286z" />
<glyph unicode="&#x22;" horiz-adv-x="647" d="M272 1405h-229l55 -557h123zM590 1405h-230l56 -557h123z" />
<glyph unicode="$" horiz-adv-x="1247" d="M1182 336q0 155 -101 242t-362 141v250q117 -23 254 -92l164 190q-215 131 -418 152v215h-150v-213q-207 -14 -327.5 -122t-120.5 -286q0 -103 38.5 -168.5t136.5 -112t275 -79.5v-289q-150 13 -333 112l-172 -194q220 -142 505 -172v-225h148v225q223 23 343 132 t120 294zM571 745q-151 27 -151 103q0 108 151 123v-226zM883 311q0 -128 -164 -143v256q164 -21 164 -113z" />
<glyph unicode="'" horiz-adv-x="337" d="M272 1405h-229l55 -557h123z" />
<glyph unicode="(" horiz-adv-x="718" d="M655 -246q-307 273 -307 785q0 238 76 424q69 171 229 354l-106 113q-475 -366 -475 -914q0 -537 483 -891z" />
<glyph unicode=")" horiz-adv-x="718" d="M649 537q0 537 -481 890l-102 -129q307 -273 307 -784q0 -246 -76 -426q-65 -164 -231 -354l110 -111q233 190 348 397q125 229 125 517z" />
<glyph unicode="*" horiz-adv-x="733" d="M668 260v131l-209 -16l119 168l-119 73l-92 -196l-88 196l-125 -75l116 -170l-204 22v-135l208 12l-118 -170l125 -75l86 196l92 -186l131 63l-129 174z" />
<glyph unicode="+" horiz-adv-x="1126" d="M1069 487v244h-364v375h-285v-375h-361v-244h361v-381h285v381h364z" />
<glyph unicode="-" horiz-adv-x="1128" d="M1059 322v243h-1010v-243h1010z" />
<glyph unicode="." horiz-adv-x="389" d="M303 2v272h-252v-272h252z" />
<glyph unicode="/" horiz-adv-x="966" d="M899 1321h-266l-567 -1321h266z" />
<glyph unicode="0" horiz-adv-x="757" d="M555 193v344l-352 153v-348z" />
<glyph unicode="1" horiz-adv-x="600" d="M442 0v1321l-284 -201v-1120h284z" />
<glyph unicode="2" horiz-adv-x="1191" d="M1034 1053v264q-10 2 -256 2q-136 0 -238.5 -34t-171 -98t-111 -164.5t-61 -223.5t-18.5 -285v-514h287v705q0 69 18.5 129t56.5 110.5t103.5 79.5t151.5 29q45 0 104.5 -1t75.5 -1z" />
<glyph unicode="3" horiz-adv-x="1507" d="M158 0h286v731h359q247 0 397 103t150 278v207h-279v-154q0 -101 -67.5 -167t-176.5 -66q34 18 49 71t15 109v207h-244v-154q0 -54 -6.5 -88t-26.5 -65t-62 -45.5t-108 -14.5v369h-286v-1321z" />
<glyph unicode="4" horiz-adv-x="1196" d="M1038 0v236h-413q-80 0 -124 52t-44 136q0 160 182 160h61q35 -2 58 -2v215h-56q-33 -2 -57 -2q-158 0 -158 149q0 63 37.5 105.5t96.5 42.5h370v227h-387q-266 0 -368 -172q-48 -82 -48 -172q0 -149 113 -234q69 -37 98 -47q-117 -23 -179 -98.5t-62 -192.5 q0 -96 43 -178q117 -225 436 -225h401z" />
<glyph unicode="5" horiz-adv-x="1304" d="M1147 584q0 143 -111 299q-88 119 -221 225q-113 88 -170 100q-54 -12 -168 -104q-134 -112 -213 -230q-106 -153 -106 -292q0 -226 133 -359q136 -133 362 -133q224 0 359 135q135 138 135 359zM870 573q0 -114 -55 -184q-59 -80 -170 -80t-170 80q-49 70 -49 184 q0 99 80 226q78 117 139 145q79 -40 146 -149q79 -122 79 -222z" />
<glyph unicode="6" horiz-adv-x="1169" d="M178 1053v264q10 2 256 2q136 0 238.5 -34t171 -98t111 -164.5t61 -223.5t18.5 -285v-514h-286v705q0 69 -18.5 129t-56.5 110.5t-103.5 79.5t-151.5 29q-45 0 -104.5 -1t-75.5 -1z" />
<glyph unicode="7" horiz-adv-x="1296" d="M1139 1319h-299l-185 -938l-215 938h-282l327 -1319h334z" />
<glyph unicode="8" horiz-adv-x="1290" d="M1133 0l-314 1319h-336l-325 -1319h282l213 938l181 -938h299z" />
<glyph unicode="9" horiz-adv-x="1288" d="M1130 0v846q0 203 -141 338q-138 135 -352 135q-215 0 -346 -131q-133 -133 -133 -334q0 -216 114 -348q127 -148 365 -148q157 0 209 64v-422h284zM842 834q0 -89 -45 -146q-53 -65 -140 -65q-95 0 -147 67q-51 60 -51 150q0 93 50 152t138 59q90 0 146 -68 q49 -58 49 -149z" />
<glyph unicode=":" horiz-adv-x="389" d="M303 459v272h-252v-272h252zM305 0v274h-252v-274h252z" />
<glyph unicode="&#x3c;" horiz-adv-x="985" d="M885 0l-479 477l479 479h-326l-479 -479l479 -477h326z" />
<glyph unicode="=" horiz-adv-x="1161" d="M1085 596v242h-1009v-242h1009zM1085 201v241h-1009v-241h1009z" />
<glyph unicode="&#x3e;" horiz-adv-x="985" d="M78 0l479 477l-479 479h325l480 -479l-480 -477h-325z" />
<glyph unicode="[" horiz-adv-x="552" d="M483 -338v158h-168v1411h168v155h-417v-1724h417z" />
<glyph unicode="\" horiz-adv-x="956" d="M889 0l-567 1321h-265l568 -1321h264z" />
<glyph unicode="]" horiz-adv-x="552" d="M483 -338v1724h-417v-155h170v-1411h-170v-158h417z" />
<glyph unicode="_" horiz-adv-x="782" d="M748 -246v213h-715v-213h715z" />
<glyph unicode="{" horiz-adv-x="864" d="M768 -254q0 25 -2 33q-159 2 -228 36t-69 126l2 32v414q0 111 -147 205q72 56 109.5 109t37.5 94v413q0 121 59.5 162t233.5 41v19q0 39 -4 59q-244 0 -379 -68.5t-135 -212.5v-413q0 -64 -47 -118t-121 -85h-4q172 -112 172 -205v-414q0 -135 84.5 -198.5t275.5 -63.5 h160q2 10 2 35z" />
<glyph unicode="|" horiz-adv-x="358" d="M70 -289h211v1774h-211v-1774z" />
<glyph unicode="}" horiz-adv-x="864" d="M72 -254q0 25 2 33q159 2 228 36t69 126l-2 32v414q0 111 147 205q-72 56 -109.5 109t-37.5 94v413q0 121 -59.5 162t-233.5 41v19q0 39 4 59q244 0 379 -68.5t135 -212.5v-413q0 -64 47 -118t121 -85h4q-172 -112 -172 -205v-414q0 -135 -85 -198.5t-276 -63.5h-159 q-2 10 -2 35z" />
<glyph unicode="&#xab;" horiz-adv-x="714" d="M641 68q-75 85 -98 137q-33 65 -33 168q0 192 131 305l-78 78q-205 -147 -205 -375q0 -220 201 -385zM342 68q-75 85 -98 137q-33 65 -33 168q0 192 131 305l-78 78q-205 -147 -205 -375q0 -220 201 -385z" />
<glyph unicode="&#xad;" horiz-adv-x="1128" d="M1059 322v243h-1010v-243h1010z" />
<glyph unicode="&#xbb;" horiz-adv-x="714" d="M647 379q0 228 -205 375l-77 -78q129 -114 129 -305q0 -98 -31 -168q-25 -52 -98 -137l81 -72q201 165 201 385zM348 379q0 228 -205 375l-77 -78q131 -113 131 -305q0 -103 -33 -168q-23 -52 -98 -137l81 -72q201 165 201 385z" />
<glyph unicode="&#xd7;" horiz-adv-x="1126" d="M1001 850l-170 172l-272 -272l-270 272l-172 -172l272 -272l-272 -271l172 -172l270 273l272 -273l170 172l-270 271z" />
<glyph unicode="&#xf7;" horiz-adv-x="1128" d="M680 840v237h-254v-237h254zM1055 459v243h-1010v-243h1010zM680 82v235h-254v-235h254z" />
<glyph unicode="&#x60c;" horiz-adv-x="391" d="M307 436v109q-256 -59 -256 -293v-252h254v270h-96q6 74 18 103q22 42 80 63z" />
<glyph unicode="&#x61b;" horiz-adv-x="391" d="M307 893v108q-195 -44 -241 -204q-15 -49 -15 -86v-252h254v270h-96q6 72 18 102q21 41 80 62zM307 2v272h-252v-272h252z" />
<glyph unicode="&#x61f;" horiz-adv-x="1112" d="M1059 1001q-66 184 -186.5 264.5t-327.5 80.5q-211 0 -338 -94t-127 -255q0 -137 96 -233q22 -22 209 -158q88 -63 107 -84t26 -67h236v14q0 44 -1.5 64t-11 50.5t-30.5 52.5t-59 52t-97 66q-114 69 -152 111.5t-38 101.5q0 168 204 168q98 0 159 -62.5t63 -161.5zM776 0 v274h-284v-274h284z" />
<glyph unicode="&#x621;" horiz-adv-x="1144" d="M1067 0v274h-418q-63 37 -63 150q0 69 31 111.5t90 42.5q80 0 118 -109l238 111q-107 247 -354 247q-169 0 -284.5 -117.5t-115.5 -297.5q0 -61 23 -138h-205v-274h940z" />
<glyph unicode="&#x627;" horiz-adv-x="524" d="M430 0v1321h-287v-1321h287z" />
<glyph unicode="&#x628;" horiz-adv-x="1896" d="M1831 338v590h-283v-445q0 -145 -102 -188q-46 -21 -168 -21h-528q-199 0 -287 52q-115 65 -115 247v357h-282v-357q0 -573 677 -573h742q165 0 255.5 89t90.5 249zM1102 -340v238h-254v-238h254z" />
<glyph unicode="&#x629;" horiz-adv-x="1128" d="M879 1143v235h-254v-235h254zM492 1143v235h-254v-235h254zM1061 494q0 228 -139 358q-137 131 -367 131q-223 0 -356 -133t-133 -358q0 -227 135 -359q139 -133 364 -133q226 0 361 135t135 359zM786 483q0 -116 -55 -186q-60 -78 -174 -78q-111 0 -168 78 q-55 70 -55 186q0 283 223 283q229 0 229 -283z" />
<glyph unicode="&#x62a;" horiz-adv-x="1896" d="M1284 928v237h-256v-237h256zM897 928v237h-256v-237h256zM1831 338v590h-283v-445q0 -145 -102 -188q-46 -21 -168 -21h-528q-199 0 -287 52q-115 65 -115 247v357h-282v-357q0 -573 677 -573h742q165 0 255.5 89t90.5 249z" />
<glyph unicode="&#x62b;" horiz-adv-x="1896" d="M1096 1257v238h-256v-238h256zM1290 930v235h-256v-235h256zM903 930v235h-256v-235h256zM1831 338v590h-283v-445q0 -145 -102 -188q-46 -21 -168 -21h-528q-199 0 -287 52q-115 65 -115 247v357h-282v-357q0 -573 677 -573h742q165 0 255.5 89t90.5 249z" />
<glyph unicode="&#x62c;" horiz-adv-x="1148" d="M797 61v238h-254v-238h254zM1075 408q8 60 8 129q0 196 -73.5 347t-213.5 236.5t-327 85.5q-76 0 -135 -10v-254q61 23 125 23q273 0 329 -273q-222 0 -299 -12q-197 -34 -310 -169t-113 -335q0 -242 155 -379t449 -137h190v285h-211q-297 0 -297 231q0 124 71.5 178 t231.5 54h420z" />
<glyph unicode="&#x62d;" horiz-adv-x="1148" d="M1075 408q8 60 8 129q0 196 -73.5 347t-213.5 236.5t-327 85.5q-76 0 -135 -10v-254q61 23 125 23q273 0 329 -273q-222 0 -299 -12q-197 -34 -310 -169t-113 -335q0 -242 155 -379t449 -137h190v285h-211q-297 0 -297 231q0 124 71.5 178t231.5 54h420z" />
<glyph unicode="&#x62e;" horiz-adv-x="1148" d="M788 1321v235h-256v-235h256zM1075 408q8 60 8 129q0 196 -73.5 347t-213.5 236.5t-327 85.5q-76 0 -135 -10v-254q61 23 125 23q273 0 329 -273q-222 0 -299 -12q-197 -34 -310 -169t-113 -335q0 -242 155 -379t449 -137h190v285h-211q-297 0 -297 231q0 124 71.5 178 t231.5 54h420z" />
<glyph unicode="&#x62f;" horiz-adv-x="1222" d="M1157 0v276q0 464 -424 613q-110 39 -383 39v-240q273 0 396.5 -99t123.5 -315h-743v-274h1030z" />
<glyph unicode="&#x630;" horiz-adv-x="1222" d="M733 1083v236h-256v-236h256zM1157 0v276q0 464 -424 613q-110 39 -383 39v-240q273 0 396.5 -99t123.5 -315h-743v-274h1030z" />
<glyph unicode="&#x631;" horiz-adv-x="741" d="M676 188v740h-289v-764q0 -270 -283 -270v-232q297 0 428 119q144 126 144 407z" />
<glyph unicode="&#x632;" horiz-adv-x="741" d="M655 1083v236h-254v-236h254zM676 188v740h-289v-764q0 -270 -283 -270v-232q297 0 428 119q144 126 144 407z" />
<glyph unicode="&#x633;" horiz-adv-x="2600" d="M2525 483v445h-289v-469q0 -185 -145 -185h-182q35 93 35 207v447h-287v-469q0 -185 -146 -185h-151q4 54 4 82v574h-289v-547q0 -205 -97 -331t-261 -126q-166 0 -263.5 127.5t-97.5 329.5v547h-286v-574q0 -193 86 -353t234.5 -251.5t326.5 -91.5q360 0 561 340h823 q180 0 302 137t122 346z" />
<glyph unicode="&#x634;" horiz-adv-x="2600" d="M1729 1083v236h-256v-236h256zM1917 1421v236h-254v-236h254zM2114 1083v236h-254v-236h254zM2525 483v445h-289v-469q0 -185 -145 -185h-182q35 93 35 207v447h-287v-469q0 -185 -146 -185h-151q4 54 4 82v574h-289v-547q0 -205 -97 -331t-261 -126q-166 0 -263.5 127.5 t-97.5 329.5v547h-286v-574q0 -193 86 -353t234.5 -251.5t326.5 -91.5q360 0 561 340h823q180 0 302 137t122 346z" />
<glyph unicode="&#x635;" horiz-adv-x="2668" d="M2574 0q11 116 11 188q0 351 -146 547.5t-418 196.5q-174 0 -347 -101t-310 -282v381h-289v-547q0 -205 -97 -331t-261 -126q-166 0 -263.5 127.5t-97.5 329.5v547h-286v-574q0 -193 86 -353t234.5 -251.5t326.5 -91.5q360 0 561 340h1296zM2284 274h-840 q239 408 557 408q132 0 208.5 -104t76.5 -267z" />
<glyph unicode="&#x636;" horiz-adv-x="2668" d="M2574 0q11 116 11 188q0 351 -146 547.5t-418 196.5q-174 0 -347 -101t-310 -282v381h-289v-547q0 -205 -97 -331t-261 -126q-166 0 -263.5 127.5t-97.5 329.5v547h-286v-574q0 -193 86 -353t234.5 -251.5t326.5 -91.5q360 0 561 340h1296zM2284 274h-840 q239 408 557 408q132 0 208.5 -104t76.5 -267zM2101 1083v236h-256v-236h256z" />
<glyph unicode="&#x637;" horiz-adv-x="1728" d="M1651 0q10 105 10 188q0 351 -145.5 547.5t-417.5 196.5q-302 0 -572 -283l27 670h-285v-1045h-202v-274h1585zM1360 274h-840q239 408 557 408q131 0 208 -102t77 -265q0 -27 -2 -41z" />
<glyph unicode="&#x638;" horiz-adv-x="1728" d="M1178 1083v236h-256v-236h256zM1651 0q10 105 10 188q0 351 -145.5 547.5t-417.5 196.5q-302 0 -572 -283l27 670h-285v-1045h-202v-274h1585zM1178 1083h-256v236h256v-236zM1360 274h-840q239 408 557 408q131 0 208 -102t77 -265q0 -27 -2 -41zM1178 1083v236h-256 v-236h256z" />
<glyph unicode="&#x639;" horiz-adv-x="1265" d="M1200 385v277h-459q-114 53 -114 202q0 95 48.5 156t123.5 61q117 0 157 -118l230 106q-51 118 -152.5 184t-230.5 66q-187 0 -317 -129t-130 -313q0 -57 13.5 -126.5t36.5 -117.5q-164 -51 -252 -174t-88 -297q0 -239 152.5 -370.5t430.5 -131.5h377v279h-393 q-291 0 -291 223q0 118 69 170.5t222 52.5h567z" />
<glyph unicode="&#x63a;" horiz-adv-x="1265" d="M926 1464v238h-254v-238h254zM1200 385v277h-459q-114 53 -114 202q0 95 48.5 156t123.5 61q117 0 157 -118l230 106q-51 118 -152.5 184t-230.5 66q-187 0 -317 -129t-130 -313q0 -57 13.5 -126.5t36.5 -117.5q-164 -51 -252 -174t-88 -297q0 -239 152.5 -370.5 t430.5 -131.5h377v279h-393q-291 0 -291 223q0 118 69 170.5t222 52.5h567z" />
<glyph unicode="&#x640;" horiz-adv-x="405" d="M420 0v274h-438v-274h438z" />
<glyph unicode="&#x641;" horiz-adv-x="2021" d="M1620 1083v236h-254v-236h254zM1956 467q0 213 -129.5 338t-351.5 125q-214 0 -338.5 -125.5t-124.5 -339.5q0 -109 32 -191h-294q-222 0 -312 67t-90 232v299h-282v-299q0 -573 677 -573h742q212 0 341.5 128t129.5 339zM1671 459q0 -100 -49.5 -164t-136.5 -64 q-88 0 -139.5 64.5t-51.5 173.5q0 100 47.5 165.5t128.5 65.5h19q182 0 182 -241z" />
<glyph unicode="&#x642;" horiz-adv-x="1552" d="M1327 1094v225h-244v-225h244zM954 1094v225h-241v-225h241zM1485 332v221q0 203 -125 321.5t-336 118.5q-204 0 -325 -121t-121 -325q0 -206 123 -327.5t331 -121.5q60 0 123 13q-111 -193 -379 -193q-205 0 -319.5 117t-114.5 321v367h-276v-391q0 -191 97 -346 t260.5 -240.5t358.5 -85.5q194 0 355.5 88.5t254.5 243t93 340.5zM1212 539q0 -96 -49 -156.5t-131 -60.5q-85 0 -133.5 62.5t-48.5 164.5q0 97 46 159t122 62h20q174 0 174 -231z" />
<glyph unicode="&#x643;" horiz-adv-x="1898" d="M1178 727v156h-232q-43 15 -43 84q0 88 70 88q46 0 67 -62l134 64q-59 139 -199 139q-98 0 -162.5 -67.5t-64.5 -170.5q0 -36 14 -77h-117v-154h533zM1802 338v981h-282v-834q0 -153 -103 -194q-43 -17 -170 -17h-528q-197 0 -285 52q-117 68 -117 249v353h-282v-353 q0 -575 680 -575h741q165 0 255.5 89.5t90.5 248.5z" />
<glyph unicode="&#x644;" horiz-adv-x="1425" d="M1360 356v963h-289v-936q0 -212 -94 -334.5t-262 -122.5q-165 0 -265 127.5t-100 329.5v176h-284v-203q0 -193 86 -353t234.5 -251.5t326.5 -91.5q141 0 262 52.5t205.5 144t132 221t47.5 278.5z" />
<glyph unicode="&#x645;" horiz-adv-x="1693" d="M1628 459q0 211 -129 340q-126 129 -340 129h-584q-220 0 -358 -135q-151 -145 -151 -410v-723h282v678q0 311 240 311h131q-33 -82 -33 -190q0 -213 125 -338q127 -127 338 -127q214 0 346 123q133 127 133 342zM1346 467q0 -242 -183 -242h-20q-86 0 -135 76 q-41 65 -41 158q0 100 45 162q52 73 145 73q92 0 143 -69q46 -61 46 -158z" />
<glyph unicode="&#x646;" horiz-adv-x="1425" d="M838 1083v236h-254v-236h254zM66 930v-574q0 -193 86 -353t234.5 -251.5t326.5 -91.5q136 0 257 55.5t206 149.5t134.5 222t49.5 269v574h-289v-547q0 -203 -96 -330t-260 -127q-167 0 -264 127t-97 330v547h-288z" />
<glyph unicode="&#x647;" horiz-adv-x="1128" d="M1061 494q0 227 -139 358t-367 131q-224 0 -356.5 -133.5t-132.5 -357.5q0 -225 137 -358.5t362 -133.5q224 0 360 135.5t136 358.5zM786 483q0 -118 -59.5 -191t-161.5 -73q-107 0 -169 70t-62 194q0 283 223 283q229 0 229 -283z" />
<glyph unicode="&#x648;" horiz-adv-x="1110" d="M1042 41v418q0 203 -128.5 338t-325.5 135q-202 0 -331.5 -130t-129.5 -339q0 -205 131.5 -340t329.5 -135q145 0 203 94q0 -81 -69.5 -136t-158.5 -55h-18v-229h28q469 0 469 379zM756 459q0 -94 -44 -149.5t-120 -55.5q-82 0 -130 60.5t-48 150.5q0 91 46.5 149 t121.5 58q77 0 125.5 -59.5t48.5 -153.5z" />
<glyph unicode="&#x649;" horiz-adv-x="1609" d="M1542 598h-475q102 147 274 147h123v279h-123q-278 0 -452 -195q-170 -194 -170 -501h534q-6 -88 -34 -158q-48 -111 -158.5 -177.5t-255.5 -66.5q-146 0 -257 66t-159 178q-37 90 -37 215v219h-286v-246q0 -299 210 -497q213 -201 523 -201h12q307 0 520 201 q211 199 211 497v240z" />
<glyph unicode="&#x64a;" horiz-adv-x="1609" d="M1542 598h-475q102 147 274 147h123v279h-123q-278 0 -452 -195q-170 -194 -170 -501h534q-6 -88 -34 -158q-48 -111 -158.5 -177.5t-255.5 -66.5q-146 0 -257 66t-159 178q-37 90 -37 215v219h-286v-246q0 -299 210 -497q213 -201 523 -201h12q307 0 520 201 q211 199 211 497v240zM1130 -766v236h-253v-236h253zM743 -766v236h-254v-236h254z" />
<glyph unicode="&#x64b;" d="M473 1683l-328 -77q-75 -24 -90 -90q45 10 103.5 21t92.5 17.5t75 16t63 18.5t43.5 22.5t30.5 31t10 40.5zM451 1542l-326 -76q-75 -24 -90 -92q45 10 104.5 21.5t93.5 18.5t75 16.5t63 19t42.5 22.5t29 30.5t8.5 39.5z" />
<glyph unicode="&#x64c;" d="M483 1581q0 46 -34 79.5t-78 33.5q-40 0 -71.5 -33.5t-31.5 -81.5q0 -61 47 -96q-53 -31 -106 -41q27 27 27 74q0 42 -24 69t-65 27q-40 0 -66 -26t-32 -73q34 46 72 46q47 0 47 -50q0 -25 -16.5 -52.5t-34.5 -31.5q37 -57 39 -57q79 0 143.5 20.5t103.5 53t59.5 69 t20.5 70.5zM383 1626q37 0 37 -39t-53 -69q-35 30 -35 61q0 20 15.5 33.5t35.5 13.5z" />
<glyph unicode="&#x64d;" d="M567 -551l-325 -76q-75 -24 -90 -92q41 9 101 20.5t92.5 18t74.5 16.5t64 19.5t44 23t30.5 31t8.5 39.5zM547 -692l-328 -74q-72 -25 -90 -94q46 10 104 22t92.5 19t75 16.5t63 18.5t43.5 22.5t30 30.5t10 39z" />
<glyph unicode="&#x64e;" d="M457 1546l-328 -78q-74 -24 -92 -90q34 7 82.5 16t76 14t65 12.5t58.5 13.5t47 15t39.5 18t26.5 21t18.5 26.5t6.5 31.5z" />
<glyph unicode="&#x64f;" d="M426 1591q0 46 -33.5 78.5t-75.5 32.5q-43 0 -74.5 -32t-31.5 -79q0 -62 47 -100q-50 -44 -203 -47l45 -66q146 9 236 64.5t90 148.5zM326 1634q39 0 39 -37q0 -41 -54 -69q-37 27 -37 61q0 18 16.5 31.5t35.5 13.5z" />
<glyph unicode="&#x650;" d="M471 -590l-326 -76q-75 -24 -90 -92q42 9 103.5 21t93.5 18.5t74.5 17t63.5 19.5t42.5 22.5t30 30.5t8.5 39z" />
<glyph unicode="&#x651;" d="M438 1532l-30 154l-84 -17l30 -137q2 -4 2 -14q0 -21 -22 -21q-42 0 -53 49l-23 111l-82 -19l23 -108q2 -6 2 -21l-1 -5q-2 -4 -5 -11.5t-7.5 -14.5t-12 -12.5t-15.5 -5.5q-17 0 -23 25l-31 139l-79 -16l32 -158q15 -74 93 -74q51 0 72 19t32 71q40 -55 86 -55 q49 0 75.5 23.5t26.5 60.5q0 16 -6 37z" />
<glyph unicode="&#x652;" d="M334 1538q-24 115 -133 115q-77 0 -117.5 -36t-40.5 -101q0 -72 38.5 -112t100.5 -40q74 0 115 38.5t41 100.5q0 11 -4 35zM190 1589q31 0 49.5 -27.5t18.5 -64.5q0 -31 -18 -50.5t-50 -19.5q-67 0 -67 95q0 67 67 67z" />
<glyph unicode="&#x653;" d="M481 1495l-39 111q-59 -68 -104 -68q-27 0 -102 37q-74 39 -119 39q-70 0 -135 -86l41 -113q50 68 94 68q42 0 112 -37t111 -37q70 0 141 86z" />
<glyph unicode="&#x654;" d="M406 1434v106h-160q-29 10 -29 57q0 62 47 62q33 0 45 -43l92 43q-41 96 -137 96q-66 0 -109.5 -47.5t-43.5 -116.5q0 -29 8 -53h-80v-104h367z" />
<glyph unicode="&#x655;" d="M391 -408v107h-162q-26 9 -26 57q0 62 47 62q32 0 47 -41l92 43q-41 96 -137 96q-68 0 -113 -47t-45 -117q0 -22 10 -55h-81v-105h368z" />
<glyph unicode="&#x660;" horiz-adv-x="757" d="M555 193v344l-352 153v-348z" />
<glyph unicode="&#x661;" horiz-adv-x="600" d="M442 0v1321l-284 -201v-1120h284z" />
<glyph unicode="&#x662;" horiz-adv-x="1191" d="M1034 1053v264q-10 2 -256 2q-136 0 -238.5 -34t-171 -98t-111 -164.5t-61 -223.5t-18.5 -285v-514h287v705q0 69 18.5 129t56.5 110.5t103.5 79.5t151.5 29q45 0 104.5 -1t75.5 -1z" />
<glyph unicode="&#x663;" horiz-adv-x="1507" d="M1350 1112v207h-279v-154q0 -101 -67.5 -167t-176.5 -66q34 18 49 71t15 109v207h-244v-154q0 -54 -6.5 -88t-26.5 -65t-62 -45.5t-108 -14.5v369h-286v-1321h286v731h359q232 0 383 92q164 105 164 289z" />
<glyph unicode="&#x664;" horiz-adv-x="1196" d="M1038 0v236h-413q-80 0 -124 52t-44 136q0 160 182 160h61q16 0 29.5 -0.5t20.5 -1t8 -0.5v215h-56q-16 0 -32.5 -1t-18.5 -1q-164 0 -164 149q0 63 37.5 105.5t96.5 42.5h370v227h-387q-188 0 -302 -92.5t-114 -251.5q0 -101 55 -172.5t156 -108.5q-117 -23 -179 -98.5 t-62 -192.5q0 -187 134.5 -295t344.5 -108h401z" />
<glyph unicode="&#x665;" horiz-adv-x="1304" d="M1147 584q0 150 -111 299q-73 102 -201.5 207.5t-189.5 117.5q-54 -12 -168 -104q-149 -124 -234 -262.5t-85 -259.5q0 -225 134.5 -358.5t360.5 -133.5q224 0 359 137t135 357zM870 573q0 -119 -60.5 -191.5t-164.5 -72.5t-161.5 70t-57.5 194q0 88 75 213t144 158 q76 -38 150.5 -160.5t74.5 -210.5z" />
<glyph unicode="&#x666;" horiz-adv-x="1169" d="M178 1053v264q10 2 256 2q136 0 238.5 -34t171 -98t111 -164.5t61 -223.5t18.5 -285v-514h-286v705q0 69 -18.5 129t-56.5 110.5t-103.5 79.5t-151.5 29q-45 0 -104.5 -1t-75.5 -1z" />
<glyph unicode="&#x667;" horiz-adv-x="1296" d="M1139 1319h-299l-185 -938l-215 938h-282l327 -1319h334z" />
<glyph unicode="&#x668;" horiz-adv-x="1290" d="M1133 0l-314 1319h-336l-325 -1319h282l213 938l181 -938h299z" />
<glyph unicode="&#x669;" horiz-adv-x="1288" d="M1130 0v846q0 203 -141 338q-138 135 -352 135q-215 0 -346 -131q-133 -133 -133 -334q0 -216 114 -348q127 -148 365 -148q157 0 209 64v-422h284zM842 834q0 -89 -45 -146q-53 -65 -140 -65q-95 0 -147 67q-51 60 -51 150q0 93 50 152t138 59q90 0 146 -68 q49 -58 49 -149z" />
<glyph unicode="&#x66a;" horiz-adv-x="966" d="M414 1026v236h-254v-236h254zM901 1321h-266l-569 -1321h266zM813 63v236h-254v-236h254z" />
<glyph unicode="&#x66b;" horiz-adv-x="391" d="M49 -129v-109q256 59 256 293v252h-254v-270h96q-6 -74 -18 -103q-22 -42 -80 -63z" />
<glyph unicode="&#x66c;" horiz-adv-x="391" d="M49 -129v-109q256 59 256 293v252h-254v-270h96q-6 -74 -18 -103q-22 -42 -80 -63z" />
<glyph unicode="&#x66d;" horiz-adv-x="1024" d="M915 502l-18 41l-283 -41l-77 293h-41l-80 -293l-283 43l-18 -43l239 -191l-106 -284l35 -27l233 193l232 -193l34 31l-104 282z" />
<glyph unicode="&#x670;" d="M47 1462h111v418h-111v-418z" />
<glyph unicode="&#x67e;" horiz-adv-x="1896" d="M1831 338v590h-283v-445q0 -145 -102 -188q-46 -21 -168 -21h-528q-199 0 -287 52q-115 65 -115 247v357h-282v-357q0 -573 677 -573h742q165 0 255.5 89t90.5 249zM1237 -365v203h-217v-203h217zM907 -365v203h-215v-203h215zM1071 -641v203h-217v-203h217z" />
<glyph unicode="&#x686;" horiz-adv-x="1148" d="M924 184v111h-121v-111h121zM741 184v111h-120v-111h120zM831 31v110h-120v-110h120zM1075 408q8 60 8 129q0 196 -73.5 347t-213.5 236.5t-327 85.5q-76 0 -135 -10v-254q61 23 125 23q273 0 329 -273q-222 0 -299 -12q-197 -34 -310 -169t-113 -335q0 -242 155 -379 t449 -137h190v285h-211q-297 0 -297 231q0 124 71.5 178t231.5 54h420z" />
<glyph unicode="&#x698;" horiz-adv-x="741" d="M676 188v740h-289v-764q0 -270 -283 -270v-232q297 0 428 119q144 126 144 407zM657 1083v236h-254v-236h254zM285 1083v236h-254v-236h254zM459 1403v235h-254v-235h254z" />
<glyph unicode="&#x6a4;" horiz-adv-x="2021" d="M1610 1352v213h-230v-213h230zM1792 1053v213h-229v-213h229zM1444 1053v213h-232v-213h232zM1956 467q0 218 -135 344q-128 119 -346 119q-214 0 -338.5 -125.5t-124.5 -339.5q0 -109 32 -191h-294q-244 0 -332 88q-70 67 -70 211v299h-282v-299q0 -256 151 -407 q166 -166 526 -166h742q215 0 343 126.5t128 340.5zM1671 459q0 -96 -45 -158q-49 -70 -141 -70q-95 0 -148 74q-43 64 -43 164q0 91 41 156q46 75 135 75h19q182 0 182 -241z" />
<glyph unicode="&#x6f0;" horiz-adv-x="757" d="M555 193v344l-352 153v-348z" />
<glyph unicode="&#x6f1;" horiz-adv-x="600" d="M442 0v1321l-284 -201v-1120h284z" />
<glyph unicode="&#x6f2;" horiz-adv-x="1191" d="M1034 1053v264q-10 2 -256 2q-136 0 -238.5 -34t-171 -98t-111 -164.5t-61 -223.5t-18.5 -285v-514h287v705q0 69 18.5 129t56.5 110.5t103.5 79.5t151.5 29q45 0 104.5 -1t75.5 -1z" />
<glyph unicode="&#x6f3;" horiz-adv-x="1507" d="M1350 1112v207h-279v-154q0 -101 -67.5 -167t-176.5 -66q34 18 49 71t15 109v207h-244v-154q0 -54 -6.5 -88t-26.5 -65t-62 -45.5t-108 -14.5v369h-286v-1321h286v731h359q232 0 383 92q164 105 164 289z" />
<glyph unicode="&#x6f4;" horiz-adv-x="1196" d="M1038 0v236h-413q-80 0 -124 52t-44 136q0 160 182 160h61q16 0 29.5 -0.5t20.5 -1t8 -0.5v215h-56q-16 0 -32.5 -1t-18.5 -1q-164 0 -164 149q0 63 37.5 105.5t96.5 42.5h370v227h-387q-188 0 -302 -92.5t-114 -251.5q0 -101 55 -172.5t156 -108.5q-117 -23 -179 -98.5 t-62 -192.5q0 -187 134.5 -295t344.5 -108h401z" />
<glyph unicode="&#x6f5;" horiz-adv-x="1304" d="M1147 584q0 150 -111 299q-73 102 -201.5 207.5t-189.5 117.5q-54 -12 -168 -104q-149 -124 -234 -262.5t-85 -259.5q0 -225 134.5 -358.5t360.5 -133.5q224 0 359 137t135 357zM870 573q0 -119 -60.5 -191.5t-164.5 -72.5t-161.5 70t-57.5 194q0 88 75 213t144 158 q76 -38 150.5 -160.5t74.5 -210.5z" />
<glyph unicode="&#x6f6;" horiz-adv-x="1169" d="M178 1053v264q10 2 256 2q136 0 238.5 -34t171 -98t111 -164.5t61 -223.5t18.5 -285v-514h-286v705q0 69 -18.5 129t-56.5 110.5t-103.5 79.5t-151.5 29q-45 0 -104.5 -1t-75.5 -1z" />
<glyph unicode="&#x6f7;" horiz-adv-x="1296" d="M1139 1319h-299l-185 -938l-215 938h-282l327 -1319h334z" />
<glyph unicode="&#x6f8;" horiz-adv-x="1290" d="M1133 0l-314 1319h-336l-325 -1319h282l213 938l181 -938h299z" />
<glyph unicode="&#x6f9;" horiz-adv-x="1288" d="M1130 0v846q0 203 -141 338q-138 135 -352 135q-215 0 -346 -131q-133 -133 -133 -334q0 -216 114 -348q127 -148 365 -148q157 0 209 64v-422h284zM842 834q0 -89 -45 -146q-53 -65 -140 -65q-95 0 -147 67q-51 60 -51 150q0 93 50 152t138 59q90 0 146 -68 q49 -58 49 -149z" />
<glyph unicode="&#x2000;" horiz-adv-x="1004" />
<glyph unicode="&#x2001;" horiz-adv-x="2009" />
<glyph unicode="&#x2002;" horiz-adv-x="1004" />
<glyph unicode="&#x2003;" horiz-adv-x="2009" />
<glyph unicode="&#x2004;" horiz-adv-x="669" />
<glyph unicode="&#x2005;" horiz-adv-x="502" />
<glyph unicode="&#x2006;" horiz-adv-x="334" />
<glyph unicode="&#x2007;" horiz-adv-x="334" />
<glyph unicode="&#x2008;" horiz-adv-x="251" />
<glyph unicode="&#x2009;" horiz-adv-x="401" />
<glyph unicode="&#x200a;" horiz-adv-x="111" />
<glyph unicode="&#x200c;" horiz-adv-x="40" d="M41 0v1479h-41v-1479h41z" />
<glyph unicode="&#x200d;" horiz-adv-x="40" d="M145 1358l-96 98l96 96l-28 29l-97 -98l-96 98l-28 -29l98 -96l-98 -98l28 -27l76 76v-1407h41v1407l76 -76z" />
<glyph unicode="&#x200e;" horiz-adv-x="40" d="M274 1456l-122 125l-29 -29l74 -73h-197v-1479h41v1438h160l-78 -78l29 -29z" />
<glyph unicode="&#x200f;" horiz-adv-x="40" d="M41 0v1479h-197l74 73l-29 29l-122 -125l122 -125l29 29l-78 78h160v-1438h41z" />
<glyph unicode="&#x2010;" horiz-adv-x="929" d="M49 393h862v80h-862v-80z" />
<glyph unicode="&#x2011;" horiz-adv-x="1128" d="M1059 322v243h-1010v-243h1010z" />
<glyph unicode="&#x2012;" horiz-adv-x="1128" d="M1059 322v243h-1010v-243h1010z" />
<glyph unicode="&#x2013;" horiz-adv-x="1142" d="M1073 322v243h-1024v-243h1024z" />
<glyph unicode="&#x2014;" horiz-adv-x="2166" d="M2097 322v243h-2048v-243h2048z" />
<glyph unicode="&#x201c;" horiz-adv-x="546" d="M485 1325h-53q-143 -131 -143 -221v-166h164v147q-64 0 -64 52q0 102 96 188zM266 1325h-51q-145 -133 -145 -221v-166h163v147q-63 0 -63 52q0 102 96 188z" />
<glyph unicode="&#x201d;" horiz-adv-x="546" d="M485 1157v168h-161v-149q32 0 46.5 -12t14.5 -40q0 -100 -96 -186h51q145 133 145 219zM266 1157v168h-162v-149q64 0 64 -52q0 -101 -98 -186h51q145 133 145 219z" />
<glyph unicode="&#x202f;" horiz-adv-x="401" />
<glyph unicode="&#x205f;" horiz-adv-x="502" />
<glyph unicode="&#x2421;" horiz-adv-x="1452" d="M1380 117v63h-260v469h-73v-532h333zM981 117v63h-326v180h293v64h-293v162h314v63h-387v-532h399zM518 387q0 217 -162 254q-27 8 -94 8h-184v-532h194q42 0 84 10q162 40 162 260zM446 387q0 -114 -53 -170q-40 -37 -129 -37h-114v406h112q57 0 90 -11q94 -37 94 -188z " />
<glyph unicode="&#x25fc;" horiz-adv-x="1024" d="M0 0z" />
<glyph unicode="&#xfd3e;" horiz-adv-x="718" d="M655 -246q-307 273 -307 785q0 238 76 424q69 171 229 354l-106 113q-475 -366 -475 -914q0 -537 483 -891z" />
<glyph unicode="&#xfd3f;" horiz-adv-x="718" d="M649 537q0 537 -481 890l-102 -129q307 -273 307 -784q0 -246 -76 -426q-65 -164 -231 -354l110 -111q233 190 348 397q125 229 125 517z" />
<glyph unicode="&#xfeff;" />
<glyph horiz-adv-x="681" />
<glyph horiz-adv-x="573" />
<glyph horiz-adv-x="559" />
<glyph />
</font>
</defs>
</svg>
