<?xml version="1.0" standalone="no"?>
<!DOCTYPE svg PUBLIC "-//W3C//DTD SVG 1.1//EN" "http://www.w3.org/Graphics/SVG/1.1/DTD/svg11.dtd" >
<svg>
<metadata>
Created by FontForge 20110222 at Fri May  9 17:04:45 2014
 By Orthosie Webhosting
Copyright (C) 2000, 2007 Hoefler &#38; Frere-Jones. http://www.typography.com
</metadata>
<defs>
<font id="ArcherSemibold" horiz-adv-x="353" >
  <font-face 
    font-family="ArcherSemibold"
    font-weight="375"
    font-stretch="normal"
    units-per-em="1000"
    panose-1="0 0 0 0 0 0 0 0 0 0"
    ascent="800"
    descent="-200"
    x-height="431"
    cap-height="658"
    bbox="-51 -301 1453 1081"
    underline-thickness="50"
    underline-position="-50"
    unicode-range="U+0020-FB04"
  />
<missing-glyph horiz-adv-x="500" 
d="M0 -200v1000h500v-1000h-500zM71 750l179 -390l179 390h-358zM50 -76l172 376l-172 376v-752zM450 676l-172 -376l172 -376v752zM250 240l-179 -390h358z" />
    <glyph glyph-name="f_f" unicode="ff" horiz-adv-x="617" 
d="M194 431h209v110q0 108 50 157q42 42 107 42q38 0 62 -17.5t24 -46.5q0 -24 -14.5 -38.5t-35.5 -14.5q-41 0 -57 41q-16 -4 -29 -19q-22 -30 -22 -88v-126h112v-74h-112v-285h84v-72h-233v72h64v285h-209v-285h80v-72h-233v72h67v285h-75v74h75v90q0 111 50 159
q39 40 101 40q38 0 62 -17.5t24 -46.5q0 -24 -14.5 -38.5t-35.5 -14.5q-41 0 -57 41q-13 -5 -23 -16q-21 -27 -21 -91v-106z" />
    <glyph glyph-name="fi" unicode="fi" horiz-adv-x="588" 
d="M486 431v-359h69v-72h-221v72h66v285h-206v-285h80v-72h-233v72h67v285h-75v74h75v98q0 111 57 165q48 46 117 46q49 0 77.5 -23t28.5 -56q0 -23 -16.5 -39.5t-39.5 -16.5q-24 0 -40.5 18.5t-15.5 42.5h-4q-30 0 -53 -28q-25 -32 -25 -93v-114h292z" />
    <glyph glyph-name="fl" unicode="fl" horiz-adv-x="586" 
d="M333 72h68v285h-207v-285h80v-72h-233v72h67v285h-75v74h75v102q0 99 51 153q52 54 139 54q70 0 115 -39l18 34h56v-663h69v-72h-223v72zM297 665q-44 0 -73 -29q-30 -32 -30 -95v-110h207v108v6q-18 5 -30 21.5t-12 35.5q0 21 11 35q-28 28 -73 28z" />
    <glyph glyph-name="f_f_i" unicode="ffi" horiz-adv-x="881" 
d="M680 661q0 -23 -16 -39.5t-40 -16.5t-40.5 18.5t-14.5 40.5q-3 1 -7 1q-27 0 -47 -23q-29 -33 -29 -97v-114h292v-359h69v-72h-220v72h66v285h-207v-285h80v-72h-230v72h65v285h-207v-285h80v-72h-233v72h67v285h-75v74h75v98q0 92 46 141q47 50 125 50q35 0 60 -11
q47 -20 47 -65q0 -22 -14 -36t-35 -14t-36 13.5t-19 37.5h-3q-41 0 -62 -26q-23 -28 -23 -83v-105h207v98q0 111 56 165q48 46 117 46q50 0 78 -23t28 -56z" />
    <glyph glyph-name="f_f_l" unicode="ffl" horiz-adv-x="878" 
d="M194 536v-105h207v102q0 99 51 153q52 54 138 54q72 0 116 -38l17 33h56v-663h69v-72h-222v72h67v285h-207v-285h81v-72h-231v72h65v285h-207v-285h80v-72h-233v72h67v285h-75v74h75v98q0 92 46 141q47 50 125 50q35 0 60 -11q47 -20 47 -65q0 -22 -14 -36t-35 -14
t-36 13.5t-19 37.5h-3q-41 0 -62 -26q-23 -28 -23 -83zM486 541v-110h207v108v6q-18 5 -29.5 21t-11.5 36q0 19 11 35q-30 28 -73 28q-46 0 -73 -29q-31 -31 -31 -95zM327 629q-1 0 -2 1z" />
    <glyph glyph-name="f_b" unicode="fb" horiz-adv-x="869" 
d="M487 735v-357q61 61 138 61q86 0 145 -62.5t59 -160.5q0 -94 -61 -159t-152 -65q-77 0 -137 52l-22 -45h-56v358h-207v-285h80v-72h-233v72h67v285h-75v74h75v102q0 99 51 153q52 54 139 54q70 0 115 -39l18 34h56zM606 67q57 0 95.5 40.5t38.5 108.5q0 67 -37.5 107.5
t-94.5 40.5q-66 0 -121 -55v-201q55 -41 119 -41zM359 602q0 21 11 35q-28 28 -73 28q-44 0 -73 -29q-30 -32 -30 -95v-110h207v108v6q-18 5 -30 21.5t-12 35.5z" />
    <glyph glyph-name="f_h" unicode="fh" horiz-adv-x="865" 
d="M401 72v285h-207v-285h80v-72h-233v72h67v285h-75v74h75v102q0 99 51 153q52 54 139 54q70 0 115 -39l18 34h56v-376q75 80 153 80q73 0 108 -46q29 -38 29 -99v-222h67v-72h-217v72h64v203q0 39 -17 61q-19 24 -59 24q-65 0 -128 -65v-223h64v-72h-216v72h66zM359 602
q0 21 11 35q-28 28 -73 28q-44 0 -73 -29q-30 -32 -30 -95v-110h207v108v6q-18 5 -30 21.5t-12 35.5z" />
    <glyph glyph-name="f_j" unicode="fj" horiz-adv-x="556" 
d="M400 357h-206v-285h80v-72h-233v72h67v285h-75v74h75v98q0 111 57 165q48 46 117 46q49 0 77.5 -23t28.5 -56q0 -23 -16.5 -39.5t-39.5 -16.5q-24 0 -40.5 18.5t-15.5 42.5h-4q-30 0 -53 -28q-25 -32 -25 -93v-114h292v-422q0 -70 -21 -120q-39 -89 -137 -89
q-46 0 -71.5 21t-25.5 50q0 22 14.5 37.5t36.5 15.5t36 -15t14 -38v-3q42 1 58 54q10 33 10 80v355z" />
    <glyph glyph-name="f_k" unicode="fk" horiz-adv-x="841" 
d="M487 735v-510l156 136h-73v70h248v-74h-78l-120 -103l123 -180h75v-74h-126l-135 206l-70 -60v-75h63v-71h-215v72h66v285h-207v-285h80v-72h-233v72h67v285h-75v74h75v102q0 99 51 153q52 54 139 54q70 0 115 -39l18 34h56zM194 541v-110h207v108v6q-18 5 -30 21.5
t-12 35.5q0 21 11 35q-28 28 -73 28q-44 0 -73 -29q-30 -32 -30 -95z" />
    <glyph glyph-name="f_f_b" unicode="ffb" horiz-adv-x="1161" 
d="M779 735v-357q61 61 138 61q86 0 145 -62.5t59 -160.5q0 -94 -61 -159t-152 -65q-78 0 -136 52l-23 -45h-56v358h-207v-285h84v-72h-234v72h65v285h-207v-285h80v-72h-233v72h67v285h-75v74h75v98q0 92 46 141q47 50 125 50q35 0 60 -11q47 -20 47 -65q0 -22 -14 -36
t-35 -14t-36 13.5t-19 37.5h-3q-41 0 -62 -26q-23 -28 -23 -83v-105h207v102q0 99 51 153q52 54 138 54q72 0 116 -38l17 33h56zM898 67q57 0 95.5 40.5t38.5 108.5q0 67 -37.5 107.5t-94.5 40.5q-66 0 -121 -55v-201q55 -41 119 -41zM652 602q0 19 11 35q-30 28 -73 28
q-46 0 -73 -29q-31 -31 -31 -95v-110h207v108v6q-18 5 -29.5 21t-11.5 36zM327 629q-1 0 -2 1z" />
    <glyph glyph-name="f_f_h" unicode="ffh" horiz-adv-x="1158" 
d="M779 735v-376q75 80 154 80q72 0 108 -46q28 -37 28 -99v-222h67v-72h-217v72h64v203q0 41 -16 61q-19 24 -59 24q-64 0 -129 -65v-223h64v-72h-216v72h66v285h-207v-285h81v-72h-231v72h65v285h-207v-285h80v-72h-233v72h67v285h-75v74h75v98q0 92 46 141q47 50 125 50
q35 0 60 -11q47 -20 47 -65q0 -22 -14 -36t-35 -14t-36 13.5t-19 37.5h-3q-41 0 -62 -26q-23 -28 -23 -83v-105h207v102q0 99 51 153q52 54 138 54q72 0 116 -38l17 33h56zM486 541v-110h207v108v6q-18 5 -29.5 21t-11.5 36q0 19 11 35q-30 28 -73 28q-46 0 -73 -29
q-31 -31 -31 -95zM327 629q-1 0 -2 1z" />
    <glyph glyph-name="f_f_j" unicode="ffj" horiz-adv-x="848" 
d="M778 431v-422q0 -73 -21 -120q-38 -89 -137 -89q-46 0 -71.5 21t-25.5 50q0 21 15 37t36 16q22 0 36 -15t14 -38v-3q42 1 58 54q11 32 11 80v355h-207v-285h80v-72h-230v72h65v285h-207v-285h80v-72h-233v72h67v285h-75v74h75v98q0 92 46 141q47 50 125 50q35 0 60 -11
q47 -20 47 -65q0 -22 -14 -36t-35 -14t-36 13.5t-19 37.5h-3q-41 0 -62 -26q-23 -28 -23 -83v-105h207v98q0 111 56 165q48 46 117 46q50 0 78 -23t28 -56q0 -23 -16 -39.5t-40 -16.5t-40.5 18.5t-14.5 40.5q-3 1 -7 1q-27 0 -47 -23q-29 -33 -29 -97v-114h292z" />
    <glyph glyph-name="f_f_k" unicode="ffk" horiz-adv-x="1133" 
d="M779 735v-510l157 136h-74v70h249v-74h-78l-121 -103l123 -180h76v-74h-126l-136 206l-70 -60v-75h63v-71h-215v72h66v285h-207v-285h81v-72h-231v72h65v285h-207v-285h80v-72h-233v72h67v285h-75v74h75v98q0 92 46 141q47 50 125 50q35 0 60 -11q47 -20 47 -65
q0 -22 -14 -36t-35 -14t-36 13.5t-19 37.5h-3q-41 0 -62 -26q-23 -28 -23 -83v-105h207v102q0 99 51 153q52 54 138 54q72 0 116 -38l17 33h56zM486 541v-110h207v108v6q-18 5 -29.5 21t-11.5 36q0 19 11 35q-30 28 -73 28q-46 0 -73 -29q-31 -31 -31 -95zM327 629
q-1 0 -2 1z" />
    <glyph glyph-name=".notdef" horiz-adv-x="500" 
d="M0 -200v1000h500v-1000h-500zM71 750l179 -390l179 390h-358zM50 -76l172 376l-172 376v-752zM450 676l-172 -376l172 -376v752zM250 240l-179 -390h358z" />
    <glyph glyph-name=".null" horiz-adv-x="0" 
 />
    <glyph glyph-name="nonmarkingreturn" horiz-adv-x="333" 
 />
    <glyph glyph-name="space" unicode=" " horiz-adv-x="224" 
 />
    <glyph glyph-name="exclam" unicode="!" horiz-adv-x="264" 
d="M109 189l-32 468h110l-31 -468h-47zM132 -8q-27 0 -45.5 19t-18.5 46t18.5 46.5t45.5 19.5t46 -19.5t19 -46.5t-19 -46t-46 -19z" />
    <glyph glyph-name="quotedbl" unicode="&#x22;" horiz-adv-x="374" 
d="M263 400l-38 189q-7 36 9.5 58.5t46.5 22.5t46.5 -22.5t9.5 -58.5l-39 -189h-35zM74 400l-38 189q-7 36 9.5 58.5t46.5 22.5t46.5 -22.5t9.5 -58.5l-39 -189h-35z" />
    <glyph glyph-name="numbersign" unicode="#" horiz-adv-x="544" 
d="M57 325v71h98l19 119h78l-19 -119h118l19 119h79l-19 -119h89v-71h-100l-20 -127h89v-71h-100l-19 -127h-78l19 127h-118l-20 -127h-78l19 127h-88v71h99l20 127h-87zM221 327l-21 -131h122l21 131h-122z" />
    <glyph glyph-name="dollar" unicode="$" horiz-adv-x="493" 
d="M309 578l-5 -67q59 -8 99 -34t40 -68q0 -24 -14 -39t-36 -15q-24 0 -39 14.5t-15 36.5q0 17 5 27q-14 8 -52 13l-12 -148q36 -10 61 -20t52.5 -27t41.5 -42.5t14 -58.5q0 -72 -54.5 -110t-138.5 -40l-9 -106l-65 5l8 105q-63 9 -107.5 37t-44.5 74q0 24 14.5 40t37.5 16
t38.5 -14.5t15.5 -36.5q0 -15 -6 -29q15 -12 64 -21l13 161q-72 19 -113.5 50t-41.5 90q0 60 49 99.5t129 43.5l6 69zM365 143q0 27 -23 43.5t-71 30.5l-12 -150q46 2 76 21t30 55zM144 378q0 -24 19.5 -38.5t60.5 -26.5l12 135q-41 -3 -66.5 -21.5t-25.5 -48.5z" />
    <glyph glyph-name="percent" unicode="%" horiz-adv-x="669" 
d="M176 273q-53 0 -90 37t-37 89t37 88.5t90 36.5q52 0 89 -36.5t37 -88.5t-37 -89t-89 -37zM176 331q26 0 43 19t17 47q0 29 -17 48.5t-43 19.5q-27 0 -44 -19.5t-17 -48.5q0 -28 17 -47t44 -19zM130 -19l-38 35q47 49 224 252q108 123 220 258l39 -34q-65 -67 -227 -253
q-35 -40 -82 -95.5t-88 -105t-48 -57.5zM494 242q52 0 89 -36.5t37 -88.5t-37 -88.5t-89 -36.5q-53 0 -90 36.5t-37 88.5t37 88.5t90 36.5zM494 184q-27 0 -44 -19.5t-17 -48.5t17 -48t44 -19q26 0 43.5 19t17.5 48t-17.5 48.5t-43.5 19.5z" />
    <glyph glyph-name="ampersand" unicode="&#x26;" horiz-adv-x="642" 
d="M616 269h-58q-26 -84 -60 -136q62 -57 101 -88l-51 -57l-99 87q-86 -84 -206 -84q-102 0 -157.5 47.5t-55.5 120.5q0 109 134 182q-40 44 -53 76t-13 68q0 58 45.5 105.5t121.5 47.5q71 0 115.5 -38.5t44.5 -100.5q0 -52 -34.5 -92.5t-105.5 -78.5q29 -29 48 -46
q74 -67 110 -101q25 37 43 90h-55v71h185v-73zM243 65q85 0 150 59l-113 105q-36 32 -69 65q-92 -54 -92 -130q0 -39 33.5 -69t90.5 -30zM186 483q0 -48 52 -110q53 30 76 58.5t23 67.5q0 29 -20 49t-52 20q-35 0 -57 -25.5t-22 -59.5z" />
    <glyph glyph-name="quotesingle" unicode="'" horiz-adv-x="185" 
d="M74 400l-38 189q-7 36 9.5 58.5t46.5 22.5t46.5 -22.5t9.5 -58.5l-39 -189h-35z" />
    <glyph glyph-name="parenleft" unicode="(" horiz-adv-x="396" 
d="M365 -227q-120 66 -207.5 194.5t-87.5 293.5q0 112 46 213.5t109.5 166.5t139.5 107l42 -63q-110 -69 -178.5 -175t-68.5 -249q0 -144 68.5 -250t178.5 -175z" />
    <glyph glyph-name="parenright" unicode=")" horiz-adv-x="396" 
d="M31 -227l-42 63q110 69 178.5 175t68.5 250q0 143 -68.5 249t-178.5 175l42 63q76 -42 139.5 -107t109.5 -166.5t46 -213.5q0 -165 -87.5 -293.5t-207.5 -194.5z" />
    <glyph glyph-name="asterisk" unicode="*" horiz-adv-x="428" 
d="M340 518l-107 -7l81 -68q22 -18 24.5 -39.5t-17.5 -35.5t-39 -5t-29 35l-39 97l-39 -97q-10 -26 -29 -35t-39 5t-17.5 35.5t24.5 39.5l81 68l-107 7q-28 2 -42 18.5t-7 39.5q7 21 28.5 24.5t44.5 -10.5l90 -55l-26 104q-7 26 3.5 45t34.5 19t34.5 -19t3.5 -45l-26 -104
l90 55q23 14 44.5 10.5t28.5 -24.5q7 -23 -7 -39.5t-42 -18.5z" />
    <glyph glyph-name="plus" unicode="+" horiz-adv-x="436" 
d="M180 104v135h-134v74h134v135h76v-135h134v-74h-134v-135h-76z" />
    <glyph glyph-name="comma" unicode="," horiz-adv-x="227" 
d="M27 -160l-24 33q46 36 70 70t25 57q-25 6 -40.5 24.5t-15.5 43.5q0 26 20.5 46t48.5 20q32 0 53 -23t21 -64q0 -50 -38 -106t-120 -101z" />
    <glyph glyph-name="hyphen" unicode="-" horiz-adv-x="334" 
d="M38 236v88h258v-88h-258z" />
    <glyph glyph-name="period" unicode="." horiz-adv-x="227" 
d="M114 -8q-29 0 -49.5 21t-20.5 50t20.5 50t49.5 21t49.5 -21t20.5 -50t-20.5 -50t-49.5 -21z" />
    <glyph glyph-name="slash" unicode="/" horiz-adv-x="484" 
d="M63 -211l-73 33l409 922l73 -32z" />
    <glyph glyph-name="zero" unicode="0" horiz-adv-x="566" 
d="M283 -8q-104 0 -171.5 76t-67.5 190t67.5 189.5t171.5 75.5t171.5 -75.5t67.5 -189.5q0 -115 -67.5 -190.5t-171.5 -75.5zM283 66q66 0 108 54t42 138q0 83 -42 137.5t-108 54.5t-108 -54t-42 -138t42 -138t108 -54z" />
    <glyph glyph-name="one" unicode="1" horiz-adv-x="421" 
d="M60 0v72h120v353l-104 -26l-20 73l171 45h40v-445h118v-72h-325z" />
    <glyph glyph-name="two" unicode="2" horiz-adv-x="510" 
d="M244 449q-72 0 -99 -35q19 -16 19 -38q0 -23 -16.5 -40t-39.5 -17q-25 0 -42 19.5t-17 49.5q0 27 21 56q25 34 73 56.5t105 22.5q89 0 141.5 -44t52.5 -105q0 -58 -38 -96.5t-117 -85.5q-109 -64 -144 -121h242v85h74v-156h-412l-13 43q27 64 78.5 112t126.5 95
q31 20 46.5 30.5t34.5 26.5t26.5 31.5t7.5 33.5q0 34 -30.5 55.5t-79.5 21.5z" />
    <glyph glyph-name="three" unicode="3" horiz-adv-x="497" 
d="M28 14q0 28 17.5 47.5t42.5 19.5q22 0 38 -16t16 -38q0 -27 -20 -42q38 -38 117 -38q58 0 95 31t37 79q0 69 -70 100q-44 19 -109 19h-26v71h29q66 0 112 26q58 33 58 86q0 43 -33.5 66.5t-86.5 23.5q-70 0 -100 -32q22 -15 22 -41q0 -23 -16.5 -38.5t-39.5 -15.5
q-24 0 -41.5 19t-17.5 49q0 28 19 56q23 34 68.5 55.5t109.5 21.5q89 0 146 -46.5t57 -114.5q0 -38 -22 -71t-59 -54q-30 -18 -64 -22q31 -6 60 -22q91 -47 91 -139q0 -81 -62.5 -130.5t-157.5 -49.5q-63 0 -114.5 22.5t-76.5 58.5q-19 29 -19 59z" />
    <glyph glyph-name="four" unicode="4" horiz-adv-x="535" 
d="M326 -120v173h-288l-18 40l328 437l63 -50l-266 -355h181v130l83 33v-163h106v-72h-106v-173h-83z" />
    <glyph glyph-name="five" unicode="5" horiz-adv-x="498" 
d="M39 -9q0 28 17.5 47t42.5 19q23 0 39.5 -16t16.5 -39q0 -20 -15 -35q31 -18 90 -18q63 0 101 37.5t38 94.5q0 56 -37 90.5t-103 34.5q-69 0 -129 -29l-39 22l38 316h323v-81h-257l-20 -167q42 13 95 13q95 0 155.5 -54t60.5 -145q0 -90 -63 -148.5t-158 -58.5
q-111 0 -165 51q-31 29 -31 66z" />
    <glyph glyph-name="six" unicode="6" horiz-adv-x="546" 
d="M302 570q-64 0 -115 -68.5t-55 -187.5q20 35 64 58.5t94 23.5q92 0 153 -56.5t61 -139.5q0 -88 -64 -148t-161 -60q-98 0 -160 63q-70 71 -70 220q0 178 76 273.5t185 95.5q89 0 139 -50q27 -25 27 -61q0 -28 -18 -46t-41 -18q-26 0 -42.5 16.5t-16.5 39.5q0 17 8 28
q-23 17 -64 17zM279 65q61 0 99 38.5t38 96.5q0 52 -36.5 87t-95.5 35q-61 0 -102 -38t-41 -92q0 -53 39 -89q40 -38 99 -38z" />
    <glyph glyph-name="seven" unicode="7" horiz-adv-x="495" 
d="M173 -122l-74 37l259 529h-248v-105h-78v176h411l20 -43z" />
    <glyph glyph-name="eight" unicode="8" horiz-adv-x="519" 
d="M259 -8q-97 0 -157.5 52t-60.5 128q0 51 32 92t84 61q-46 22 -74 61t-28 81q0 76 58.5 126t145.5 50q88 0 146.5 -50t58.5 -126q0 -43 -28.5 -81.5t-74.5 -60.5q52 -20 84.5 -61t32.5 -92q0 -77 -61 -128.5t-158 -51.5zM259 357q48 0 82 31t34 74q0 47 -32.5 77t-83.5 30
q-50 0 -82.5 -30t-32.5 -77q0 -44 33.5 -74.5t81.5 -30.5zM259 66q57 0 93 32t36 80t-36 80.5t-93 32.5q-56 0 -92 -32.5t-36 -80.5t36 -80t92 -32z" />
    <glyph glyph-name="nine" unicode="9" horiz-adv-x="546" 
d="M232 -125q-92 0 -141 51q-25 28 -25 59q0 28 18 46.5t41 18.5q26 0 42.5 -16.5t16.5 -40.5q0 -15 -9 -28q24 -16 65 -16q67 0 118 66.5t55 182.5q-21 -34 -64.5 -56.5t-93.5 -22.5q-92 0 -153 56.5t-61 138.5q0 89 64 149t161 60q99 0 157 -60q74 -72 74 -224
q0 -178 -77.5 -271t-187.5 -93zM365 412q-40 38 -99 38q-61 0 -99 -38.5t-38 -97.5q0 -52 36.5 -86.5t95.5 -34.5q61 0 102 38t41 91q0 54 -39 90z" />
    <glyph glyph-name="colon" unicode=":" horiz-adv-x="246" 
d="M124 257q-29 0 -49 20.5t-20 49.5t20 49t49 20q28 0 48 -20t20 -49t-20 -49.5t-48 -20.5zM124 -8q-29 0 -49 20.5t-20 49.5t20 49t49 20q28 0 48 -20t20 -49t-20 -49.5t-48 -20.5z" />
    <glyph glyph-name="semicolon" unicode=";" horiz-adv-x="246" 
d="M124 257q-29 0 -49 20.5t-20 49.5t20 49t49 20q28 0 48 -20t20 -49t-20 -49.5t-48 -20.5zM39 -157l-24 32q90 71 94 125q-24 6 -39.5 24t-15.5 42q0 26 20 45.5t47 19.5q31 0 52 -22.5t21 -62.5q0 -48 -37.5 -103.5t-117.5 -99.5z" />
    <glyph glyph-name="less" unicode="&#x3c;" horiz-adv-x="404" 
d="M299 74l-254 177v44l254 177l41 -56l-205 -143l205 -142z" />
    <glyph glyph-name="equal" unicode="=" horiz-adv-x="436" 
d="M46 321v74h344v-74h-344zM46 149v74h344v-74h-344z" />
    <glyph glyph-name="greater" unicode="&#x3e;" horiz-adv-x="404" 
d="M105 74l-41 57l205 142l-205 143l41 56l254 -177v-44z" />
    <glyph glyph-name="question" unicode="?" horiz-adv-x="464" 
d="M22 523q0 38 26 72q25 34 71 54.5t101 20.5q96 0 154.5 -51.5t58.5 -129.5q0 -70 -48 -122t-137 -72l-10 -106h-55l-18 162q88 14 131.5 50.5t43.5 85.5q0 47 -33 76.5t-90 29.5q-72 0 -101 -40q-2 -2 -2 -3q12 -4 19 -16t7 -26q0 -24 -14 -39.5t-38 -15.5
q-26 0 -46 19.5t-20 50.5zM211 -8q-26 0 -45 19t-19 46t19 46.5t45 19.5q27 0 46 -19.5t19 -46.5t-19 -46t-46 -19z" />
    <glyph glyph-name="at" unicode="@" horiz-adv-x="809" 
d="M343 -177q-132 0 -216 88.5t-84 227.5q0 196 124.5 335t299.5 139q135 0 218 -81t83 -210q0 -121 -57.5 -205t-143.5 -84q-48 0 -75 24t-29 61q-49 -85 -130 -85q-50 0 -83 38.5t-33 99.5q0 90 53.5 157t127.5 67t104 -79l23 73h80l-57 -226q-20 -74 37 -74q53 0 93 69
t40 162q0 107 -68 177t-182 70q-156 0 -265.5 -126t-109.5 -304q0 -116 70.5 -192.5t181.5 -76.5q83 0 159 41l21 -40q-86 -46 -182 -46zM372 107q45 0 79.5 40.5t34.5 96.5q0 35 -18.5 54.5t-52.5 19.5q-45 0 -76.5 -40.5t-31.5 -95.5q0 -33 17 -54t48 -21z" />
    <glyph glyph-name="A" unicode="A" horiz-adv-x="702" 
d="M16 0v81h60l183 497h-73v80h330v-80h-74l183 -497h61v-81h-234v80h76l-49 139h-260l-49 -139h80v-80h-234zM245 295h208l-104 287z" />
    <glyph glyph-name="B" unicode="B" horiz-adv-x="601" 
d="M43 0v81h80v496h-80v81h263q113 0 171.5 -47.5t58.5 -121.5q0 -56 -32 -95t-85 -56q136 -38 136 -156q0 -81 -63 -131.5t-174 -50.5h-275zM213 79h107q67 0 105 29.5t38 79.5q0 53 -41 81.5t-115 28.5h-94v-219zM213 371h88q69 0 106 29t37 79q0 47 -36.5 73.5
t-103.5 26.5h-91v-208z" />
    <glyph glyph-name="C" unicode="C" horiz-adv-x="702" 
d="M394 -12q-150 0 -246 97t-96 242q0 148 99 245.5t240 97.5q104 0 177 -49.5t73 -111.5q0 -31 -18.5 -51t-45.5 -20q-28 0 -46 16.5t-18 43.5q0 25 17 38q-16 20 -53 35.5t-88 15.5q-105 0 -174.5 -75.5t-69.5 -183.5q0 -106 70 -181.5t179 -75.5t197 86l57 -63
q-49 -51 -115.5 -78.5t-138.5 -27.5z" />
    <glyph glyph-name="D" unicode="D" horiz-adv-x="721" 
d="M43 0v81h80v496h-80v81h247q175 0 277 -87.5t102 -235.5q0 -152 -101 -243.5t-284 -91.5h-241zM214 81h82q136 0 208 68.5t72 186.5q0 113 -77.5 177t-210.5 64h-74v-496z" />
    <glyph glyph-name="E" unicode="E" horiz-adv-x="583" 
d="M43 0v81h80v496h-80v81h483v-172h-86v92h-226v-204h208v-78h-208v-216h226v92h87v-172h-484z" />
    <glyph glyph-name="F" unicode="F" horiz-adv-x="564" 
d="M43 0v81h80v496h-80v81h477v-172h-87v92h-219v-216h204v-79h-204v-202h89v-81h-260z" />
    <glyph glyph-name="G" unicode="G" horiz-adv-x="732" 
d="M370 -12q-129 0 -223.5 93t-94.5 244t100 248t243 97q107 0 178.5 -48t71.5 -107q0 -31 -17.5 -50.5t-44.5 -19.5q-28 0 -46 17t-18 44q0 23 13 36q-47 45 -140 45q-108 0 -177.5 -74t-69.5 -187t69.5 -185t167.5 -72q99 0 180 54v129h-175v77h264v-329h-87v53
q-87 -65 -194 -65z" />
    <glyph glyph-name="H" unicode="H" horiz-adv-x="767" 
d="M43 0v81h80v496h-80v81h255v-81h-84v-202h339v202h-84v81h255v-81h-80v-496h80v-81h-255v81h84v215h-339v-215h84v-81h-255z" />
    <glyph glyph-name="I" unicode="I" horiz-adv-x="348" 
d="M43 0v81h86v496h-86v81h261v-81h-85v-496h85v-81h-261z" />
    <glyph glyph-name="J" unicode="J" horiz-adv-x="534" 
d="M223 -12q-81 0 -137.5 47t-56.5 116q0 36 19 58.5t48 22.5q24 0 41 -17t17 -41q0 -36 -30 -48q5 -21 31 -38t68 -17q50 0 79 29q35 36 35 121v356h-101v81h266v-81h-76v-357q0 -120 -58 -178q-56 -54 -145 -54z" />
    <glyph glyph-name="K" unicode="K" horiz-adv-x="677" 
d="M43 0v81h80v496h-80v81h255v-79h-84v-260l258 260h-83v79h270v-81h-73l-201 -199l192 -297h84v-81h-142l-202 317l-103 -102v-134h84v-81h-255z" />
    <glyph glyph-name="L" unicode="L" horiz-adv-x="552" 
d="M43 0v81h80v496h-80v81h260v-81h-89v-497h208v97h87v-177h-466z" />
    <glyph glyph-name="M" unicode="M" horiz-adv-x="874" 
d="M38 0v81h82l23 496h-86v81h169l210 -413l210 413h167v-81h-85l22 -496h83v-81h-254v81h81l-15 409l-202 -390h-17l-202 390l-15 -409h81v-81h-252z" />
    <glyph glyph-name="N" unicode="N" horiz-adv-x="755" 
d="M595 -3l-384 500v-416h84v-81h-252v81h80v496h-80v81h158l356 -464v383h-84v81h249v-81h-77v-579z" />
    <glyph glyph-name="O" unicode="O" horiz-adv-x="773" 
d="M384 -12q-144 0 -238 98t-94 243q0 146 95 243.5t242 97.5q144 0 238 -98t94 -243q0 -146 -95 -243.5t-242 -97.5zM387 72q105 0 173 73t68 184t-68 184t-173 73t-173.5 -73t-68.5 -184t68.5 -184t173.5 -73z" />
    <glyph glyph-name="P" unicode="P" horiz-adv-x="581" 
d="M43 0v81h80v496h-80v81h258q107 0 176.5 -57.5t69.5 -153.5q0 -104 -68.5 -161t-183.5 -57q-47 0 -81 2v-150h86v-81h-257zM301 309q71 0 112 37t41 101q0 59 -43.5 94.5t-111.5 35.5h-85v-266q34 -2 87 -2z" />
    <glyph glyph-name="Q" unicode="Q" horiz-adv-x="773" 
d="M646 -138q-32 0 -67 12t-51.5 20.5t-55.5 35t-41 27.5q-39 25 -93 35q-110 18 -187 90q-46 43 -72.5 107.5t-26.5 139.5q0 146 95 243.5t242 97.5q144 0 238 -98t94 -243q0 -121 -65 -206.5t-167 -111.5q22 -7 48 -23q35 -22 56 -31t47 -9q42 0 85 30l44 -72
q-47 -44 -123 -44zM387 72q105 0 173 73t68 184t-68 184t-173 73t-173.5 -73t-68.5 -184q0 -116 76 -192q67 -65 166 -65z" />
    <glyph glyph-name="R" unicode="R" horiz-adv-x="619" 
d="M43 0v81h80v496h-80v81h252q113 0 180.5 -51t67.5 -143q0 -64 -36.5 -111t-97.5 -69l122 -203h77v-81h-139l-149 261q-26 -2 -39 -2q-33 0 -67 2v-180h84v-81h-255zM287 337q72 0 117.5 33t45.5 91q0 57 -43 86.5t-117 29.5h-76v-238q34 -2 73 -2z" />
    <glyph glyph-name="S" unicode="S" horiz-adv-x="552" 
d="M274 -12q-94 0 -159.5 44.5t-65.5 99.5q0 31 16.5 50t43.5 19q26 0 43 -16.5t17 -38.5q0 -23 -13 -43q40 -35 120 -35q60 0 95.5 28t35.5 76q0 42 -33.5 67.5t-96.5 49.5q-105 39 -154 80t-49 121q0 78 57.5 129t151.5 51q86 0 145.5 -40t59.5 -95q0 -30 -16.5 -47.5
t-41.5 -17.5q-27 0 -44 17t-17 41q0 18 11 35q-32 28 -98 28q-54 0 -85.5 -26t-31.5 -68q0 -43 33 -68t101 -51q50 -18 80 -33t60 -38t44 -54.5t14 -73.5q0 -88 -62 -139.5t-161 -51.5z" />
    <glyph glyph-name="T" unicode="T" horiz-adv-x="625" 
d="M181 0v81h86v499h-147v-105h-86v183h557v-183h-86v105h-147v-499h86v-81h-263z" />
    <glyph glyph-name="U" unicode="U" horiz-adv-x="702" 
d="M351 -12q-114 0 -178 63t-64 181v345h-78v81h251v-81h-83v-339q0 -82 39.5 -124.5t112.5 -42.5q74 0 114 41t40 123v342h-83v81h250v-81h-79v-342q0 -120 -64.5 -183.5t-177.5 -63.5z" />
    <glyph glyph-name="V" unicode="V" horiz-adv-x="693" 
d="M320 -9l-241 586h-63v81h238v-81h-72l166 -427l167 427h-76v81h238v-81h-63l-242 -586h-52z" />
    <glyph glyph-name="W" unicode="W" horiz-adv-x="1003" 
d="M279 -9l-184 586h-73v81h255v-81h-84l125 -412l164 421h49l164 -421l120 412h-87v81h255v-81h-74l-181 -586h-51l-172 433l-174 -433h-52z" />
    <glyph glyph-name="X" unicode="X" horiz-adv-x="715" 
d="M33 0v81h70l203 257l-187 239h-73v81h248v-79h-71l138 -190l139 190h-77v79h249v-81h-73l-187 -238l200 -258h70v-81h-245v79h70l-150 209l-155 -209h76v-79h-245z" />
    <glyph glyph-name="Y" unicode="Y" horiz-adv-x="643" 
d="M187 0v81h89v177l-191 319h-69v81h233v-81h-63l137 -242l138 242h-67v81h233v-81h-69l-191 -318v-178h89v-81h-269z" />
    <glyph glyph-name="Z" unicode="Z" horiz-adv-x="614" 
d="M44 0v48l390 534h-289v-107h-80v183h498v-48l-390 -534h317v107h79v-183h-525z" />
    <glyph glyph-name="bracketleft" unicode="[" horiz-adv-x="365" 
d="M97 -200v932h242v-76h-157v-779h157v-77h-242z" />
    <glyph glyph-name="backslash" unicode="\" horiz-adv-x="484" 
d="M421 -211l-409 923l73 32l409 -922z" />
    <glyph glyph-name="bracketright" unicode="]" horiz-adv-x="365" 
d="M26 -200v77h157v779h-157v76h242v-932h-242z" />
    <glyph glyph-name="asciicircum" unicode="^" horiz-adv-x="452" 
d="M102 342l-40 46l164 159l164 -159l-40 -46l-124 87z" />
    <glyph glyph-name="underscore" unicode="_" horiz-adv-x="549" 
d="M-7 -156v82h563v-82h-563z" />
    <glyph glyph-name="grave" unicode="`" horiz-adv-x="340" 
d="M238 498l-150 95q-33 22 -33 49q0 20 13 33t31 13q25 0 48 -26l116 -136z" />
    <glyph glyph-name="a" unicode="a" horiz-adv-x="499" 
d="M182 -8q-61 0 -101 33t-40 90q0 59 47 94.5t122 35.5q62 0 118 -17v49q0 36 -19 60q-27 33 -90 33q-32 0 -56 -13q5 -12 5 -24q0 -21 -14 -35t-36 -14t-36.5 14t-14.5 37q0 42 44 73t122 31q99 0 145 -54q33 -39 33 -99v-214h67v-72h-148v52q-64 -60 -148 -60zM207 57
q63 0 121 51v70q-54 15 -105 15q-45 0 -70 -19.5t-25 -51.5q0 -30 21 -47.5t58 -17.5z" />
    <glyph glyph-name="b" unicode="b" horiz-adv-x="546" 
d="M293 -8q-76 0 -137 51l-22 -44h-56v659h-68v74h154v-354q61 61 138 61q86 0 145 -62.5t59 -160.5q0 -94 -61 -159t-152 -65zM283 67q57 0 95.5 40.5t38.5 108.5q0 67 -37.5 107.5t-94.5 40.5q-66 0 -121 -55v-201q55 -41 119 -41z" />
    <glyph glyph-name="c" unicode="c" horiz-adv-x="484" 
d="M272 -8q-101 0 -167 63t-66 162q0 89 62.5 155.5t153.5 66.5q77 0 131 -42t54 -94q0 -28 -17.5 -46t-43.5 -18q-22 0 -38 15.5t-16 38.5t18 36q-8 16 -33 27.5t-55 11.5q-49 0 -89 -40.5t-40 -112.5q0 -66 43.5 -107.5t110.5 -41.5q69 0 148 46l-8 -79q-64 -41 -148 -41z
" />
    <glyph glyph-name="d" unicode="d" horiz-adv-x="555" 
d="M242 -8q-87 0 -144.5 62t-57.5 159q0 94 59.5 160t150.5 66q78 0 128 -47v266h-74v74h160v-660h67v-72h-152v55q-59 -63 -137 -63zM258 67q65 0 120 55v200q-54 42 -118 42q-56 0 -93.5 -41.5t-38.5 -108.5q0 -66 37 -106.5t93 -40.5z" />
    <glyph glyph-name="e" unicode="e" horiz-adv-x="491" 
d="M451 188h-323q9 -60 50 -91t106 -31q72 0 153 46l-7 -79q-66 -41 -159 -41q-104 0 -168.5 61.5t-64.5 160.5q0 94 59 159.5t155 65.5t149.5 -59t53.5 -146q0 -20 -4 -46zM250 368q-46 0 -80 -30t-42 -86h241q-3 53 -34 84.5t-85 31.5z" />
    <glyph glyph-name="f" unicode="f" horiz-adv-x="328" 
d="M303 623q-41 0 -57 41q-16 -4 -29 -19q-22 -30 -22 -88v-126h112v-74h-112v-285h84v-72h-236v72h67v285h-75v74h75v110q0 108 50 157q42 42 107 42q38 0 62 -17.5t24 -46.5q0 -24 -14.5 -38.5t-35.5 -14.5z" />
    <glyph glyph-name="g" unicode="g" horiz-adv-x="556" 
d="M462 357v-366q0 -79 -40 -127q-52 -64 -163 -64q-106 0 -156 50q-23 23 -23 52q0 23 15.5 39.5t38.5 16.5q22 0 36 -14t14 -35q0 -13 -6 -24q35 -14 76 -14q67 0 100 41q22 28 22 79v75q-59 -61 -135 -61q-85 0 -143 60t-58 154q0 91 59.5 155.5t148.5 64.5q76 0 132 -51
v43h149v-74h-67zM261 364q-59 0 -96 -40t-37 -104t36.5 -102.5t94.5 -38.5q65 0 117 54v189q-51 42 -115 42z" />
    <glyph glyph-name="h" unicode="h" horiz-adv-x="560" 
d="M96 658h-67v74h153v-373q75 80 153 80q73 0 108 -46q29 -38 29 -99v-222h67v-72h-217v72h64v203q0 39 -17 61q-19 24 -59 24q-65 0 -128 -65v-223h64v-72h-217v72h67v586z" />
    <glyph glyph-name="i" unicode="i" horiz-adv-x="296" 
d="M141 522q-26 0 -44 18.5t-18 44.5q0 25 18.5 43.5t44.5 18.5q25 0 43.5 -18.5t18.5 -43.5q0 -26 -19 -44.5t-44 -18.5zM38 0v72h70v285h-70v74h156v-359h69v-72h-225z" />
    <glyph glyph-name="j" unicode="j" horiz-adv-x="274" 
d="M-51 -129q0 21 15 37t37 16t36 -15t14 -38v-3q40 1 58 54q10 33 10 80v355h-82v74h168v-422q0 -71 -22 -120q-38 -89 -136 -89q-46 0 -72 21t-26 50zM147 522q-26 0 -44 18.5t-18 44.5q0 25 18.5 43.5t44.5 18.5q25 0 43.5 -18.5t18.5 -43.5q0 -26 -19 -44.5t-44 -18.5z
" />
    <glyph glyph-name="k" unicode="k" horiz-adv-x="536" 
d="M29 0v72h67v586h-67v74h153v-507l156 136h-73v70h248v-74h-78l-120 -103l123 -180h75v-74h-126l-135 206l-70 -60v-75h63v-71h-216z" />
    <glyph glyph-name="l" unicode="l" horiz-adv-x="285" 
d="M30 0v72h70v586h-70v74h156v-660h69v-72h-225z" />
    <glyph glyph-name="m" unicode="m" horiz-adv-x="833" 
d="M37 0v72h67v285h-67v74h149v-75q71 83 152 83q71 0 105 -49q8 -12 13 -30q79 79 152 79q88 0 120 -62q17 -36 17 -82v-223h67v-72h-217v72h64v204q0 28 -8 49q-15 35 -61 35q-58 0 -123 -63v-225h63v-72h-213v72h64v204q0 31 -7 49q-16 35 -61 35q-58 0 -124 -64v-224h63
v-72h-215z" />
    <glyph glyph-name="n" unicode="n" horiz-adv-x="566" 
d="M186 431v-75q77 83 157 83q77 0 113 -55q22 -38 22 -90v-222h67v-72h-217v72h64v203q0 32 -10 51q-18 34 -64 34q-64 0 -129 -65v-223h64v-72h-216v72h67v285h-67v74h149z" />
    <glyph glyph-name="o" unicode="o" horiz-adv-x="529" 
d="M265 -8q-101 0 -163 64.5t-62 158.5t62.5 159t162.5 65t162.5 -65t62.5 -159q0 -93 -63 -158t-162 -65zM265 65q60 0 98 42t38 108t-38 108.5t-98 42.5q-61 0 -99 -42.5t-38 -108.5t38 -108t99 -42z" />
    <glyph glyph-name="p" unicode="p" horiz-adv-x="557" 
d="M29 -196v72h67v481h-67v74h149v-56q62 64 138 64q86 0 143.5 -62t57.5 -159q0 -94 -59.5 -160t-149.5 -66q-70 0 -126 46v-162h77v-72h-230zM298 67q56 0 93 41.5t37 108.5q0 66 -36 106.5t-92 40.5q-63 0 -118 -55v-201q51 -41 116 -41z" />
    <glyph glyph-name="q" unicode="q" horiz-adv-x="532" 
d="M299 -196v74h83v174q-64 -60 -139 -60q-86 0 -144.5 62.5t-58.5 160.5q0 94 60.5 159t151.5 65q74 0 137 -51l22 45h56v-555h68v-74h-236zM260 67q65 0 122 55v201q-55 41 -120 41q-57 0 -95.5 -40.5t-38.5 -108.5q0 -67 37.5 -107.5t94.5 -40.5z" />
    <glyph glyph-name="r" unicode="r" horiz-adv-x="403" 
d="M320 439q34 0 52.5 -18t18.5 -45q0 -23 -16.5 -40.5t-38.5 -17.5q-41 0 -57 37q-24 -7 -49 -31.5t-41 -55.5v-196h79v-72h-231v72h67v285h-67v74h149v-98q27 47 62.5 76.5t71.5 29.5z" />
    <glyph glyph-name="s" unicode="s" horiz-adv-x="446" 
d="M388 341q0 -23 -13 -37t-33 -14q-23 0 -37.5 13t-14.5 35q0 13 4 22q-28 13 -69 13q-39 0 -62 -16.5t-23 -38.5q0 -23 23 -35.5t79 -27.5q82 -21 121.5 -48t39.5 -82q0 -62 -51 -98t-125 -36q-48 0 -93 14.5t-67 36.5q-24 24 -24 56q0 21 14 36.5t35 15.5
q22 0 36.5 -13.5t14.5 -36.5q0 -13 -4 -22q32 -20 88 -20q41 0 67.5 15.5t26.5 42.5q0 22 -22 35.5t-73 26.5q-90 23 -129.5 50.5t-39.5 81.5q0 53 45 91t124 38q42 0 80.5 -12.5t59.5 -33.5q22 -22 22 -52z" />
    <glyph glyph-name="t" unicode="t" horiz-adv-x="348" 
d="M211 -8q-76 0 -104 54q-13 28 -13 63v248h-81v74h81v99l86 35v-134h131v-74h-131v-233q0 -19 6 -33q12 -21 49 -21q32 0 82 24l-9 -77q-48 -25 -97 -25z" />
    <glyph glyph-name="u" unicode="u" horiz-adv-x="558" 
d="M223 -8q-78 0 -114 57q-20 37 -20 88v220h-67v74h152v-275q0 -32 11 -52q17 -33 63 -33q60 0 129 65v221h-69v74h155v-359h67v-72h-150v75q-77 -83 -157 -83z" />
    <glyph glyph-name="v" unicode="v" horiz-adv-x="529" 
d="M237 -12l-177 369h-54v74h209v-71h-66l117 -259l117 259h-69v71h209v-74h-54l-177 -369h-55z" />
    <glyph glyph-name="w" unicode="w" horiz-adv-x="708" 
d="M183 -17l-114 374h-63v74h209v-72h-65l70 -246l111 271h53l112 -271l70 246h-72v72h208v-74h-63l-113 -374h-54l-118 280l-117 -280h-54z" />
    <glyph glyph-name="x" unicode="x" horiz-adv-x="517" 
d="M17 0v74h57l136 144l-129 139h-56v74h201v-69h-55l88 -105l88 105h-56v69h199v-74h-57l-127 -136l137 -147h57v-74h-203v69h56l-97 113l-96 -113h57v-69h-200z" />
    <glyph glyph-name="y" unicode="y" horiz-adv-x="521" 
d="M222 -134q-50 -65 -113 -65q-36 0 -59 17.5t-23 43.5q0 23 13.5 36t33.5 13q35 0 47 -36q22 8 44 39q13 22 27 49l29 60l-159 334h-56v74h210v-71h-66q7 -16 19 -42.5t36.5 -82.5t40.5 -93l16 -38l114 256h-69v71h208v-74h-56l-203 -433q-17 -34 -34 -58z" />
    <glyph glyph-name="z" unicode="z" horiz-adv-x="455" 
d="M33 0v45l270 317h-178v-83h-75v152h368v-44l-269 -317h199v82h74v-152h-389z" />
    <glyph glyph-name="braceleft" unicode="{" horiz-adv-x="364" 
d="M315 -217q-123 3 -184.5 46t-61.5 113q0 41 19.5 70.5t60.5 68.5q45 43 45 74q0 32 -31.5 52t-84.5 20h-23v74h23q53 0 84.5 20t31.5 52q0 31 -45 74q-41 39 -60.5 68.5t-19.5 70.5q0 70 61.5 113t184.5 46v-67q-86 -5 -124.5 -31t-38.5 -62q0 -31 60 -93q71 -71 71 -121
q0 -38 -30.5 -67t-88.5 -40q58 -11 88.5 -40t30.5 -67q0 -50 -71 -121q-60 -62 -60 -93q0 -36 38.5 -62t124.5 -31v-67z" />
    <glyph glyph-name="bar" unicode="|" horiz-adv-x="276" 
d="M100 -200v932h76v-932h-76z" />
    <glyph glyph-name="braceright" unicode="}" horiz-adv-x="364" 
d="M49 -217v67q86 5 124.5 31t38.5 62q0 31 -60 93q-71 71 -71 121q0 38 30.5 67t88.5 40q-58 11 -88.5 40t-30.5 67q0 50 71 121q60 62 60 93q0 36 -38.5 62t-124.5 31v67q123 -3 184.5 -46t61.5 -113q0 -41 -19.5 -70.5t-60.5 -68.5q-45 -43 -45 -74q0 -32 31.5 -52
t84.5 -20h23v-74h-23q-53 0 -84.5 -20t-31.5 -52q0 -31 45 -74q41 -39 60.5 -68.5t19.5 -70.5q0 -70 -61.5 -113t-184.5 -46z" />
    <glyph glyph-name="asciitilde" unicode="~" horiz-adv-x="444" 
d="M296 188q-46 0 -88 38q-34 30 -55 30q-36 0 -49 -61l-62 16q6 58 36.5 94.5t69.5 36.5q45 0 88 -39q36 -30 55 -30q36 0 49 61l62 -15q-6 -58 -36.5 -94.5t-69.5 -36.5z" />
    <glyph glyph-name="uni00A0" unicode="&#xa0;" horiz-adv-x="224" 
 />
    <glyph glyph-name="exclamdown" unicode="&#xa1;" horiz-adv-x="264" 
d="M132 534q-27 0 -45.5 19.5t-18.5 46.5t18.5 46t45.5 19t46 -19t19 -46t-19 -46.5t-46 -19.5zM77 0l32 468h47l31 -468h-110z" />
    <glyph glyph-name="cent" unicode="&#xa2;" horiz-adv-x="522" 
d="M472 349q0 -27 -17.5 -45t-41.5 -18q-21 0 -36.5 14.5t-15.5 37.5q0 21 18 39q-18 24 -68 34l-27 -305h15q82 0 161 46l-7 -77q-64 -40 -161 -40h-12l-13 -141l-66 6l13 145q-78 21 -123.5 79.5t-45.5 135.5q0 83 60 147.5t150 72.5l10 104l65 -6l-9 -101
q64 -11 107.5 -48.5t43.5 -79.5zM131 259q0 -48 24.5 -85t68.5 -55l27 292q-52 -10 -86 -49.5t-34 -102.5z" />
    <glyph glyph-name="sterling" unicode="&#xa3;" horiz-adv-x="508" 
d="M388 117h-165v-12q0 -68 -45 -118q48 -1 90 -16q61 -20 95 -20q30 0 47 13t36 47l57 -32q-21 -56 -53.5 -80.5t-84.5 -24.5t-119 26q-56 21 -101 21h-7q-33 -47 -85 -47q-23 0 -39 13t-16 31q0 30 29 51t78 20q40 50 40 114v14h-109v68h97q-1 4 -8 25q-29 78 -29 126
q0 78 52.5 132.5t139.5 54.5q69 0 117.5 -34.5t48.5 -82.5q0 -31 -16.5 -47.5t-38.5 -16.5t-36.5 15t-14.5 37q0 15 11 33q-19 23 -72 23q-52 0 -80.5 -34t-28.5 -80q0 -52 24 -117l11 -34h175v-68z" />
    <glyph glyph-name="yen" unicode="&#xa5;" horiz-adv-x="518" 
d="M76 241v66h96l-90 141h-64v67h199v-66h-57l99 -161l98 161h-60v66h200v-67h-65l-91 -141h98v-66h-139l-6 -9v-43h145v-66h-145v-57h84v-66h-241v66h83v57h-144v66h144v43l-6 9h-138z" />
    <glyph glyph-name="section" unicode="&#xa7;" horiz-adv-x="459" 
d="M234 523q64 0 107 -24t43 -63q0 -19 -13 -32.5t-34 -13.5t-34 12t-13 31q0 11 3 15q-19 14 -63 14q-31 0 -49 -10.5t-18 -26.5q0 -10 7.5 -18.5t26 -16.5t31.5 -12t43 -13l43.5 -14.5t35.5 -15t29.5 -19t17.5 -23.5t7 -31q0 -58 -77 -87q49 -29 49 -78q0 -45 -41.5 -75.5
t-112.5 -30.5q-61 0 -106 23t-45 64q0 18 13.5 31.5t33.5 13.5q21 0 35 -12t14 -31q0 -9 -4 -15q18 -13 62 -13q33 0 50 10.5t17 26.5q0 19 -24 30.5t-76 26.5q-6 1 -9 2q-64 19 -98.5 41.5t-34.5 61.5q0 61 79 87q-51 29 -51 79q0 43 43.5 74.5t112.5 31.5zM228 211l33 -9
q61 16 61 47q0 18 -23.5 30t-70.5 24q-21 5 -35 10q-60 -18 -60 -49q0 -18 23 -29.5t72 -23.5z" />
    <glyph glyph-name="dieresis" unicode="&#xa8;" horiz-adv-x="429" 
d="M308 513q-26 0 -44.5 18.5t-18.5 45.5q0 26 19 44.5t45 18.5t44.5 -18.5t18.5 -44.5q0 -27 -19 -45.5t-45 -18.5zM120 513q-26 0 -44.5 18.5t-18.5 45.5q0 26 19 44.5t45 18.5t44.5 -18.5t18.5 -44.5q0 -27 -19 -45.5t-45 -18.5z" />
    <glyph glyph-name="copyright" unicode="&#xa9;" horiz-adv-x="611" 
d="M300 -8q-111 0 -187 77t-76 188t76 188.5t187 77.5t186.5 -77t75.5 -189q0 -110 -76 -187.5t-186 -77.5zM300 32q90 0 153 66t63 160q0 95 -62.5 160t-153.5 65q-92 0 -154.5 -65t-62.5 -160t62.5 -160.5t154.5 -65.5zM307 357q-38 0 -63.5 -27t-25.5 -67t25.5 -67.5
t66.5 -27.5t75 32l24 -27q-36 -45 -100 -45q-59 0 -97 37.5t-38 95.5q0 57 39.5 95.5t93.5 38.5q44 0 72 -19.5t28 -43.5q0 -13 -8 -21.5t-20 -8.5q-11 0 -18.5 8t-7.5 18q0 9 4 13q-16 16 -50 16z" />
    <glyph glyph-name="ordfeminine" unicode="&#xaa;" horiz-adv-x="349" 
d="M119 403q-36 0 -60 20t-24 54q0 35 28 56t73 21t70 -9v27q0 27 -18 42q-16 12 -46 12q-22 0 -32 -6q3 -6 3 -14q0 -13 -9 -22t-22 -9q-14 0 -22.5 9t-8.5 23q0 25 26.5 44t73.5 19q44 0 72 -18q36 -24 36 -75v-123h40v-46h-92v31q-40 -36 -88 -36zM43 291v51h256v-51
h-256zM136 445q35 0 70 28v42q-28 7 -60 7q-26 0 -40.5 -11t-14.5 -30q0 -17 12 -26.5t33 -9.5z" />
    <glyph glyph-name="guillemotleft" unicode="&#xab;" horiz-adv-x="520" 
d="M424 100l-184 178l184 178l52 -52l-123 -126l123 -126zM211 100l-183 178l183 178l52 -52l-123 -126l123 -126z" />
    <glyph glyph-name="registered" unicode="&#xae;" horiz-adv-x="398" 
d="M199 336q-75 0 -127 51.5t-52 126.5q0 76 52 127.5t127 51.5t127 -51.5t52 -127.5q0 -74 -52.5 -126t-126.5 -52zM199 659q-59 0 -100.5 -42t-41.5 -104q0 -60 41.5 -101.5t100.5 -41.5q58 0 100 41.5t42 101.5q0 62 -41.5 104t-100.5 42zM131 433v29h18v110h-18v29h68
q30 0 49 -13t19 -38q0 -31 -31 -46l22 -42h19v-29h-42l-31 62h-22v-33h19v-29h-70zM182 523h16q33 0 33 25q0 24 -34 24h-15v-49z" />
    <glyph glyph-name="macron" unicode="&#xaf;" horiz-adv-x="418" 
d="M51 530v75h316v-75h-316z" />
    <glyph glyph-name="degree" unicode="&#xb0;" horiz-adv-x="305" 
d="M152 406q-56 0 -94 38.5t-38 93.5t38 93.5t94 38.5t93.5 -38.5t37.5 -93.5t-37.5 -93.5t-93.5 -38.5zM152 460q32 0 53 22.5t21 55.5t-21 55.5t-53 22.5t-53 -22.5t-21 -55.5t21 -55.5t53 -22.5z" />
    <glyph glyph-name="plusminus" unicode="&#xb1;" horiz-adv-x="436" 
d="M180 172v135h-134v74h134v135h76v-135h134v-74h-134v-135h-76zM46 17v75h344v-75h-344z" />
    <glyph glyph-name="two.sup" unicode="&#xb2;" 
d="M56 430l-17 28q15 38 42 72t45.5 48.5t49.5 37.5q22 15 33 24t20.5 23t9.5 31q0 24 -19 39t-48 15q-22 0 -40.5 -7.5t-22.5 -15.5q17 -9 17 -32q0 -15 -10.5 -25.5t-25.5 -10.5q-40 0 -40 48q0 39 35 66.5t91 27.5q52 0 88 -29.5t36 -76.5q0 -27 -14 -50t-29.5 -35
t-42.5 -29q-76 -50 -102 -98h146v60h50v-111h-252z" />
    <glyph glyph-name="three.sup" unicode="&#xb3;" 
d="M171 424q-56 0 -94.5 24.5t-38.5 60.5q0 17 11.5 29.5t27.5 12.5t26.5 -10.5t10.5 -25.5q0 -14 -8 -24q22 -19 65 -19q31 0 52.5 16t21.5 42t-23 44t-70 18h-22v48h24q38 0 61 16.5t23 44.5q0 23 -19 35t-48 12q-34 0 -50 -14q7 -14 7 -23q0 -15 -10.5 -26t-25.5 -11
q-16 0 -27.5 12.5t-11.5 31.5q0 27 32.5 53t88.5 26q53 0 89.5 -27t36.5 -67q0 -31 -23 -54.5t-56 -31.5q35 -8 60.5 -32t25.5 -59q0 -46 -39.5 -74t-96.5 -28z" />
    <glyph glyph-name="acute" unicode="&#xb4;" horiz-adv-x="340" 
d="M102 498l-25 28l116 136q23 26 48 26q18 0 31 -13t13 -33q0 -28 -32 -49z" />
    <glyph glyph-name="paragraph" unicode="&#xb6;" horiz-adv-x="589" 
d="M191 0v73h80v120q-17 -1 -62 -1q-78 0 -127.5 42.5t-49.5 114.5q0 66 51.5 109t128.5 43h341v-75h-82v-351h82v-75h-362zM342 72h58v357h-58v-357z" />
    <glyph glyph-name="periodcentered" unicode="&#xb7;" horiz-adv-x="259" 
d="M130 186q-29 0 -49.5 21t-20.5 50q0 30 20.5 51t49.5 21t49.5 -21t20.5 -51q0 -29 -20.5 -50t-49.5 -21z" />
    <glyph glyph-name="cedilla" unicode="&#xb8;" horiz-adv-x="344" 
d="M184 -200q-63 0 -117 31l16 33q45 -20 87 -20q41 0 41 28t-55 28q-3 0 -9 -0.5t-7 -0.5l-19 19l37 104l31 -5l1 -63q46 -4 72.5 -25t26.5 -53q0 -31 -28.5 -53.5t-76.5 -22.5z" />
    <glyph glyph-name="one.sup" unicode="&#xb9;" 
d="M61 431v54h93v245l-86 -21l-14 51l130 34h30v-309h92v-54h-245z" />
    <glyph glyph-name="ordmasculine" unicode="&#xba;" horiz-adv-x="350" 
d="M52 291v51h246v-51h-246zM175 403q-61 0 -98.5 39t-37.5 95t37.5 95t98.5 39t98 -39t37 -95t-37.5 -95t-97.5 -39zM175 449q35 0 57 25t22 63t-22 63t-57 25t-57 -25t-22 -63t22 -63t57 -25z" />
    <glyph glyph-name="guillemotright" unicode="&#xbb;" horiz-adv-x="520" 
d="M309 100l-52 52l123 126l-123 126l52 52l183 -178zM96 100l-52 52l123 126l-123 126l52 52l183 -178z" />
    <glyph glyph-name="onequarter" unicode="&#xbc;" horiz-adv-x="795" 
d="M564 0v46h67v58h-164l-18 33l193 238l44 -35l-163 -192h108v65l53 21v-82h57v-49h-57v-56h44v-47h-164zM51 281v54h93v245l-86 -21l-14 51l130 34h30v-309h92v-54h-245zM238 -14l-42 27q9 14 46.5 74t79.5 128t72 117q105 170 191 322l42 -27q-93 -146 -197 -317
q-84 -138 -192 -324z" />
    <glyph glyph-name="onehalf" unicode="&#xbd;" horiz-adv-x="795" 
d="M497 -2l-17 28q15 38 42 72t45.5 48.5t49.5 37.5q22 15 33 24t20.5 23t9.5 31q0 24 -19 39t-48 15q-22 0 -40.5 -7.5t-22.5 -15.5q17 -9 17 -32q0 -15 -10.5 -25.5t-25.5 -10.5q-40 0 -40 48q0 39 35 66.5t91 27.5q52 0 88 -29.5t36 -76.5q0 -27 -14 -50t-29.5 -35
t-42.5 -29q-76 -50 -102 -98h146v60h50v-111h-252zM46 281v54h93v245l-86 -21l-14 51l130 34h30v-309h92v-54h-245zM226 -14l-42 27q9 14 46.5 74t79.5 128t72 117q105 170 191 322l42 -27q-93 -146 -197 -317q-84 -138 -192 -324z" />
    <glyph glyph-name="threequarters" unicode="&#xbe;" horiz-adv-x="795" 
d="M564 0v46h67v58h-164l-18 33l193 238l44 -35l-163 -192h108v65l53 21v-82h57v-49h-57v-56h44v-47h-164zM245 -14l-42 27q9 14 46.5 74t79.5 128t72 117q105 170 191 322l42 -27q-93 -146 -197 -317q-84 -138 -192 -324zM185 274q-56 0 -94.5 24.5t-38.5 60.5
q0 17 11.5 29.5t27.5 12.5t26.5 -10.5t10.5 -25.5q0 -14 -8 -24q22 -19 65 -19q31 0 52.5 16t21.5 42t-23 44t-70 18h-22v48h24q38 0 61 16.5t23 44.5q0 23 -19 35t-48 12q-34 0 -50 -14q7 -14 7 -23q0 -15 -10.5 -26t-25.5 -11q-16 0 -27.5 12.5t-11.5 31.5q0 27 32.5 53
t88.5 26q53 0 89.5 -27t36.5 -67q0 -31 -23 -54.5t-56 -31.5q35 -8 60.5 -32t25.5 -59q0 -46 -39.5 -74t-96.5 -28z" />
    <glyph glyph-name="questiondown" unicode="&#xbf;" horiz-adv-x="464" 
d="M442 135q0 -38 -25 -72q-26 -34 -72 -54.5t-101 -20.5q-96 0 -154.5 51.5t-58.5 129.5q0 70 48 122t137 72l10 106h56l17 -162q-88 -14 -131.5 -50.5t-43.5 -85.5q0 -47 33 -76.5t90 -29.5q72 0 101 40l2 2q-26 10 -26 43q0 24 14.5 39.5t38.5 15.5q26 0 45.5 -20
t19.5 -50zM253 666q27 0 45.5 -19t18.5 -46t-18.5 -46.5t-45.5 -19.5t-46 19.5t-19 46.5t19 46t46 19z" />
    <glyph glyph-name="Agrave" unicode="&#xc0;" horiz-adv-x="702" 
d="M16 0v81h60l183 497h-73v80h330v-80h-74l183 -497h61v-81h-234v80h76l-49 139h-260l-49 -139h80v-80h-234zM245 295h208l-104 287zM371 717l-150 95q-33 22 -33 49q0 20 13 33t31 13q25 0 48 -26l116 -136z" />
    <glyph glyph-name="Aacute" unicode="&#xc1;" horiz-adv-x="702" 
d="M16 0v81h60l183 497h-73v80h330v-80h-74l183 -497h61v-81h-234v80h76l-49 139h-260l-49 -139h80v-80h-234zM245 295h208l-104 287zM328 717l-25 28l116 136q23 26 48 26q18 0 31 -13t13 -33q0 -28 -32 -49z" />
    <glyph glyph-name="Acircumflex" unicode="&#xc2;" horiz-adv-x="702" 
d="M16 0v81h60l183 497h-73v80h330v-80h-74l183 -497h61v-81h-234v80h76l-49 139h-260l-49 -139h80v-80h-234zM245 295h208l-104 287zM224 717l-38 43l164 160l164 -160l-38 -43l-126 94z" />
    <glyph glyph-name="Atilde" unicode="&#xc3;" horiz-adv-x="702" 
d="M16 0v81h60l183 497h-73v80h330v-80h-74l183 -497h61v-81h-234v80h76l-49 139h-260l-49 -139h80v-80h-234zM245 295h208l-104 287zM427 727q-46 0 -89 37q-34 30 -55 30q-35 0 -48 -61l-63 15q6 58 36.5 94.5t69.5 36.5q47 0 88 -37q36 -30 55 -30q36 0 49 61l62 -15
q-5 -58 -35.5 -94.5t-69.5 -36.5z" />
    <glyph glyph-name="Adieresis" unicode="&#xc4;" horiz-adv-x="702" 
d="M16 0v81h60l183 497h-73v80h330v-80h-74l183 -497h61v-81h-234v80h76l-49 139h-260l-49 -139h80v-80h-234zM245 295h208l-104 287zM443 732q-26 0 -44.5 18.5t-18.5 45.5q0 26 19 44.5t45 18.5t44.5 -18.5t18.5 -44.5q0 -27 -19 -45.5t-45 -18.5zM255 732
q-26 0 -44.5 18.5t-18.5 45.5q0 26 19 44.5t45 18.5t44.5 -18.5t18.5 -44.5q0 -27 -19 -45.5t-45 -18.5z" />
    <glyph glyph-name="Aring" unicode="&#xc5;" horiz-adv-x="702" 
d="M470 736q0 -46 -34 -78h80v-80h-74l183 -497h61v-81h-234v80h76l-49 139h-260l-49 -139h80v-80h-234v81h60l183 497h-73v80h79q-35 35 -35 78q0 47 35 80t85 33t85 -33t35 -80zM245 295h208l-104 287zM350 670q23 0 38.5 17.5t15.5 42.5t-15.5 42.5t-38.5 17.5t-38.5 -18
t-15.5 -42t15.5 -42t38.5 -18z" />
    <glyph glyph-name="AE" unicode="&#xc6;" horiz-adv-x="898" 
d="M-1 0v81h80l244 496h-77v81h595v-172h-86v92h-226v-204h208v-78h-208v-216h226v92h87v-172h-480v81h76v138h-203l-67 -139h70v-80h-239zM271 295h167v285h-29z" />
    <glyph glyph-name="Ccedilla" unicode="&#xc7;" horiz-adv-x="702" 
d="M382 -200q-63 0 -117 31l16 33q45 -20 87 -20q41 0 41 28t-55 28q-3 0 -9 -0.5t-7 -0.5l-19 19l26 73q-131 16 -212 110t-81 226q0 148 99 245.5t240 97.5q104 0 177 -49.5t73 -111.5q0 -31 -18.5 -51t-45.5 -20q-28 0 -46 16.5t-18 43.5q0 25 17 38q-16 20 -53 35.5
t-88 15.5q-105 0 -174.5 -75.5t-69.5 -183.5q0 -106 70 -181.5t179 -75.5t197 86l57 -63q-49 -51 -115.5 -78.5t-138.5 -27.5h-7l1 -34q46 -4 72.5 -25t26.5 -53q0 -31 -28.5 -53.5t-76.5 -22.5z" />
    <glyph glyph-name="Egrave" unicode="&#xc8;" horiz-adv-x="583" 
d="M43 0v81h80v496h-80v81h483v-172h-86v92h-226v-204h208v-78h-208v-216h226v92h87v-172h-484zM311 717l-150 95q-33 22 -33 49q0 20 13 33t31 13q25 0 48 -26l116 -136z" />
    <glyph glyph-name="Eacute" unicode="&#xc9;" horiz-adv-x="583" 
d="M268 717l-25 28l116 136q23 26 48 26q18 0 31 -13t13 -33q0 -28 -32 -49zM43 0v81h80v496h-80v81h483v-172h-86v92h-226v-204h208v-78h-208v-216h226v92h87v-172h-484z" />
    <glyph glyph-name="Ecircumflex" unicode="&#xca;" horiz-adv-x="583" 
d="M164 717l-38 43l164 160l164 -160l-38 -43l-126 94zM43 0v81h80v496h-80v81h483v-172h-86v92h-226v-204h208v-78h-208v-216h226v92h87v-172h-484z" />
    <glyph glyph-name="Edieresis" unicode="&#xcb;" horiz-adv-x="583" 
d="M383 732q-26 0 -44.5 18.5t-18.5 45.5q0 26 19 44.5t45 18.5t44.5 -18.5t18.5 -44.5q0 -27 -19 -45.5t-45 -18.5zM195 732q-26 0 -44.5 18.5t-18.5 45.5q0 26 19 44.5t45 18.5t44.5 -18.5t18.5 -44.5q0 -27 -19 -45.5t-45 -18.5zM43 0v81h80v496h-80v81h483v-172h-86v92
h-226v-204h208v-78h-208v-216h226v92h87v-172h-484z" />
    <glyph glyph-name="Igrave" unicode="&#xcc;" horiz-adv-x="348" 
d="M43 0v81h86v496h-86v81h261v-81h-85v-496h85v-81h-261zM195 717l-150 95q-33 22 -33 49q0 20 13 33t31 13q25 0 48 -26l116 -136z" />
    <glyph glyph-name="Iacute" unicode="&#xcd;" horiz-adv-x="348" 
d="M43 0v81h86v496h-86v81h261v-81h-85v-496h85v-81h-261zM151 717l-25 28l116 136q23 26 48 26q18 0 31 -13t13 -33q0 -28 -32 -49z" />
    <glyph glyph-name="Icircumflex" unicode="&#xce;" horiz-adv-x="348" 
d="M43 0v81h86v496h-86v81h261v-81h-85v-496h85v-81h-261zM48 717l-38 43l164 160l164 -160l-38 -43l-126 94z" />
    <glyph glyph-name="Idieresis" unicode="&#xcf;" horiz-adv-x="348" 
d="M43 0v81h86v496h-86v81h261v-81h-85v-496h85v-81h-261zM267 732q-26 0 -44.5 18.5t-18.5 45.5q0 26 19 44.5t45 18.5t44.5 -18.5t18.5 -44.5q0 -27 -19 -45.5t-45 -18.5zM79 732q-26 0 -44.5 18.5t-18.5 45.5q0 26 19 44.5t45 18.5t44.5 -18.5t18.5 -44.5
q0 -27 -19 -45.5t-45 -18.5z" />
    <glyph glyph-name="Eth" unicode="&#xd0;" horiz-adv-x="729" 
d="M131 299h-78v75h78v203h-80v81h247q173 0 276 -88.5t103 -234.5q0 -152 -100 -243.5t-279 -91.5h-247v81h80v218zM222 81h82q136 0 208 68.5t72 186.5q0 113 -77.5 177t-210.5 64h-74v-203h144v-75h-144v-218z" />
    <glyph glyph-name="Ntilde" unicode="&#xd1;" horiz-adv-x="755" 
d="M595 -3l-384 500v-416h84v-81h-252v81h80v496h-80v81h158l356 -464v383h-84v81h249v-81h-77v-579zM453 727q-46 0 -89 37q-34 30 -55 30q-35 0 -48 -61l-63 15q6 58 36.5 94.5t69.5 36.5q47 0 88 -37q36 -30 55 -30q36 0 49 61l62 -15q-5 -58 -35.5 -94.5t-69.5 -36.5z
" />
    <glyph glyph-name="Ograve" unicode="&#xd2;" horiz-adv-x="773" 
d="M384 -12q-144 0 -238 98t-94 243q0 146 95 243.5t242 97.5q144 0 238 -98t94 -243q0 -146 -95 -243.5t-242 -97.5zM387 72q105 0 173 73t68 184t-68 184t-173 73t-173.5 -73t-68.5 -184t68.5 -184t173.5 -73zM407 717l-150 95q-33 22 -33 49q0 20 13 33t31 13
q25 0 48 -26l116 -136z" />
    <glyph glyph-name="Oacute" unicode="&#xd3;" horiz-adv-x="773" 
d="M364 717l-25 28l116 136q23 26 48 26q18 0 31 -13t13 -33q0 -28 -32 -49zM384 -12q-144 0 -238 98t-94 243q0 146 95 243.5t242 97.5q144 0 238 -98t94 -243q0 -146 -95 -243.5t-242 -97.5zM387 72q105 0 173 73t68 184t-68 184t-173 73t-173.5 -73t-68.5 -184t68.5 -184
t173.5 -73z" />
    <glyph glyph-name="Ocircumflex" unicode="&#xd4;" horiz-adv-x="773" 
d="M260 717l-38 43l164 160l164 -160l-38 -43l-126 94zM384 -12q-144 0 -238 98t-94 243q0 146 95 243.5t242 97.5q144 0 238 -98t94 -243q0 -146 -95 -243.5t-242 -97.5zM387 72q105 0 173 73t68 184t-68 184t-173 73t-173.5 -73t-68.5 -184t68.5 -184t173.5 -73z" />
    <glyph glyph-name="Otilde" unicode="&#xd5;" horiz-adv-x="773" 
d="M384 -12q-144 0 -238 98t-94 243q0 146 95 243.5t242 97.5q144 0 238 -98t94 -243q0 -146 -95 -243.5t-242 -97.5zM387 72q105 0 173 73t68 184t-68 184t-173 73t-173.5 -73t-68.5 -184t68.5 -184t173.5 -73zM463 727q-46 0 -89 37q-34 30 -55 30q-35 0 -48 -61l-63 15
q6 58 36.5 94.5t69.5 36.5q47 0 88 -37q36 -30 55 -30q36 0 49 61l62 -15q-5 -58 -35.5 -94.5t-69.5 -36.5z" />
    <glyph glyph-name="Odieresis" unicode="&#xd6;" horiz-adv-x="773" 
d="M479 732q-26 0 -44.5 18.5t-18.5 45.5q0 26 19 44.5t45 18.5t44.5 -18.5t18.5 -44.5q0 -27 -19 -45.5t-45 -18.5zM291 732q-26 0 -44.5 18.5t-18.5 45.5q0 26 19 44.5t45 18.5t44.5 -18.5t18.5 -44.5q0 -27 -19 -45.5t-45 -18.5zM384 -12q-144 0 -238 98t-94 243
q0 146 95 243.5t242 97.5q144 0 238 -98t94 -243q0 -146 -95 -243.5t-242 -97.5zM387 72q105 0 173 73t68 184t-68 184t-173 73t-173.5 -73t-68.5 -184t68.5 -184t173.5 -73z" />
    <glyph glyph-name="multiply" unicode="&#xd7;" horiz-adv-x="436" 
d="M321 113l-103 109l-103 -109l-54 54l103 108l-103 109l54 55l103 -110l103 109l53 -54l-103 -108l104 -109z" />
    <glyph glyph-name="Oslash" unicode="&#xd8;" horiz-adv-x="773" 
d="M384 -12q-108 0 -192 60l-79 -92l-58 51l80 92q-83 97 -83 230q0 146 95 243.5t242 97.5q107 0 194 -61l79 92l57 -51l-81 -93q83 -96 83 -228q0 -146 -95 -243.5t-242 -97.5zM145 329q0 -103 54 -171l330 385q-60 43 -142 43q-105 0 -173.5 -73t-68.5 -184zM387 72
q105 0 173 73t68 184q0 99 -52 168l-330 -384q62 -41 141 -41z" />
    <glyph glyph-name="Ugrave" unicode="&#xd9;" horiz-adv-x="702" 
d="M351 -12q-114 0 -178 63t-64 181v345h-78v81h251v-81h-83v-339q0 -82 39.5 -124.5t112.5 -42.5q74 0 114 41t40 123v342h-83v81h250v-81h-79v-342q0 -120 -64.5 -183.5t-177.5 -63.5zM372 717l-150 95q-33 22 -33 49q0 20 13 33t31 13q25 0 48 -26l116 -136z" />
    <glyph glyph-name="Uacute" unicode="&#xda;" horiz-adv-x="702" 
d="M329 717l-25 28l116 136q23 26 48 26q18 0 31 -13t13 -33q0 -28 -32 -49zM351 -12q-114 0 -178 63t-64 181v345h-78v81h251v-81h-83v-339q0 -82 39.5 -124.5t112.5 -42.5q74 0 114 41t40 123v342h-83v81h250v-81h-79v-342q0 -120 -64.5 -183.5t-177.5 -63.5z" />
    <glyph glyph-name="Ucircumflex" unicode="&#xdb;" horiz-adv-x="702" 
d="M225 717l-38 43l164 160l164 -160l-38 -43l-126 94zM351 -12q-114 0 -178 63t-64 181v345h-78v81h251v-81h-83v-339q0 -82 39.5 -124.5t112.5 -42.5q74 0 114 41t40 123v342h-83v81h250v-81h-79v-342q0 -120 -64.5 -183.5t-177.5 -63.5z" />
    <glyph glyph-name="Udieresis" unicode="&#xdc;" horiz-adv-x="702" 
d="M444 732q-26 0 -44.5 18.5t-18.5 45.5q0 26 19 44.5t45 18.5t44.5 -18.5t18.5 -44.5q0 -27 -19 -45.5t-45 -18.5zM256 732q-26 0 -44.5 18.5t-18.5 45.5q0 26 19 44.5t45 18.5t44.5 -18.5t18.5 -44.5q0 -27 -19 -45.5t-45 -18.5zM351 -12q-114 0 -178 63t-64 181v345h-78
v81h251v-81h-83v-339q0 -82 39.5 -124.5t112.5 -42.5q74 0 114 41t40 123v342h-83v81h250v-81h-79v-342q0 -120 -64.5 -183.5t-177.5 -63.5z" />
    <glyph glyph-name="Yacute" unicode="&#xdd;" horiz-adv-x="643" 
d="M187 0v81h89v177l-191 319h-69v81h233v-81h-63l137 -242l138 242h-67v81h233v-81h-69l-191 -318v-178h89v-81h-269zM299 717l-25 28l116 136q23 26 48 26q18 0 31 -13t13 -33q0 -28 -32 -49z" />
    <glyph glyph-name="Thorn" unicode="&#xde;" horiz-adv-x="587" 
d="M43 0v81h80v496h-80v81h254v-78h-83v-67q15 1 103 1q102 0 166 -46t64 -131q0 -91 -63.5 -138.5t-168.5 -47.5q-84 0 -101 1v-74h85v-78h-256zM321 227q59 0 96 27.5t37 78.5q0 53 -37.5 79.5t-95.5 26.5q-79 0 -107 -2v-208q34 -2 107 -2z" />
    <glyph glyph-name="germandbls" unicode="&#xdf;" horiz-adv-x="582" 
d="M394 -8q-66 0 -100.5 30t-34.5 65q0 22 14.5 37t35.5 15q19 0 34.5 -13.5t15.5 -33.5q0 -14 -7 -26q11 -7 36 -7q37 0 59.5 20t22.5 57q0 31 -19.5 52.5t-62.5 45.5q-56 31 -83.5 60t-27.5 77q0 55 58 113q47 47 47 96q0 36 -26.5 61.5t-67.5 25.5q-53 0 -79 -50
q-15 -30 -15 -74v-543h-153v72h67v285h-75v74h75v100q0 79 32 130q47 79 154 79q76 0 125 -44.5t49 -112.5q0 -69 -66 -133q-46 -45 -46 -76q0 -18 17 -34t54 -37q61 -34 93.5 -70.5t32.5 -93.5q0 -70 -45 -108.5t-114 -38.5z" />
    <glyph glyph-name="agrave" unicode="&#xe0;" horiz-adv-x="499" 
d="M182 -8q-61 0 -101 33t-40 90q0 59 47 94.5t122 35.5q62 0 118 -17v49q0 36 -19 60q-27 33 -90 33q-32 0 -56 -13q5 -12 5 -24q0 -21 -14 -35t-36 -14t-36.5 14t-14.5 37q0 42 44 73t122 31q99 0 145 -54q33 -39 33 -99v-214h67v-72h-148v52q-64 -60 -148 -60zM207 57
q63 0 121 51v70q-54 15 -105 15q-45 0 -70 -19.5t-25 -51.5q0 -30 21 -47.5t58 -17.5zM266 498l-150 95q-33 22 -33 49q0 20 13 33t31 13q25 0 48 -26l116 -136z" />
    <glyph glyph-name="aacute" unicode="&#xe1;" horiz-adv-x="499" 
d="M182 -8q-61 0 -101 33t-40 90q0 59 47 94.5t122 35.5q62 0 118 -17v49q0 36 -19 60q-27 33 -90 33q-32 0 -56 -13q5 -12 5 -24q0 -21 -14 -35t-36 -14t-36.5 14t-14.5 37q0 42 44 73t122 31q99 0 145 -54q33 -39 33 -99v-214h67v-72h-148v52q-64 -60 -148 -60zM207 57
q63 0 121 51v70q-54 15 -105 15q-45 0 -70 -19.5t-25 -51.5q0 -30 21 -47.5t58 -17.5zM223 498l-25 28l116 136q23 26 48 26q18 0 31 -13t13 -33q0 -28 -32 -49z" />
    <glyph glyph-name="acircumflex" unicode="&#xe2;" horiz-adv-x="499" 
d="M182 -8q-61 0 -101 33t-40 90q0 59 47 94.5t122 35.5q62 0 118 -17v49q0 36 -19 60q-27 33 -90 33q-32 0 -56 -13q5 -12 5 -24q0 -21 -14 -35t-36 -14t-36.5 14t-14.5 37q0 42 44 73t122 31q99 0 145 -54q33 -39 33 -99v-214h67v-72h-148v52q-64 -60 -148 -60zM207 57
q63 0 121 51v70q-54 15 -105 15q-45 0 -70 -19.5t-25 -51.5q0 -30 21 -47.5t58 -17.5zM118 498l-38 43l164 160l164 -160l-38 -43l-126 94z" />
    <glyph glyph-name="atilde" unicode="&#xe3;" horiz-adv-x="499" 
d="M182 -8q-61 0 -101 33t-40 90q0 59 47 94.5t122 35.5q62 0 118 -17v49q0 36 -19 60q-27 33 -90 33q-32 0 -56 -13q5 -12 5 -24q0 -21 -14 -35t-36 -14t-36.5 14t-14.5 37q0 42 44 73t122 31q99 0 145 -54q33 -39 33 -99v-214h67v-72h-148v52q-64 -60 -148 -60zM207 57
q63 0 121 51v70q-54 15 -105 15q-45 0 -70 -19.5t-25 -51.5q0 -30 21 -47.5t58 -17.5zM321 508q-46 0 -89 37q-34 30 -55 30q-35 0 -48 -61l-63 15q6 58 36.5 94.5t69.5 36.5q47 0 88 -37q36 -30 55 -30q36 0 49 61l62 -15q-5 -58 -35.5 -94.5t-69.5 -36.5z" />
    <glyph glyph-name="adieresis" unicode="&#xe4;" horiz-adv-x="499" 
d="M182 -8q-61 0 -101 33t-40 90q0 59 47 94.5t122 35.5q62 0 118 -17v49q0 36 -19 60q-27 33 -90 33q-32 0 -56 -13q5 -12 5 -24q0 -21 -14 -35t-36 -14t-36.5 14t-14.5 37q0 42 44 73t122 31q99 0 145 -54q33 -39 33 -99v-214h67v-72h-148v52q-64 -60 -148 -60zM207 57
q63 0 121 51v70q-54 15 -105 15q-45 0 -70 -19.5t-25 -51.5q0 -30 21 -47.5t58 -17.5zM338 513q-26 0 -44.5 18.5t-18.5 45.5q0 26 19 44.5t45 18.5t44.5 -18.5t18.5 -44.5q0 -27 -19 -45.5t-45 -18.5zM150 513q-26 0 -44.5 18.5t-18.5 45.5q0 26 19 44.5t45 18.5
t44.5 -18.5t18.5 -44.5q0 -27 -19 -45.5t-45 -18.5z" />
    <glyph glyph-name="aring" unicode="&#xe5;" horiz-adv-x="499" 
d="M182 -8q-61 0 -101 33t-40 90q0 59 47 94.5t122 35.5q62 0 118 -17v49q0 36 -19 60q-27 33 -90 33q-32 0 -56 -13q5 -12 5 -24q0 -21 -14 -35t-36 -14t-36.5 14t-14.5 37q0 42 44 73t122 31q99 0 145 -54q33 -39 33 -99v-214h67v-72h-148v52q-64 -60 -148 -60zM207 57
q63 0 121 51v70q-54 15 -105 15q-45 0 -70 -19.5t-25 -51.5q0 -30 21 -47.5t58 -17.5zM244 491q-50 0 -85 34.5t-35 84.5q0 49 35 83.5t85 34.5t85 -34.5t35 -83.5q0 -50 -35 -84.5t-85 -34.5zM244 550q24 0 39 17.5t15 42.5t-15 42t-39 17q-23 0 -38.5 -17.5t-15.5 -41.5
q0 -25 15.5 -42.5t38.5 -17.5z" />
    <glyph glyph-name="ae" unicode="&#xe6;" horiz-adv-x="767" 
d="M219 370q-32 0 -56 -13q5 -12 5 -24q0 -21 -14 -35t-36 -14t-36.5 14t-14.5 37q0 42 44 73t122 31q83 0 124 -51q11 -14 18 -30q56 81 160 81q92 0 144.5 -59t52.5 -146q0 -20 -4 -46h-323q9 -61 49.5 -91.5t106.5 -30.5q72 0 153 46l-7 -79q-66 -41 -153 -41
q-125 0 -187 84q-39 -41 -88 -62.5t-91 -21.5q-65 0 -106 33t-41 90q0 59 47 94.5t122 35.5q62 0 118 -17v47q0 37 -19 61q-27 34 -90 34zM210 57q65 0 134 62q-11 27 -16 61q-67 13 -105 13q-45 0 -70 -19.5t-25 -51.5q0 -30 21.5 -47.5t60.5 -17.5zM527 368q-46 0 -80 -30
t-42 -86h241q-3 53 -34 84.5t-85 31.5z" />
    <glyph glyph-name="ccedilla" unicode="&#xe7;" horiz-adv-x="499" 
d="M260 -200q-63 0 -117 31l16 33q45 -20 87 -20q41 0 41 28t-55 28q-3 0 -9 -0.5t-7 -0.5l-19 19l27 78q-83 14 -134 74t-51 147q0 89 62.5 155.5t153.5 66.5q77 0 131 -42t54 -94q0 -28 -17.5 -46t-43.5 -18q-22 0 -38 15.5t-16 38.5t18 36q-8 16 -33 27.5t-55 11.5
q-49 0 -89 -40.5t-40 -112.5q0 -66 43.5 -107.5t110.5 -41.5q69 0 148 46l-8 -79q-64 -41 -148 -41h-7l1 -38q46 -4 72.5 -25t26.5 -53q0 -31 -28.5 -53.5t-76.5 -22.5z" />
    <glyph glyph-name="egrave" unicode="&#xe8;" horiz-adv-x="491" 
d="M451 188h-323q9 -60 50 -91t106 -31q72 0 153 46l-7 -79q-66 -41 -159 -41q-104 0 -168.5 61.5t-64.5 160.5q0 94 59 159.5t155 65.5t149.5 -59t53.5 -146q0 -20 -4 -46zM250 368q-46 0 -80 -30t-42 -86h241q-3 53 -34 84.5t-85 31.5zM272 498l-150 95q-33 22 -33 49
q0 20 13 33t31 13q25 0 48 -26l116 -136z" />
    <glyph glyph-name="eacute" unicode="&#xe9;" horiz-adv-x="491" 
d="M451 188h-323q9 -60 50 -91t106 -31q72 0 153 46l-7 -79q-66 -41 -159 -41q-104 0 -168.5 61.5t-64.5 160.5q0 94 59 159.5t155 65.5t149.5 -59t53.5 -146q0 -20 -4 -46zM250 368q-46 0 -80 -30t-42 -86h241q-3 53 -34 84.5t-85 31.5zM229 498l-25 28l116 136
q23 26 48 26q18 0 31 -13t13 -33q0 -28 -32 -49z" />
    <glyph glyph-name="ecircumflex" unicode="&#xea;" horiz-adv-x="491" 
d="M451 188h-323q9 -60 50 -91t106 -31q72 0 153 46l-7 -79q-66 -41 -159 -41q-104 0 -168.5 61.5t-64.5 160.5q0 94 59 159.5t155 65.5t149.5 -59t53.5 -146q0 -20 -4 -46zM124 498l-38 43l164 160l164 -160l-38 -43l-126 94zM250 368q-46 0 -80 -30t-42 -86h241
q-3 53 -34 84.5t-85 31.5z" />
    <glyph glyph-name="edieresis" unicode="&#xeb;" horiz-adv-x="491" 
d="M451 188h-323q9 -60 50 -91t106 -31q72 0 153 46l-7 -79q-66 -41 -159 -41q-104 0 -168.5 61.5t-64.5 160.5q0 94 59 159.5t155 65.5t149.5 -59t53.5 -146q0 -20 -4 -46zM250 368q-46 0 -80 -30t-42 -86h241q-3 53 -34 84.5t-85 31.5zM344 513q-26 0 -44.5 18.5
t-18.5 45.5q0 26 19 44.5t45 18.5t44.5 -18.5t18.5 -44.5q0 -27 -19 -45.5t-45 -18.5zM156 513q-26 0 -44.5 18.5t-18.5 45.5q0 26 19 44.5t45 18.5t44.5 -18.5t18.5 -44.5q0 -27 -19 -45.5t-45 -18.5z" />
    <glyph glyph-name="igrave" unicode="&#xec;" horiz-adv-x="296" 
d="M38 0v72h70v285h-70v74h156v-359h69v-72h-225zM165 498l-150 95q-33 22 -33 49q0 20 13 33t31 13q25 0 48 -26l116 -136z" />
    <glyph glyph-name="iacute" unicode="&#xed;" horiz-adv-x="296" 
d="M120 498l-25 28l116 136q23 26 48 26q18 0 31 -13t13 -33q0 -28 -32 -49zM38 0v72h70v285h-70v74h156v-359h69v-72h-225z" />
    <glyph glyph-name="icircumflex" unicode="&#xee;" horiz-adv-x="296" 
d="M17 498l-38 43l164 160l164 -160l-38 -43l-126 94zM38 0v72h70v285h-70v74h156v-359h69v-72h-225z" />
    <glyph glyph-name="idieresis" unicode="&#xef;" horiz-adv-x="296" 
d="M237 513q-26 0 -44.5 18.5t-18.5 45.5q0 26 19 44.5t45 18.5t44.5 -18.5t18.5 -44.5q0 -27 -19 -45.5t-45 -18.5zM49 513q-26 0 -44.5 18.5t-18.5 45.5q0 26 19 44.5t45 18.5t44.5 -18.5t18.5 -44.5q0 -27 -19 -45.5t-45 -18.5zM38 0v72h70v285h-70v74h156v-359h69v-72
h-225z" />
    <glyph glyph-name="eth" unicode="&#xf0;" horiz-adv-x="534" 
d="M205 464l-46 54l102 89q-52 43 -100 55q-11 -40 -54 -40q-21 0 -36.5 15t-15.5 40q0 27 22 45t56 18q37 0 82 -20q55 -24 105 -69l98 85l45 -54l-94 -82q126 -150 126 -349q0 -134 -74 -203q-57 -56 -153 -56q-100 0 -164 61.5t-64 151.5t63.5 151.5t161.5 61.5
q39 0 77.5 -17.5t64.5 -46.5q-16 110 -96 203zM412 208q0 58 -41 97.5t-103 39.5q-63 0 -103.5 -40t-40.5 -101q0 -60 40.5 -100t103.5 -40q58 0 99 39q45 43 45 105z" />
    <glyph glyph-name="ntilde" unicode="&#xf1;" horiz-adv-x="566" 
d="M186 431v-75q77 83 157 83q77 0 113 -55q22 -38 22 -90v-222h67v-72h-217v72h64v203q0 32 -10 51q-18 34 -64 34q-64 0 -129 -65v-223h64v-72h-216v72h67v285h-67v74h149zM367 508q-46 0 -89 37q-34 30 -55 30q-35 0 -48 -61l-63 15q6 58 36.5 94.5t69.5 36.5
q47 0 88 -37q36 -30 55 -30q36 0 49 61l62 -15q-5 -58 -35.5 -94.5t-69.5 -36.5z" />
    <glyph glyph-name="ograve" unicode="&#xf2;" horiz-adv-x="529" 
d="M265 -8q-101 0 -163 64.5t-62 158.5t62.5 159t162.5 65t162.5 -65t62.5 -159q0 -93 -63 -158t-162 -65zM265 65q60 0 98 42t38 108t-38 108.5t-98 42.5q-61 0 -99 -42.5t-38 -108.5t38 -108t99 -42zM285 498l-150 95q-33 22 -33 49q0 20 13 33t31 13q25 0 48 -26
l116 -136z" />
    <glyph glyph-name="oacute" unicode="&#xf3;" horiz-adv-x="529" 
d="M242 498l-25 28l116 136q23 26 48 26q18 0 31 -13t13 -33q0 -28 -32 -49zM265 -8q-101 0 -163 64.5t-62 158.5t62.5 159t162.5 65t162.5 -65t62.5 -159q0 -93 -63 -158t-162 -65zM265 65q60 0 98 42t38 108t-38 108.5t-98 42.5q-61 0 -99 -42.5t-38 -108.5t38 -108
t99 -42z" />
    <glyph glyph-name="ocircumflex" unicode="&#xf4;" horiz-adv-x="529" 
d="M138 498l-38 43l164 160l164 -160l-38 -43l-126 94zM265 -8q-101 0 -163 64.5t-62 158.5t62.5 159t162.5 65t162.5 -65t62.5 -159q0 -93 -63 -158t-162 -65zM265 65q60 0 98 42t38 108t-38 108.5t-98 42.5q-61 0 -99 -42.5t-38 -108.5t38 -108t99 -42z" />
    <glyph glyph-name="otilde" unicode="&#xf5;" horiz-adv-x="529" 
d="M265 -8q-101 0 -163 64.5t-62 158.5t62.5 159t162.5 65t162.5 -65t62.5 -159q0 -93 -63 -158t-162 -65zM265 65q60 0 98 42t38 108t-38 108.5t-98 42.5q-61 0 -99 -42.5t-38 -108.5t38 -108t99 -42zM341 508q-46 0 -89 37q-34 30 -55 30q-35 0 -48 -61l-63 15
q6 58 36.5 94.5t69.5 36.5q47 0 88 -37q36 -30 55 -30q36 0 49 61l62 -15q-5 -58 -35.5 -94.5t-69.5 -36.5z" />
    <glyph glyph-name="odieresis" unicode="&#xf6;" horiz-adv-x="529" 
d="M357 513q-26 0 -44.5 18.5t-18.5 45.5q0 26 19 44.5t45 18.5t44.5 -18.5t18.5 -44.5q0 -27 -19 -45.5t-45 -18.5zM169 513q-26 0 -44.5 18.5t-18.5 45.5q0 26 19 44.5t45 18.5t44.5 -18.5t18.5 -44.5q0 -27 -19 -45.5t-45 -18.5zM265 -8q-101 0 -163 64.5t-62 158.5
t62.5 159t162.5 65t162.5 -65t62.5 -159q0 -93 -63 -158t-162 -65zM265 65q60 0 98 42t38 108t-38 108.5t-98 42.5q-61 0 -99 -42.5t-38 -108.5t38 -108t99 -42z" />
    <glyph glyph-name="divide" unicode="&#xf7;" horiz-adv-x="436" 
d="M390 239h-344v74h344v-74zM218 363q-23 0 -39.5 16.5t-16.5 39.5t17 39.5t40 16.5t39.5 -16.5t16.5 -39.5t-17 -39.5t-40 -16.5zM218 77q-23 0 -39.5 16.5t-16.5 39.5t17 39.5t40 16.5t39.5 -16.5t16.5 -39.5t-17 -39.5t-40 -16.5z" />
    <glyph glyph-name="oslash" unicode="&#xf8;" horiz-adv-x="529" 
d="M265 -8q-64 0 -116 30l-49 -59l-55 45l49 59q-54 62 -54 148q0 94 62.5 159t162.5 65q67 0 119 -33l50 60l55 -45l-51 -61q52 -63 52 -145q0 -93 -63 -158t-162 -65zM128 215q0 -57 24 -94l186 225q-31 20 -73 20q-61 0 -99 -42.5t-38 -108.5zM265 65q60 0 98 42t38 108
q0 51 -22 89l-184 -222q29 -17 70 -17z" />
    <glyph glyph-name="ugrave" unicode="&#xf9;" horiz-adv-x="558" 
d="M223 -8q-78 0 -114 57q-20 37 -20 88v220h-67v74h152v-275q0 -32 11 -52q17 -33 63 -33q60 0 129 65v221h-69v74h155v-359h67v-72h-150v75q-77 -83 -157 -83zM289 498l-150 95q-33 22 -33 49q0 20 13 33t31 13q25 0 48 -26l116 -136z" />
    <glyph glyph-name="uacute" unicode="&#xfa;" horiz-adv-x="558" 
d="M246 498l-25 28l116 136q23 26 48 26q18 0 31 -13t13 -33q0 -28 -32 -49zM223 -8q-78 0 -114 57q-20 37 -20 88v220h-67v74h152v-275q0 -32 11 -52q17 -33 63 -33q60 0 129 65v221h-69v74h155v-359h67v-72h-150v75q-77 -83 -157 -83z" />
    <glyph glyph-name="ucircumflex" unicode="&#xfb;" horiz-adv-x="558" 
d="M142 498l-38 43l164 160l164 -160l-38 -43l-126 94zM223 -8q-78 0 -114 57q-20 37 -20 88v220h-67v74h152v-275q0 -32 11 -52q17 -33 63 -33q60 0 129 65v221h-69v74h155v-359h67v-72h-150v75q-77 -83 -157 -83z" />
    <glyph glyph-name="udieresis" unicode="&#xfc;" horiz-adv-x="558" 
d="M361 513q-26 0 -44.5 18.5t-18.5 45.5q0 26 19 44.5t45 18.5t44.5 -18.5t18.5 -44.5q0 -27 -19 -45.5t-45 -18.5zM173 513q-26 0 -44.5 18.5t-18.5 45.5q0 26 19 44.5t45 18.5t44.5 -18.5t18.5 -44.5q0 -27 -19 -45.5t-45 -18.5zM223 -8q-78 0 -114 57q-20 37 -20 88v220
h-67v74h152v-275q0 -32 11 -52q17 -33 63 -33q60 0 129 65v221h-69v74h155v-359h67v-72h-150v75q-77 -83 -157 -83z" />
    <glyph glyph-name="yacute" unicode="&#xfd;" horiz-adv-x="521" 
d="M222 -134q-50 -65 -113 -65q-36 0 -59 17.5t-23 43.5q0 23 13.5 36t33.5 13q35 0 47 -36q22 8 44 39q13 22 27 49l29 60l-159 334h-56v74h210v-71h-66q7 -16 19 -42.5t36.5 -82.5t40.5 -93l16 -38l114 256h-69v71h208v-74h-56l-203 -433q-17 -34 -34 -58zM238 498l-25 28
l116 136q23 26 48 26q18 0 31 -13t13 -33q0 -28 -32 -49z" />
    <glyph glyph-name="thorn" unicode="&#xfe;" horiz-adv-x="529" 
d="M-1 -196v72h67v782h-69v74h155v-354q58 60 134 60q86 0 143.5 -61.5t57.5 -158.5q0 -94 -59.5 -159.5t-149.5 -65.5q-71 0 -126 44v-161h77v-72h-230zM268 67q56 0 93 41.5t37 108.5q0 66 -36 106t-92 40q-64 0 -118 -54v-200q52 -42 116 -42z" />
    <glyph glyph-name="ydieresis" unicode="&#xff;" horiz-adv-x="521" 
d="M222 -134q-50 -65 -113 -65q-36 0 -59 17.5t-23 43.5q0 23 13.5 36t33.5 13q35 0 47 -36q22 8 44 39q13 22 27 49l29 60l-159 334h-56v74h210v-71h-66q7 -16 19 -42.5t36.5 -82.5t40.5 -93l16 -38l114 256h-69v71h208v-74h-56l-203 -433q-17 -34 -34 -58zM353 513
q-26 0 -44.5 18.5t-18.5 45.5q0 26 19 44.5t45 18.5t44.5 -18.5t18.5 -44.5q0 -27 -19 -45.5t-45 -18.5zM165 513q-26 0 -44.5 18.5t-18.5 45.5q0 26 19 44.5t45 18.5t44.5 -18.5t18.5 -44.5q0 -27 -19 -45.5t-45 -18.5z" />
    <glyph glyph-name="Amacron" unicode="&#x100;" horiz-adv-x="702" 
d="M16 0v81h60l183 497h-73v80h330v-80h-74l183 -497h61v-81h-234v80h76l-49 139h-260l-49 -139h80v-80h-234zM245 295h208l-104 287zM192 749v75h316v-75h-316z" />
    <glyph glyph-name="amacron" unicode="&#x101;" horiz-adv-x="499" 
d="M182 -8q-61 0 -101 33t-40 90q0 59 47 94.5t122 35.5q62 0 118 -17v49q0 36 -19 60q-27 33 -90 33q-32 0 -56 -13q5 -12 5 -24q0 -21 -14 -35t-36 -14t-36.5 14t-14.5 37q0 42 44 73t122 31q99 0 145 -54q33 -39 33 -99v-214h67v-72h-148v52q-64 -60 -148 -60zM207 57
q63 0 121 51v70q-54 15 -105 15q-45 0 -70 -19.5t-25 -51.5q0 -30 21 -47.5t58 -17.5zM86 530v75h316v-75h-316z" />
    <glyph glyph-name="Abreve" unicode="&#x102;" horiz-adv-x="702" 
d="M16 0v81h60l183 497h-73v80h330v-80h-74l183 -497h61v-81h-234v80h76l-49 139h-260l-49 -139h80v-80h-234zM245 295h208l-104 287zM348 726q-58 0 -103.5 39t-65.5 113l57 23q18 -46 48 -70t64 -24q74 0 113 94l57 -23q-20 -74 -65.5 -113t-104.5 -39z" />
    <glyph glyph-name="abreve" unicode="&#x103;" horiz-adv-x="499" 
d="M182 -8q-61 0 -101 33t-40 90q0 59 47 94.5t122 35.5q62 0 118 -17v49q0 36 -19 60q-27 33 -90 33q-32 0 -56 -13q5 -12 5 -24q0 -21 -14 -35t-36 -14t-36.5 14t-14.5 37q0 42 44 73t122 31q99 0 145 -54q33 -39 33 -99v-214h67v-72h-148v52q-64 -60 -148 -60zM207 57
q63 0 121 51v70q-54 15 -105 15q-45 0 -70 -19.5t-25 -51.5q0 -30 21 -47.5t58 -17.5zM243 507q-58 0 -103.5 39t-65.5 113l57 23q18 -46 48 -70t64 -24q74 0 113 94l57 -23q-20 -74 -65.5 -113t-104.5 -39z" />
    <glyph glyph-name="Aogonek" unicode="&#x104;" horiz-adv-x="702" 
d="M575 -201q-53 0 -81 26.5t-28 70.5q0 60 58 104h-72v80h76l-49 139h-260l-49 -139h80v-80h-234v81h60l183 497h-73v80h330v-80h-74l183 -497h61v-81h-85q-61 -35 -61 -83q0 -50 54 -50q37 0 75 19l-4 -65q-37 -22 -90 -22zM245 295h208l-104 287z" />
    <glyph glyph-name="aogonek" unicode="&#x105;" horiz-adv-x="499" 
d="M378 -201q-53 0 -81 26.5t-28 70.5q0 62 61 106v50q-64 -60 -148 -60q-61 0 -101 33t-40 90q0 59 47 94.5t122 35.5q62 0 118 -17v49q0 36 -19 60q-27 33 -90 33q-32 0 -56 -13q5 -12 5 -24q0 -21 -14 -35t-36 -14t-36.5 14t-14.5 37q0 42 44 73t122 31q99 0 145 -54
q33 -39 33 -99v-214h67v-72h-74q-61 -35 -61 -83q0 -50 54 -50q37 0 75 19l-4 -65q-37 -22 -90 -22zM207 57q63 0 121 51v70q-54 15 -105 15q-45 0 -70 -19.5t-25 -51.5q0 -30 21 -47.5t58 -17.5z" />
    <glyph glyph-name="Cacute" unicode="&#x106;" horiz-adv-x="702" 
d="M365 717l-25 28l116 136q23 26 48 26q18 0 31 -13t13 -33q0 -28 -32 -49zM394 -12q-150 0 -246 97t-96 242q0 148 99 245.5t240 97.5q104 0 177 -49.5t73 -111.5q0 -31 -18.5 -51t-45.5 -20q-28 0 -46 16.5t-18 43.5q0 25 17 38q-16 20 -53 35.5t-88 15.5
q-105 0 -174.5 -75.5t-69.5 -183.5q0 -106 70 -181.5t179 -75.5t197 86l57 -63q-49 -51 -115.5 -78.5t-138.5 -27.5z" />
    <glyph glyph-name="cacute" unicode="&#x107;" horiz-adv-x="484" 
d="M233 498l-25 28l116 136q23 26 48 26q18 0 31 -13t13 -33q0 -28 -32 -49zM272 -8q-101 0 -167 63t-66 162q0 89 62.5 155.5t153.5 66.5q77 0 131 -42t54 -94q0 -28 -17.5 -46t-43.5 -18q-22 0 -38 15.5t-16 38.5t18 36q-8 16 -33 27.5t-55 11.5q-49 0 -89 -40.5
t-40 -112.5q0 -66 43.5 -107.5t110.5 -41.5q69 0 148 46l-8 -79q-64 -41 -148 -41z" />
    <glyph glyph-name="Cdotaccent" unicode="&#x10a;" horiz-adv-x="702" 
d="M394 -12q-150 0 -246 97t-96 242q0 148 99 245.5t240 97.5q104 0 177 -49.5t73 -111.5q0 -31 -18.5 -51t-45.5 -20q-28 0 -46 16.5t-18 43.5q0 25 17 38q-16 20 -53 35.5t-88 15.5q-105 0 -174.5 -75.5t-69.5 -183.5q0 -106 70 -181.5t179 -75.5t197 86l57 -63
q-49 -51 -115.5 -78.5t-138.5 -27.5zM386 725q-26 0 -44.5 19t-18.5 46q0 26 19 45t45 19t45 -19t19 -45q0 -27 -19.5 -46t-45.5 -19z" />
    <glyph glyph-name="cdotaccent" unicode="&#x10b;" horiz-adv-x="484" 
d="M272 -8q-101 0 -167 63t-66 162q0 89 62.5 155.5t153.5 66.5q77 0 131 -42t54 -94q0 -28 -17.5 -46t-43.5 -18q-22 0 -38 15.5t-16 38.5t18 36q-8 16 -33 27.5t-55 11.5q-49 0 -89 -40.5t-40 -112.5q0 -66 43.5 -107.5t110.5 -41.5q69 0 148 46l-8 -79q-64 -41 -148 -41z
M254 506q-26 0 -44.5 19t-18.5 46q0 26 19 45t45 19t45 -19t19 -45q0 -27 -19.5 -46t-45.5 -19z" />
    <glyph glyph-name="Ccaron" unicode="&#x10c;" horiz-adv-x="702" 
d="M512 917l38 -44l-164 -159l-164 159l38 44l126 -94zM394 -12q-150 0 -246 97t-96 242q0 148 99 245.5t240 97.5q104 0 177 -49.5t73 -111.5q0 -31 -18.5 -51t-45.5 -20q-28 0 -46 16.5t-18 43.5q0 25 17 38q-16 20 -53 35.5t-88 15.5q-105 0 -174.5 -75.5t-69.5 -183.5
q0 -106 70 -181.5t179 -75.5t197 86l57 -63q-49 -51 -115.5 -78.5t-138.5 -27.5z" />
    <glyph glyph-name="ccaron" unicode="&#x10d;" horiz-adv-x="484" 
d="M380 698l38 -44l-164 -159l-164 159l38 44l126 -94zM272 -8q-101 0 -167 63t-66 162q0 89 62.5 155.5t153.5 66.5q77 0 131 -42t54 -94q0 -28 -17.5 -46t-43.5 -18q-22 0 -38 15.5t-16 38.5t18 36q-8 16 -33 27.5t-55 11.5q-49 0 -89 -40.5t-40 -112.5q0 -66 43.5 -107.5
t110.5 -41.5q69 0 148 46l-8 -79q-64 -41 -148 -41z" />
    <glyph glyph-name="Dcaron" unicode="&#x10e;" horiz-adv-x="721" 
d="M461 917l38 -44l-164 -159l-164 159l38 44l126 -94zM43 0v81h80v496h-80v81h247q175 0 277 -87.5t102 -235.5q0 -152 -101 -243.5t-284 -91.5h-241zM214 81h82q136 0 208 68.5t72 186.5q0 113 -77.5 177t-210.5 64h-74v-496z" />
    <glyph glyph-name="dcaron" unicode="&#x10f;" horiz-adv-x="555" 
d="M521 490l-28 21q39 57 39 107q0 16 -6.5 39t-6.5 38q0 23 14 39t38 16t37.5 -16t13.5 -43q0 -96 -101 -201zM242 -8q-87 0 -144.5 62t-57.5 159q0 94 59.5 160t150.5 66q78 0 128 -47v266h-74v74h160v-660h67v-72h-152v55q-59 -63 -137 -63zM258 67q65 0 120 55v200
q-54 42 -118 42q-56 0 -93.5 -41.5t-38.5 -108.5q0 -66 37 -106.5t93 -40.5z" />
    <glyph glyph-name="Dcroat" unicode="&#x110;" horiz-adv-x="729" 
d="M131 299h-78v75h78v203h-80v81h247q173 0 276 -88.5t103 -234.5q0 -152 -100 -243.5t-279 -91.5h-247v81h80v218zM222 81h82q136 0 208 68.5t72 186.5q0 113 -77.5 177t-210.5 64h-74v-203h144v-75h-144v-218z" />
    <glyph glyph-name="dcroat" unicode="&#x111;" horiz-adv-x="555" 
d="M228 512v67h150v79h-74v74h160v-153h67v-67h-67v-440h67v-72h-152v55q-59 -63 -137 -63q-87 0 -144.5 62t-57.5 159q0 94 59.5 160t150.5 66q78 0 128 -47v120h-150zM258 67q65 0 120 55v200q-54 42 -118 42q-56 0 -93.5 -41.5t-38.5 -108.5q0 -66 37 -106.5t93 -40.5z
" />
    <glyph glyph-name="Emacron" unicode="&#x112;" horiz-adv-x="583" 
d="M43 0v81h80v496h-80v81h483v-172h-86v92h-226v-204h208v-78h-208v-216h226v92h87v-172h-484zM132 749v75h316v-75h-316z" />
    <glyph glyph-name="emacron" unicode="&#x113;" horiz-adv-x="491" 
d="M451 188h-323q9 -60 50 -91t106 -31q72 0 153 46l-7 -79q-66 -41 -159 -41q-104 0 -168.5 61.5t-64.5 160.5q0 94 59 159.5t155 65.5t149.5 -59t53.5 -146q0 -20 -4 -46zM92 530v75h316v-75h-316zM250 368q-46 0 -80 -30t-42 -86h241q-3 53 -34 84.5t-85 31.5z" />
    <glyph glyph-name="Ebreve" unicode="&#x114;" horiz-adv-x="583" 
d="M43 0v81h80v496h-80v81h483v-172h-86v92h-226v-204h208v-78h-208v-216h226v92h87v-172h-484zM288 726q-58 0 -103.5 39t-65.5 113l57 23q18 -46 48 -70t64 -24q74 0 113 94l57 -23q-20 -74 -65.5 -113t-104.5 -39z" />
    <glyph glyph-name="ebreve" unicode="&#x115;" horiz-adv-x="491" 
d="M451 188h-323q9 -60 50 -91t106 -31q72 0 153 46l-7 -79q-66 -41 -159 -41q-104 0 -168.5 61.5t-64.5 160.5q0 94 59 159.5t155 65.5t149.5 -59t53.5 -146q0 -20 -4 -46zM249 507q-58 0 -103.5 39t-65.5 113l57 23q18 -46 48 -70t64 -24q74 0 113 94l57 -23
q-20 -74 -65.5 -113t-104.5 -39zM250 368q-46 0 -80 -30t-42 -86h241q-3 53 -34 84.5t-85 31.5z" />
    <glyph glyph-name="Edotaccent" unicode="&#x116;" horiz-adv-x="583" 
d="M43 0v81h80v496h-80v81h483v-172h-86v92h-226v-204h208v-78h-208v-216h226v92h87v-172h-484zM289 725q-26 0 -44.5 19t-18.5 46q0 26 19 45t45 19t45 -19t19 -45q0 -27 -19.5 -46t-45.5 -19z" />
    <glyph glyph-name="edotaccent" unicode="&#x117;" horiz-adv-x="491" 
d="M451 188h-323q9 -60 50 -91t106 -31q72 0 153 46l-7 -79q-66 -41 -159 -41q-104 0 -168.5 61.5t-64.5 160.5q0 94 59 159.5t155 65.5t149.5 -59t53.5 -146q0 -20 -4 -46zM250 368q-46 0 -80 -30t-42 -86h241q-3 53 -34 84.5t-85 31.5zM250 506q-26 0 -44.5 19t-18.5 46
q0 26 19 45t45 19t45 -19t19 -45q0 -27 -19.5 -46t-45.5 -19z" />
    <glyph glyph-name="Eogonek" unicode="&#x118;" horiz-adv-x="583" 
d="M43 0v81h80v496h-80v81h483v-172h-86v92h-226v-204h208v-78h-208v-216h226v92h87v-172h-69q-61 -35 -61 -83q0 -50 54 -50q37 0 75 19l-4 -65q-37 -22 -90 -22t-81 26.5t-28 70.5q0 60 58 104h-338z" />
    <glyph glyph-name="eogonek" unicode="&#x119;" horiz-adv-x="491" 
d="M451 188h-323q9 -60 50 -91t106 -31q72 0 153 46l-7 -80q-64 -29 -99 -55.5t-35 -61.5q0 -48 54 -48q37 0 75 19l-5 -65q-35 -22 -89 -22q-53 0 -81 26.5t-28 70.5q0 57 47 96q-104 1 -167.5 62t-63.5 160q0 94 59 159.5t155 65.5t149.5 -59t53.5 -146q0 -20 -4 -46z
M250 368q-46 0 -80 -30t-42 -86h241q-3 53 -34 84.5t-85 31.5z" />
    <glyph glyph-name="Ecaron" unicode="&#x11a;" horiz-adv-x="583" 
d="M415 917l38 -44l-164 -159l-164 159l38 44l126 -94zM43 0v81h80v496h-80v81h483v-172h-86v92h-226v-204h208v-78h-208v-216h226v92h87v-172h-484z" />
    <glyph glyph-name="ecaron" unicode="&#x11b;" horiz-adv-x="491" 
d="M451 188h-323q9 -60 50 -91t106 -31q72 0 153 46l-7 -79q-66 -41 -159 -41q-104 0 -168.5 61.5t-64.5 160.5q0 94 59 159.5t155 65.5t149.5 -59t53.5 -146q0 -20 -4 -46zM376 698l38 -44l-164 -159l-164 159l38 44l126 -94zM250 368q-46 0 -80 -30t-42 -86h241
q-3 53 -34 84.5t-85 31.5z" />
    <glyph glyph-name="Gbreve" unicode="&#x11e;" horiz-adv-x="732" 
d="M370 -12q-129 0 -223.5 93t-94.5 244t100 248t243 97q107 0 178.5 -48t71.5 -107q0 -31 -17.5 -50.5t-44.5 -19.5q-28 0 -46 17t-18 44q0 23 13 36q-47 45 -140 45q-108 0 -177.5 -74t-69.5 -187t69.5 -185t167.5 -72q99 0 180 54v129h-175v77h264v-329h-87v53
q-87 -65 -194 -65zM380 726q-58 0 -103.5 39t-65.5 113l57 23q18 -46 48 -70t64 -24q74 0 113 94l57 -23q-20 -74 -65.5 -113t-104.5 -39z" />
    <glyph glyph-name="gbreve" unicode="&#x11f;" horiz-adv-x="556" 
d="M462 357v-366q0 -79 -40 -127q-52 -64 -163 -64q-106 0 -156 50q-23 23 -23 52q0 23 15.5 39.5t38.5 16.5q22 0 36 -14t14 -35q0 -13 -6 -24q35 -14 76 -14q67 0 100 41q22 28 22 79v75q-59 -61 -135 -61q-85 0 -143 60t-58 154q0 91 59.5 155.5t148.5 64.5q76 0 132 -51
v43h149v-74h-67zM261 364q-59 0 -96 -40t-37 -104t36.5 -102.5t94.5 -38.5q65 0 117 54v189q-51 42 -115 42zM282 507q-58 0 -103.5 39t-65.5 113l57 23q18 -46 48 -70t64 -24q74 0 113 94l57 -23q-20 -74 -65.5 -113t-104.5 -39z" />
    <glyph glyph-name="Gdotaccent" unicode="&#x120;" horiz-adv-x="732" 
d="M370 -12q-129 0 -223.5 93t-94.5 244t100 248t243 97q107 0 178.5 -48t71.5 -107q0 -31 -17.5 -50.5t-44.5 -19.5q-28 0 -46 17t-18 44q0 23 13 36q-47 45 -140 45q-108 0 -177.5 -74t-69.5 -187t69.5 -185t167.5 -72q99 0 180 54v129h-175v77h264v-329h-87v53
q-87 -65 -194 -65zM381 725q-26 0 -44.5 19t-18.5 46q0 26 19 45t45 19t45 -19t19 -45q0 -27 -19.5 -46t-45.5 -19z" />
    <glyph glyph-name="gdotaccent" unicode="&#x121;" horiz-adv-x="556" 
d="M462 357v-366q0 -79 -40 -127q-52 -64 -163 -64q-106 0 -156 50q-23 23 -23 52q0 23 15.5 39.5t38.5 16.5q22 0 36 -14t14 -35q0 -13 -6 -24q35 -14 76 -14q67 0 100 41q22 28 22 79v75q-59 -61 -135 -61q-85 0 -143 60t-58 154q0 91 59.5 155.5t148.5 64.5q76 0 132 -51
v43h149v-74h-67zM261 364q-59 0 -96 -40t-37 -104t36.5 -102.5t94.5 -38.5q65 0 117 54v189q-51 42 -115 42zM277 506q-26 0 -44.5 19t-18.5 46q0 26 19 45t45 19t45 -19t19 -45q0 -27 -19.5 -46t-45.5 -19z" />
    <glyph glyph-name="Gcommaaccent" unicode="&#x122;" horiz-adv-x="732" 
d="M311 -293l-20 27q75 59 79 106q-20 5 -33 20t-13 36q0 23 16.5 39t39.5 16q27 0 44.5 -19t17.5 -53q0 -41 -31.5 -88t-99.5 -84zM370 -12q-129 0 -223.5 93t-94.5 244t100 248t243 97q107 0 178.5 -48t71.5 -107q0 -31 -17.5 -50.5t-44.5 -19.5q-28 0 -46 17t-18 44
q0 23 13 36q-47 45 -140 45q-108 0 -177.5 -74t-69.5 -187t69.5 -185t167.5 -72q99 0 180 54v129h-175v77h264v-329h-87v53q-87 -65 -194 -65z" />
    <glyph glyph-name="gcommaaccent" unicode="&#x123;" horiz-adv-x="556" 
d="M380 748l20 -27q-75 -59 -79 -106q20 -5 33 -20t13 -36q0 -23 -16.5 -39t-39.5 -16q-27 0 -44.5 19t-17.5 53q0 41 31.5 88t99.5 84zM462 357v-366q0 -79 -40 -127q-52 -64 -163 -64q-106 0 -156 50q-23 23 -23 52q0 23 15.5 39.5t38.5 16.5q22 0 36 -14t14 -35
q0 -13 -6 -24q35 -14 76 -14q67 0 100 41q22 28 22 79v75q-59 -61 -135 -61q-85 0 -143 60t-58 154q0 91 59.5 155.5t148.5 64.5q76 0 132 -51v43h149v-74h-67zM261 364q-59 0 -96 -40t-37 -104t36.5 -102.5t94.5 -38.5q65 0 117 54v189q-51 42 -115 42z" />
    <glyph glyph-name="Hbar" unicode="&#x126;" horiz-adv-x="767" 
d="M62 439v69h61v74h-80v76h255v-76h-84v-74h339v74h-84v76h255v-76h-80v-74h60v-69h-60v-358h80v-81h-255v81h84v202h-339v-202h84v-81h-255v81h80v358h-61zM214 363h339v76h-339v-76z" />
    <glyph glyph-name="hbar" unicode="&#x127;" horiz-adv-x="560" 
d="M96 658h-67v74h153v-153h150v-67h-150v-153q75 80 153 80q73 0 108 -46q29 -38 29 -99v-222h67v-72h-217v72h64v203q0 39 -17 61q-19 24 -59 24q-65 0 -128 -65v-223h64v-72h-217v72h67v440h-67v67h67v79z" />
    <glyph glyph-name="Imacron" unicode="&#x12a;" horiz-adv-x="348" 
d="M43 0v81h86v496h-86v81h261v-81h-85v-496h85v-81h-261zM16 749v75h316v-75h-316z" />
    <glyph glyph-name="imacron" unicode="&#x12b;" horiz-adv-x="296" 
d="M38 0v72h70v285h-70v74h156v-359h69v-72h-225zM-15 530v75h316v-75h-316z" />
    <glyph glyph-name="Ibreve" unicode="&#x12c;" horiz-adv-x="348" 
d="M43 0v81h86v496h-86v81h261v-81h-85v-496h85v-81h-261zM172 726q-58 0 -103.5 39t-65.5 113l57 23q18 -46 48 -70t64 -24q74 0 113 94l57 -23q-20 -74 -65.5 -113t-104.5 -39z" />
    <glyph glyph-name="ibreve" unicode="&#x12d;" horiz-adv-x="296" 
d="M38 0v72h70v285h-70v74h156v-359h69v-72h-225zM142 507q-58 0 -103.5 39t-65.5 113l57 23q18 -46 48 -70t64 -24q74 0 113 94l57 -23q-20 -74 -65.5 -113t-104.5 -39z" />
    <glyph glyph-name="Iogonek" unicode="&#x12e;" horiz-adv-x="348" 
d="M43 0v81h86v496h-86v81h261v-81h-85v-496h85v-81h-89q-61 -35 -61 -83q0 -50 54 -50q37 0 75 19l-4 -65q-37 -22 -90 -22t-81 26.5t-28 70.5q0 60 58 104h-95z" />
    <glyph glyph-name="iogonek" unicode="&#x12f;" horiz-adv-x="296" 
d="M38 0v72h70v285h-70v74h156v-359h69v-72h-85q-61 -35 -61 -83q0 -50 54 -50q37 0 75 19l-4 -65q-37 -22 -90 -22t-81 26.5t-28 70.5q0 60 58 104h-63zM141 522q-26 0 -44 18.5t-18 44.5q0 25 18.5 43.5t44.5 18.5q25 0 43.5 -18.5t18.5 -43.5q0 -26 -19 -44.5t-44 -18.5z
" />
    <glyph glyph-name="Idotaccent" unicode="&#x130;" horiz-adv-x="348" 
d="M43 0v81h86v496h-86v81h261v-81h-85v-496h85v-81h-261zM172 725q-26 0 -44.5 19t-18.5 46q0 26 19 45t45 19t45 -19t19 -45q0 -27 -19.5 -46t-45.5 -19z" />
    <glyph glyph-name="dotlessi" unicode="&#x131;" horiz-adv-x="296" 
d="M38 0v72h70v285h-70v74h156v-359h69v-72h-225z" />
    <glyph glyph-name="Kcommaaccent" unicode="&#x136;" horiz-adv-x="677" 
d="M281 -293l-20 27q75 59 79 106q-20 5 -33 20t-13 36q0 23 16.5 39t39.5 16q27 0 44.5 -19t17.5 -53q0 -41 -31.5 -88t-99.5 -84zM43 0v81h80v496h-80v81h255v-79h-84v-260l258 260h-83v79h270v-81h-73l-201 -199l192 -297h84v-81h-142l-202 317l-103 -102v-134h84v-81
h-255z" />
    <glyph glyph-name="kcommaaccent" unicode="&#x137;" horiz-adv-x="536" 
d="M200 -293l-20 27q75 59 79 106q-20 5 -33 20t-13 36q0 23 16.5 39t39.5 16q27 0 44.5 -19t17.5 -53q0 -41 -31.5 -88t-99.5 -84zM29 0v72h67v586h-67v74h153v-507l156 136h-73v70h248v-74h-78l-120 -103l123 -180h75v-74h-126l-135 206l-70 -60v-75h63v-71h-216z" />
    <glyph glyph-name="Lacute" unicode="&#x139;" horiz-adv-x="552" 
d="M180 723l-25 28l116 136q23 26 48 26q18 0 31 -13t13 -33q0 -28 -32 -49zM43 0v81h80v496h-80v81h260v-81h-89v-497h208v97h87v-177h-466z" />
    <glyph glyph-name="lacute" unicode="&#x13a;" horiz-adv-x="285" 
d="M133 780l-25 28l116 136q23 26 48 26q18 0 31 -13t13 -33q0 -28 -32 -49zM30 0v72h70v586h-70v74h156v-660h69v-72h-225z" />
    <glyph glyph-name="Lcommaaccent" unicode="&#x13b;" horiz-adv-x="552" 
d="M205 -293l-20 27q75 59 79 106q-20 5 -33 20t-13 36q0 23 16.5 39t39.5 16q27 0 44.5 -19t17.5 -53q0 -41 -31.5 -88t-99.5 -84zM43 0v81h80v496h-80v81h260v-81h-89v-497h208v97h87v-177h-466z" />
    <glyph glyph-name="lcommaaccent" unicode="&#x13c;" horiz-adv-x="285" 
d="M72 -293l-20 27q75 59 79 106q-20 5 -33 20t-13 36q0 23 16.5 39t39.5 16q27 0 44.5 -19t17.5 -53q0 -41 -31.5 -88t-99.5 -84zM30 0v72h70v586h-70v74h156v-660h69v-72h-225z" />
    <glyph glyph-name="Lcaron" unicode="&#x13d;" horiz-adv-x="552" 
d="M368 401l-28 21q39 57 39 107q0 16 -6.5 39t-6.5 38q0 23 14 39t38 16t37.5 -16t13.5 -43q0 -96 -101 -201zM43 0v81h80v496h-80v81h260v-81h-89v-497h208v97h87v-177h-466z" />
    <glyph glyph-name="lcaron" unicode="&#x13e;" horiz-adv-x="285" 
d="M243 490l-28 21q39 57 39 107q0 16 -6.5 39t-6.5 38q0 23 14 39t38 16t37.5 -16t13.5 -43q0 -96 -101 -201zM30 0v72h70v586h-70v74h156v-660h69v-72h-225z" />
    <glyph glyph-name="Ldot" unicode="&#x13f;" horiz-adv-x="552" 
d="M43 0v81h80v496h-80v81h260v-81h-89v-497h208v97h87v-177h-466zM443 300q-26 0 -44.5 19t-18.5 46q0 26 19 45t45 19t45 -19t19 -45q0 -27 -19.5 -46t-45.5 -19z" />
    <glyph glyph-name="ldot" unicode="&#x140;" horiz-adv-x="340" 
d="M30 0v72h70v586h-70v74h156v-660h69v-72h-225zM312 278q-26 0 -44.5 19t-18.5 46q0 26 19 45t45 19t45 -19t19 -45q0 -27 -19.5 -46t-45.5 -19z" />
    <glyph glyph-name="Lslash" unicode="&#x141;" horiz-adv-x="555" 
d="M46 0v81h80v176l-80 -45l-37 63l117 66v236h-80v81h260v-81h-89v-184l129 74l36 -63l-165 -95v-229h208v97h87v-177h-466z" />
    <glyph glyph-name="lslash" unicode="&#x142;" horiz-adv-x="293" 
d="M34 0v72h70v276l-78 -46l-35 62l113 66v228h-70v74h156v-257l75 43l35 -61l-110 -64v-321h69v-72h-225z" />
    <glyph glyph-name="Nacute" unicode="&#x143;" horiz-adv-x="755" 
d="M354 717l-25 28l116 136q23 26 48 26q18 0 31 -13t13 -33q0 -28 -32 -49zM595 -3l-384 500v-416h84v-81h-252v81h80v496h-80v81h158l356 -464v383h-84v81h249v-81h-77v-579z" />
    <glyph glyph-name="nacute" unicode="&#x144;" horiz-adv-x="566" 
d="M268 498l-25 28l116 136q23 26 48 26q18 0 31 -13t13 -33q0 -28 -32 -49zM186 431v-75q77 83 157 83q77 0 113 -55q22 -38 22 -90v-222h67v-72h-217v72h64v203q0 32 -10 51q-18 34 -64 34q-64 0 -129 -65v-223h64v-72h-216v72h67v285h-67v74h149z" />
    <glyph glyph-name="Ncommaaccent" unicode="&#x145;" horiz-adv-x="755" 
d="M312 -289l-20 27q75 59 79 106q-20 5 -33 20t-13 36q0 23 16.5 39t39.5 16q27 0 44.5 -19t17.5 -53q0 -41 -31.5 -88t-99.5 -84zM595 -3l-384 500v-416h84v-81h-252v81h80v496h-80v81h158l356 -464v383h-84v81h249v-81h-77v-579z" />
    <glyph glyph-name="ncommaaccent" unicode="&#x146;" horiz-adv-x="566" 
d="M220 -293l-20 27q75 59 79 106q-20 5 -33 20t-13 36q0 23 16.5 39t39.5 16q27 0 44.5 -19t17.5 -53q0 -41 -31.5 -88t-99.5 -84zM186 431v-75q77 83 157 83q77 0 113 -55q22 -38 22 -90v-222h67v-72h-217v72h64v203q0 32 -10 51q-18 34 -64 34q-64 0 -129 -65v-223h64
v-72h-216v72h67v285h-67v74h149z" />
    <glyph glyph-name="Ncaron" unicode="&#x147;" horiz-adv-x="755" 
d="M501 917l38 -44l-164 -159l-164 159l38 44l126 -94zM595 -3l-384 500v-416h84v-81h-252v81h80v496h-80v81h158l356 -464v383h-84v81h249v-81h-77v-579z" />
    <glyph glyph-name="ncaron" unicode="&#x148;" horiz-adv-x="566" 
d="M415 698l38 -44l-164 -159l-164 159l38 44l126 -94zM186 431v-75q77 83 157 83q77 0 113 -55q22 -38 22 -90v-222h67v-72h-217v72h64v203q0 32 -10 51q-18 34 -64 34q-64 0 -129 -65v-223h64v-72h-216v72h67v285h-67v74h149z" />
    <glyph glyph-name="Omacron" unicode="&#x14c;" horiz-adv-x="773" 
d="M228 749v75h316v-75h-316zM384 -12q-144 0 -238 98t-94 243q0 146 95 243.5t242 97.5q144 0 238 -98t94 -243q0 -146 -95 -243.5t-242 -97.5zM387 72q105 0 173 73t68 184t-68 184t-173 73t-173.5 -73t-68.5 -184t68.5 -184t173.5 -73z" />
    <glyph glyph-name="omacron" unicode="&#x14d;" horiz-adv-x="529" 
d="M106 530v75h316v-75h-316zM265 -8q-101 0 -163 64.5t-62 158.5t62.5 159t162.5 65t162.5 -65t62.5 -159q0 -93 -63 -158t-162 -65zM265 65q60 0 98 42t38 108t-38 108.5t-98 42.5q-61 0 -99 -42.5t-38 -108.5t38 -108t99 -42z" />
    <glyph glyph-name="Obreve" unicode="&#x14e;" horiz-adv-x="773" 
d="M384 -12q-144 0 -238 98t-94 243q0 146 95 243.5t242 97.5q144 0 238 -98t94 -243q0 -146 -95 -243.5t-242 -97.5zM387 72q105 0 173 73t68 184t-68 184t-173 73t-173.5 -73t-68.5 -184t68.5 -184t173.5 -73zM384 726q-58 0 -103.5 39t-65.5 113l57 23q18 -46 48 -70
t64 -24q74 0 113 94l57 -23q-20 -74 -65.5 -113t-104.5 -39z" />
    <glyph glyph-name="obreve" unicode="&#x14f;" horiz-adv-x="529" 
d="M265 -8q-101 0 -163 64.5t-62 158.5t62.5 159t162.5 65t162.5 -65t62.5 -159q0 -93 -63 -158t-162 -65zM265 65q60 0 98 42t38 108t-38 108.5t-98 42.5q-61 0 -99 -42.5t-38 -108.5t38 -108t99 -42zM262 507q-58 0 -103.5 39t-65.5 113l57 23q18 -46 48 -70t64 -24
q74 0 113 94l57 -23q-20 -74 -65.5 -113t-104.5 -39z" />
    <glyph glyph-name="Ohungarumlaut" unicode="&#x150;" horiz-adv-x="773" 
d="M253 719l-20 29l138 132q25 24 48 24q19 0 32 -13t13 -32q0 -31 -41 -52zM455 721l-17 30l152 129q24 21 46 21q19 0 31 -13t12 -32q0 -32 -42 -52zM384 -12q-144 0 -238 98t-94 243q0 146 95 243.5t242 97.5q144 0 238 -98t94 -243q0 -146 -95 -243.5t-242 -97.5z
M387 72q105 0 173 73t68 184t-68 184t-173 73t-173.5 -73t-68.5 -184t68.5 -184t173.5 -73z" />
    <glyph glyph-name="ohungarumlaut" unicode="&#x151;" horiz-adv-x="529" 
d="M132 500l-20 29l138 132q26 24 48 24q19 0 32 -13t13 -32q0 -32 -41 -52zM334 502l-17 30l152 129q24 21 46 21q19 0 31 -13t12 -32q0 -32 -42 -52zM265 -8q-101 0 -163 64.5t-62 158.5t62.5 159t162.5 65t162.5 -65t62.5 -159q0 -93 -63 -158t-162 -65zM265 65
q60 0 98 42t38 108t-38 108.5t-98 42.5q-61 0 -99 -42.5t-38 -108.5t38 -108t99 -42z" />
    <glyph glyph-name="OE" unicode="&#x152;" horiz-adv-x="931" 
d="M422 0q-167 0 -268.5 89t-101.5 234q0 152 98.5 243.5t272.5 91.5h451v-172h-87v92h-226v-204h209v-78h-209v-216h227v92h87v-172h-453zM425 81h46v496h-54q-131 0 -201.5 -69t-70.5 -186q0 -113 76 -177t204 -64z" />
    <glyph glyph-name="oe" unicode="&#x153;" horiz-adv-x="843" 
d="M643 66q73 0 154 46l-8 -79q-66 -41 -155 -41q-64 0 -115.5 28.5t-75.5 73.5q-25 -46 -73 -74t-108 -28q-99 0 -160.5 65t-61.5 158t62 158.5t160 65.5q61 0 108.5 -28t72.5 -74q26 47 72 74.5t100 27.5q93 0 146.5 -59t53.5 -146q0 -24 -5 -46h-323q9 -60 50 -91
t106 -31zM265 65q60 0 98 42t38 108t-38 108.5t-98 42.5q-61 0 -99 -42.5t-38 -108.5t38 -108t99 -42zM609 368q-45 0 -79.5 -30t-42.5 -86h241q-2 53 -33.5 84.5t-85.5 31.5z" />
    <glyph glyph-name="Racute" unicode="&#x154;" horiz-adv-x="619" 
d="M282 717l-25 28l116 136q23 26 48 26q18 0 31 -13t13 -33q0 -28 -32 -49zM43 0v81h80v496h-80v81h252q113 0 180.5 -51t67.5 -143q0 -64 -36.5 -111t-97.5 -69l122 -203h77v-81h-139l-149 261q-26 -2 -39 -2q-33 0 -67 2v-180h84v-81h-255zM287 337q72 0 117.5 33
t45.5 91q0 57 -43 86.5t-117 29.5h-76v-238q34 -2 73 -2z" />
    <glyph glyph-name="racute" unicode="&#x155;" horiz-adv-x="403" 
d="M320 439q34 0 52.5 -18t18.5 -45q0 -23 -16.5 -40.5t-38.5 -17.5q-41 0 -57 37q-24 -7 -49 -31.5t-41 -55.5v-196h79v-72h-231v72h67v285h-67v74h149v-98q27 47 62.5 76.5t71.5 29.5zM191 498l-25 28l116 136q23 26 48 26q18 0 31 -13t13 -33q0 -28 -32 -49z" />
    <glyph glyph-name="Rcommaaccent" unicode="&#x156;" horiz-adv-x="619" 
d="M234 -293l-20 27q75 59 79 106q-20 5 -33 20t-13 36q0 23 16.5 39t39.5 16q27 0 44.5 -19t17.5 -53q0 -41 -31.5 -88t-99.5 -84zM43 0v81h80v496h-80v81h252q113 0 180.5 -51t67.5 -143q0 -64 -36.5 -111t-97.5 -69l122 -203h77v-81h-139l-149 261q-26 -2 -39 -2
q-33 0 -67 2v-180h84v-81h-255zM287 337q72 0 117.5 33t45.5 91q0 57 -43 86.5t-117 29.5h-76v-238q34 -2 73 -2z" />
    <glyph glyph-name="rcommaaccent" unicode="&#x157;" horiz-adv-x="403" 
d="M320 439q34 0 52.5 -18t18.5 -45q0 -23 -16.5 -40.5t-38.5 -17.5q-41 0 -57 37q-24 -7 -49 -31.5t-41 -55.5v-196h79v-72h-231v72h67v285h-67v74h149v-98q27 47 62.5 76.5t71.5 29.5zM77 -293l-20 27q75 59 79 106q-20 5 -33 20t-13 36q0 23 16.5 39t39.5 16
q27 0 44.5 -19t17.5 -53q0 -41 -31.5 -88t-99.5 -84z" />
    <glyph glyph-name="Rcaron" unicode="&#x158;" horiz-adv-x="619" 
d="M429 917l38 -44l-164 -159l-164 159l38 44l126 -94zM43 0v81h80v496h-80v81h252q113 0 180.5 -51t67.5 -143q0 -64 -36.5 -111t-97.5 -69l122 -203h77v-81h-139l-149 261q-26 -2 -39 -2q-33 0 -67 2v-180h84v-81h-255zM287 337q72 0 117.5 33t45.5 91q0 57 -43 86.5
t-117 29.5h-76v-238q34 -2 73 -2z" />
    <glyph glyph-name="rcaron" unicode="&#x159;" horiz-adv-x="403" 
d="M320 439q34 0 52.5 -18t18.5 -45q0 -23 -16.5 -40.5t-38.5 -17.5q-41 0 -57 37q-24 -7 -49 -31.5t-41 -55.5v-196h79v-72h-231v72h67v285h-67v74h149v-98q27 47 62.5 76.5t71.5 29.5zM339 698l38 -44l-164 -159l-164 159l38 44l126 -94z" />
    <glyph glyph-name="Sacute" unicode="&#x15a;" horiz-adv-x="552" 
d="M259 717l-25 28l116 136q23 26 48 26q18 0 31 -13t13 -33q0 -28 -32 -49zM274 -12q-94 0 -159.5 44.5t-65.5 99.5q0 31 16.5 50t43.5 19q26 0 43 -16.5t17 -38.5q0 -23 -13 -43q40 -35 120 -35q60 0 95.5 28t35.5 76q0 42 -33.5 67.5t-96.5 49.5q-105 39 -154 80t-49 121
q0 78 57.5 129t151.5 51q86 0 145.5 -40t59.5 -95q0 -30 -16.5 -47.5t-41.5 -17.5q-27 0 -44 17t-17 41q0 18 11 35q-32 28 -98 28q-54 0 -85.5 -26t-31.5 -68q0 -43 33 -68t101 -51q50 -18 80 -33t60 -38t44 -54.5t14 -73.5q0 -88 -62 -139.5t-161 -51.5z" />
    <glyph glyph-name="sacute" unicode="&#x15b;" horiz-adv-x="446" 
d="M388 341q0 -23 -13 -37t-33 -14q-23 0 -37.5 13t-14.5 35q0 13 4 22q-28 13 -69 13q-39 0 -62 -16.5t-23 -38.5q0 -23 23 -35.5t79 -27.5q82 -21 121.5 -48t39.5 -82q0 -62 -51 -98t-125 -36q-48 0 -93 14.5t-67 36.5q-24 24 -24 56q0 21 14 36.5t35 15.5
q22 0 36.5 -13.5t14.5 -36.5q0 -13 -4 -22q32 -20 88 -20q41 0 67.5 15.5t26.5 42.5q0 22 -22 35.5t-73 26.5q-90 23 -129.5 50.5t-39.5 81.5q0 53 45 91t124 38q42 0 80.5 -12.5t59.5 -33.5q22 -22 22 -52zM201 498l-25 28l116 136q23 26 48 26q18 0 31 -13t13 -33
q0 -28 -32 -49z" />
    <glyph glyph-name="Scedilla" unicode="&#x15e;" horiz-adv-x="552" 
d="M284 -200q-63 0 -117 31l16 33q45 -20 87 -20q41 0 41 28t-55 28q-3 0 -9 -0.5t-7 -0.5l-19 19l25 71q-84 7 -140.5 49.5t-56.5 93.5q0 31 16.5 50t43.5 19q26 0 43 -16.5t17 -38.5q0 -23 -13 -43q40 -35 120 -35q60 0 95.5 28t35.5 76q0 42 -33.5 67.5t-96.5 49.5
q-105 39 -154 80t-49 121q0 78 57.5 129t151.5 51q86 0 145.5 -40t59.5 -95q0 -30 -16.5 -47.5t-41.5 -17.5q-27 0 -44 17t-17 41q0 18 11 35q-32 28 -98 28q-54 0 -85.5 -26t-31.5 -68q0 -43 33 -68t101 -51q50 -18 80 -33t60 -38t44 -54.5t14 -73.5q0 -85 -57.5 -135.5
t-150.5 -54.5l1 -35q46 -4 72.5 -25t26.5 -53q0 -31 -28.5 -53.5t-76.5 -22.5z" />
    <glyph glyph-name="scedilla" unicode="&#x15f;" horiz-adv-x="446" 
d="M228 -200q-63 0 -117 31l16 33q45 -20 87 -20q41 0 41 28t-55 28q-3 0 -9 -0.5t-7 -0.5l-19 19l26 75q-87 10 -124 49q-24 24 -24 56q0 21 14 36.5t35 15.5q22 0 36.5 -13.5t14.5 -36.5q0 -13 -4 -22q32 -20 88 -20q41 0 67.5 15.5t26.5 42.5q0 22 -22 35.5t-73 26.5
q-90 23 -129.5 50.5t-39.5 81.5q0 53 45 91t124 38q42 0 80.5 -12.5t59.5 -33.5q22 -22 22 -52q0 -23 -13 -37t-33 -14q-23 0 -37.5 13t-14.5 35q0 13 4 22q-28 13 -69 13q-39 0 -62 -16.5t-23 -38.5q0 -23 23 -35.5t79 -27.5q82 -21 121.5 -48t39.5 -82q0 -61 -49 -96.5
t-121 -37.5l1 -37q46 -4 72.5 -25t26.5 -53q0 -31 -28.5 -53.5t-76.5 -22.5z" />
    <glyph glyph-name="Scaron" unicode="&#x160;" horiz-adv-x="552" 
d="M406 917l38 -44l-164 -159l-164 159l38 44l126 -94zM274 -12q-94 0 -159.5 44.5t-65.5 99.5q0 31 16.5 50t43.5 19q26 0 43 -16.5t17 -38.5q0 -23 -13 -43q40 -35 120 -35q60 0 95.5 28t35.5 76q0 42 -33.5 67.5t-96.5 49.5q-105 39 -154 80t-49 121q0 78 57.5 129
t151.5 51q86 0 145.5 -40t59.5 -95q0 -30 -16.5 -47.5t-41.5 -17.5q-27 0 -44 17t-17 41q0 18 11 35q-32 28 -98 28q-54 0 -85.5 -26t-31.5 -68q0 -43 33 -68t101 -51q50 -18 80 -33t60 -38t44 -54.5t14 -73.5q0 -88 -62 -139.5t-161 -51.5z" />
    <glyph glyph-name="scaron" unicode="&#x161;" horiz-adv-x="446" 
d="M388 341q0 -23 -13 -37t-33 -14q-23 0 -37.5 13t-14.5 35q0 13 4 22q-28 13 -69 13q-39 0 -62 -16.5t-23 -38.5q0 -23 23 -35.5t79 -27.5q82 -21 121.5 -48t39.5 -82q0 -62 -51 -98t-125 -36q-48 0 -93 14.5t-67 36.5q-24 24 -24 56q0 21 14 36.5t35 15.5
q22 0 36.5 -13.5t14.5 -36.5q0 -13 -4 -22q32 -20 88 -20q41 0 67.5 15.5t26.5 42.5q0 22 -22 35.5t-73 26.5q-90 23 -129.5 50.5t-39.5 81.5q0 53 45 91t124 38q42 0 80.5 -12.5t59.5 -33.5q22 -22 22 -52zM348 698l38 -44l-164 -159l-164 159l38 44l126 -94z" />
    <glyph glyph-name="Tcommaaccent" unicode="&#x162;" horiz-adv-x="625" 
d="M241 -293l-20 27q75 59 79 106q-20 5 -33 20t-13 36q0 23 16.5 39t39.5 16q27 0 44.5 -19t17.5 -53q0 -41 -31.5 -88t-99.5 -84zM181 0v81h86v499h-147v-105h-86v183h557v-183h-86v105h-147v-499h86v-81h-263z" />
    <glyph glyph-name="tcommaaccent" unicode="&#x163;" horiz-adv-x="348" 
d="M118 -293l-20 27q75 59 79 106q-20 5 -33 20t-13 36q0 23 16.5 39t39.5 16q27 0 44.5 -19t17.5 -53q0 -41 -31.5 -88t-99.5 -84zM211 -8q-76 0 -104 54q-13 28 -13 63v248h-81v74h81v99l86 35v-134h131v-74h-131v-233q0 -19 6 -33q12 -21 49 -21q32 0 82 24l-9 -77
q-48 -25 -97 -25z" />
    <glyph glyph-name="Tcaron" unicode="&#x164;" horiz-adv-x="625" 
d="M437 917l38 -44l-164 -159l-164 159l38 44l126 -94zM181 0v81h86v499h-147v-105h-86v183h557v-183h-86v105h-147v-499h86v-81h-263z" />
    <glyph glyph-name="tcaron" unicode="&#x165;" horiz-adv-x="348" 
d="M242 477l-28 21q39 57 39 107q0 16 -6.5 39t-6.5 38q0 23 14 39t38 16t37.5 -16t13.5 -43q0 -96 -101 -201zM211 -8q-76 0 -104 54q-13 28 -13 63v248h-81v74h81v99l86 35v-134h131v-74h-131v-233q0 -19 6 -33q12 -21 49 -21q32 0 82 24l-9 -77q-48 -25 -97 -25z" />
    <glyph glyph-name="Umacron" unicode="&#x16a;" horiz-adv-x="702" 
d="M351 -12q-114 0 -178 63t-64 181v345h-78v81h251v-81h-83v-339q0 -82 39.5 -124.5t112.5 -42.5q74 0 114 41t40 123v342h-83v81h250v-81h-79v-342q0 -120 -64.5 -183.5t-177.5 -63.5zM193 749v75h316v-75h-316z" />
    <glyph glyph-name="umacron" unicode="&#x16b;" horiz-adv-x="558" 
d="M223 -8q-78 0 -114 57q-20 37 -20 88v220h-67v74h152v-275q0 -32 11 -52q17 -33 63 -33q60 0 129 65v221h-69v74h155v-359h67v-72h-150v75q-77 -83 -157 -83zM110 530v75h316v-75h-316z" />
    <glyph glyph-name="Ubreve" unicode="&#x16c;" horiz-adv-x="702" 
d="M351 -12q-114 0 -178 63t-64 181v345h-78v81h251v-81h-83v-339q0 -82 39.5 -124.5t112.5 -42.5q74 0 114 41t40 123v342h-83v81h250v-81h-79v-342q0 -120 -64.5 -183.5t-177.5 -63.5zM349 726q-58 0 -103.5 39t-65.5 113l57 23q18 -46 48 -70t64 -24q74 0 113 94l57 -23
q-20 -74 -65.5 -113t-104.5 -39z" />
    <glyph glyph-name="ubreve" unicode="&#x16d;" horiz-adv-x="558" 
d="M223 -8q-78 0 -114 57q-20 37 -20 88v220h-67v74h152v-275q0 -32 11 -52q17 -33 63 -33q60 0 129 65v221h-69v74h155v-359h67v-72h-150v75q-77 -83 -157 -83zM266 507q-58 0 -103.5 39t-65.5 113l57 23q18 -46 48 -70t64 -24q74 0 113 94l57 -23q-20 -74 -65.5 -113
t-104.5 -39z" />
    <glyph glyph-name="Uring" unicode="&#x16e;" horiz-adv-x="702" 
d="M350 710q-50 0 -85 34.5t-35 84.5q0 49 35 83.5t85 34.5t85 -34.5t35 -83.5q0 -50 -35 -84.5t-85 -34.5zM350 769q24 0 39 17.5t15 42.5t-15 42t-39 17q-23 0 -38.5 -17.5t-15.5 -41.5q0 -25 15.5 -42.5t38.5 -17.5zM351 -12q-114 0 -178 63t-64 181v345h-78v81h251v-81
h-83v-339q0 -82 39.5 -124.5t112.5 -42.5q74 0 114 41t40 123v342h-83v81h250v-81h-79v-342q0 -120 -64.5 -183.5t-177.5 -63.5z" />
    <glyph glyph-name="uring" unicode="&#x16f;" horiz-adv-x="558" 
d="M267 491q-50 0 -85 34.5t-35 84.5q0 49 35 83.5t85 34.5t85 -34.5t35 -83.5q0 -50 -35 -84.5t-85 -34.5zM267 550q24 0 39 17.5t15 42.5t-15 42t-39 17q-23 0 -38.5 -17.5t-15.5 -41.5q0 -25 15.5 -42.5t38.5 -17.5zM223 -8q-78 0 -114 57q-20 37 -20 88v220h-67v74h152
v-275q0 -32 11 -52q17 -33 63 -33q60 0 129 65v221h-69v74h155v-359h67v-72h-150v75q-77 -83 -157 -83z" />
    <glyph glyph-name="Uhungarumlaut" unicode="&#x170;" horiz-adv-x="702" 
d="M351 -12q-114 0 -178 63t-64 181v345h-78v81h251v-81h-83v-339q0 -82 39.5 -124.5t112.5 -42.5q74 0 114 41t40 123v342h-83v81h250v-81h-79v-342q0 -120 -64.5 -183.5t-177.5 -63.5zM218 719l-20 29l138 132q26 24 48 24q19 0 32 -13t13 -32q0 -31 -41 -52zM420 721
l-17 30l152 129q24 21 46 21q19 0 31 -13t12 -32q0 -32 -42 -52z" />
    <glyph glyph-name="uhungarumlaut" unicode="&#x171;" horiz-adv-x="558" 
d="M223 -8q-78 0 -114 57q-20 37 -20 88v220h-67v74h152v-275q0 -32 11 -52q17 -33 63 -33q60 0 129 65v221h-69v74h155v-359h67v-72h-150v75q-77 -83 -157 -83zM135 500l-20 29l138 132q25 24 48 24q19 0 32 -13t13 -32q0 -32 -41 -52zM337 502l-17 30l152 129q24 21 46 21
q19 0 31 -13t12 -32q0 -32 -42 -52z" />
    <glyph glyph-name="Uogonek" unicode="&#x172;" horiz-adv-x="702" 
d="M380 -201q-53 0 -81.5 26.5t-28.5 70.5q0 53 46 94q-98 9 -152.5 71t-54.5 171v345h-78v81h251v-81h-83v-339q0 -82 39.5 -124.5t112.5 -42.5q74 0 114 41t40 123v342h-83v81h250v-81h-79v-342q0 -109 -53.5 -171t-147.5 -73q-47 -34 -47 -74q0 -50 54 -50q38 0 74 19
l-4 -65q-35 -22 -89 -22z" />
    <glyph glyph-name="uogonek" unicode="&#x173;" horiz-adv-x="558" 
d="M223 -8q-78 0 -114 57q-20 37 -20 88v220h-67v74h152v-275q0 -32 11 -52q17 -33 63 -33q60 0 129 65v221h-69v74h155v-359h67v-72h-77q-61 -35 -61 -83q0 -50 54 -50q37 0 75 19l-4 -65q-37 -22 -90 -22t-81 26.5t-28 70.5q0 63 62 107v72q-77 -83 -157 -83z" />
    <glyph glyph-name="Wcircumflex" unicode="&#x174;" horiz-adv-x="1003" 
d="M376 717l-38 43l164 160l164 -160l-38 -43l-126 94zM279 -9l-184 586h-73v81h255v-81h-84l125 -412l164 421h49l164 -421l120 412h-87v81h255v-81h-74l-181 -586h-51l-172 433l-174 -433h-52z" />
    <glyph glyph-name="wcircumflex" unicode="&#x175;" horiz-adv-x="708" 
d="M228 498l-38 43l164 160l164 -160l-38 -43l-126 94zM183 -17l-114 374h-63v74h209v-72h-65l70 -246l111 271h53l112 -271l70 246h-72v72h208v-74h-63l-113 -374h-54l-118 280l-117 -280h-54z" />
    <glyph glyph-name="Ycircumflex" unicode="&#x176;" horiz-adv-x="643" 
d="M187 0v81h89v177l-191 319h-69v81h233v-81h-63l137 -242l138 242h-67v81h233v-81h-69l-191 -318v-178h89v-81h-269zM195 717l-38 43l164 160l164 -160l-38 -43l-126 94z" />
    <glyph glyph-name="ycircumflex" unicode="&#x177;" horiz-adv-x="521" 
d="M222 -134q-50 -65 -113 -65q-36 0 -59 17.5t-23 43.5q0 23 13.5 36t33.5 13q35 0 47 -36q22 8 44 39q13 22 27 49l29 60l-159 334h-56v74h210v-71h-66q7 -16 19 -42.5t36.5 -82.5t40.5 -93l16 -38l114 256h-69v71h208v-74h-56l-203 -433q-17 -34 -34 -58zM134 498l-38 43
l164 160l164 -160l-38 -43l-126 94z" />
    <glyph glyph-name="Ydieresis" unicode="&#x178;" horiz-adv-x="643" 
d="M187 0v81h89v177l-191 319h-69v81h233v-81h-63l137 -242l138 242h-67v81h233v-81h-69l-191 -318v-178h89v-81h-269zM414 732q-26 0 -44.5 18.5t-18.5 45.5q0 26 19 44.5t45 18.5t44.5 -18.5t18.5 -44.5q0 -27 -19 -45.5t-45 -18.5zM226 732q-26 0 -44.5 18.5t-18.5 45.5
q0 26 19 44.5t45 18.5t44.5 -18.5t18.5 -44.5q0 -27 -19 -45.5t-45 -18.5z" />
    <glyph glyph-name="Zacute" unicode="&#x179;" horiz-adv-x="614" 
d="M284 717l-25 28l116 136q23 26 48 26q18 0 31 -13t13 -33q0 -28 -32 -49zM44 0v48l390 534h-289v-107h-80v183h498v-48l-390 -534h317v107h79v-183h-525z" />
    <glyph glyph-name="zacute" unicode="&#x17a;" horiz-adv-x="455" 
d="M205 498l-25 28l116 136q23 26 48 26q18 0 31 -13t13 -33q0 -28 -32 -49zM33 0v45l270 317h-178v-83h-75v152h368v-44l-269 -317h199v82h74v-152h-389z" />
    <glyph glyph-name="Zdotaccent" unicode="&#x17b;" horiz-adv-x="614" 
d="M44 0v48l390 534h-289v-107h-80v183h498v-48l-390 -534h317v107h79v-183h-525zM305 725q-26 0 -44.5 19t-18.5 46q0 26 19 45t45 19t45 -19t19 -45q0 -27 -19.5 -46t-45.5 -19z" />
    <glyph glyph-name="zdotaccent" unicode="&#x17c;" horiz-adv-x="455" 
d="M33 0v45l270 317h-178v-83h-75v152h368v-44l-269 -317h199v82h74v-152h-389zM226 506q-26 0 -44.5 19t-18.5 46q0 26 19 45t45 19t45 -19t19 -45q0 -27 -19.5 -46t-45.5 -19z" />
    <glyph glyph-name="Zcaron" unicode="&#x17d;" horiz-adv-x="614" 
d="M431 917l38 -44l-164 -159l-164 159l38 44l126 -94zM44 0v48l390 534h-289v-107h-80v183h498v-48l-390 -534h317v107h79v-183h-525z" />
    <glyph glyph-name="zcaron" unicode="&#x17e;" horiz-adv-x="455" 
d="M352 698l38 -44l-164 -159l-164 159l38 44l126 -94zM33 0v45l270 317h-178v-83h-75v152h368v-44l-269 -317h199v82h74v-152h-389z" />
    <glyph glyph-name="Aringacute" unicode="&#x1fa;" horiz-adv-x="702" 
d="M333 891l-25 28l116 136q23 26 48 26q18 0 31 -13t13 -33q0 -28 -32 -49zM470 736q0 -46 -34 -78h80v-80h-74l183 -497h61v-81h-234v80h76l-49 139h-260l-49 -139h80v-80h-234v81h60l183 497h-73v80h79q-35 35 -35 78q0 47 35 80t85 33t85 -33t35 -80zM245 295h208
l-104 287zM350 670q23 0 38.5 17.5t15.5 42.5t-15.5 42.5t-38.5 17.5t-38.5 -18t-15.5 -42t15.5 -42t38.5 -18z" />
    <glyph glyph-name="aringacute" unicode="&#x1fb;" horiz-adv-x="499" 
d="M182 -8q-61 0 -101 33t-40 90q0 59 47 94.5t122 35.5q62 0 118 -17v49q0 36 -19 60q-27 33 -90 33q-32 0 -56 -13q5 -12 5 -24q0 -21 -14 -35t-36 -14t-36.5 14t-14.5 37q0 42 44 73t122 31q99 0 145 -54q33 -39 33 -99v-214h67v-72h-148v52q-64 -60 -148 -60zM207 57
q63 0 121 51v70q-54 15 -105 15q-45 0 -70 -19.5t-25 -51.5q0 -30 21 -47.5t58 -17.5zM232 775l-25 28l116 136q23 26 48 26q18 0 31 -13t13 -33q0 -28 -32 -49zM249 491q-50 0 -85 34.5t-35 84.5q0 49 35 83.5t85 34.5t85 -34.5t35 -83.5q0 -50 -35 -84.5t-85 -34.5z
M249 550q24 0 39 17.5t15 42.5t-15 42t-39 17q-23 0 -38.5 -17.5t-15.5 -41.5q0 -25 15.5 -42.5t38.5 -17.5z" />
    <glyph glyph-name="AEacute" unicode="&#x1fc;" horiz-adv-x="898" 
d="M475 717l-25 28l116 136q23 26 48 26q18 0 31 -13t13 -33q0 -28 -32 -49zM-1 0v81h80l244 496h-77v81h595v-172h-86v92h-226v-204h208v-78h-208v-216h226v92h87v-172h-480v81h76v138h-203l-67 -139h70v-80h-239zM271 295h167v285h-29z" />
    <glyph glyph-name="aeacute" unicode="&#x1fd;" horiz-adv-x="767" 
d="M219 370q-32 0 -56 -13q5 -12 5 -24q0 -21 -14 -35t-36 -14t-36.5 14t-14.5 37q0 42 44 73t122 31q83 0 124 -51q11 -14 18 -30q56 81 160 81q92 0 144.5 -59t52.5 -146q0 -20 -4 -46h-323q9 -61 49.5 -91.5t106.5 -30.5q72 0 153 46l-7 -79q-66 -41 -153 -41
q-125 0 -187 84q-39 -41 -88 -62.5t-91 -21.5q-65 0 -106 33t-41 90q0 59 47 94.5t122 35.5q62 0 118 -17v47q0 37 -19 61q-27 34 -90 34zM210 57q65 0 134 62q-11 27 -16 61q-67 13 -105 13q-45 0 -70 -19.5t-25 -51.5q0 -30 21.5 -47.5t60.5 -17.5zM527 368q-46 0 -80 -30
t-42 -86h241q-3 53 -34 84.5t-85 31.5zM364 498l-25 28l116 136q23 26 48 26q18 0 31 -13t13 -33q0 -28 -32 -49z" />
    <glyph glyph-name="Oslashacute" unicode="&#x1fe;" horiz-adv-x="773" 
d="M384 -12q-108 0 -192 60l-79 -92l-58 51l80 92q-83 97 -83 230q0 146 95 243.5t242 97.5q107 0 194 -61l79 92l57 -51l-81 -93q83 -96 83 -228q0 -146 -95 -243.5t-242 -97.5zM145 329q0 -103 54 -171l330 385q-60 43 -142 43q-105 0 -173.5 -73t-68.5 -184zM387 72
q105 0 173 73t68 184q0 99 -52 168l-330 -384q62 -41 141 -41zM366 717l-25 28l116 136q23 26 48 26q18 0 31 -13t13 -33q0 -28 -32 -49z" />
    <glyph glyph-name="oslashacute" unicode="&#x1ff;" horiz-adv-x="529" 
d="M265 -8q-64 0 -116 30l-49 -59l-55 45l49 59q-54 62 -54 148q0 94 62.5 159t162.5 65q67 0 119 -33l50 60l55 -45l-51 -61q52 -63 52 -145q0 -93 -63 -158t-162 -65zM128 215q0 -57 24 -94l186 225q-31 20 -73 20q-61 0 -99 -42.5t-38 -108.5zM265 65q60 0 98 42t38 108
q0 51 -22 89l-184 -222q29 -17 70 -17zM242 498l-25 28l116 136q23 26 48 26q18 0 31 -13t13 -33q0 -28 -32 -49z" />
    <glyph glyph-name="Scommaaccent" unicode="&#x218;" horiz-adv-x="552" 
d="M210 -293l-20 27q75 59 79 106q-20 5 -33 20t-13 36q0 23 16.5 39t39.5 16q27 0 44.5 -19t17.5 -53q0 -41 -31.5 -88t-99.5 -84zM274 -12q-94 0 -159.5 44.5t-65.5 99.5q0 31 16.5 50t43.5 19q26 0 43 -16.5t17 -38.5q0 -23 -13 -43q40 -35 120 -35q60 0 95.5 28t35.5 76
q0 42 -33.5 67.5t-96.5 49.5q-105 39 -154 80t-49 121q0 78 57.5 129t151.5 51q86 0 145.5 -40t59.5 -95q0 -30 -16.5 -47.5t-41.5 -17.5q-27 0 -44 17t-17 41q0 18 11 35q-32 28 -98 28q-54 0 -85.5 -26t-31.5 -68q0 -43 33 -68t101 -51q50 -18 80 -33t60 -38t44 -54.5
t14 -73.5q0 -88 -62 -139.5t-161 -51.5z" />
    <glyph glyph-name="scommaaccent" unicode="&#x219;" horiz-adv-x="446" 
d="M388 341q0 -23 -13 -37t-33 -14q-23 0 -37.5 13t-14.5 35q0 13 4 22q-28 13 -69 13q-39 0 -62 -16.5t-23 -38.5q0 -23 23 -35.5t79 -27.5q82 -21 121.5 -48t39.5 -82q0 -62 -51 -98t-125 -36q-48 0 -93 14.5t-67 36.5q-24 24 -24 56q0 21 14 36.5t35 15.5
q22 0 36.5 -13.5t14.5 -36.5q0 -13 -4 -22q32 -20 88 -20q41 0 67.5 15.5t26.5 42.5q0 22 -22 35.5t-73 26.5q-90 23 -129.5 50.5t-39.5 81.5q0 53 45 91t124 38q42 0 80.5 -12.5t59.5 -33.5q22 -22 22 -52zM152 -293l-20 27q75 59 79 106q-20 5 -33 20t-13 36q0 23 16.5 39
t39.5 16q27 0 44.5 -19t17.5 -53q0 -41 -31.5 -88t-99.5 -84z" />
    <glyph glyph-name="schwa" unicode="&#x259;" horiz-adv-x="491" 
d="M239 -8q-96 0 -149.5 58.5t-53.5 146.5q0 21 4 45h324q-9 61 -50.5 92t-105.5 31q-71 0 -154 -47l8 80q67 41 158 41q104 0 168.5 -61.5t64.5 -161.5q0 -93 -59 -158.5t-155 -65.5zM241 63q45 0 79.5 30t43.5 86h-242q3 -53 34 -84.5t85 -31.5z" />
    <glyph glyph-name="circumflex" unicode="&#x2c6;" horiz-adv-x="430" 
d="M89 498l-38 43l164 160l164 -160l-38 -43l-126 94z" />
    <glyph glyph-name="caron" unicode="&#x2c7;" horiz-adv-x="430" 
d="M341 698l38 -44l-164 -159l-164 159l38 44l126 -94z" />
    <glyph glyph-name="breve" unicode="&#x2d8;" horiz-adv-x="439" 
d="M219 507q-58 0 -103.5 39t-65.5 113l57 23q18 -46 48 -70t64 -24q74 0 113 94l57 -23q-20 -74 -65.5 -113t-104.5 -39z" />
    <glyph glyph-name="dotaccent" unicode="&#x2d9;" horiz-adv-x="312" 
d="M155 506q-26 0 -44.5 19t-18.5 46q0 26 19 45t45 19t45 -19t19 -45q0 -27 -19.5 -46t-45.5 -19z" />
    <glyph glyph-name="ring" unicode="&#x2da;" horiz-adv-x="385" 
d="M192 491q-50 0 -85 34.5t-35 84.5q0 49 35 83.5t85 34.5t85 -34.5t35 -83.5q0 -50 -35 -84.5t-85 -34.5zM192 550q24 0 39 17.5t15 42.5t-15 42t-39 17q-23 0 -38.5 -17.5t-15.5 -41.5q0 -25 15.5 -42.5t38.5 -17.5z" />
    <glyph glyph-name="ogonek" unicode="&#x2db;" horiz-adv-x="330" 
d="M170 -201q-53 0 -81 26.5t-28 70.5q0 89 124 141l74 -11q-54 -16 -89 -45t-35 -64q0 -50 54 -50q37 0 75 19l-4 -65q-37 -22 -90 -22z" />
    <glyph glyph-name="tilde" unicode="&#x2dc;" horiz-adv-x="454" 
d="M302 508q-46 0 -89 37q-34 30 -55 30q-35 0 -48 -61l-63 15q6 58 36.5 94.5t69.5 36.5q47 0 88 -37q36 -30 55 -30q36 0 49 61l62 -15q-5 -58 -35.5 -94.5t-69.5 -36.5z" />
    <glyph glyph-name="hungarumlaut" unicode="&#x2dd;" horiz-adv-x="504" 
d="M39 500l-20 29l138 132q25 24 48 24q19 0 32 -13t13 -32q0 -32 -41 -52zM241 502l-17 30l152 129q24 21 46 21q19 0 31 -13t12 -32q0 -32 -42 -52z" />
    <glyph glyph-name="commaaccent" unicode="&#x326;" horiz-adv-x="194" 
d="M42 -293l-20 27q75 59 79 106q-20 5 -33 20t-13 36q0 23 16.5 39t39.5 16q27 0 44.5 -19t17.5 -53q0 -41 -31.5 -88t-99.5 -84z" />
    <glyph glyph-name="Wgrave" unicode="&#x1e80;" horiz-adv-x="1003" 
d="M279 -9l-184 586h-73v81h255v-81h-84l125 -412l164 421h49l164 -421l120 412h-87v81h255v-81h-74l-181 -586h-51l-172 433l-174 -433h-52zM523 717l-150 95q-33 22 -33 49q0 20 13 33t31 13q25 0 48 -26l116 -136z" />
    <glyph glyph-name="wgrave" unicode="&#x1e81;" horiz-adv-x="708" 
d="M183 -17l-114 374h-63v74h209v-72h-65l70 -246l111 271h53l112 -271l70 246h-72v72h208v-74h-63l-113 -374h-54l-118 280l-117 -280h-54zM375 498l-150 95q-33 22 -33 49q0 20 13 33t31 13q25 0 48 -26l116 -136z" />
    <glyph glyph-name="Wacute" unicode="&#x1e82;" horiz-adv-x="1003" 
d="M480 717l-25 28l116 136q23 26 48 26q18 0 31 -13t13 -33q0 -28 -32 -49zM279 -9l-184 586h-73v81h255v-81h-84l125 -412l164 421h49l164 -421l120 412h-87v81h255v-81h-74l-181 -586h-51l-172 433l-174 -433h-52z" />
    <glyph glyph-name="wacute" unicode="&#x1e83;" horiz-adv-x="708" 
d="M332 498l-25 28l116 136q23 26 48 26q18 0 31 -13t13 -33q0 -28 -32 -49zM183 -17l-114 374h-63v74h209v-72h-65l70 -246l111 271h53l112 -271l70 246h-72v72h208v-74h-63l-113 -374h-54l-118 280l-117 -280h-54z" />
    <glyph glyph-name="Wdieresis" unicode="&#x1e84;" horiz-adv-x="1003" 
d="M595 732q-26 0 -44.5 18.5t-18.5 45.5q0 26 19 44.5t45 18.5t44.5 -18.5t18.5 -44.5q0 -27 -19 -45.5t-45 -18.5zM407 732q-26 0 -44.5 18.5t-18.5 45.5q0 26 19 44.5t45 18.5t44.5 -18.5t18.5 -44.5q0 -27 -19 -45.5t-45 -18.5zM279 -9l-184 586h-73v81h255v-81h-84
l125 -412l164 421h49l164 -421l120 412h-87v81h255v-81h-74l-181 -586h-51l-172 433l-174 -433h-52z" />
    <glyph glyph-name="wdieresis" unicode="&#x1e85;" horiz-adv-x="708" 
d="M447 513q-26 0 -44.5 18.5t-18.5 45.5q0 26 19 44.5t45 18.5t44.5 -18.5t18.5 -44.5q0 -27 -19 -45.5t-45 -18.5zM259 513q-26 0 -44.5 18.5t-18.5 45.5q0 26 19 44.5t45 18.5t44.5 -18.5t18.5 -44.5q0 -27 -19 -45.5t-45 -18.5zM183 -17l-114 374h-63v74h209v-72h-65
l70 -246l111 271h53l112 -271l70 246h-72v72h208v-74h-63l-113 -374h-54l-118 280l-117 -280h-54z" />
    <glyph glyph-name="Ygrave" unicode="&#x1ef2;" horiz-adv-x="643" 
d="M187 0v81h89v177l-191 319h-69v81h233v-81h-63l137 -242l138 242h-67v81h233v-81h-69l-191 -318v-178h89v-81h-269zM342 717l-150 95q-33 22 -33 49q0 20 13 33t31 13q25 0 48 -26l116 -136z" />
    <glyph glyph-name="ygrave" unicode="&#x1ef3;" horiz-adv-x="521" 
d="M222 -134q-50 -65 -113 -65q-36 0 -59 17.5t-23 43.5q0 23 13.5 36t33.5 13q35 0 47 -36q22 8 44 39q13 22 27 49l29 60l-159 334h-56v74h210v-71h-66q7 -16 19 -42.5t36.5 -82.5t40.5 -93l16 -38l114 256h-69v71h208v-74h-56l-203 -433q-17 -34 -34 -58zM281 498
l-150 95q-33 22 -33 49q0 20 13 33t31 13q25 0 48 -26l116 -136z" />
    <glyph glyph-name="enspace" unicode="&#x2002;" horiz-adv-x="500" 
 />
    <glyph glyph-name="emspace" unicode="&#x2003;" horiz-adv-x="1000" 
 />
    <glyph glyph-name="threeperemspace" unicode="&#x2004;" horiz-adv-x="333" 
 />
    <glyph glyph-name="fourperemspace" unicode="&#x2005;" horiz-adv-x="250" 
 />
    <glyph glyph-name="figurespace" unicode="&#x2007;" horiz-adv-x="530" 
 />
    <glyph glyph-name="thinspace" unicode="&#x2009;" horiz-adv-x="133" 
 />
    <glyph glyph-name="hairspace" unicode="&#x200a;" horiz-adv-x="75" 
 />
    <glyph glyph-name="endash" unicode="&#x2013;" horiz-adv-x="511" 
d="M22 239v82h467v-82h-467z" />
    <glyph glyph-name="emdash" unicode="&#x2014;" horiz-adv-x="797" 
d="M22 239v82h753v-82h-753z" />
    <glyph glyph-name="quoteleft" unicode="&#x2018;" horiz-adv-x="223" 
d="M105 390q-31 0 -51.5 22.5t-20.5 62.5q0 49 37.5 106t115.5 100l24 -32q-45 -34 -68 -69.5t-24 -59.5q24 -5 39 -23t15 -42q0 -26 -19.5 -45.5t-47.5 -19.5z" />
    <glyph glyph-name="quoteright" unicode="&#x2019;" horiz-adv-x="223" 
d="M36 383l-23 32q45 34 68 69.5t24 59.5q-24 5 -39.5 23t-15.5 42q0 26 20 45.5t48 19.5q30 0 51 -22.5t21 -62.5q0 -49 -37.5 -106t-116.5 -100z" />
    <glyph glyph-name="quotesinglbase" unicode="&#x201a;" horiz-adv-x="233" 
d="M30 -160l-24 33q46 36 70 70t25 57q-25 6 -40.5 24.5t-15.5 43.5q0 26 20.5 46t48.5 20q32 0 53 -23t21 -64q0 -50 -38 -106t-120 -101z" />
    <glyph glyph-name="quotedblleft" unicode="&#x201c;" horiz-adv-x="431" 
d="M314 390q-31 0 -52 22.5t-21 62.5q0 30 14 64t50 73t90 69l23 -32q-44 -34 -67 -69.5t-25 -59.5q24 -5 39.5 -23t15.5 -42q0 -26 -20 -45.5t-47 -19.5zM105 390q-31 0 -51.5 22.5t-20.5 62.5q0 49 37.5 106t115.5 100l24 -32q-45 -34 -68 -69.5t-24 -59.5q24 -5 39 -23
t15 -42q0 -26 -19.5 -45.5t-47.5 -19.5z" />
    <glyph glyph-name="quotedblright" unicode="&#x201d;" horiz-adv-x="431" 
d="M245 383l-23 32q44 34 67 69.5t25 59.5q-24 5 -39.5 23t-15.5 42q0 26 20 45.5t47 19.5q31 0 52 -22.5t21 -62.5q0 -30 -14 -64t-50 -73t-90 -69zM36 383l-23 32q45 34 68 69.5t24 59.5q-24 5 -39.5 23t-15.5 42q0 26 20 45.5t48 19.5q30 0 51 -22.5t21 -62.5
q0 -49 -37.5 -106t-116.5 -100z" />
    <glyph glyph-name="quotedblbase" unicode="&#x201e;" horiz-adv-x="441" 
d="M240 -155l-23 31q88 69 92 123q-24 5 -39 23t-15 42q0 26 19.5 44.5t47.5 18.5q30 0 50.5 -22t20.5 -61q0 -109 -153 -199zM31 -155l-23 31q88 69 92 123q-24 5 -39 23t-15 42q0 26 19.5 44.5t47.5 18.5q30 0 50.5 -22t20.5 -61q0 -109 -153 -199z" />
    <glyph glyph-name="dagger" unicode="&#x2020;" horiz-adv-x="486" 
d="M222 -2l-19 382l-77 9q-1 -25 -17 -41t-37 -16q-23 0 -38 16t-15 38q0 28 20.5 46t53.5 18q14 0 32 -4l96 -20l-27 148q-6 30 9 50t40 20t40 -20t9 -50l-27 -148l96 20q18 4 32 4q33 0 53.5 -18t20.5 -46q0 -22 -15 -38t-38 -16q-21 0 -37 16t-17 41l-77 -9l-19 -382h-42
z" />
    <glyph glyph-name="daggerdbl" unicode="&#x2021;" horiz-adv-x="504" 
d="M252 -126q-26 0 -39.5 21t-6.5 53l26 126l-87 -17q-20 -4 -29 -4q-32 0 -53 16.5t-21 43.5q0 21 14.5 36t36.5 15q21 0 36.5 -15t15.5 -40l66 6l19 144l-19 144l-66 6q0 -25 -15.5 -40t-36.5 -15q-22 0 -36.5 15t-14.5 36q0 27 21 43.5t53 16.5q9 0 29 -4l87 -17l-26 126
q-7 33 6.5 53.5t39.5 20.5t39.5 -21t6.5 -53l-26 -126l87 17q20 4 29 4q32 0 53 -16.5t21 -43.5q0 -21 -14.5 -36t-36.5 -15q-21 0 -36.5 15t-15.5 40l-66 -6l-19 -144l19 -144l66 -6q0 25 15.5 40t36.5 15q22 0 36.5 -15t14.5 -36q0 -27 -21 -43.5t-53 -16.5q-9 0 -29 4
l-87 17l26 -126q7 -32 -6.5 -53t-39.5 -21z" />
    <glyph glyph-name="bullet" unicode="&#x2022;" horiz-adv-x="312" 
d="M156 162q-46 0 -78 33t-32 80t32 80t78 33t78 -33t32 -80t-32 -80t-78 -33z" />
    <glyph glyph-name="ellipsis" unicode="&#x2026;" horiz-adv-x="647" 
d="M539 -8q-28 0 -47.5 19.5t-19.5 48.5t19.5 48.5t47.5 19.5t47.5 -19.5t19.5 -48.5t-19.5 -48.5t-47.5 -19.5zM324 -8q-28 0 -47.5 19.5t-19.5 48.5t19.5 48.5t47.5 19.5t47.5 -20t19.5 -48t-19.5 -48t-47.5 -20zM108 -8q-28 0 -47.5 19.5t-19.5 48.5t19.5 48.5t47.5 19.5
t47.5 -19.5t19.5 -48.5t-19.5 -48.5t-47.5 -19.5z" />
    <glyph glyph-name="perthousand" unicode="&#x2030;" horiz-adv-x="956" 
d="M176 273q-53 0 -90 37t-37 89t37 88.5t90 36.5q52 0 89 -36.5t37 -88.5t-37 -89t-89 -37zM130 -19l-38 35q47 49 224 252q108 123 220 258l39 -34q-65 -67 -227 -253q-35 -40 -82 -95.5t-88 -105t-48 -57.5zM176 331q26 0 43 19t17 47q0 29 -17 48.5t-43 19.5
q-27 0 -44 -19.5t-17 -48.5q0 -28 17 -47t44 -19zM494 -8q-53 0 -90 36.5t-37 88.5t37 88.5t90 36.5q52 0 89 -36.5t37 -88.5t-37 -88.5t-89 -36.5zM494 49q26 0 43.5 19t17.5 48t-17.5 48.5t-43.5 19.5q-27 0 -44 -19.5t-17 -48.5t17 -48t44 -19zM781 -8q-53 0 -90 36.5
t-37 88.5t37 88.5t90 36.5q52 0 89 -36.5t37 -88.5t-37 -88.5t-89 -36.5zM781 49q26 0 43 19t17 48t-17 48.5t-43 19.5q-27 0 -44 -19.5t-17 -48.5t17 -48t44 -19z" />
    <glyph glyph-name="guilsinglleft" unicode="&#x2039;" horiz-adv-x="307" 
d="M211 100l-183 178l183 178l52 -52l-123 -126l123 -126z" />
    <glyph glyph-name="guilsinglright" unicode="&#x203a;" horiz-adv-x="307" 
d="M96 100l-52 52l123 126l-123 126l52 52l183 -178z" />
    <glyph glyph-name="fraction" unicode="&#x2044;" horiz-adv-x="500" 
d="M76 -14l-42 27q9 14 46.5 74t79.5 128t72 117q105 170 191 322l42 -27q-93 -146 -197 -317q-84 -138 -192 -324z" />
    <glyph glyph-name="zero.sup" unicode="&#x2070;" 
d="M176 423q-64 0 -103.5 51.5t-39.5 134.5q0 84 40 136t104 52q63 0 103 -51.5t40 -134.5q0 -85 -40 -136.5t-104 -51.5zM176 479q37 0 59 36.5t22 93.5q0 59 -22 95.5t-59 36.5q-36 0 -58 -36.5t-22 -93.5q0 -58 22 -95t58 -37z" />
    <glyph glyph-name="four.sup" unicode="&#x2074;" 
d="M141 432v46h67v58h-164l-18 33l193 238l44 -35l-163 -192h108v65l53 21v-82h57v-49h-57v-56h44v-47h-164z" />
    <glyph glyph-name="five.sup" unicode="&#x2075;" 
d="M169 423q-59 0 -92.5 22.5t-33.5 50.5q0 18 10.5 28.5t28.5 10.5t28 -10.5t10 -25.5q0 -11 -4 -15q21 -8 48 -8q39 0 61.5 20t22.5 53q0 29 -20.5 47t-58.5 18q-41 0 -81 -18l-29 16l18 180h207v-55h-158l-7 -77q24 6 53 6q59 0 97 -32t38 -85q0 -55 -39 -90.5t-99 -35.5
z" />
    <glyph glyph-name="six.sup" unicode="&#x2076;" 
d="M295 731q0 -18 -10 -28t-27 -10q-18 0 -27 10.5t-9 24.5q0 6 2 14q-14 6 -29 6q-39 0 -67 -36.5t-29 -89.5l1 1q35 35 87 35q55 0 90.5 -33t35.5 -82q0 -50 -37.5 -85t-95.5 -35t-98 40q-42 42 -42 135q0 92 44.5 146.5t111.5 54.5q52 0 81 -27q18 -19 18 -41zM181 476
q30 0 50.5 19.5t20.5 46.5q0 29 -19 46.5t-54 17.5q-32 0 -53.5 -18t-21.5 -45q0 -30 22 -49q21 -18 55 -18z" />
    <glyph glyph-name="seven.sup" unicode="&#x2077;" 
d="M99 430l149 312h-143v-69h-53v119h250l15 -32l-152 -330h-66z" />
    <glyph glyph-name="eight.sup" unicode="&#x2078;" 
d="M176 424q-62 0 -100 29.5t-38 69.5q0 31 21.5 56.5t62.5 37.5q-75 21 -75 84q0 40 36.5 68t92.5 28q55 0 92.5 -28t37.5 -68q0 -62 -76 -84q41 -12 63 -38t22 -56q0 -40 -38.5 -69.5t-100.5 -29.5zM176 638q27 0 46.5 15.5t19.5 39.5t-19 38.5t-47 14.5q-29 0 -47 -14.5
t-18 -38.5t19 -39.5t46 -15.5zM176 477q33 0 53.5 16.5t20.5 40.5t-21 41t-53 17t-53 -17t-21 -41t21 -40.5t53 -16.5z" />
    <glyph glyph-name="nine.sup" unicode="&#x2079;" 
d="M58 492q0 18 10 28t27 10q36 0 36 -36q0 -8 -3 -13q11 -6 30 -6q38 0 66 36t30 90l-1 -1q-35 -35 -87 -35q-55 0 -90.5 32.5t-35.5 81.5q0 51 37.5 85.5t95.5 34.5q57 0 98 -39q42 -42 42 -135q0 -92 -44.5 -147t-111.5 -55q-51 0 -81 28q-18 20 -18 41zM172 747
q-30 0 -50.5 -19.5t-20.5 -46.5q0 -29 19 -46.5t54 -17.5q32 0 53.5 18t21.5 45q0 30 -22 49q-21 18 -55 18z" />
    <glyph glyph-name="zero.inf" unicode="&#x2080;" 
d="M176 -147q-64 0 -103.5 51.5t-39.5 134.5q0 84 40 136t104 52q63 0 103 -51.5t40 -134.5q0 -85 -40 -136.5t-104 -51.5zM176 -91q37 0 59 36.5t22 93.5q0 59 -22 95.5t-59 36.5q-36 0 -58 -36.5t-22 -93.5q0 -58 22 -95t58 -37z" />
    <glyph glyph-name="one.inf" unicode="&#x2081;" 
d="M61 -139v54h93v245l-86 -21l-14 51l130 34h30v-309h92v-54h-245z" />
    <glyph glyph-name="two.inf" unicode="&#x2082;" 
d="M56 -140l-17 28q15 38 42 72t45.5 48.5t49.5 37.5q22 15 33 24t20.5 23t9.5 31q0 24 -19 39t-48 15q-22 0 -40.5 -7.5t-22.5 -15.5q17 -9 17 -32q0 -15 -10.5 -25.5t-25.5 -10.5q-40 0 -40 48q0 39 35 66.5t91 27.5q52 0 88 -29.5t36 -76.5q0 -27 -14 -50t-29.5 -35
t-42.5 -29q-76 -50 -102 -98h146v60h50v-111h-252z" />
    <glyph glyph-name="three.inf" unicode="&#x2083;" 
d="M171 -146q-56 0 -94.5 24.5t-38.5 60.5q0 17 11.5 29.5t27.5 12.5t26.5 -10.5t10.5 -25.5q0 -14 -8 -24q22 -19 65 -19q31 0 52.5 16t21.5 42t-23 44t-70 18h-22v48h24q38 0 61 16.5t23 44.5q0 23 -19 35t-48 12q-34 0 -50 -14q7 -14 7 -23q0 -15 -10.5 -26t-25.5 -11
q-16 0 -27.5 12.5t-11.5 31.5q0 27 32.5 53t88.5 26q53 0 89.5 -27t36.5 -67q0 -31 -23 -54.5t-56 -31.5q35 -8 60.5 -32t25.5 -59q0 -46 -39.5 -74t-96.5 -28z" />
    <glyph glyph-name="four.inf" unicode="&#x2084;" 
d="M141 -138v46h67v58h-164l-18 33l193 238l44 -35l-163 -192h108v65l53 21v-82h57v-49h-57v-56h44v-47h-164z" />
    <glyph glyph-name="five.inf" unicode="&#x2085;" 
d="M169 -147q-59 0 -92.5 22.5t-33.5 50.5q0 18 10.5 28.5t28.5 10.5t28 -10.5t10 -25.5q0 -11 -4 -15q21 -8 48 -8q39 0 61.5 20t22.5 53q0 29 -20.5 47t-58.5 18q-41 0 -81 -18l-29 16l18 180h207v-55h-158l-7 -77q24 6 53 6q59 0 97 -32t38 -85q0 -55 -39 -90.5
t-99 -35.5z" />
    <glyph glyph-name="six.inf" unicode="&#x2086;" 
d="M295 161q0 -18 -10 -28t-27 -10q-18 0 -27 10.5t-9 24.5q0 6 2 14q-14 6 -29 6q-39 0 -67 -36.5t-29 -89.5l1 1q35 35 87 35q55 0 90.5 -33t35.5 -82q0 -50 -37.5 -85t-95.5 -35t-98 40q-42 42 -42 135q0 92 44.5 146.5t111.5 54.5q52 0 81 -27q18 -19 18 -41zM181 -94
q30 0 50.5 19.5t20.5 46.5q0 29 -19 46.5t-54 17.5q-32 0 -53.5 -18t-21.5 -45q0 -30 22 -49q21 -18 55 -18z" />
    <glyph glyph-name="seven.inf" unicode="&#x2087;" 
d="M99 -140l149 312h-143v-69h-53v119h250l15 -32l-152 -330h-66z" />
    <glyph glyph-name="eight.inf" unicode="&#x2088;" 
d="M176 -146q-62 0 -100 29.5t-38 69.5q0 31 21.5 56.5t62.5 37.5q-75 21 -75 84q0 40 36.5 68t92.5 28q55 0 92.5 -28t37.5 -68q0 -62 -76 -84q41 -12 63 -38t22 -56q0 -40 -38.5 -69.5t-100.5 -29.5zM176 68q27 0 46.5 15.5t19.5 39.5t-19 38.5t-47 14.5q-29 0 -47 -14.5
t-18 -38.5t19 -39.5t46 -15.5zM176 -93q33 0 53.5 16.5t20.5 40.5t-21 41t-53 17t-53 -17t-21 -41t21 -40.5t53 -16.5z" />
    <glyph glyph-name="nine.inf" unicode="&#x2089;" 
d="M58 -78q0 18 10 28t27 10q36 0 36 -36q0 -7 -3 -13q14 -6 30 -6q38 0 66 36.5t30 89.5l-1 -1q-35 -35 -87 -35q-55 0 -90.5 32.5t-35.5 81.5q0 51 37.5 85.5t95.5 34.5q57 0 98 -39q42 -42 42 -135q0 -92 -44.5 -147t-111.5 -55q-51 0 -81 28q-18 19 -18 41zM172 177
q-30 0 -50.5 -19.5t-20.5 -46.5q0 -29 19 -46.5t54 -17.5q32 0 53.5 18t21.5 45q0 30 -22 49q-21 18 -55 18z" />
    <glyph glyph-name="Euro" unicode="&#x20ac;" horiz-adv-x="627" 
d="M46 289v67h82q29 76 96 121.5t151 45.5q86 0 142.5 -42t56.5 -94q0 -28 -18.5 -46t-43.5 -18q-23 0 -38.5 15.5t-15.5 38.5q0 29 16 38q-10 13 -36.5 24t-64.5 11q-53 0 -95 -26t-66 -71h166v-64h-186q-2 -20 -2 -31q0 -12 2 -32h186v-64h-165q23 -45 65.5 -71t97.5 -26
q82 0 148 66l51 -55q-81 -84 -199 -84q-90 0 -156.5 45.5t-93.5 121.5h-80v67h65q-1 10 -1 30q0 11 2 33h-66z" />
    <glyph glyph-name="published" unicode="&#x2117;" horiz-adv-x="611" 
d="M300 -8q-111 0 -187 77t-76 188t76 188.5t187 77.5t186.5 -77t75.5 -189q0 -110 -76 -187.5t-186 -77.5zM300 32q90 0 153 66t63 160q0 95 -62.5 160t-153.5 65q-92 0 -154.5 -65t-62.5 -160t62.5 -160.5t154.5 -65.5zM313 213q-23 0 -29 1v-54h34v-36h-106v36h31v191
h-31v36h105q43 0 71 -23t28 -62q0 -43 -28 -66t-75 -23zM316 249q27 0 42.5 14.5t15.5 38.5q0 22 -16.5 35.5t-42.5 13.5h-31v-101q2 0 12 -0.5t20 -0.5z" />
    <glyph glyph-name="servicemark" unicode="&#x2120;" horiz-adv-x="583" 
d="M236 407v42h33l8 167h-36v42h95l64 -143l61 143h95v-42h-37l8 -167h34v-42h-111v42h31l-5 140l-67 -144h-22l-67 144l-5 -140h31v-42h-110zM109 402q-40 0 -66 17.5t-26 41.5q0 13 8.5 21t19.5 8q13 0 20.5 -7t7.5 -15q0 -10 -4 -15q14 -11 39 -11q45 0 45 32
q0 23 -46 40q-41 14 -61 30.5t-20 48.5q0 30 24 50t62 20q39 0 62.5 -15t23.5 -39q0 -13 -8 -20.5t-19 -7.5q-13 0 -20 6.5t-7 15.5q0 3 3 12q-11 8 -33 8q-41 0 -41 -29q0 -22 48 -37q38 -13 59 -31t21 -50q0 -35 -25.5 -54.5t-66.5 -19.5z" />
    <glyph glyph-name="trademark" unicode="&#x2122;" horiz-adv-x="632" 
d="M285 407v42h33l8 167h-36v42h95l63 -143l62 143h95v-42h-37l8 -167h34v-42h-111v42h31l-5 140l-67 -144h-22l-68 144l-5 -140h32v-42h-110zM76 407v42h35v168h-52v-41h-42v82h237v-82h-43v41h-51v-168h35v-42h-119z" />
    <glyph glyph-name="onethird" unicode="&#x2153;" horiz-adv-x="795" 
d="M47 281v54h93v245l-86 -21l-14 51l130 34h30v-309h92v-54h-245zM224 -14l-42 27q9 14 46.5 74t79.5 128t72 117q105 170 191 322l42 -27q-93 -146 -197 -317q-84 -138 -192 -324zM614 -8q-56 0 -94.5 24.5t-38.5 60.5q0 17 11.5 29.5t27.5 12.5t26.5 -10.5t10.5 -25.5
q0 -14 -8 -24q22 -19 65 -19q31 0 52.5 16t21.5 42t-23 44t-70 18h-22v48h24q38 0 61 16.5t23 44.5q0 23 -19 35t-48 12q-34 0 -50 -14q7 -14 7 -23q0 -15 -10.5 -26t-25.5 -11q-16 0 -27.5 12.5t-11.5 31.5q0 27 32.5 53t88.5 26q53 0 89.5 -27t36.5 -67q0 -31 -23 -54.5
t-56 -31.5q35 -8 60.5 -32t25.5 -59q0 -46 -39.5 -74t-96.5 -28z" />
    <glyph glyph-name="twothirds" unicode="&#x2154;" horiz-adv-x="795" 
d="M54 280l-17 28q15 38 42 72t45.5 48.5t49.5 37.5q22 15 33 24t20.5 23t9.5 31q0 24 -19 39t-48 15q-22 0 -40.5 -7.5t-22.5 -15.5q17 -9 17 -32q0 -15 -10.5 -25.5t-25.5 -10.5q-40 0 -40 48q0 39 35 66.5t91 27.5q52 0 88 -29.5t36 -76.5q0 -27 -14 -50t-29.5 -35
t-42.5 -29q-76 -50 -102 -98h146v60h50v-111h-252zM617 -8q-56 0 -94.5 24.5t-38.5 60.5q0 17 11.5 29.5t27.5 12.5t26.5 -10.5t10.5 -25.5q0 -14 -8 -24q22 -19 65 -19q31 0 52.5 16t21.5 42t-23 44t-70 18h-22v48h24q38 0 61 16.5t23 44.5q0 23 -19 35t-48 12
q-34 0 -50 -14q7 -14 7 -23q0 -15 -10.5 -26t-25.5 -11q-16 0 -27.5 12.5t-11.5 31.5q0 27 32.5 53t88.5 26q53 0 89.5 -27t36.5 -67q0 -31 -23 -54.5t-56 -31.5q35 -8 60.5 -32t25.5 -59q0 -46 -39.5 -74t-96.5 -28zM242 -14l-42 27q9 14 46.5 74t79.5 128t72 117
q105 170 191 322l42 -27q-93 -146 -197 -317q-84 -138 -192 -324z" />
    <glyph glyph-name="onefifth" unicode="&#x2155;" horiz-adv-x="795" 
d="M229 -14l-42 27q9 14 46.5 74t79.5 128t72 117q105 170 191 322l42 -27q-93 -146 -197 -317q-84 -138 -192 -324zM48 281v54h93v245l-86 -21l-14 51l130 34h30v-309h92v-54h-245zM620 -9q-59 0 -92.5 22.5t-33.5 50.5q0 18 10.5 28.5t28.5 10.5t28 -10.5t10 -25.5
q0 -11 -4 -15q21 -8 48 -8q39 0 61.5 20t22.5 53q0 29 -20.5 47t-58.5 18q-41 0 -81 -18l-29 16l18 180h207v-55h-158l-7 -77q24 6 53 6q59 0 97 -32t38 -85q0 -55 -39 -90.5t-99 -35.5z" />
    <glyph glyph-name="twofifths" unicode="&#x2156;" horiz-adv-x="795" 
d="M56 280l-17 28q15 38 42 72t45.5 48.5t49.5 37.5q22 15 33 24t20.5 23t9.5 31q0 24 -19 39t-48 15q-22 0 -40.5 -7.5t-22.5 -15.5q17 -9 17 -32q0 -15 -10.5 -25.5t-25.5 -10.5q-40 0 -40 48q0 39 35 66.5t91 27.5q52 0 88 -29.5t36 -76.5q0 -27 -14 -50t-29.5 -35
t-42.5 -29q-76 -50 -102 -98h146v60h50v-111h-252zM626 -9q-59 0 -92.5 22.5t-33.5 50.5q0 18 10.5 28.5t28.5 10.5t28 -10.5t10 -25.5q0 -11 -4 -15q21 -8 48 -8q39 0 61.5 20t22.5 53q0 29 -20.5 47t-58.5 18q-41 0 -81 -18l-29 16l18 180h207v-55h-158l-7 -77q24 6 53 6
q59 0 97 -32t38 -85q0 -55 -39 -90.5t-99 -35.5zM249 -14l-42 27q9 14 46.5 74t79.5 128t72 117q105 170 191 322l42 -27q-93 -146 -197 -317q-84 -138 -192 -324z" />
    <glyph glyph-name="threefifths" unicode="&#x2157;" horiz-adv-x="795" 
d="M230 -14l-42 27q9 14 46.5 74t79.5 128t72 117q105 170 191 322l42 -27q-93 -146 -197 -317q-84 -138 -192 -324zM618 -9q-59 0 -92.5 22.5t-33.5 50.5q0 18 10.5 28.5t28.5 10.5t28 -10.5t10 -25.5q0 -11 -4 -15q21 -8 48 -8q39 0 61.5 20t22.5 53q0 29 -20.5 47
t-58.5 18q-41 0 -81 -18l-29 16l18 180h207v-55h-158l-7 -77q24 6 53 6q59 0 97 -32t38 -85q0 -55 -39 -90.5t-99 -35.5zM176 274q-56 0 -94.5 24.5t-38.5 60.5q0 17 11.5 29.5t27.5 12.5t26.5 -10.5t10.5 -25.5q0 -14 -8 -24q22 -19 65 -19q31 0 52.5 16t21.5 42t-23 44
t-70 18h-22v48h24q38 0 61 16.5t23 44.5q0 23 -19 35t-48 12q-34 0 -50 -14q7 -14 7 -23q0 -15 -10.5 -26t-25.5 -11q-16 0 -27.5 12.5t-11.5 31.5q0 27 32.5 53t88.5 26q53 0 89.5 -27t36.5 -67q0 -31 -23 -54.5t-56 -31.5q35 -8 60.5 -32t25.5 -59q0 -46 -39.5 -74
t-96.5 -28z" />
    <glyph glyph-name="fourfifths" unicode="&#x2158;" horiz-adv-x="795" 
d="M145 282v46h67v58h-164l-18 33l193 238l44 -35l-163 -192h108v65l53 21v-82h57v-49h-57v-56h44v-47h-164zM252 -14l-42 27q9 14 46.5 74t79.5 128t72 117q105 170 191 322l42 -27q-93 -146 -197 -317q-84 -138 -192 -324zM624 -9q-59 0 -92.5 22.5t-33.5 50.5
q0 18 10.5 28.5t28.5 10.5t28 -10.5t10 -25.5q0 -11 -4 -15q21 -8 48 -8q39 0 61.5 20t22.5 53q0 29 -20.5 47t-58.5 18q-41 0 -81 -18l-29 16l18 180h207v-55h-158l-7 -77q24 6 53 6q59 0 97 -32t38 -85q0 -55 -39 -90.5t-99 -35.5z" />
    <glyph glyph-name="onesixth" unicode="&#x2159;" horiz-adv-x="795" 
d="M732 299q0 -18 -10 -28t-27 -10q-18 0 -27 10.5t-9 24.5q0 6 2 14q-14 6 -29 6q-39 0 -67 -36.5t-29 -89.5l1 1q35 35 87 35q55 0 90.5 -33t35.5 -82q0 -50 -37.5 -85t-95.5 -35t-98 40q-42 42 -42 135q0 92 44.5 146.5t111.5 54.5q52 0 81 -27q18 -19 18 -41zM48 281v54
h93v245l-86 -21l-14 51l130 34h30v-309h92v-54h-245zM229 -14l-42 27q9 14 46.5 74t79.5 128t72 117q105 170 191 322l42 -27q-93 -146 -197 -317q-84 -138 -192 -324zM618 44q30 0 50.5 19.5t20.5 46.5q0 29 -19 46.5t-54 17.5q-32 0 -53.5 -18t-21.5 -45q0 -30 22 -49
q21 -18 55 -18z" />
    <glyph glyph-name="fivesixths" unicode="&#x215a;" horiz-adv-x="795" 
d="M731 299q0 -18 -10 -28t-27 -10q-18 0 -27 10.5t-9 24.5q0 6 2 14q-14 6 -29 6q-39 0 -67 -36.5t-29 -89.5l1 1q35 35 87 35q55 0 90.5 -33t35.5 -82q0 -50 -37.5 -85t-95.5 -35t-98 40q-42 42 -42 135q0 92 44.5 146.5t111.5 54.5q52 0 81 -27q18 -19 18 -41zM171 273
q-59 0 -92.5 22.5t-33.5 50.5q0 18 10.5 28.5t28.5 10.5t28 -10.5t10 -25.5q0 -11 -4 -15q21 -8 48 -8q39 0 61.5 20t22.5 53q0 29 -20.5 47t-58.5 18q-41 0 -81 -18l-29 16l18 180h207v-55h-158l-7 -77q24 6 53 6q59 0 97 -32t38 -85q0 -55 -39 -90.5t-99 -35.5zM228 -14
l-42 27q9 14 46.5 74t79.5 128t72 117q105 170 191 322l42 -27q-93 -146 -197 -317q-84 -138 -192 -324zM617 44q30 0 50.5 19.5t20.5 46.5q0 29 -19 46.5t-54 17.5q-32 0 -53.5 -18t-21.5 -45q0 -30 22 -49q21 -18 55 -18z" />
    <glyph glyph-name="oneeighth" unicode="&#x215b;" horiz-adv-x="795" 
d="M45 281v54h93v245l-86 -21l-14 51l130 34h30v-309h92v-54h-245zM221 -14l-42 27q9 14 46.5 74t79.5 128t72 117q105 170 191 322l42 -27q-93 -146 -197 -317q-84 -138 -192 -324zM615 -8q-62 0 -100 29.5t-38 69.5q0 31 21.5 56.5t62.5 37.5q-75 21 -75 84q0 40 36.5 68
t92.5 28q55 0 92.5 -28t37.5 -68q0 -62 -76 -84q41 -12 63 -38t22 -56q0 -40 -38.5 -69.5t-100.5 -29.5zM615 206q27 0 46.5 15.5t19.5 39.5t-19 38.5t-47 14.5q-29 0 -47 -14.5t-18 -38.5t19 -39.5t46 -15.5zM615 45q33 0 53.5 16.5t20.5 40.5t-21 41t-53 17t-53 -17
t-21 -41t21 -40.5t53 -16.5z" />
    <glyph glyph-name="threeeighths" unicode="&#x215c;" horiz-adv-x="795" 
d="M224 -14l-42 27q9 14 46.5 74t79.5 128t72 117q105 170 191 322l42 -27q-93 -146 -197 -317q-84 -138 -192 -324zM613 -8q-62 0 -100 29.5t-38 69.5q0 31 21.5 56.5t62.5 37.5q-75 21 -75 84q0 40 36.5 68t92.5 28q55 0 92.5 -28t37.5 -68q0 -62 -76 -84q41 -12 63 -38
t22 -56q0 -40 -38.5 -69.5t-100.5 -29.5zM613 206q27 0 46.5 15.5t19.5 39.5t-19 38.5t-47 14.5q-29 0 -47 -14.5t-18 -38.5t19 -39.5t46 -15.5zM613 45q33 0 53.5 16.5t20.5 40.5t-21 41t-53 17t-53 -17t-21 -41t21 -40.5t53 -16.5zM175 274q-56 0 -94.5 24.5t-38.5 60.5
q0 17 11.5 29.5t27.5 12.5t26.5 -10.5t10.5 -25.5q0 -14 -8 -24q22 -19 65 -19q31 0 52.5 16t21.5 42t-23 44t-70 18h-22v48h24q38 0 61 16.5t23 44.5q0 23 -19 35t-48 12q-34 0 -50 -14q7 -14 7 -23q0 -15 -10.5 -26t-25.5 -11q-16 0 -27.5 12.5t-11.5 31.5q0 27 32.5 53
t88.5 26q53 0 89.5 -27t36.5 -67q0 -31 -23 -54.5t-56 -31.5q35 -8 60.5 -32t25.5 -59q0 -46 -39.5 -74t-96.5 -28z" />
    <glyph glyph-name="fiveeighths" unicode="&#x215d;" horiz-adv-x="795" 
d="M167 273q-59 0 -92.5 22.5t-33.5 50.5q0 18 10.5 28.5t28.5 10.5t28 -10.5t10 -25.5q0 -11 -4 -15q21 -8 48 -8q39 0 61.5 20t22.5 53q0 29 -20.5 47t-58.5 18q-41 0 -81 -18l-29 16l18 180h207v-55h-158l-7 -77q24 6 53 6q59 0 97 -32t38 -85q0 -55 -39 -90.5t-99 -35.5
zM218 -14l-42 27q9 14 46.5 74t79.5 128t72 117q105 170 191 322l42 -27q-93 -146 -197 -317q-84 -138 -192 -324zM610 -8q-62 0 -100 29.5t-38 69.5q0 31 21.5 56.5t62.5 37.5q-75 21 -75 84q0 40 36.5 68t92.5 28q55 0 92.5 -28t37.5 -68q0 -62 -76 -84q41 -12 63 -38
t22 -56q0 -40 -38.5 -69.5t-100.5 -29.5zM610 206q27 0 46.5 15.5t19.5 39.5t-19 38.5t-47 14.5q-29 0 -47 -14.5t-18 -38.5t19 -39.5t46 -15.5zM610 45q33 0 53.5 16.5t20.5 40.5t-21 41t-53 17t-53 -17t-21 -41t21 -40.5t53 -16.5z" />
    <glyph glyph-name="seveneighths" unicode="&#x215e;" horiz-adv-x="795" 
d="M114 280l149 312h-143v-69h-53v119h250l15 -32l-152 -330h-66zM188 -14l-42 27q9 14 46.5 74t79.5 128t72 117q105 170 191 322l42 -27q-93 -146 -197 -317q-84 -138 -192 -324zM592 -8q-62 0 -100 29.5t-38 69.5q0 31 21.5 56.5t62.5 37.5q-75 21 -75 84q0 40 36.5 68
t92.5 28q55 0 92.5 -28t37.5 -68q0 -62 -76 -84q41 -12 63 -38t22 -56q0 -40 -38.5 -69.5t-100.5 -29.5zM592 206q27 0 46.5 15.5t19.5 39.5t-19 38.5t-47 14.5q-29 0 -47 -14.5t-18 -38.5t19 -39.5t46 -15.5zM592 45q33 0 53.5 16.5t20.5 40.5t-21 41t-53 17t-53 -17
t-21 -41t21 -40.5t53 -16.5z" />
    <glyph glyph-name="minus" unicode="&#x2212;" horiz-adv-x="436" 
d="M46 239v74h344v-74h-344z" />
    <glyph glyph-name="Q.alt" horiz-adv-x="773" 
d="M588 -111l-78 122q-64 -23 -126 -23q-144 0 -238 98t-94 243q0 146 95 243.5t242 97.5q144 0 238 -98t94 -243q0 -86 -37 -159.5t-102 -119.5l75 -119zM387 71q40 0 78 11l-71 112l69 43l74 -117q91 72 91 209q0 111 -68 184t-173 73t-173.5 -73t-68.5 -184t68.5 -184.5
t173.5 -73.5z" />
    <glyph glyph-name="a.sc" horiz-adv-x="589" 
d="M138 515h313v-73h-72l136 -369h59v-73h-222v72h76l-34 95h-201l-34 -95h76v-72h-220v73h60l135 369h-72v73zM293 448l-75 -211h151z" />
    <glyph glyph-name="b.sc" horiz-adv-x="536" 
d="M210 72h90q48 0 75 21t27 58q0 78 -109 78h-83v-157zM210 293h78q49 0 74.5 20.5t25.5 57.5q0 34 -26 53.5t-74 19.5h-78v-151zM298 0h-256v73h82v369h-82v73h247q93 0 139.5 -37t46.5 -96q0 -89 -93 -117q108 -29 108 -122q0 -66 -49.5 -104.5t-142.5 -38.5z" />
    <glyph glyph-name="c.sc" horiz-adv-x="563" 
d="M466 137l53 -58q-82 -90 -210 -90q-119 0 -193.5 77t-74.5 192q0 117 78 194t196 77q84 0 141.5 -41t57.5 -93q0 -29 -16.5 -47t-42.5 -18q-27 0 -43 15t-16 40q0 22 14 34q-34 32 -99 32q-79 0 -130 -54t-51 -139q0 -84 51 -137.5t128 -53.5q89 0 157 70z" />
    <glyph glyph-name="d.sc" horiz-adv-x="605" 
d="M210 73h63q99 0 151.5 51t52.5 138q0 85 -56 132.5t-154 47.5h-57v-369zM261 0h-219v73h82v369h-82v73h225q138 0 217.5 -68t79.5 -184q0 -120 -79 -191.5t-224 -71.5z" />
    <glyph glyph-name="e.sc" horiz-adv-x="517" 
d="M464 0h-422v73h82v369h-82v73h422v-164h-80v93h-174v-151h159v-70h-159v-151h174v90h80v-162z" />
    <glyph glyph-name="f.sc" horiz-adv-x="496" 
d="M297 0h-255v73h82v369h-82v73h420v-164h-81v93h-171v-157h156v-70h-156v-144h87v-73z" />
    <glyph glyph-name="g.sc" horiz-adv-x="591" 
d="M312 452q-80 0 -131 -54.5t-51 -139.5q0 -84 52 -139t126 -55q75 0 130 38v92h-133v70h217v-264h-82v37q-64 -48 -148 -48q-102 0 -176.5 74t-74.5 194t79 196t197 76q87 0 145 -40.5t58 -90.5q0 -29 -16.5 -47t-42.5 -18t-42.5 15t-16.5 40q0 19 12 33q-37 31 -102 31z
" />
    <glyph glyph-name="h.sc" horiz-adv-x="669" 
d="M42 0v73h82v369h-82v73h252v-73h-84v-148h249v148h-84v73h252v-73h-82v-369h82v-73h-252v73h84v148h-249v-148h84v-73h-252z" />
    <glyph glyph-name="i.sc" horiz-adv-x="340" 
d="M298 0h-256v73h85v369h-85v73h256v-73h-85v-369h85v-73z" />
    <glyph glyph-name="j.sc" horiz-adv-x="461" 
d="M188 66q38 0 60 23q26 27 26 91v262h-86v73h248v-73h-77v-263q0 -97 -49 -146q-44 -44 -121 -44q-68 0 -116 39t-48 96q0 31 17.5 50.5t44.5 19.5q22 0 38.5 -16t16.5 -38q0 -30 -24 -42q18 -32 70 -32z" />
    <glyph glyph-name="k.sc" horiz-adv-x="596" 
d="M508 442l-160 -157l145 -212h81v-73h-136l-153 229l-74 -70v-86h81v-73h-250v73h83v369h-83v73h241v-71h-72v-194l199 194h-70v71h228v-73h-60z" />
    <glyph glyph-name="l.sc" horiz-adv-x="489" 
d="M381 73v97h81v-170h-420v73h82v369h-82v73h254v-73h-86v-369h171z" />
    <glyph glyph-name="m.sc" horiz-adv-x="747" 
d="M530 515h165v-73h-82l17 -369h82v-73h-250v73h81l-11 298l-150 -287h-19l-152 287l-11 -298h84v-73h-250v73h83l16 369h-82v73h167l158 -299z" />
    <glyph glyph-name="n.sc" horiz-adv-x="657" 
d="M198 515l267 -348v275h-81v73h246v-73h-83v-445h-57l-283 372v-296h79v-73h-244v73h82v369h-82v73h156z" />
    <glyph glyph-name="o.sc" horiz-adv-x="617" 
d="M309 529q118 0 192.5 -77.5t74.5 -191.5q0 -116 -74.5 -193.5t-193.5 -77.5t-193 77.5t-74 193.5q0 114 74.5 191.5t193.5 77.5zM308 67q79 0 129.5 53t50.5 139q0 84 -50.5 137.5t-128.5 53.5q-79 0 -129 -53t-50 -138q0 -86 50.5 -139t127.5 -53z" />
    <glyph glyph-name="p.sc" horiz-adv-x="506" 
d="M42 515h232q86 0 143 -45.5t57 -121.5q0 -83 -56.5 -128.5t-150.5 -45.5q-42 0 -57 1v-102h85v-73h-253v73h82v369h-82v73zM275 246q51 0 81 27.5t30 74.5q0 43 -31.5 68.5t-81.5 25.5h-63v-194q28 -2 65 -2z" />
    <glyph glyph-name="q.sc" horiz-adv-x="617" 
d="M503 -114q-28 0 -56 9t-41 16t-41 26.5t-33 22.5q-31 22 -71 30q-93 21 -145 76q-75 75 -75 194q0 114 74.5 191.5t193.5 77.5q118 0 192.5 -77.5t74.5 -191.5q0 -91 -47.5 -160t-129.5 -94q6 -2 25 -14q44 -28 72 -28q34 0 71 29l42 -65q-43 -42 -106 -42zM308 67
q77 0 128.5 54t51.5 138t-50.5 137.5t-128.5 53.5q-79 0 -129 -53t-50 -138q0 -86 51 -139t127 -53z" />
    <glyph glyph-name="q.sc_alt" horiz-adv-x="617" 
d="M576 260q0 -68 -27 -125.5t-77 -94.5l55 -85l-65 -41l-58 90q-48 -15 -96 -15q-119 0 -193 77.5t-74 193.5q0 114 74.5 191.5t193.5 77.5q118 0 192.5 -77.5t74.5 -191.5zM488 259q0 84 -50.5 137.5t-128.5 53.5q-79 0 -129 -53t-50 -138q0 -86 50.5 -139t127.5 -53
q30 0 52 7l-50 80l64 41l54 -85q60 55 60 149z" />
    <glyph glyph-name="r.sc" horiz-adv-x="554" 
d="M276 442h-66v-171q45 -3 68 -3q54 0 86.5 24t32.5 66q0 40 -32 62t-89 22zM210 197v-124h79v-73h-247v73h82v369h-82v73h239q93 0 148 -40.5t55 -115.5q0 -48 -27 -84.5t-72 -55.5l81 -146h74v-73h-137l-102 198q-18 -2 -37 -2q-38 0 -54 1z" />
    <glyph glyph-name="s.sc" horiz-adv-x="485" 
d="M318 406q0 17 9 30q-29 21 -84 21q-43 0 -69 -18.5t-26 -50.5q0 -29 25.5 -46t71.5 -34q8 -3 12 -4q37 -13 55.5 -20t47 -22t42.5 -29.5t25 -38t11 -51.5q0 -74 -54 -114t-143 -40q-82 0 -139.5 37t-57.5 87q0 29 15 45.5t41 16.5t42.5 -15.5t16.5 -37.5q0 -18 -10 -35
q33 -26 95 -26q51 0 80 19t29 56q0 16 -9 29.5t-28 24t-34 16.5t-40 14q-38 13 -57.5 20.5t-47.5 22t-41.5 29t-24 37.5t-10.5 51q0 66 51.5 107.5t136.5 41.5q78 0 130 -34t52 -84q0 -26 -15 -42t-38 -16q-28 0 -44 15.5t-16 37.5z" />
    <glyph glyph-name="t.sc" horiz-adv-x="542" 
d="M143 0v73h85v371h-115v-100h-80v171h476v-171h-80v100h-115v-371h85v-73h-256z" />
    <glyph glyph-name="u.sc" horiz-adv-x="618" 
d="M191 442v-249q0 -62 31.5 -96.5t87.5 -34.5t87.5 33.5t31.5 95.5v251h-81v73h244v-73h-78v-246q0 -101 -55 -154.5t-150 -53.5q-96 0 -150 52.5t-54 152.5v249h-78v73h244v-73h-80z" />
    <glyph glyph-name="v.sc" horiz-adv-x="571" 
d="M256 -7l-185 449h-61v73h226v-73h-74l126 -324l126 324h-74v73h221v-73h-60l-186 -449h-59z" />
    <glyph glyph-name="w.sc" horiz-adv-x="798" 
d="M219 -9l-139 451h-68v73h238v-73h-78l89 -306l120 314h42l120 -314l90 306h-80v73h233v-73h-68l-139 -451h-60l-120 314l-121 -314h-59z" />
    <glyph glyph-name="x.sc" horiz-adv-x="587" 
d="M565 74v-74h-232v72h70l-114 145l-111 -145h75v-72h-231v74h66l152 190l-143 178h-67v73h229v-71h-65l102 -134l101 134h-65v71h225v-73h-71l-141 -178l155 -190h65z" />
    <glyph glyph-name="y.sc" horiz-adv-x="535" 
d="M529 515v-73h-61l-158 -251v-118h85v-73h-255v73h84v118l-157 251h-61v73h226v-71h-73l111 -185l111 185h-75v71h223z" />
    <glyph glyph-name="z.sc" horiz-adv-x="511" 
d="M43 0v49l305 396h-217v-97h-75v167h412v-48l-304 -396h230v96h75v-167h-426z" />
    <glyph glyph-name="aacute.sc" horiz-adv-x="589" 
d="M138 515h313v-73h-72l136 -369h59v-73h-222v72h76l-34 95h-201l-34 -95h76v-72h-220v73h60l135 369h-72v73zM271 579l-25 28l116 136q23 26 48 26q18 0 31 -13t13 -33q0 -28 -32 -49zM293 448l-75 -211h151z" />
    <glyph glyph-name="abreve.sc" horiz-adv-x="589" 
d="M138 515h313v-73h-72l136 -369h59v-73h-222v72h76l-34 95h-201l-34 -95h76v-72h-220v73h60l135 369h-72v73zM291 588q-58 0 -103.5 39t-65.5 113l57 23q18 -46 48 -70t64 -24q74 0 113 94l57 -23q-20 -74 -65.5 -113t-104.5 -39zM293 448l-75 -211h151z" />
    <glyph glyph-name="acircumflex.sc" horiz-adv-x="589" 
d="M138 515h313v-73h-72l136 -369h59v-73h-222v72h76l-34 95h-201l-34 -95h76v-72h-220v73h60l135 369h-72v73zM167 579l-38 43l164 160l164 -160l-38 -43l-126 94zM293 448l-75 -211h151z" />
    <glyph glyph-name="adieresis.sc" horiz-adv-x="589" 
d="M138 515h313v-73h-72l136 -369h59v-73h-222v72h76l-34 95h-201l-34 -95h76v-72h-220v73h60l135 369h-72v73zM293 448l-75 -211h151zM386 594q-26 0 -44.5 18.5t-18.5 45.5q0 26 19 44.5t45 18.5t44.5 -18.5t18.5 -44.5q0 -27 -19 -45.5t-45 -18.5zM198 594
q-26 0 -44.5 18.5t-18.5 45.5q0 26 19 44.5t45 18.5t44.5 -18.5t18.5 -44.5q0 -27 -19 -45.5t-45 -18.5z" />
    <glyph glyph-name="ae.sc" horiz-adv-x="728" 
d="M255 0v72h80v97h-153l-49 -97h72v-72h-211v73h54l191 369h-68v73h504v-164h-80v93h-174v-151h159v-70h-159v-151h174v90h80v-162h-420zM320 442l-103 -203h118v203h-15z" />
    <glyph glyph-name="aeacute.sc" horiz-adv-x="728" 
d="M255 0v72h80v97h-153l-49 -97h72v-72h-211v73h54l191 369h-68v73h504v-164h-80v93h-174v-151h159v-70h-159v-151h174v90h80v-162h-420zM372 579l-25 28l116 136q23 26 48 26q18 0 31 -13t13 -33q0 -28 -32 -49zM320 442l-103 -203h118v203h-15z" />
    <glyph glyph-name="agrave.sc" horiz-adv-x="589" 
d="M138 515h313v-73h-72l136 -369h59v-73h-222v72h76l-34 95h-201l-34 -95h76v-72h-220v73h60l135 369h-72v73zM314 579l-150 95q-33 22 -33 49q0 20 13 33t31 13q25 0 48 -26l116 -136zM293 448l-75 -211h151z" />
    <glyph glyph-name="amacron.sc" horiz-adv-x="589" 
d="M138 515h313v-73h-72l136 -369h59v-73h-222v72h76l-34 95h-201l-34 -95h76v-72h-220v73h60l135 369h-72v73zM135 611v75h316v-75h-316zM293 448l-75 -211h151z" />
    <glyph glyph-name="aogonek.sc" horiz-adv-x="589" 
d="M477 -201q-53 0 -81 26.5t-28 70.5q0 60 58 104h-74v72h76l-34 95h-201l-34 -95h76v-72h-220v73h60l135 369h-72v73h313v-73h-72l136 -369h59v-73h-71q-61 -35 -61 -83q0 -50 54 -50q37 0 75 19l-4 -65q-37 -22 -90 -22zM293 448l-75 -211h151z" />
    <glyph glyph-name="aring.sc" horiz-adv-x="589" 
d="M235 0h-220v73h60l135 369h-72v73h56q-21 29 -21 63q0 50 35 84.5t85 34.5t85 -34.5t35 -84.5q0 -33 -20 -63h58v-73h-72l136 -369h59v-73h-222v72h76l-34 95h-201l-34 -95h76v-72zM293 448l-75 -211h151zM293 519q24 0 39 17t15 42t-15 42.5t-39 17.5t-39 -17.5
t-15 -42.5t15 -42t39 -17z" />
    <glyph glyph-name="aringacute.sc" horiz-adv-x="589" 
d="M235 0h-220v73h60l135 369h-72v73h56q-21 29 -21 63q0 50 35 84.5t85 34.5t85 -34.5t35 -84.5q0 -33 -20 -63h58v-73h-72l136 -369h59v-73h-222v72h76l-34 95h-201l-34 -95h76v-72zM271 734l-25 28l116 136q23 26 48 26q18 0 31 -13t13 -33q0 -28 -32 -49zM293 448
l-75 -211h151zM293 519q24 0 39 17t15 42t-15 42.5t-39 17.5t-39 -17.5t-15 -42.5t15 -42t39 -17z" />
    <glyph glyph-name="atilde.sc" horiz-adv-x="589" 
d="M138 515h313v-73h-72l136 -369h59v-73h-222v72h76l-34 95h-201l-34 -95h76v-72h-220v73h60l135 369h-72v73zM370 589q-46 0 -89 37q-34 30 -55 30q-35 0 -48 -61l-63 15q6 58 36.5 94.5t69.5 36.5q47 0 88 -37q36 -30 55 -30q36 0 49 61l62 -15q-5 -58 -35.5 -94.5
t-69.5 -36.5zM293 448l-75 -211h151z" />
    <glyph glyph-name="cacute.sc" horiz-adv-x="566" 
d="M277 579l-25 28l116 136q23 26 48 26q18 0 31 -13t13 -33q0 -28 -32 -49zM466 137l53 -58q-82 -90 -210 -90q-119 0 -193.5 77t-74.5 192q0 117 78 194t196 77q84 0 141.5 -41t57.5 -93q0 -29 -16.5 -47t-42.5 -18q-27 0 -43 15t-16 40q0 22 14 34q-34 32 -99 32
q-79 0 -130 -54t-51 -139q0 -84 51 -137.5t128 -53.5q89 0 157 70z" />
    <glyph glyph-name="ccaron.sc" horiz-adv-x="566" 
d="M424 779l38 -44l-164 -159l-164 159l38 44l126 -94zM466 137l53 -58q-82 -90 -210 -90q-119 0 -193.5 77t-74.5 192q0 117 78 194t196 77q84 0 141.5 -41t57.5 -93q0 -29 -16.5 -47t-42.5 -18q-27 0 -43 15t-16 40q0 22 14 34q-34 32 -99 32q-79 0 -130 -54t-51 -139
q0 -84 51 -137.5t128 -53.5q89 0 157 70z" />
    <glyph glyph-name="ccedilla.sc" horiz-adv-x="570" 
d="M298 -200q-63 0 -117 31l16 33q45 -20 87 -20q41 0 41 28t-55 28q-3 0 -9 -0.5t-7 -0.5l-19 19l26 75q-100 16 -159.5 89t-59.5 176q0 117 78 194t196 77q84 0 141.5 -41t57.5 -93q0 -29 -16.5 -47t-42.5 -18q-27 0 -43 15t-16 40q0 22 14 34q-34 32 -99 32
q-79 0 -130 -54t-51 -139q0 -84 51 -137.5t128 -53.5q89 0 157 70l53 -58q-82 -90 -210 -90h-7l1 -35q46 -4 72.5 -25t26.5 -53q0 -31 -28.5 -53.5t-76.5 -22.5z" />
    <glyph glyph-name="cdotaccent.sc" horiz-adv-x="566" 
d="M466 137l53 -58q-82 -90 -210 -90q-119 0 -193.5 77t-74.5 192q0 117 78 194t196 77q84 0 141.5 -41t57.5 -93q0 -29 -16.5 -47t-42.5 -18q-27 0 -43 15t-16 40q0 22 14 34q-34 32 -99 32q-79 0 -130 -54t-51 -139q0 -84 51 -137.5t128 -53.5q89 0 157 70zM298 587
q-26 0 -44.5 19t-18.5 46q0 26 19 45t45 19t45 -19t19 -45q0 -27 -19.5 -46t-45.5 -19z" />
    <glyph glyph-name="dcaron.sc" horiz-adv-x="606" 
d="M211 73h63q99 0 151.5 51t52.5 138q0 85 -56 132.5t-154 47.5h-57v-369zM262 0h-219v73h82v369h-82v73h225q138 0 217.5 -68t79.5 -184q0 -120 -79 -191.5t-224 -71.5zM413 779l38 -44l-164 -159l-164 159l38 44l126 -94z" />
    <glyph glyph-name="dcroat.sc" horiz-adv-x="608" 
d="M263 0h-220v73h82v150h-67v73h67v146h-82v73h226q137 0 216.5 -68t79.5 -184q0 -120 -79 -191.5t-223 -71.5zM212 73h63q99 0 151 51t52 138q0 85 -56 132.5t-153 47.5h-57v-146h112v-73h-112v-150z" />
    <glyph glyph-name="eacute.sc" horiz-adv-x="518" 
d="M237 579l-25 28l116 136q23 26 48 26q18 0 31 -13t13 -33q0 -28 -32 -49zM465 0h-422v73h82v369h-82v73h422v-164h-80v93h-174v-151h159v-70h-159v-151h174v90h80v-162z" />
    <glyph glyph-name="ebreve.sc" horiz-adv-x="518" 
d="M465 0h-422v73h82v369h-82v73h422v-164h-80v93h-174v-151h159v-70h-159v-151h174v90h80v-162zM257 588q-58 0 -103.5 39t-65.5 113l57 23q18 -46 48 -70t64 -24q74 0 113 94l57 -23q-20 -74 -65.5 -113t-104.5 -39z" />
    <glyph glyph-name="ecaron.sc" horiz-adv-x="518" 
d="M384 779l38 -44l-164 -159l-164 159l38 44l126 -94zM465 0h-422v73h82v369h-82v73h422v-164h-80v93h-174v-151h159v-70h-159v-151h174v90h80v-162z" />
    <glyph glyph-name="ecircumflex.sc" horiz-adv-x="518" 
d="M132 579l-38 43l164 160l164 -160l-38 -43l-126 94zM465 0h-422v73h82v369h-82v73h422v-164h-80v93h-174v-151h159v-70h-159v-151h174v90h80v-162z" />
    <glyph glyph-name="edieresis.sc" horiz-adv-x="518" 
d="M352 594q-26 0 -44.5 18.5t-18.5 45.5q0 26 19 44.5t45 18.5t44.5 -18.5t18.5 -44.5q0 -27 -19 -45.5t-45 -18.5zM164 594q-26 0 -44.5 18.5t-18.5 45.5q0 26 19 44.5t45 18.5t44.5 -18.5t18.5 -44.5q0 -27 -19 -45.5t-45 -18.5zM465 0h-422v73h82v369h-82v73h422v-164
h-80v93h-174v-151h159v-70h-159v-151h174v90h80v-162z" />
    <glyph glyph-name="edotaccent.sc" horiz-adv-x="518" 
d="M258 587q-26 0 -44.5 19t-18.5 46q0 26 19 45t45 19t45 -19t19 -45q0 -27 -19.5 -46t-45.5 -19zM465 0h-422v73h82v369h-82v73h422v-164h-80v93h-174v-151h159v-70h-159v-151h174v90h80v-162z" />
    <glyph glyph-name="egrave.sc" horiz-adv-x="518" 
d="M280 579l-150 95q-33 22 -33 49q0 20 13 33t31 13q25 0 48 -26l116 -136zM465 0h-422v73h82v369h-82v73h422v-164h-80v93h-174v-151h159v-70h-159v-151h174v90h80v-162z" />
    <glyph glyph-name="emacron.sc" horiz-adv-x="518" 
d="M100 611v75h316v-75h-316zM465 0h-422v73h82v369h-82v73h422v-164h-80v93h-174v-151h159v-70h-159v-151h174v90h80v-162z" />
    <glyph glyph-name="eogonek.sc" horiz-adv-x="518" 
d="M465 0h-68q-61 -35 -61 -83q0 -50 54 -50q37 0 75 19l-4 -65q-37 -22 -90 -22t-81 26.5t-28 70.5q0 60 58 104h-277v73h82v369h-82v73h422v-164h-80v93h-174v-151h159v-70h-159v-151h174v90h80v-162z" />
    <glyph glyph-name="eth.sc" horiz-adv-x="608" 
d="M263 0h-220v73h82v150h-67v73h67v146h-82v73h226q137 0 216.5 -68t79.5 -184q0 -120 -79 -191.5t-223 -71.5zM212 73h63q99 0 151 51t52 138q0 85 -56 132.5t-153 47.5h-57v-146h112v-73h-112v-150z" />
    <glyph glyph-name="gbreve.sc" horiz-adv-x="589" 
d="M312 452q-80 0 -131 -54.5t-51 -139.5q0 -84 52 -139t126 -55q75 0 130 38v92h-133v70h217v-264h-82v37q-64 -48 -148 -48q-102 0 -176.5 74t-74.5 194t79 196t197 76q87 0 145 -40.5t58 -90.5q0 -29 -16.5 -47t-42.5 -18t-42.5 15t-16.5 40q0 19 12 33q-37 31 -102 31z
M305 588q-58 0 -103.5 39t-65.5 113l57 23q18 -46 48 -70t64 -24q74 0 113 94l57 -23q-20 -74 -65.5 -113t-104.5 -39z" />
    <glyph glyph-name="gcommaaccent.sc" horiz-adv-x="589" 
d="M236 -301l-20 27q75 59 79 106q-20 5 -33 20t-13 36q0 23 16.5 39t39.5 16q27 0 44.5 -19t17.5 -53q0 -41 -31.5 -88t-99.5 -84zM312 452q-80 0 -131 -54.5t-51 -139.5q0 -84 52 -139t126 -55q75 0 130 38v92h-133v70h217v-264h-82v37q-64 -48 -148 -48q-102 0 -176.5 74
t-74.5 194t79 196t197 76q87 0 145 -40.5t58 -90.5q0 -29 -16.5 -47t-42.5 -18t-42.5 15t-16.5 40q0 19 12 33q-37 31 -102 31z" />
    <glyph glyph-name="gdotaccent.sc" horiz-adv-x="589" 
d="M312 452q-80 0 -131 -54.5t-51 -139.5q0 -84 52 -139t126 -55q75 0 130 38v92h-133v70h217v-264h-82v37q-64 -48 -148 -48q-102 0 -176.5 74t-74.5 194t79 196t197 76q87 0 145 -40.5t58 -90.5q0 -29 -16.5 -47t-42.5 -18t-42.5 15t-16.5 40q0 19 12 33q-37 31 -102 31z
M306 587q-26 0 -44.5 19t-18.5 46q0 26 19 45t45 19t45 -19t19 -45q0 -27 -19.5 -46t-45.5 -19z" />
    <glyph glyph-name="hbar.sc" horiz-adv-x="672" 
d="M607 394v-63h-61v-258h83v-73h-253v73h84v143h-248v-143h83v-73h-252v73h82v258h-61v63h61v48h-82v73h252v-71h-83v-53h248v53h-84v71h253v-73h-83v-48h61zM212 282h248v51h-248v-51z" />
    <glyph glyph-name="iacute.sc" horiz-adv-x="342" 
d="M148 579l-25 28l116 136q23 26 48 26q18 0 31 -13t13 -33q0 -28 -32 -49zM299 0h-256v73h85v369h-85v73h256v-73h-85v-369h85v-73z" />
    <glyph glyph-name="ibreve.sc" horiz-adv-x="342" 
d="M299 0h-256v73h85v369h-85v73h256v-73h-85v-369h85v-73zM170 588q-58 0 -103.5 39t-65.5 113l57 23q18 -46 48 -70t64 -24q74 0 113 94l57 -23q-20 -74 -65.5 -113t-104.5 -39z" />
    <glyph glyph-name="icircumflex.sc" horiz-adv-x="342" 
d="M45 579l-38 43l164 160l164 -160l-38 -43l-126 94zM299 0h-256v73h85v369h-85v73h256v-73h-85v-369h85v-73z" />
    <glyph glyph-name="idieresis.sc" horiz-adv-x="342" 
d="M265 594q-26 0 -44.5 18.5t-18.5 45.5q0 26 19 44.5t45 18.5t44.5 -18.5t18.5 -44.5q0 -27 -19 -45.5t-45 -18.5zM77 594q-26 0 -44.5 18.5t-18.5 45.5q0 26 19 44.5t45 18.5t44.5 -18.5t18.5 -44.5q0 -27 -19 -45.5t-45 -18.5zM299 0h-256v73h85v369h-85v73h256v-73h-85
v-369h85v-73z" />
    <glyph glyph-name="idotaccent.sc" horiz-adv-x="342" 
d="M299 0h-256v73h85v369h-85v73h256v-73h-85v-369h85v-73zM169 587q-26 0 -44.5 19t-18.5 46q0 26 19 45t45 19t45 -19t19 -45q0 -27 -19.5 -46t-45.5 -19z" />
    <glyph glyph-name="dotlessi.sc" horiz-adv-x="342" 
d="M299 0h-256v73h85v369h-85v73h256v-73h-85v-369h85v-73z" />
    <glyph glyph-name="igrave.sc" horiz-adv-x="342" 
d="M299 0h-256v73h85v369h-85v73h256v-73h-85v-369h85v-73zM193 579l-150 95q-33 22 -33 49q0 20 13 33t31 13q25 0 48 -26l116 -136z" />
    <glyph glyph-name="imacron.sc" horiz-adv-x="342" 
d="M299 0h-256v73h85v369h-85v73h256v-73h-85v-369h85v-73zM13 611v75h316v-75h-316z" />
    <glyph glyph-name="iogonek.sc" horiz-adv-x="342" 
d="M175 -201q-53 0 -81 26.5t-28 70.5q0 60 58 104h-81v73h85v369h-85v73h256v-73h-85v-369h85v-73h-98q-61 -35 -61 -83q0 -50 54 -50q37 0 75 19l-4 -65q-37 -22 -90 -22z" />
    <glyph glyph-name="kcommaaccent.sc" horiz-adv-x="598" 
d="M239 -301l-20 27q75 59 79 106q-20 5 -33 20t-13 36q0 23 16.5 39t39.5 16q27 0 44.5 -19t17.5 -53q0 -41 -31.5 -88t-99.5 -84zM509 442l-160 -157l145 -212h81v-73h-136l-153 229l-74 -70v-86h81v-73h-250v73h83v369h-83v73h241v-71h-72v-194l199 194h-70v71h228v-73
h-60z" />
    <glyph glyph-name="lacute.sc" horiz-adv-x="490" 
d="M382 73v97h81v-170h-420v73h82v369h-82v73h254v-73h-86v-369h171zM156 573l-25 28l116 136q23 26 48 26q18 0 31 -13t13 -33q0 -28 -32 -49z" />
    <glyph glyph-name="lcaron.sc" horiz-adv-x="490" 
d="M382 73v97h81v-170h-420v73h82v369h-82v73h254v-73h-86v-369h171zM349 280l-28 21q39 57 39 107q0 16 -6.5 39t-6.5 38q0 23 14 39t38 16t37.5 -16t13.5 -43q0 -96 -101 -201z" />
    <glyph glyph-name="lcommaaccent.sc" horiz-adv-x="490" 
d="M382 73v97h81v-170h-420v73h82v369h-82v73h254v-73h-86v-369h171zM182 -301l-20 27q75 59 79 106q-20 5 -33 20t-13 36q0 23 16.5 39t39.5 16q27 0 44.5 -19t17.5 -53q0 -41 -31.5 -88t-99.5 -84z" />
    <glyph glyph-name="ldot.sc" horiz-adv-x="490" 
d="M382 73v97h81v-170h-420v73h82v369h-82v73h254v-73h-86v-369h171zM412 233q-26 0 -44.5 19t-18.5 46q0 26 19 45t45 19t45 -19t19 -45q0 -27 -19.5 -46t-45.5 -19z" />
    <glyph glyph-name="lslash.sc" horiz-adv-x="494" 
d="M385 73v97h81v-170h-420v73h82v121l-78 -38l-32 62l110 54v170h-82v73h254v-73h-86v-128l114 56l30 -62l-144 -71v-164h171z" />
    <glyph glyph-name="nacute.sc" horiz-adv-x="661" 
d="M309 579l-25 28l116 136q23 26 48 26q18 0 31 -13t13 -33q0 -28 -32 -49zM198 515l267 -348v275h-81v73h246v-73h-83v-445h-57l-283 372v-296h79v-73h-244v73h82v369h-82v73h156z" />
    <glyph glyph-name="ncaron.sc" horiz-adv-x="661" 
d="M456 779l38 -44l-164 -159l-164 159l38 44l126 -94zM198 515l267 -348v275h-81v73h246v-73h-83v-445h-57l-283 372v-296h79v-73h-244v73h82v369h-82v73h156z" />
    <glyph glyph-name="ncommaaccent.sc" horiz-adv-x="661" 
d="M260 -301l-20 27q75 59 79 106q-20 5 -33 20t-13 36q0 23 16.5 39t39.5 16q27 0 44.5 -19t17.5 -53q0 -41 -31.5 -88t-99.5 -84zM198 515l267 -348v275h-81v73h246v-73h-83v-445h-57l-283 372v-296h79v-73h-244v73h82v369h-82v73h156z" />
    <glyph glyph-name="ntilde.sc" horiz-adv-x="661" 
d="M198 515l267 -348v275h-81v73h246v-73h-83v-445h-57l-283 372v-296h79v-73h-244v73h82v369h-82v73h156zM407 589q-46 0 -89 37q-34 30 -55 30q-35 0 -48 -61l-63 15q6 58 36.5 94.5t69.5 36.5q47 0 88 -37q36 -30 55 -30q36 0 49 61l62 -15q-5 -58 -35.5 -94.5
t-69.5 -36.5z" />
    <glyph glyph-name="oacute.sc" horiz-adv-x="617" 
d="M309 529q118 0 192.5 -77.5t74.5 -191.5q0 -116 -74.5 -193.5t-193.5 -77.5t-193 77.5t-74 193.5q0 114 74.5 191.5t193.5 77.5zM308 67q79 0 129.5 53t50.5 139q0 84 -50.5 137.5t-128.5 53.5q-79 0 -129 -53t-50 -138q0 -86 50.5 -139t127.5 -53zM287 579l-25 28
l116 136q23 26 48 26q18 0 31 -13t13 -33q0 -28 -32 -49z" />
    <glyph glyph-name="obreve.sc" horiz-adv-x="617" 
d="M309 529q118 0 192.5 -77.5t74.5 -191.5q0 -116 -74.5 -193.5t-193.5 -77.5t-193 77.5t-74 193.5q0 114 74.5 191.5t193.5 77.5zM308 67q79 0 129.5 53t50.5 139q0 84 -50.5 137.5t-128.5 53.5q-79 0 -129 -53t-50 -138q0 -86 50.5 -139t127.5 -53zM308 588
q-58 0 -103.5 39t-65.5 113l57 23q18 -46 48 -70t64 -24q74 0 113 94l57 -23q-20 -74 -65.5 -113t-104.5 -39z" />
    <glyph glyph-name="ocircumflex.sc" horiz-adv-x="617" 
d="M183 579l-38 43l164 160l164 -160l-38 -43l-126 94zM309 529q118 0 192.5 -77.5t74.5 -191.5q0 -116 -74.5 -193.5t-193.5 -77.5t-193 77.5t-74 193.5q0 114 74.5 191.5t193.5 77.5zM308 67q79 0 129.5 53t50.5 139q0 84 -50.5 137.5t-128.5 53.5q-79 0 -129 -53
t-50 -138q0 -86 50.5 -139t127.5 -53z" />
    <glyph glyph-name="odieresis.sc" horiz-adv-x="617" 
d="M403 594q-26 0 -44.5 18.5t-18.5 45.5q0 26 19 44.5t45 18.5t44.5 -18.5t18.5 -44.5q0 -27 -19 -45.5t-45 -18.5zM215 594q-26 0 -44.5 18.5t-18.5 45.5q0 26 19 44.5t45 18.5t44.5 -18.5t18.5 -44.5q0 -27 -19 -45.5t-45 -18.5zM309 529q118 0 192.5 -77.5t74.5 -191.5
q0 -116 -74.5 -193.5t-193.5 -77.5t-193 77.5t-74 193.5q0 114 74.5 191.5t193.5 77.5zM308 67q79 0 129.5 53t50.5 139q0 84 -50.5 137.5t-128.5 53.5q-79 0 -129 -53t-50 -138q0 -86 50.5 -139t127.5 -53z" />
    <glyph glyph-name="oe.sc" horiz-adv-x="769" 
d="M376 73v369h-45q-95 0 -148.5 -49.5t-53.5 -134.5q0 -86 53.5 -135.5t149.5 -49.5h44zM341 515h374v-164h-80v93h-173v-151h159v-70h-159v-151h174v90h80v-162h-381q-136 0 -214.5 69.5t-78.5 187.5t79 188t220 70z" />
    <glyph glyph-name="ograve.sc" horiz-adv-x="617" 
d="M309 529q118 0 192.5 -77.5t74.5 -191.5q0 -116 -74.5 -193.5t-193.5 -77.5t-193 77.5t-74 193.5q0 114 74.5 191.5t193.5 77.5zM308 67q79 0 129.5 53t50.5 139q0 84 -50.5 137.5t-128.5 53.5q-79 0 -129 -53t-50 -138q0 -86 50.5 -139t127.5 -53zM331 579l-150 95
q-33 22 -33 49q0 20 13 33t31 13q25 0 48 -26l116 -136z" />
    <glyph glyph-name="ohungarumlaut.sc" horiz-adv-x="617" 
d="M309 529q118 0 192.5 -77.5t74.5 -191.5q0 -116 -74.5 -193.5t-193.5 -77.5t-193 77.5t-74 193.5q0 114 74.5 191.5t193.5 77.5zM308 67q79 0 129.5 53t50.5 139q0 84 -50.5 137.5t-128.5 53.5q-79 0 -129 -53t-50 -138q0 -86 50.5 -139t127.5 -53zM177 581l-20 29
l138 132q25 24 48 24q19 0 32 -13t13 -32q0 -31 -41 -52zM379 583l-17 30l152 129q24 21 46 21q19 0 31 -13t12 -32q0 -32 -42 -52z" />
    <glyph glyph-name="omacron.sc" horiz-adv-x="617" 
d="M309 529q118 0 192.5 -77.5t74.5 -191.5q0 -116 -74.5 -193.5t-193.5 -77.5t-193 77.5t-74 193.5q0 114 74.5 191.5t193.5 77.5zM308 67q79 0 129.5 53t50.5 139q0 84 -50.5 137.5t-128.5 53.5q-79 0 -129 -53t-50 -138q0 -86 50.5 -139t127.5 -53zM151 611v75h316v-75
h-316z" />
    <glyph glyph-name="oslash.sc" horiz-adv-x="620" 
d="M309 -11q-85 0 -152 43l-60 -69l-57 49l62 69q-60 74 -60 179q0 114 74.5 191.5t193.5 77.5q88 0 155 -46l63 73l57 -50l-67 -73q59 -75 59 -173q0 -116 -74 -193.5t-194 -77.5zM131 259q0 -69 34 -119l247 279q-45 31 -102 31q-79 0 -129 -53t-50 -138zM309 67
q79 0 129.5 53t50.5 139q0 66 -33 115l-247 -278q43 -29 100 -29z" />
    <glyph glyph-name="oslashacute.sc" horiz-adv-x="620" 
d="M309 -11q-85 0 -152 43l-60 -69l-57 49l62 69q-60 74 -60 179q0 114 74.5 191.5t193.5 77.5q88 0 155 -46l63 73l57 -50l-67 -73q59 -75 59 -173q0 -116 -74 -193.5t-194 -77.5zM131 259q0 -69 34 -119l247 279q-45 31 -102 31q-79 0 -129 -53t-50 -138zM309 67
q79 0 129.5 53t50.5 139q0 66 -33 115l-247 -278q43 -29 100 -29zM291 579l-25 28l116 136q23 26 48 26q18 0 31 -13t13 -33q0 -28 -32 -49z" />
    <glyph glyph-name="otilde.sc" horiz-adv-x="617" 
d="M309 529q118 0 192.5 -77.5t74.5 -191.5q0 -116 -74.5 -193.5t-193.5 -77.5t-193 77.5t-74 193.5q0 114 74.5 191.5t193.5 77.5zM308 67q79 0 129.5 53t50.5 139q0 84 -50.5 137.5t-128.5 53.5q-79 0 -129 -53t-50 -138q0 -86 50.5 -139t127.5 -53zM386 589q-46 0 -89 37
q-34 30 -55 30q-35 0 -48 -61l-63 15q6 58 36.5 94.5t69.5 36.5q47 0 88 -37q36 -30 55 -30q36 0 49 61l62 -15q-5 -58 -35.5 -94.5t-69.5 -36.5z" />
    <glyph glyph-name="racute.sc" horiz-adv-x="556" 
d="M251 579l-25 28l116 136q23 26 48 26q18 0 31 -13t13 -33q0 -28 -32 -49zM277 442h-66v-171q45 -3 68 -3q54 0 86.5 24t32.5 66q0 40 -32 62t-89 22zM211 197v-124h79v-73h-247v73h82v369h-82v73h239q93 0 148 -40.5t55 -115.5q0 -48 -27 -84.5t-72 -55.5l81 -146h74v-73
h-137l-102 198q-18 -2 -37 -2q-38 0 -54 1z" />
    <glyph glyph-name="rcaron.sc" horiz-adv-x="556" 
d="M398 779l38 -44l-164 -159l-164 159l38 44l126 -94zM277 442h-66v-171q45 -3 68 -3q54 0 86.5 24t32.5 66q0 40 -32 62t-89 22zM211 197v-124h79v-73h-247v73h82v369h-82v73h239q93 0 148 -40.5t55 -115.5q0 -48 -27 -84.5t-72 -55.5l81 -146h74v-73h-137l-102 198
q-18 -2 -37 -2q-38 0 -54 1z" />
    <glyph glyph-name="rcommaaccent.sc" horiz-adv-x="556" 
d="M216 -301l-20 27q75 59 79 106q-20 5 -33 20t-13 36q0 23 16.5 39t39.5 16q27 0 44.5 -19t17.5 -53q0 -41 -31.5 -88t-99.5 -84zM277 442h-66v-171q45 -3 68 -3q54 0 86.5 24t32.5 66q0 40 -32 62t-89 22zM211 197v-124h79v-73h-247v73h82v369h-82v73h239q93 0 148 -40.5
t55 -115.5q0 -48 -27 -84.5t-72 -55.5l81 -146h74v-73h-137l-102 198q-18 -2 -37 -2q-38 0 -54 1z" />
    <glyph glyph-name="sacute.sc" horiz-adv-x="488" 
d="M229 579l-25 28l116 136q23 26 48 26q18 0 31 -13t13 -33q0 -28 -32 -49zM320 406q0 17 9 30q-29 21 -84 21q-43 0 -69 -18.5t-26 -50.5q0 -29 25.5 -46t71.5 -34q8 -3 12 -4q37 -13 55.5 -20t47 -22t42.5 -29.5t25 -38t11 -51.5q0 -74 -54 -114t-143 -40
q-82 0 -139.5 37t-57.5 87q0 29 15 45.5t41 16.5t42.5 -15.5t16.5 -37.5q0 -18 -10 -35q33 -26 95 -26q51 0 80 19t29 56q0 16 -9 29.5t-28 24t-34 16.5t-40 14q-38 13 -57.5 20.5t-47.5 22t-41.5 29t-24 37.5t-10.5 51q0 66 51.5 107.5t136.5 41.5q78 0 130 -34t52 -84
q0 -26 -15 -42t-38 -16q-28 0 -44 15.5t-16 37.5z" />
    <glyph glyph-name="scaron.sc" horiz-adv-x="488" 
d="M376 779l38 -44l-164 -159l-164 159l38 44l126 -94zM320 406q0 17 9 30q-29 21 -84 21q-43 0 -69 -18.5t-26 -50.5q0 -29 25.5 -46t71.5 -34q8 -3 12 -4q37 -13 55.5 -20t47 -22t42.5 -29.5t25 -38t11 -51.5q0 -74 -54 -114t-143 -40q-82 0 -139.5 37t-57.5 87
q0 29 15 45.5t41 16.5t42.5 -15.5t16.5 -37.5q0 -18 -10 -35q33 -26 95 -26q51 0 80 19t29 56q0 16 -9 29.5t-28 24t-34 16.5t-40 14q-38 13 -57.5 20.5t-47.5 22t-41.5 29t-24 37.5t-10.5 51q0 66 51.5 107.5t136.5 41.5q78 0 130 -34t52 -84q0 -26 -15 -42t-38 -16
q-28 0 -44 15.5t-16 37.5z" />
    <glyph glyph-name="scedilla.sc" horiz-adv-x="493" 
d="M253 -200q-63 0 -117 31l16 33q45 -20 87 -20q41 0 41 28t-55 28q-3 0 -9 -0.5t-7 -0.5l-19 19l26 73q-72 7 -119.5 42t-47.5 80q0 29 15 45.5t41 16.5t42.5 -15.5t16.5 -37.5q0 -18 -10 -35q33 -26 95 -26q51 0 80 19t29 56q0 16 -9 29.5t-28 24t-34 16.5t-40 14
q-38 13 -57.5 20.5t-47.5 22t-41.5 29t-24 37.5t-10.5 51q0 66 51.5 107.5t136.5 41.5q78 0 130 -34t52 -84q0 -26 -15 -42t-38 -16q-28 0 -44 15.5t-16 37.5q0 17 9 30q-29 21 -84 21q-43 0 -69 -18.5t-26 -50.5q0 -29 25.5 -46t71.5 -34q8 -3 12 -4q37 -13 55.5 -20
t47 -22t42.5 -29.5t25 -38t11 -51.5q0 -72 -50.5 -111.5t-134.5 -42.5l1 -35q46 -4 72.5 -25t26.5 -53q0 -31 -28.5 -53.5t-76.5 -22.5z" />
    <glyph glyph-name="scommaaccent.sc" horiz-adv-x="488" 
d="M181 -301l-20 27q75 59 79 106q-20 5 -33 20t-13 36q0 23 16.5 39t39.5 16q27 0 44.5 -19t17.5 -53q0 -41 -31.5 -88t-99.5 -84zM320 406q0 17 9 30q-29 21 -84 21q-43 0 -69 -18.5t-26 -50.5q0 -29 25.5 -46t71.5 -34q8 -3 12 -4q37 -13 55.5 -20t47 -22t42.5 -29.5
t25 -38t11 -51.5q0 -74 -54 -114t-143 -40q-82 0 -139.5 37t-57.5 87q0 29 15 45.5t41 16.5t42.5 -15.5t16.5 -37.5q0 -18 -10 -35q33 -26 95 -26q51 0 80 19t29 56q0 16 -9 29.5t-28 24t-34 16.5t-40 14q-38 13 -57.5 20.5t-47.5 22t-41.5 29t-24 37.5t-10.5 51
q0 66 51.5 107.5t136.5 41.5q78 0 130 -34t52 -84q0 -26 -15 -42t-38 -16q-28 0 -44 15.5t-16 37.5z" />
    <glyph glyph-name="tcaron.sc" horiz-adv-x="536" 
d="M141 0v73h85v371h-115v-100h-80v171h476v-171h-80v100h-115v-371h85v-73h-256zM392 779l38 -44l-164 -159l-164 159l38 44l126 -94z" />
    <glyph glyph-name="tcommaaccent.sc" horiz-adv-x="536" 
d="M141 0v73h85v371h-115v-100h-80v171h476v-171h-80v100h-115v-371h85v-73h-256zM197 -301l-20 27q75 59 79 106q-20 5 -33 20t-13 36q0 23 16.5 39t39.5 16q27 0 44.5 -19t17.5 -53q0 -41 -31.5 -88t-99.5 -84z" />
    <glyph glyph-name="thorn.sc" horiz-adv-x="500" 
d="M212 399q28 1 74 1q82 0 132.5 -35.5t50.5 -103.5q0 -69 -51.5 -105t-133.5 -36q-44 0 -72 1v-49h84v-72h-253v73h82v369h-82v73h253v-71h-84v-45zM212 189q21 -1 77 -1q42 0 69 19t27 52q0 34 -27 52.5t-69 18.5q-53 0 -77 -1v-140z" />
    <glyph glyph-name="uacute.sc" horiz-adv-x="618" 
d="M287 579l-25 28l116 136q23 26 48 26q18 0 31 -13t13 -33q0 -28 -32 -49zM191 442v-249q0 -62 31.5 -96.5t87.5 -34.5t87.5 33.5t31.5 95.5v251h-81v73h244v-73h-78v-246q0 -101 -55 -154.5t-150 -53.5q-96 0 -150 52.5t-54 152.5v249h-78v73h244v-73h-80z" />
    <glyph glyph-name="ubreve.sc" horiz-adv-x="618" 
d="M191 442v-249q0 -62 31.5 -96.5t87.5 -34.5t87.5 33.5t31.5 95.5v251h-81v73h244v-73h-78v-246q0 -101 -55 -154.5t-150 -53.5q-96 0 -150 52.5t-54 152.5v249h-78v73h244v-73h-80zM307 588q-58 0 -103.5 39t-65.5 113l57 23q18 -46 48 -70t64 -24q74 0 113 94l57 -23
q-20 -74 -65.5 -113t-104.5 -39z" />
    <glyph glyph-name="ucircumflex.sc" horiz-adv-x="618" 
d="M183 579l-38 43l164 160l164 -160l-38 -43l-126 94zM191 442v-249q0 -62 31.5 -96.5t87.5 -34.5t87.5 33.5t31.5 95.5v251h-81v73h244v-73h-78v-246q0 -101 -55 -154.5t-150 -53.5q-96 0 -150 52.5t-54 152.5v249h-78v73h244v-73h-80z" />
    <glyph glyph-name="udieresis.sc" horiz-adv-x="618" 
d="M402 594q-26 0 -44.5 18.5t-18.5 45.5q0 26 19 44.5t45 18.5t44.5 -18.5t18.5 -44.5q0 -27 -19 -45.5t-45 -18.5zM214 594q-26 0 -44.5 18.5t-18.5 45.5q0 26 19 44.5t45 18.5t44.5 -18.5t18.5 -44.5q0 -27 -19 -45.5t-45 -18.5zM191 442v-249q0 -62 31.5 -96.5
t87.5 -34.5t87.5 33.5t31.5 95.5v251h-81v73h244v-73h-78v-246q0 -101 -55 -154.5t-150 -53.5q-96 0 -150 52.5t-54 152.5v249h-78v73h244v-73h-80z" />
    <glyph glyph-name="ugrave.sc" horiz-adv-x="618" 
d="M330 579l-150 95q-33 22 -33 49q0 20 13 33t31 13q25 0 48 -26l116 -136zM191 442v-249q0 -62 31.5 -96.5t87.5 -34.5t87.5 33.5t31.5 95.5v251h-81v73h244v-73h-78v-246q0 -101 -55 -154.5t-150 -53.5q-96 0 -150 52.5t-54 152.5v249h-78v73h244v-73h-80z" />
    <glyph glyph-name="uhungarumlaut.sc" horiz-adv-x="618" 
d="M176 581l-20 29l138 132q26 24 48 24q19 0 32 -13t13 -32q0 -31 -41 -52zM378 583l-17 30l152 129q24 21 46 21q19 0 31 -13t12 -32q0 -32 -42 -52zM191 442v-249q0 -62 31.5 -96.5t87.5 -34.5t87.5 33.5t31.5 95.5v251h-81v73h244v-73h-78v-246q0 -101 -55 -154.5
t-150 -53.5q-96 0 -150 52.5t-54 152.5v249h-78v73h244v-73h-80z" />
    <glyph glyph-name="umacron.sc" horiz-adv-x="618" 
d="M151 611v75h316v-75h-316zM191 442v-249q0 -62 31.5 -96.5t87.5 -34.5t87.5 33.5t31.5 95.5v251h-81v73h244v-73h-78v-246q0 -101 -55 -154.5t-150 -53.5q-96 0 -150 52.5t-54 152.5v249h-78v73h244v-73h-80z" />
    <glyph glyph-name="uogonek.sc" horiz-adv-x="618" 
d="M191 442v-249q0 -62 31.5 -96.5t87.5 -34.5t87.5 33.5t31.5 95.5v251h-81v73h244v-73h-78v-246q0 -94 -48.5 -147t-132.5 -60q-45 -32 -45 -72q0 -50 54 -50q37 0 75 19l-4 -65q-37 -22 -90 -22t-81 26.5t-28 70.5q0 55 48 96q-75 11 -116 62.5t-41 138.5v249h-78v73h244
v-73h-80z" />
    <glyph glyph-name="uring.sc" horiz-adv-x="618" 
d="M308 572q-50 0 -85 34.5t-35 84.5q0 49 35 83.5t85 34.5t85 -34.5t35 -83.5q0 -50 -35 -84.5t-85 -34.5zM308 631q24 0 39 17.5t15 42.5t-15 42t-39 17q-23 0 -38.5 -17.5t-15.5 -41.5q0 -25 15.5 -42.5t38.5 -17.5zM191 442v-249q0 -62 31.5 -96.5t87.5 -34.5t87.5 33.5
t31.5 95.5v251h-81v73h244v-73h-78v-246q0 -101 -55 -154.5t-150 -53.5q-96 0 -150 52.5t-54 152.5v249h-78v73h244v-73h-80z" />
    <glyph glyph-name="wacute.sc" horiz-adv-x="798" 
d="M219 -9l-139 451h-68v73h238v-73h-78l89 -306l120 314h42l120 -314l90 306h-80v73h233v-73h-68l-139 -451h-60l-120 314l-121 -314h-59zM377 579l-25 28l116 136q23 26 48 26q18 0 31 -13t13 -33q0 -28 -32 -49z" />
    <glyph glyph-name="wcircumflex.sc" horiz-adv-x="798" 
d="M273 579l-38 43l164 160l164 -160l-38 -43l-126 94zM219 -9l-139 451h-68v73h238v-73h-78l89 -306l120 314h42l120 -314l90 306h-80v73h233v-73h-68l-139 -451h-60l-120 314l-121 -314h-59z" />
    <glyph glyph-name="wdieresis.sc" horiz-adv-x="798" 
d="M493 594q-26 0 -44.5 18.5t-18.5 45.5q0 26 19 44.5t45 18.5t44.5 -18.5t18.5 -44.5q0 -27 -19 -45.5t-45 -18.5zM305 594q-26 0 -44.5 18.5t-18.5 45.5q0 26 19 44.5t45 18.5t44.5 -18.5t18.5 -44.5q0 -27 -19 -45.5t-45 -18.5zM219 -9l-139 451h-68v73h238v-73h-78
l89 -306l120 314h42l120 -314l90 306h-80v73h233v-73h-68l-139 -451h-60l-120 314l-121 -314h-59z" />
    <glyph glyph-name="wgrave.sc" horiz-adv-x="798" 
d="M219 -9l-139 451h-68v73h238v-73h-78l89 -306l120 314h42l120 -314l90 306h-80v73h233v-73h-68l-139 -451h-60l-120 314l-121 -314h-59zM421 579l-150 95q-33 22 -33 49q0 20 13 33t31 13q25 0 48 -26l116 -136z" />
    <glyph glyph-name="yacute.sc" horiz-adv-x="535" 
d="M245 579l-25 28l116 136q23 26 48 26q18 0 31 -13t13 -33q0 -28 -32 -49zM529 515v-73h-61l-158 -251v-118h85v-73h-255v73h84v118l-157 251h-61v73h226v-71h-73l111 -185l111 185h-75v71h223z" />
    <glyph glyph-name="ycircumflex.sc" horiz-adv-x="535" 
d="M141 579l-38 43l164 160l164 -160l-38 -43l-126 94zM529 515v-73h-61l-158 -251v-118h85v-73h-255v73h84v118l-157 251h-61v73h226v-71h-73l111 -185l111 185h-75v71h223z" />
    <glyph glyph-name="ydieresis.sc" horiz-adv-x="535" 
d="M361 594q-26 0 -44.5 18.5t-18.5 45.5q0 26 19 44.5t45 18.5t44.5 -18.5t18.5 -44.5q0 -27 -19 -45.5t-45 -18.5zM173 594q-26 0 -44.5 18.5t-18.5 45.5q0 26 19 44.5t45 18.5t44.5 -18.5t18.5 -44.5q0 -27 -19 -45.5t-45 -18.5zM529 515v-73h-61l-158 -251v-118h85v-73
h-255v73h84v118l-157 251h-61v73h226v-71h-73l111 -185l111 185h-75v71h223z" />
    <glyph glyph-name="ygrave.sc" horiz-adv-x="535" 
d="M529 515v-73h-61l-158 -251v-118h85v-73h-255v73h84v118l-157 251h-61v73h226v-71h-73l111 -185l111 185h-75v71h223zM289 579l-150 95q-33 22 -33 49q0 20 13 33t31 13q25 0 48 -26l116 -136z" />
    <glyph glyph-name="zacute.sc" horiz-adv-x="511" 
d="M234 579l-25 28l116 136q23 26 48 26q18 0 31 -13t13 -33q0 -28 -32 -49zM43 0v49l305 396h-217v-97h-75v167h412v-48l-304 -396h230v96h75v-167h-426z" />
    <glyph glyph-name="zcaron.sc" horiz-adv-x="511" 
d="M381 779l38 -44l-164 -159l-164 159l38 44l126 -94zM43 0v49l305 396h-217v-97h-75v167h412v-48l-304 -396h230v96h75v-167h-426z" />
    <glyph glyph-name="zdotaccent.sc" horiz-adv-x="511" 
d="M43 0v49l305 396h-217v-97h-75v167h412v-48l-304 -396h230v96h75v-167h-426zM255 587q-26 0 -44.5 19t-18.5 46q0 26 19 45t45 19t45 -19t19 -45q0 -27 -19.5 -46t-45.5 -19z" />
    <glyph glyph-name="zero.lin" horiz-adv-x="647" 
d="M322 -12q-113 0 -190 95.5t-77 244.5q0 152 77.5 247t192.5 95q112 0 189.5 -95t77.5 -245q0 -151 -77.5 -246.5t-192.5 -95.5zM323 72q80 0 128 71t48 185t-48 186t-128 72q-79 0 -127 -71.5t-48 -184.5q0 -114 48 -186t127 -72z" />
    <glyph glyph-name="one.lin" horiz-adv-x="428" 
d="M54 0v80h126v484l-117 -30l-21 79l184 48h45v-581h124v-80h-341z" />
    <glyph glyph-name="two.lin" horiz-adv-x="570" 
d="M61 507q0 36 20 68q26 42 79 68.5t124 26.5q90 0 153.5 -52.5t63.5 -134.5q0 -38 -12 -69.5t-38 -58t-49 -44.5t-63 -44q-142 -93 -186 -190h282v106h79v-183h-446l-26 41q23 67 67.5 125.5t82 90t91.5 68.5q66 46 95 78.5t29 80.5q0 45 -37.5 75.5t-91.5 30.5
q-43 0 -77 -14.5t-47 -34.5q32 -15 32 -52q0 -25 -17.5 -42t-42.5 -17q-31 0 -48 21.5t-17 55.5z" />
    <glyph glyph-name="three.lin" horiz-adv-x="545" 
d="M260 69q63 0 104.5 31.5t41.5 78.5q0 71 -73 101q-46 20 -114 20h-34v80h37q67 0 111 26q57 32 57 91q0 44 -36 68t-92 24q-73 0 -107 -31q20 -16 20 -41q0 -23 -17.5 -40.5t-41.5 -17.5t-42.5 20t-18.5 51q0 28 21 58q25 35 73.5 57.5t116.5 22.5q92 0 154.5 -47
t62.5 -122q0 -84 -80 -131q-29 -18 -61 -24q33 -8 62 -23q94 -49 94 -145q0 -82 -68.5 -134t-170.5 -52q-65 0 -120.5 24t-83.5 62q-22 30 -22 62q0 29 17 49t44 20q25 0 42 -17t17 -41q0 -27 -20 -42q40 -38 127 -38z" />
    <glyph glyph-name="four.lin" horiz-adv-x="566" 
d="M223 0v75h114v116h-302l-20 41l351 446l66 -51l-288 -363h193v125l91 37v-161h107v-75h-107v-113h84v-77h-289z" />
    <glyph glyph-name="five.lin" horiz-adv-x="530" 
d="M250 68q69 0 109.5 40.5t40.5 103.5q0 55 -39.5 92t-109.5 37q-74 0 -134 -30l-41 21l32 326h342v-85h-269l-16 -165q44 14 98 14q96 0 161 -57t65 -152q0 -101 -67.5 -163t-168.5 -62q-114 0 -172 56q-33 32 -33 69q0 27 17 45.5t44 18.5q26 0 43 -17.5t17 -41.5
q0 -19 -9 -31q31 -19 90 -19z" />
    <glyph glyph-name="six.lin" horiz-adv-x="580" 
d="M505 552q0 -30 -17 -46t-42 -16q-27 0 -43.5 17.5t-16.5 39.5q0 16 7 28q-27 15 -66 15q-77 0 -130 -74t-56 -187q12 17 30 30q61 50 139 50q99 0 163 -59t64 -148q0 -90 -67 -152t-167 -62q-105 0 -173 68q-77 77 -77 238q0 181 80 278.5t195 97.5q83 0 134 -40
q43 -32 43 -78zM304 67q60 0 100.5 38t40.5 94q0 58 -41 94.5t-106 36.5q-62 0 -104.5 -37t-42.5 -91q0 -56 45 -95q47 -40 108 -40z" />
    <glyph glyph-name="seven.lin" horiz-adv-x="504" 
d="M105 0l268 581h-259v-115h-82v192h429l20 -44l-278 -614h-98z" />
    <glyph glyph-name="eight.lin" horiz-adv-x="568" 
d="M283 -10q-107 0 -172.5 53.5t-65.5 135.5q0 56 37 101.5t94 60.5q-53 18 -85 58t-32 88q0 81 64 131t160 50q97 0 161 -50t64 -131q0 -48 -32 -88t-86 -58q57 -15 95 -60.5t38 -101.5q0 -82 -66.5 -135.5t-173.5 -53.5zM283 375q54 0 92 31t38 76q0 48 -36.5 77.5
t-93.5 29.5t-93 -29.5t-36 -77.5q0 -45 38 -76t91 -31zM283 70q64 0 105 33t41 82q0 48 -42 82.5t-104 34.5q-61 0 -103 -34.5t-42 -82.5q0 -49 40.5 -82t104.5 -33z" />
    <glyph glyph-name="nine.lin" horiz-adv-x="580" 
d="M73 106q0 30 17 46t42 16q27 0 43 -17t16 -40q0 -17 -8 -30q26 -14 72 -14q76 0 129 70.5t55 187.5q-28 -36 -73.5 -57.5t-94.5 -21.5q-100 0 -164 58.5t-64 149.5q0 92 67 154t167 62q105 0 172 -67q78 -79 78 -241q0 -182 -77.5 -278t-196.5 -96q-80 0 -136 40
q-44 33 -44 78zM282 325q62 0 104.5 36.5t42.5 90.5q0 57 -44 98q-46 41 -109 41q-59 0 -100 -38.5t-41 -95.5q0 -60 41 -96t106 -36z" />
    <glyph glyph-name="bullet.alt" horiz-adv-x="635" 
d="M317 -48q-121 0 -195 77.5t-74 190.5q0 112 75 190t194 78q121 0 196 -77.5t75 -190.5q0 -111 -75.5 -189.5t-195.5 -78.5z" />
    <glyph glyph-name="hyphen.lin" horiz-adv-x="334" 
d="M38 290v88h258v-88h-258z" />
    <glyph glyph-name="endash.lin" horiz-adv-x="511" 
d="M22 293v82h467v-82h-467z" />
    <glyph glyph-name="emdash.lin" horiz-adv-x="797" 
d="M22 293v82h753v-82h-753z" />
    <glyph glyph-name="parenleft.lin" horiz-adv-x="396" 
d="M365 -167q-120 66 -207.5 194.5t-87.5 293.5q0 112 46 213.5t109.5 166.5t139.5 107l42 -63q-109 -68 -176 -174t-67 -250t67 -250.5t176 -174.5z" />
    <glyph glyph-name="parenright.lin" horiz-adv-x="396" 
d="M31 -167l-42 63q109 68 176 174.5t67 250.5t-67 250t-176 174l42 63q76 -42 139.5 -107t109.5 -166.5t46 -213.5q0 -165 -87.5 -293.5t-207.5 -194.5z" />
    <glyph glyph-name="bracketleft.lin" horiz-adv-x="365" 
d="M97 -140v932h242v-76h-161v-779h161v-77h-242z" />
    <glyph glyph-name="bracketright.lin" horiz-adv-x="365" 
d="M26 -140v77h161v779h-161v76h242v-932h-242z" />
    <glyph glyph-name="braceleft.lin" horiz-adv-x="364" 
d="M315 -157q-123 3 -184.5 46t-61.5 113q0 41 19.5 70.5t60.5 68.5q45 43 45 74q0 32 -31.5 52t-84.5 20h-23v74h23q53 0 84.5 20t31.5 52q0 31 -45 74q-41 39 -60.5 68.5t-19.5 70.5q0 70 61.5 113t184.5 46v-67q-86 -5 -124.5 -31t-38.5 -62q0 -31 60 -93q71 -71 71 -121
q0 -38 -30.5 -67t-88.5 -40q58 -11 88.5 -40t30.5 -67q0 -50 -71 -121q-60 -62 -60 -93q0 -36 38.5 -62t124.5 -31v-67z" />
    <glyph glyph-name="braceright.lin" horiz-adv-x="364" 
d="M49 -157v67q86 5 124.5 31t38.5 62q0 31 -60 93q-71 71 -71 121q0 38 30.5 67t88.5 40q-58 11 -88.5 40t-30.5 67q0 50 71 121q60 62 60 93q0 36 -38.5 62t-124.5 31v67q123 -3 184.5 -46t61.5 -113q0 -41 -19.5 -70.5t-60.5 -68.5q-45 -43 -45 -74q0 -32 31.5 -52
t84.5 -20h23v-74h-23q-53 0 -84.5 -20t-31.5 -52q0 -31 45 -74q41 -39 60.5 -68.5t19.5 -70.5q0 -70 -61.5 -113t-184.5 -46z" />
    <glyph glyph-name="registered.alt" horiz-adv-x="611" 
d="M300 -8q-111 0 -187 77t-76 188t76 188.5t187 77.5t186.5 -77t75.5 -189q0 -110 -76 -187.5t-186 -77.5zM300 32q90 0 153 66t63 160q0 95 -62.5 160t-153.5 65q-92 0 -154.5 -65t-62.5 -160t62.5 -160.5t154.5 -65.5zM302 131h-106v37h32v190h-32v36h102q46 0 74 -20.5
t28 -58.5q0 -51 -52 -72l45 -75h30v-37h-58l-56 102h-41v-65h34v-37zM296 358h-28v-90h28q28 0 44.5 12t16.5 34q0 44 -61 44z" />
    <glyph glyph-name="copyright.lin" horiz-adv-x="782" 
d="M391 -12q-140 0 -237 99.5t-97 241.5t97 241.5t237 99.5t237 -99.5t97 -241.5t-97 -241.5t-237 -99.5zM391 31q122 0 204 87t82 211t-82 211t-204 87t-204 -87t-82 -211t82 -211t204 -87zM399 452q-47 0 -80 -33.5t-33 -83.5q0 -49 32 -82.5t80 -33.5q58 0 98 42l36 -38
q-47 -58 -134 -58q-71 0 -121 48t-50 122q0 72 51.5 121.5t121.5 49.5q56 0 93 -26t37 -57q0 -17 -11.5 -29t-26.5 -12t-25.5 10.5t-10.5 25.5q0 13 6 15q-17 19 -63 19z" />
    <glyph glyph-name="published.lin" horiz-adv-x="782" 
d="M391 -12q-140 0 -237 99.5t-97 241.5t97 241.5t237 99.5t237 -99.5t97 -241.5t-97 -241.5t-237 -99.5zM391 31q122 0 204 87t82 211t-82 211t-204 87t-204 -87t-82 -211t82 -211t204 -87zM402 274h-33v-60h41v-50h-134v50h37v229h-37v50h132q54 0 89 -29.5t35 -78.5
q0 -55 -35 -83t-95 -28zM406 320q32 0 50 17.5t18 47.5q0 26 -19 42t-50 16h-36v-122q1 0 6 -0.5t13 -0.5h18z" />
    <glyph glyph-name="registered.lin" horiz-adv-x="782" 
d="M391 -12q-140 0 -237 99.5t-97 241.5t97 241.5t237 99.5t237 -99.5t97 -241.5t-97 -241.5t-237 -99.5zM391 31q122 0 204 87t82 211t-82 211t-204 87t-204 -87t-82 -211t82 -211t204 -87zM356 297v-75h41v-50h-135v50h38v229h-38v50h128q58 0 93.5 -25.5t35.5 -73.5
q0 -67 -62 -90l51 -90h37v-50h-74l-66 125h-49zM356 343h36q31 0 50 14t19 40q0 54 -70 54h-35v-108z" />
    <glyph glyph-name="dollar.lin" horiz-adv-x="585" 
d="M288 -103l-73 6l9 102q-79 13 -130 52t-51 83q0 30 18 49.5t45 19.5q24 0 40.5 -16.5t16.5 -38.5q0 -21 -14 -42q27 -24 87 -33l20 225q-86 26 -134.5 66t-48.5 112q0 74 58 123t154 53l8 91l73 -6l-9 -90q72 -11 118 -46.5t46 -80.5q0 -29 -16 -46.5t-41 -17.5
q-27 0 -44 17t-17 41q0 18 11 35q-20 16 -69 24l-19 -210q99 -28 152 -68t53 -115q0 -87 -65 -135.5t-170 -50.5zM442 181q0 40 -29.5 63.5t-94.5 41.5l-20 -211q65 2 104.5 30.5t39.5 75.5zM163 486q0 -37 26 -60.5t76 -39.5l16 196q-52 -4 -85 -31t-33 -65z" />
    <glyph glyph-name="sterling.lin" horiz-adv-x="578" 
d="M28 38q0 30 28 49.5t91 14.5q38 44 38 122q0 12 -1 18h-121v74h107l-9 26q-31 86 -31 133q0 82 59.5 138t145.5 56q75 0 127 -37t52 -88q0 -27 -17 -47t-44 -20q-26 0 -42.5 16.5t-16.5 38.5q0 20 12 37q-23 25 -73 25q-48 0 -83 -34t-35 -85q0 -46 25 -121l13 -38h182
v-74h-170q1 -6 1 -16q0 -86 -39 -122q40 -1 88 -14q68 -21 98 -21q32 0 49 14t36 51l61 -31q-19 -61 -52.5 -87.5t-91.5 -26.5q-47 0 -122 26q-59 20 -116 21q-39 -48 -91 -48q-28 0 -43 13.5t-15 36.5z" />
    <glyph glyph-name="Euro.lin" horiz-adv-x="715" 
d="M38 368v75h100q30 106 109 166.5t184 60.5q95 0 161 -54t66 -118q0 -31 -18 -52t-48 -21q-25 0 -42 17.5t-17 41.5q0 32 25 49q-13 20 -49.5 36.5t-79.5 16.5q-76 0 -128 -38.5t-75 -107.5h229v-71h-244q-2 -14 -2 -42q0 -17 2 -47h244v-71h-228q23 -65 72 -101t120 -36
q102 0 184 81l54 -59q-91 -105 -239 -105q-102 0 -176 58.5t-103 158.5h-101v75h88q-3 21 -3 45q0 14 2 42h-87z" />
    <glyph glyph-name="yen.lin" horiz-adv-x="643" 
d="M187 1v69h89v69h-163v69h163v63h-163v69h118l-149 242h-66v76h233v-76h-66l141 -246l140 246h-70v76h233v-76h-66l-150 -242h119v-69h-163v-63h163v-69h-163v-69h89v-69h-269z" />
    <glyph glyph-name="cent.lin" horiz-adv-x="513" 
d="M198 -16l14 146q-78 21 -124 80t-46 136q0 84 60 148t151 72l10 107l66 -6l-9 -104q64 -11 106.5 -48.5t42.5 -80.5q0 -27 -17.5 -45.5t-41.5 -18.5q-21 0 -36.5 15t-15.5 38q0 21 18 39q-18 24 -66 34l-28 -304h17q77 0 158 47l-6 -78q-68 -41 -161 -41h-12l-13 -142z
M129 345q0 -47 24.5 -84t68.5 -55l26 290q-52 -9 -85.5 -48t-33.5 -103z" />
    <glyph glyph-name="numbersign.lin" horiz-adv-x="602" 
d="M59 401v77h120l28 180h86l-28 -180h118l27 180h86l-28 -180h114v-77h-126l-23 -155h110l-4 -77h-118l-25 -169h-86l25 169h-117l-26 -169h-86l26 169h-112v77h124l23 155h-108zM251 404l-25 -161h124l25 161h-124z" />
    <glyph glyph-name="paragraph.lin" horiz-adv-x="716" 
d="M242 0v81h98v149q-8 -1 -55 -1q-115 0 -183.5 57t-68.5 161q0 96 69.5 153.5t176.5 57.5h396v-81h-80v-496h80v-81h-433zM429 76h77v506h-77v-506z" />
    <glyph glyph-name="section.lin" horiz-adv-x="535" 
d="M124 148q26 0 42 -15t16 -39q0 -9 -4 -20q26 -17 80 -17q50 0 76 15.5t26 40.5q0 24 -27 38.5t-102 35.5q-91 25 -138 55t-47 80q0 78 100 116q-65 33 -65 101q0 51 53 91t142 40q74 0 126 -26q62 -29 62 -80q0 -23 -14.5 -38.5t-38.5 -15.5q-26 0 -42 15t-16 39
q0 15 2 21l-3 2q-26 13 -75 13q-50 0 -76 -15.5t-26 -39.5q0 -25 27 -39.5t102 -34.5q91 -25 138 -55t47 -81q0 -77 -98 -115q63 -34 63 -100q0 -53 -53 -93t-142 -40q-106 0 -159 47q-29 26 -29 59q0 23 15 39t38 16zM267 397l-48 12q-80 -29 -80 -73q0 -25 28.5 -41.5
t100.5 -34.5l46 -12q82 29 82 74q0 24 -29 41t-100 34z" />
    <glyph glyph-name="ordfeminine.lin" horiz-adv-x="349" 
d="M119 462q-36 0 -60 20t-24 54q0 35 28 56t73 21t70 -9v27q0 27 -18 42q-16 12 -46 12q-22 0 -32 -6q3 -6 3 -14q0 -13 -9 -22t-22 -9q-14 0 -22.5 9t-8.5 23q0 25 26.5 44t73.5 19q44 0 72 -18q36 -24 36 -75v-123h40v-46h-92v31q-40 -36 -88 -36zM43 350v51h256v-51
h-256zM136 504q35 0 70 28v42q-28 7 -60 7q-26 0 -40.5 -11t-14.5 -30q0 -17 12 -26.5t33 -9.5z" />
    <glyph glyph-name="ordmasculine.lin" horiz-adv-x="350" 
d="M52 350v51h246v-51h-246zM175 462q-61 0 -98.5 39t-37.5 95t37.5 95t98.5 39t98 -39t37 -95t-37.5 -95t-97.5 -39zM175 508q35 0 57 25t22 63t-22 63t-57 25t-57 -25t-22 -63t22 -63t57 -25z" />
    <glyph glyph-name="degree.lin" horiz-adv-x="305" 
d="M152 465q-56 0 -94 38.5t-38 93.5t38 93.5t94 38.5t93.5 -38.5t37.5 -93.5t-37.5 -93.5t-93.5 -38.5zM152 519q32 0 53 22.5t21 55.5t-21 55.5t-53 22.5t-53 -22.5t-21 -55.5t21 -55.5t53 -22.5z" />
    <glyph glyph-name="percent.lin" horiz-adv-x="654" 
d="M331 135q0 61 42.5 104.5t103.5 43.5t103.5 -43.5t42.5 -104.5t-42.5 -104t-103.5 -43t-103.5 43t-42.5 104zM31 523q0 61 42.5 104t103.5 43t103 -43t42 -104t-42.5 -104.5t-102.5 -43.5q-61 0 -103.5 43.5t-42.5 104.5zM115 -12l-40 28q51 69 232 326q199 280 231 328
l41 -27l-234 -329q-204 -287 -230 -326zM388 135q0 -40 26 -68.5t63 -28.5t62.5 28.5t25.5 68.5t-25.5 68.5t-62.5 28.5t-63 -28.5t-26 -68.5zM88 523q0 -40 26 -68.5t63 -28.5t62.5 28.5t25.5 68.5t-25.5 68.5t-62.5 28.5t-63 -28.5t-26 -68.5z" />
    <glyph glyph-name="perthousand.lin" horiz-adv-x="998" 
d="M331 135q0 61 42.5 104.5t103.5 43.5t103.5 -43.5t42.5 -104.5t-42.5 -104t-103.5 -43t-103.5 43t-42.5 104zM675 135q0 61 42.5 104.5t103.5 43.5t103.5 -43.5t42.5 -104.5t-42.5 -104t-103.5 -43t-103.5 43t-42.5 104zM31 523q0 61 42.5 104t103.5 43t103 -43t42 -104
t-42.5 -104.5t-102.5 -43.5q-61 0 -103.5 43.5t-42.5 104.5zM115 -12l-40 28q51 69 232 326q199 280 231 328l41 -27l-234 -329q-204 -287 -230 -326zM733 135q0 -40 25.5 -68.5t62.5 -28.5t63 28.5t26 68.5t-26 68.5t-63 28.5t-62.5 -28.5t-25.5 -68.5zM388 135
q0 -40 26 -68.5t63 -28.5t62.5 28.5t25.5 68.5t-25.5 68.5t-62.5 28.5t-63 -28.5t-26 -68.5zM88 523q0 -40 26 -68.5t63 -28.5t62.5 28.5t25.5 68.5t-25.5 68.5t-62.5 28.5t-63 -28.5t-26 -68.5z" />
    <glyph glyph-name="quotedbl.lin" horiz-adv-x="374" 
d="M263 459l-38 189q-7 36 9.5 58.5t46.5 22.5t46.5 -22.5t9.5 -58.5l-39 -189h-35zM74 459l-38 189q-7 36 9.5 58.5t46.5 22.5t46.5 -22.5t9.5 -58.5l-39 -189h-35z" />
    <glyph glyph-name="quotesingle.lin" horiz-adv-x="185" 
d="M74 459l-38 189q-7 36 9.5 58.5t46.5 22.5t46.5 -22.5t9.5 -58.5l-39 -189h-35z" />
    <glyph glyph-name="plus.lin" horiz-adv-x="436" 
d="M180 163v135h-134v74h134v135h76v-135h134v-74h-134v-135h-76z" />
    <glyph glyph-name="minus.lin" horiz-adv-x="436" 
d="M46 298v74h344v-74h-344z" />
    <glyph glyph-name="divide.lin" horiz-adv-x="436" 
d="M390 298h-344v74h344v-74zM218 422q-23 0 -39.5 16.5t-16.5 39.5t17 39.5t40 16.5t39.5 -16.5t16.5 -39.5t-17 -39.5t-40 -16.5zM218 136q-23 0 -39.5 16.5t-16.5 39.5t17 39.5t40 16.5t39.5 -16.5t16.5 -39.5t-17 -39.5t-40 -16.5z" />
    <glyph glyph-name="equal.lin" horiz-adv-x="436" 
d="M46 380v74h344v-74h-344zM46 208v74h344v-74h-344z" />
    <glyph glyph-name="multiply.lin" horiz-adv-x="436" 
d="M321 172l-103 109l-103 -109l-54 54l103 108l-103 109l54 55l103 -110l103 109l53 -54l-103 -108l104 -109z" />
    <glyph glyph-name="less.lin" horiz-adv-x="404" 
d="M299 133l-254 177v44l254 177l41 -56l-205 -143l205 -142z" />
    <glyph glyph-name="greater.lin" horiz-adv-x="404" 
d="M105 133l-41 57l205 142l-205 143l41 56l254 -177v-44z" />
    <glyph glyph-name="plusminus.lin" horiz-adv-x="436" 
d="M180 231v135h-134v74h134v135h76v-135h134v-74h-134v-135h-76zM46 76v75h344v-75h-344z" />
    <glyph glyph-name="zero.tab" horiz-adv-x="530" 
d="M266 -13q-102 0 -164 93t-62 248q0 157 61.5 250t164.5 93q102 0 163.5 -93t61.5 -250q0 -155 -61.5 -248t-163.5 -93zM266 587q-64 0 -98.5 -70.5t-34.5 -186.5q0 -117 34.5 -188t98.5 -71t98 71t34 188t-34 187t-98 70z" />
    <glyph glyph-name="one.tab" horiz-adv-x="530" 
d="M75 0v80h156v484l-147 -38l-21 79l212 56h47v-581h154v-80h-401z" />
    <glyph glyph-name="two.tab" horiz-adv-x="530" 
d="M470 483q0 -38 -11 -69t-36.5 -58.5t-44.5 -43.5t-59 -45q-137 -99 -170 -190h250v104h79v-181h-414l-26 43q28 92 85 157.5t136 124.5q32 24 47.5 37t34.5 34t27 42t8 46q0 45 -34 75.5t-84 30.5q-40 0 -70.5 -14t-42.5 -35q32 -15 32 -52q0 -25 -17 -42.5t-42 -17.5
q-32 0 -49 21.5t-17 56.5t19 68q24 42 75 68.5t119 26.5q86 0 145.5 -52t59.5 -135z" />
    <glyph glyph-name="three.tab" horiz-adv-x="530" 
d="M252 -10q-62 0 -116 24.5t-82 62.5q-22 31 -22 65q0 29 17.5 49t44.5 20q25 0 42 -17t17 -41q0 -26 -21 -43q17 -19 50.5 -30.5t69.5 -11.5q60 0 99.5 32t39.5 79q0 70 -72 101q-46 20 -109 20h-34v80h37q63 0 107 25q56 34 56 92q0 44 -35 68.5t-88 24.5q-70 0 -101 -35
q19 -16 19 -42q0 -23 -17 -40.5t-41 -17.5q-25 0 -43.5 19.5t-18.5 50.5q0 28 20 60q25 36 72.5 59.5t113.5 23.5q91 0 151 -47t60 -122q0 -83 -82 -131q-36 -19 -64 -24q33 -8 64 -23q96 -49 96 -145q0 -83 -66 -134.5t-164 -51.5z" />
    <glyph glyph-name="four.tab" horiz-adv-x="530" 
d="M203 0v73h109v116h-282l-20 41l325 448l66 -51l-264 -365h175v127l91 37v-163h101v-75h-101v-113h78v-75h-278z" />
    <glyph glyph-name="five.tab" horiz-adv-x="530" 
d="M253 -12q-114 0 -172 56q-34 31 -34 69q0 27 17 45.5t45 18.5q26 0 42.5 -17.5t16.5 -41.5q0 -18 -9 -31q33 -19 91 -19q69 0 110 40.5t41 103.5q0 56 -39.5 92.5t-110.5 36.5q-73 0 -135 -30l-41 21l32 326h344v-85h-270l-16 -165q44 14 98 14q97 0 162 -56.5t65 -152.5
q0 -101 -67.5 -163t-169.5 -62z" />
    <glyph glyph-name="six.tab" horiz-adv-x="530" 
d="M407 490q-28 0 -44 17t-16 40q0 19 8 30q-23 15 -58 15q-67 0 -113 -70t-51 -181q7 9 16 16q56 51 135 51q94 0 152 -58t58 -148t-62.5 -152t-155.5 -62q-98 0 -161 68q-70 76 -70 238q0 181 74.5 278.5t181.5 97.5q77 0 125 -40q39 -31 39 -78q0 -30 -16.5 -46
t-41.5 -16zM277 67q53 0 89 38t36 94q0 58 -36 94.5t-93 36.5q-55 0 -92 -36.5t-37 -91.5q0 -56 39 -95q38 -40 94 -40z" />
    <glyph glyph-name="seven.tab" horiz-adv-x="530" 
d="M123 0l270 581h-268v-115h-83v192h439l20 -44l-280 -614h-98z" />
    <glyph glyph-name="eight.tab" horiz-adv-x="530" 
d="M265 70q57 0 94 33t37 82q0 48 -38 82.5t-93 34.5t-93 -34.5t-38 -82.5q0 -49 37 -82t94 -33zM265 668q90 0 150 -50.5t60 -130.5q0 -48 -31.5 -88t-85.5 -58q57 -15 94.5 -60.5t37.5 -101.5q0 -82 -62.5 -135.5t-162.5 -53.5t-162.5 53.5t-62.5 135.5q0 56 37.5 101.5
t94.5 60.5q-54 18 -85.5 58t-31.5 88q0 80 60 130.5t150 50.5zM265 375q48 0 82 31t34 75q0 48 -33 78t-83 30t-83 -30t-33 -78q0 -44 34 -75t82 -31z" />
    <glyph glyph-name="nine.tab" horiz-adv-x="530" 
d="M485 364q0 -181 -74 -278.5t-180 -97.5q-76 0 -127 40q-41 33 -41 77q0 31 16.5 47t41.5 16q28 0 44 -17.5t16 -40.5q0 -18 -8 -31q22 -14 63 -14q65 0 110 69t50 179q-7 -9 -16 -16q-54 -51 -134 -51q-94 0 -152.5 58.5t-58.5 149.5t62.5 153.5t155.5 62.5q99 0 161 -68
q71 -75 71 -238zM252 591q-53 0 -89 -39t-36 -95q0 -59 36.5 -96t93.5 -37q55 0 92 37.5t37 92.5q0 56 -39 97q-40 40 -95 40z" />
    <glyph glyph-name="period.tab" horiz-adv-x="265" 
d="M133 -9q-30 0 -50.5 21t-20.5 51q0 31 20.5 52t50.5 21t50.5 -21t20.5 -52q0 -30 -20.5 -51t-50.5 -21z" />
    <glyph glyph-name="comma.tab" horiz-adv-x="265" 
d="M46 -163l-25 33q47 36 71 70.5t26 59.5q-25 5 -41 24t-16 44q0 27 21 47t49 20q32 0 53.5 -23t21.5 -65q0 -51 -38.5 -107.5t-121.5 -102.5z" />
    <glyph glyph-name="colon.tab" horiz-adv-x="265" 
d="M133 -9q-29 0 -49.5 21t-20.5 50t20.5 50t49.5 21t49.5 -21t20.5 -50t-20.5 -50t-49.5 -21zM133 256q-29 0 -49.5 21t-20.5 50t20.5 50t49.5 21t49.5 -21t20.5 -50t-20.5 -50t-49.5 -21z" />
    <glyph glyph-name="semicolon.tab" horiz-adv-x="265" 
d="M47 -160l-24 32q92 71 96 128q-24 5 -40 23.5t-16 42.5q0 26 20 46t48 20q32 0 53 -23t21 -63q0 -49 -38 -105t-120 -101zM133 256q-29 0 -49.5 21t-20.5 50t20.5 50t49.5 21t49.5 -21t20.5 -50t-20.5 -50t-49.5 -21z" />
    <glyph glyph-name="twodotleader.tab" horiz-adv-x="530" 
d="M133 -9q-30 0 -50.5 21t-20.5 51q0 31 20.5 52t50.5 21t50.5 -21t20.5 -52q0 -30 -20.5 -51t-50.5 -21zM398 -9q-30 0 -50.5 21t-20.5 51q0 31 20.5 52t50.5 21t50.5 -21t20.5 -52q0 -30 -20.5 -51t-50.5 -21z" />
    <glyph glyph-name="periodcentered.tab" horiz-adv-x="265" 
d="M133 185q-30 0 -50.5 21t-20.5 51q0 31 20.5 52t50.5 21t50.5 -21t20.5 -52q0 -30 -20.5 -51t-50.5 -21z" />
    <glyph glyph-name="slash.tab" horiz-adv-x="530" 
d="M74 -213l-71 36l433 923l70 -35z" />
    <glyph glyph-name="bar.tab" horiz-adv-x="265" 
d="M95 -200v932h76v-932h-76z" />
    <glyph glyph-name="underscore.tab" horiz-adv-x="530" 
d="M-7 -156v82h544v-82h-544z" />
    <glyph glyph-name="dollar.tab" horiz-adv-x="530" 
d="M260 -103l-72 6l10 102q-71 14 -116.5 53.5t-45.5 83.5q0 30 18 49.5t45 19.5q24 0 40.5 -16.5t16.5 -38.5t-14 -43q19 -20 67 -32l21 222q-74 25 -118.5 67t-44.5 112q0 73 52 122.5t139 53.5l8 91l71 -6l-7 -90q69 -12 111.5 -48t41.5 -82q0 -30 -16.5 -47t-41.5 -17
q-27 0 -44 17t-17 40q0 18 12 36q-17 17 -59 26l-19 -208q88 -29 136.5 -70.5t48.5 -114.5q0 -84 -59.5 -133.5t-154.5 -51.5zM397 177q0 39 -26 63.5t-80 43.5l-19 -209q55 2 90 29.5t35 72.5zM152 490q0 -66 85 -99l17 191q-44 -4 -73 -29.5t-29 -62.5z" />
    <glyph glyph-name="sterling.tab" horiz-adv-x="530" 
d="M24 38q0 28 25 47.5t83 16.5q38 46 38 126q0 9 -1 14h-110v74h95l-9 28q-29 83 -29 136q0 82 53 135.5t136 53.5q70 0 117.5 -37t47.5 -88q0 -27 -17 -47t-44 -20q-26 0 -42.5 16.5t-16.5 38.5q0 20 12 37q-18 24 -62 24q-43 0 -71 -31t-28 -82q0 -45 24 -124
q8 -26 11 -40h163v-74h-151v-12q0 -78 -37 -126q34 0 83 -15q64 -20 86 -20q29 0 44 13.5t30 50.5l62 -29q-17 -61 -48.5 -88t-83.5 -27q-40 0 -109 26q-54 20 -102 21q-39 -48 -91 -48q-28 0 -43 13.5t-15 36.5z" />
    <glyph glyph-name="Euro.tab" horiz-adv-x="530" 
d="M375 504q0 32 26 50q-32 39 -85 39q-54 0 -90 -42.5t-51 -117.5h154v-70h-162q-1 -12 -1 -36q0 -29 1 -42h162v-73h-151q15 -68 50.5 -105.5t88.5 -37.5q68 0 131 77l53 -53q-76 -106 -188 -106q-84 0 -142.5 60t-80.5 162h-65v75h54q-1 14 -1 43q0 23 1 34h-54v75h63
q23 109 86 172t149 63q74 0 125.5 -47t51.5 -105q0 -31 -18.5 -52.5t-47.5 -21.5q-25 0 -42 17.5t-17 41.5z" />
    <glyph glyph-name="yen.tab" horiz-adv-x="530" 
d="M135 0v69h86v70h-142v67h142v59h-142v68h115l-137 249h-58v76h220v-74h-71l120 -228l118 228h-74v74h220v-76h-62l-134 -249h115v-68h-142v-59h142v-67h-142v-70h87v-69h-261z" />
    <glyph glyph-name="cent.tab" horiz-adv-x="530" 
d="M468 238l-7 -78q-66 -41 -162 -41h-12l-13 -141l-67 6l14 145q-79 21 -125 80t-46 137q0 85 60.5 149.5t151.5 72.5l10 105l66 -6l-9 -102q65 -12 108 -50t43 -81q0 -28 -17 -46t-42 -18q-21 0 -36.5 15t-15.5 37t18 40q-19 26 -68 35l-28 -307h17q79 0 160 48zM137 345
q0 -48 24.5 -85.5t69.5 -55.5l26 293q-53 -9 -86.5 -47.5t-33.5 -104.5z" />
    <glyph glyph-name="numbersign.tab" horiz-adv-x="530" 
d="M53 404v74h107l26 180h80l-26 -180h93l26 180h80l-26 -180h103v-74h-113l-23 -161h97l-4 -73h-104l-24 -170h-80l24 170h-93l-24 -170h-80l24 170h-102v73h113l23 161h-97zM226 407l-24 -167h101l24 167h-101z" />
    <glyph glyph-name="paragraph.tab" horiz-adv-x="530" 
d="M21 447q0 96 64 153.5t167 57.5h253v-81h-68v-496h68v-81h-342v81h82v148h-12q-90 0 -151 58t-61 160zM316 76h47v506h-47v-506z" />
    <glyph glyph-name="section.tab" horiz-adv-x="530" 
d="M123 148q26 0 42 -15t16 -39q0 -9 -4 -20q25 -17 79 -17q50 0 75.5 15.5t25.5 40.5q0 24 -26.5 38.5t-101.5 35.5q-91 25 -137.5 55t-46.5 80q0 77 100 115q-65 35 -65 102q0 51 52.5 91t141.5 40q73 0 125 -26q62 -29 62 -80q0 -23 -15 -38.5t-38 -15.5q-26 0 -42 15
t-16 39q0 15 2 21l-3 2q-26 13 -74 13q-50 0 -75.5 -15.5t-25.5 -39.5q0 -25 26.5 -39.5t101.5 -34.5q91 -25 137.5 -55t46.5 -81q0 -77 -98 -115q63 -34 63 -100q0 -53 -52.5 -93t-141.5 -40q-104 0 -157 47q-30 25 -30 59q0 23 15 39t38 16zM265 397l-47 12
q-80 -29 -80 -73q0 -25 28 -41.5t100 -34.5l46 -12q81 29 81 74q0 25 -28.5 41.5t-99.5 33.5z" />
    <glyph glyph-name="degree.tab" horiz-adv-x="530" 
d="M263 381q-78 0 -127.5 52.5t-49.5 127.5t49.5 127.5t127.5 52.5t127.5 -52.5t49.5 -127.5t-49.5 -127.5t-127.5 -52.5zM263 685q-52 0 -85 -35.5t-33 -88.5t33 -88.5t85 -35.5t85 35.5t33 88.5t-33 88.5t-85 35.5z" />
    <glyph glyph-name="percent.tab" horiz-adv-x="530" 
d="M24 523q0 63 33.5 105t84.5 42t84.5 -42t33.5 -105t-33.5 -105.5t-84.5 -42.5t-84.5 42.5t-33.5 105.5zM270 136q0 63 33.5 105t84.5 42t84.5 -42t33.5 -105t-33.5 -105.5t-84.5 -42.5t-84.5 42.5t-33.5 105.5zM87 -11l-40 25q1 1 44 71.5t92.5 150.5t63.5 103l198 330
l40 -25q-2 -4 -45 -73t-93 -150t-64 -105q-14 -25 -62 -105.5t-90 -150t-44 -71.5zM79 523q0 -43 17.5 -71t45.5 -28t46 28.5t18 70.5t-18 70.5t-46 28.5t-45.5 -28t-17.5 -71zM326 136q0 -42 17.5 -70t44.5 -28t44.5 28t17.5 70t-17.5 69.5t-44.5 27.5t-44.5 -27.5
t-17.5 -69.5z" />
    <glyph glyph-name="quotedbl.tab" horiz-adv-x="530" 
d="M139 408l-39 236q-7 38 9.5 61.5t47.5 23.5q30 0 47 -23t10 -62l-39 -236h-36zM354 408l-38 236q-7 38 9.5 61.5t46.5 23.5q31 0 47.5 -23t9.5 -62l-39 -236h-36z" />
    <glyph glyph-name="quotesingle.tab" horiz-adv-x="265" 
d="M114 408l-39 236q-7 38 9.5 61.5t47.5 23.5q30 0 47 -23t10 -62l-39 -236h-36z" />
    <glyph glyph-name="plus.tab" horiz-adv-x="530" 
d="M227 143v155h-154v74h154v155h76v-155h154v-74h-154v-155h-76z" />
    <glyph glyph-name="minus.tab" horiz-adv-x="530" 
d="M73 298v74h384v-74h-384z" />
    <glyph glyph-name="divide.tab" horiz-adv-x="530" 
d="M457 298h-384v74h384v-74zM265 441q-23 0 -40 17t-17 40t17.5 40t40.5 17t39.5 -17t16.5 -40t-17 -40t-40 -17zM265 115q-23 0 -40 17t-17 40t17.5 40t40.5 17t39.5 -17t16.5 -40t-17 -40t-40 -17z" />
    <glyph glyph-name="equal.tab" horiz-adv-x="530" 
d="M73 391v74h384v-74h-384zM73 197v74h384v-74h-384z" />
    <glyph glyph-name="multiply.tab" horiz-adv-x="530" 
d="M388 152l-123 129l-123 -129l-54 54l123 129l-123 129l54 54l123 -130l123 129l53 -53l-123 -129l124 -129z" />
    <glyph glyph-name="less.tab" horiz-adv-x="530" 
d="M382 114l-294 202v33l294 202l41 -57l-237 -162l237 -162z" />
    <glyph glyph-name="greater.tab" horiz-adv-x="530" 
d="M148 551l294 -202v-33l-294 -202l-41 56l237 162l-237 162z" />
    <glyph glyph-name="plusminus.tab" horiz-adv-x="530" 
d="M227 222v155h-154v74h154v155h76v-155h154v-74h-154v-155h-76zM73 65v74h384v-74h-384z" />
    <glyph glyph-name="zero.idx_P2D" horiz-adv-x="1100" 
d="M550 798q137 0 250.5 -67.5t177.5 -181.5t64 -249t-64 -249t-177.5 -181.5t-250.5 -67.5t-250.5 67.5t-177.5 181.5t-64 249t64 249t177.5 181.5t250.5 67.5zM550 741q-120 0 -218.5 -60t-154 -161t-55.5 -220t55.5 -220t154 -161t218.5 -60t218.5 60t154 161t55.5 220
t-55.5 220t-154 161t-218.5 60zM549 64q-82 0 -139.5 68.5t-57.5 173.5q0 106 58 174.5t141 68.5q81 0 138.5 -68.5t57.5 -173.5q0 -107 -57.5 -175t-140.5 -68zM549 135q54 0 86.5 48t32.5 123t-32.5 123.5t-86.5 48.5q-53 0 -85 -48t-32 -123t32 -123.5t85 -48.5z" />
    <glyph glyph-name="one.idx_P2D" horiz-adv-x="1100" 
d="M550 798q137 0 250.5 -67.5t177.5 -181.5t64 -249t-64 -249t-177.5 -181.5t-250.5 -67.5t-250.5 67.5t-177.5 181.5t-64 249t64 249t177.5 181.5t250.5 67.5zM550 741q-120 0 -218.5 -60t-154 -161t-55.5 -220t55.5 -220t154 -161t218.5 -60t218.5 60t154 161t55.5 220
t-55.5 220t-154 161t-218.5 60zM694 74h-281v68h103v320l-97 -20l-15 66l151 34h38v-400h101v-68z" />
    <glyph glyph-name="two.idx_P2D" horiz-adv-x="1100" 
d="M550 798q137 0 250.5 -67.5t177.5 -181.5t64 -249t-64 -249t-177.5 -181.5t-250.5 -67.5t-250.5 67.5t-177.5 181.5t-64 249t64 249t177.5 181.5t250.5 67.5zM550 741q-120 0 -218.5 -60t-154 -161t-55.5 -220t55.5 -220t154 -161t218.5 -60t218.5 60t154 161t55.5 220
t-55.5 220t-154 161t-218.5 60zM385 428q0 27 15 52q19 32 58.5 50.5t92.5 18.5q67 0 114 -38.5t47 -98.5q0 -35 -19 -65t-38.5 -45t-55.5 -38q-101 -64 -134 -127h193v78h64v-142h-328l-23 35q19 50 53.5 92.5t61 63.5t64.5 47q30 20 44 31.5t26.5 30.5t12.5 40
q0 29 -25 49t-63 20q-57 0 -83 -28q22 -13 22 -40q0 -20 -13.5 -33.5t-33.5 -13.5q-26 0 -39 17t-13 44z" />
    <glyph glyph-name="three.idx_P2D" horiz-adv-x="1100" 
d="M550 798q137 0 250.5 -67.5t177.5 -181.5t64 -249t-64 -249t-177.5 -181.5t-250.5 -67.5t-250.5 67.5t-177.5 181.5t-64 249t64 249t177.5 181.5t250.5 67.5zM550 741q-120 0 -218.5 -60t-154 -161t-55.5 -220t55.5 -220t154 -161t218.5 -60t218.5 60t154 161t55.5 220
t-55.5 220t-154 161t-218.5 60zM378 176q0 22 14 38t35 16q20 0 34 -13.5t14 -33.5q0 -17 -11 -30q25 -22 85 -22q40 0 68.5 19.5t28.5 51.5q0 47 -48 67q-29 13 -80 13h-23v63h26q47 0 79 19q35 21 35 60q0 28 -25 43t-61 15q-48 0 -67 -17q10 -14 10 -28q0 -19 -14 -32.5
t-34 -13.5t-34 15t-14 40q0 24 18 45q43 56 138 56q69 0 115.5 -34.5t46.5 -86.5q0 -57 -51 -90q-21 -14 -45 -20q25 -7 43 -17q63 -36 63 -101q0 -60 -50.5 -96t-125.5 -36q-95 0 -147 55q-23 28 -23 55z" />
    <glyph glyph-name="four.idx_P2D" horiz-adv-x="1100" 
d="M550 798q137 0 250.5 -67.5t177.5 -181.5t64 -249t-64 -249t-177.5 -181.5t-250.5 -67.5t-250.5 67.5t-177.5 181.5t-64 249t64 249t177.5 181.5t250.5 67.5zM550 741q-120 0 -218.5 -60t-154 -161t-55.5 -220t55.5 -220t154 -161t218.5 -60t218.5 60t154 161t55.5 220
t-55.5 220t-154 161t-218.5 60zM487 73v61h83v75h-217l-18 34l253 313l56 -43l-203 -246h129v79l72 30v-108h74v-62h-74v-71h57v-62h-212z" />
    <glyph glyph-name="five.idx_P2D" horiz-adv-x="1100" 
d="M550 798q137 0 250.5 -67.5t177.5 -181.5t64 -249t-64 -249t-177.5 -181.5t-250.5 -67.5t-250.5 67.5t-177.5 181.5t-64 249t64 249t177.5 181.5t250.5 67.5zM550 741q-120 0 -218.5 -60t-154 -161t-55.5 -220t55.5 -220t154 -161t218.5 -60t218.5 60t154 161t55.5 220
t-55.5 220t-154 161t-218.5 60zM545 64q-72 0 -116 28.5t-44 64.5q0 21 14 35.5t35 14.5q22 0 35 -14t13 -33q0 -11 -4 -19q22 -11 61 -11q47 0 73 26.5t26 68.5q0 37 -25.5 61t-73.5 24q-58 0 -100 -22l-34 20l22 232h257v-70h-195l-9 -100q33 7 70 7q69 0 116 -41.5
t47 -110.5q0 -71 -47.5 -116t-120.5 -45z" />
    <glyph glyph-name="six.idx_P2D" horiz-adv-x="1100" 
d="M550 798q137 0 250.5 -67.5t177.5 -181.5t64 -249t-64 -249t-177.5 -181.5t-250.5 -67.5t-250.5 67.5t-177.5 181.5t-64 249t64 249t177.5 181.5t250.5 67.5zM550 741q-120 0 -218.5 -60t-154 -161t-55.5 -220t55.5 -220t154 -161t218.5 -60t218.5 60t154 161t55.5 220
t-55.5 220t-154 161t-218.5 60zM700 463q0 -25 -13.5 -37t-33.5 -12q-23 0 -35 13.5t-12 31.5q0 12 2 18q-22 6 -41 6q-52 0 -88 -46t-38 -118q45 47 114 47q72 0 119 -42.5t47 -105.5q0 -65 -49 -109.5t-123 -44.5q-77 0 -127 50q-55 55 -55 175t57.5 190t142.5 70
q56 0 91 -23q42 -24 42 -63zM447 220q0 -39 30 -64q31 -26 73 -26q40 0 67 25.5t27 61.5q0 37 -28 60t-72 23q-41 0 -69 -22.5t-28 -57.5z" />
    <glyph glyph-name="seven.idx_P2D" horiz-adv-x="1100" 
d="M550 798q137 0 250.5 -67.5t177.5 -181.5t64 -249t-64 -249t-177.5 -181.5t-250.5 -67.5t-250.5 67.5t-177.5 181.5t-64 249t64 249t177.5 181.5t250.5 67.5zM550 741q-120 0 -218.5 -60t-154 -161t-55.5 -220t55.5 -220t154 -161t218.5 -60t218.5 60t154 161t55.5 220
t-55.5 220t-154 161t-218.5 60zM531 73h-83l197 403h-179v-88h-68v152h316l18 -41z" />
    <glyph glyph-name="eight.idx_P2D" horiz-adv-x="1100" 
d="M550 798q137 0 250.5 -67.5t177.5 -181.5t64 -249t-64 -249t-177.5 -181.5t-250.5 -67.5t-250.5 67.5t-177.5 181.5t-64 249t64 249t177.5 181.5t250.5 67.5zM550 741q-120 0 -218.5 -60t-154 -161t-55.5 -220t55.5 -220t154 -161t218.5 -60t218.5 60t154 161t55.5 220
t-55.5 220t-154 161t-218.5 60zM549 66q-80 0 -128 38.5t-48 95.5q0 38 27 71t70 43q-41 12 -63.5 40t-22.5 62q0 56 46.5 93.5t118.5 37.5q73 0 120 -37.5t47 -93.5q0 -34 -23 -62t-65 -40q44 -10 71 -42.5t27 -71.5q0 -57 -48.5 -95.5t-128.5 -38.5zM549 340q36 0 61.5 21
t25.5 51q0 31 -25 51t-62 20t-61.5 -20t-24.5 -51q0 -30 25.5 -51t60.5 -21zM549 131q43 0 70.5 22t27.5 53q0 32 -28 55t-70 23t-69.5 -23t-27.5 -55q0 -31 27.5 -53t69.5 -22z" />
    <glyph glyph-name="nine.idx_P2D" horiz-adv-x="1100" 
d="M550 798q137 0 250.5 -67.5t177.5 -181.5t64 -249t-64 -249t-177.5 -181.5t-250.5 -67.5t-250.5 67.5t-177.5 181.5t-64 249t64 249t177.5 181.5t250.5 67.5zM550 741q-120 0 -218.5 -60t-154 -161t-55.5 -220t55.5 -220t154 -161t218.5 -60t218.5 60t154 161t55.5 220
t-55.5 220t-154 161t-218.5 60zM401 151q0 24 13.5 36t33.5 12q22 0 34.5 -13.5t12.5 -31.5q0 -10 -3 -17q17 -6 43 -6q51 0 87 45t37 117q-44 -46 -114 -46q-71 0 -118 42t-47 106q0 65 49.5 109.5t123.5 44.5q75 0 125 -50q56 -56 56 -174q0 -122 -57 -191.5t-143 -69.5
q-75 0 -113 40q-20 20 -20 47zM654 393q0 39 -30 64q-29 27 -73 27q-39 0 -66.5 -25.5t-27.5 -61.5q0 -38 28 -61.5t72 -23.5q41 0 69 23t28 58z" />
    <glyph glyph-name="space.tab" horiz-adv-x="265" 
 />
    <glyph glyph-name="NUL" horiz-adv-x="0" 
 />
    <glyph glyph-name="hfjslug" horiz-adv-x="694" 
d="M644 -200h-208l-8 14h-163l-8 -14h-207v303q14 0 23 9.5t9 22.5t-9.5 22.5t-22.5 9.5v554h100l30 79h334l29 -79h101v-921zM400 563v-172h15v78h38v14h-38v66h43v14h-58zM184 563v-172h15v79h47v-79h15v172h-15v-79h-47v79h-15zM460 394q10 -4 21 -4q31 0 31 36v137h-16
v-137q0 -22 -16 -22q-8 0 -20 5v-15zM371 465l-13 3q-4 -18 -8 -30h-1l-16 31q23 21 23 42q0 12 -7 21.5t-20 9.5q-12 0 -20 -9.5t-8 -21.5q0 -13 14 -39q-23 -18 -23 -47q0 -16 8 -26.5t21 -10.5q19 0 29 24h1l12 -24l12 6l-17 32q6 14 13 39zM523 323v-46h8v12l8 8l15 -20
h10l-20 26l18 20h-10l-20 -24h-1v24h-8zM488 292l10 -15h9l-12 17q10 4 10 14q0 15 -17 15h-20v-46h8v15h12zM426 276q10 0 17 7t7 17q0 9 -7 16.5t-17 7.5t-17 -7.5t-7 -16.5q0 -10 7 -17t17 -7zM370 301l-13 22h-9l18 -29v-17h8v17l18 29h-9zM193 323v-46h34v7h-26v13h23
v7h-23v12h26v7h-34zM132 323v-46h8v32l25 -32h7v46h-8v-32l-25 32h-7zM241 323l14 -47h8l11 34h1l11 -34h8l14 47h-8l-10 -35h-1l-11 35h-7l-11 -35h-1l-10 35h-8zM327 479q-12 22 -12 32q0 19 14 19q13 0 13 -19q0 -15 -15 -32zM342 423q-8 -21 -20 -21q-16 0 -16 25
q0 19 16 35zM487 299h-11v17h11q10 0 10 -8q0 -9 -10 -9zM426 283q-16 0 -16 17q0 6 4.5 11.5t11.5 5.5t11.5 -5.5t4.5 -11.5q0 -17 -16 -17z" />
    <glyph glyph-name="A.sc" horiz-adv-x="589" 
d="M138 515h313v-73h-72l136 -369h59v-73h-222v72h76l-34 95h-201l-34 -95h76v-72h-220v73h60l135 369h-72v73zM293 448l-75 -211h151z" />
    <glyph glyph-name="B.sc" horiz-adv-x="536" 
d="M210 72h90q48 0 75 21t27 58q0 78 -109 78h-83v-157zM210 293h78q49 0 74.5 20.5t25.5 57.5q0 34 -26 53.5t-74 19.5h-78v-151zM298 0h-256v73h82v369h-82v73h247q93 0 139.5 -37t46.5 -96q0 -89 -93 -117q108 -29 108 -122q0 -66 -49.5 -104.5t-142.5 -38.5z" />
    <glyph glyph-name="C.sc" horiz-adv-x="563" 
d="M466 137l53 -58q-82 -90 -210 -90q-119 0 -193.5 77t-74.5 192q0 117 77.5 193.5t196.5 76.5q84 0 141.5 -41t57.5 -92q0 -29 -16.5 -47.5t-42.5 -18.5t-42.5 15.5t-16.5 40.5q0 23 14 33q-35 33 -99 33q-79 0 -130 -54t-51 -139q0 -84 51 -137.5t128 -53.5q89 0 157 70z
" />
    <glyph glyph-name="D.sc" horiz-adv-x="605" 
d="M210 73h63q99 0 151.5 51t52.5 138q0 85 -56 132.5t-154 47.5h-57v-369zM261 0h-219v73h82v369h-82v73h225q138 0 217.5 -68t79.5 -184q0 -120 -79 -191.5t-224 -71.5z" />
    <glyph glyph-name="E.sc" horiz-adv-x="517" 
d="M464 0h-422v73h82v369h-82v73h422v-164h-80v93h-174v-151h159v-70h-159v-151h174v90h80v-162z" />
    <glyph glyph-name="F.sc" horiz-adv-x="496" 
d="M297 0h-255v73h82v369h-82v73h420v-164h-81v93h-171v-157h156v-70h-156v-144h87v-73z" />
    <glyph glyph-name="G.sc" horiz-adv-x="591" 
d="M312 451q-80 0 -131 -54.5t-51 -139.5q0 -83 52 -137.5t126 -54.5q75 0 130 38v91h-133v70h217v-264h-82v38q-64 -48 -148 -48q-103 0 -177 73t-74 193t79 196t197 76q87 0 145 -40.5t58 -90.5q0 -29 -16.5 -47t-42.5 -18t-42.5 15t-16.5 40q0 21 12 33q-37 31 -102 31z
" />
    <glyph glyph-name="H.sc" horiz-adv-x="669" 
d="M42 0v73h82v369h-82v73h252v-73h-84v-148h249v148h-84v73h252v-73h-82v-369h82v-73h-252v73h84v148h-249v-148h84v-73h-252z" />
    <glyph glyph-name="I.sc" horiz-adv-x="340" 
d="M298 0h-256v73h85v369h-85v73h256v-73h-85v-369h85v-73z" />
    <glyph glyph-name="J.sc" horiz-adv-x="461" 
d="M188 68q39 0 60 22q26 29 26 92v260h-86v73h248v-73h-77v-262q0 -98 -49 -145q-44 -45 -121 -45q-68 0 -116 39t-48 96q0 31 17.5 50.5t44.5 19.5q22 0 38.5 -16t16.5 -38q0 -30 -24 -42q19 -31 70 -31z" />
    <glyph glyph-name="K.sc" horiz-adv-x="596" 
d="M508 442l-160 -157l145 -212h81v-73h-136l-153 229l-74 -70v-86h81v-73h-250v73h83v369h-83v73h241v-71h-72v-194l199 194h-70v71h228v-73h-60z" />
    <glyph glyph-name="L.sc" horiz-adv-x="489" 
d="M381 73v97h81v-170h-420v73h82v369h-82v73h254v-73h-86v-369h171z" />
    <glyph glyph-name="M.sc" horiz-adv-x="747" 
d="M530 515h165v-73h-82l17 -369h82v-73h-250v73h81l-11 298l-150 -287h-19l-152 287l-11 -298h84v-73h-250v73h83l16 369h-82v73h167l158 -299z" />
    <glyph glyph-name="N.sc" horiz-adv-x="657" 
d="M198 515l267 -348v275h-81v73h246v-73h-83v-445h-57l-283 372v-296h79v-73h-244v73h82v369h-82v73h156z" />
    <glyph glyph-name="O.sc" horiz-adv-x="617" 
d="M309 529q118 0 192.5 -77.5t74.5 -191.5q0 -116 -74.5 -193.5t-193.5 -77.5t-193 77.5t-74 193.5q0 114 74.5 191.5t193.5 77.5zM308 67q79 0 129.5 53t50.5 139q0 84 -50.5 137.5t-128.5 53.5q-79 0 -129 -53t-50 -138q0 -86 50.5 -139t127.5 -53z" />
    <glyph glyph-name="P.sc" horiz-adv-x="506" 
d="M42 515h232q86 0 143 -45.5t57 -121.5q0 -83 -56.5 -128.5t-150.5 -45.5q-42 0 -57 1v-102h85v-73h-253v73h82v369h-82v73zM275 246q51 0 81 27.5t30 74.5q0 43 -31.5 68.5t-81.5 25.5h-63v-194q28 -2 65 -2z" />
    <glyph glyph-name="Q.sc" horiz-adv-x="617" 
d="M503 -114q-28 0 -56 9t-41 16t-41 26.5t-33 22.5q-31 22 -71 30q-93 21 -145 76q-75 75 -75 194q0 114 74.5 191.5t193.5 77.5q118 0 192.5 -77.5t74.5 -191.5q0 -91 -47.5 -160t-129.5 -94q6 -2 25 -14q44 -28 72 -28q34 0 71 29l42 -65q-43 -42 -106 -42zM308 67
q77 0 128.5 54t51.5 138t-50.5 137.5t-128.5 53.5q-79 0 -129 -53t-50 -138q0 -86 51 -139t127 -53z" />
    <glyph glyph-name="Q.sc_alt" horiz-adv-x="617" 
d="M462 -86l-58 90q-48 -15 -96 -15q-119 0 -193 77.5t-74 193.5q0 114 74.5 191.5t193.5 77.5q118 0 192.5 -77.5t74.5 -191.5q0 -68 -27 -125.5t-77 -94.5l55 -85zM308 67q30 0 52 7l-50 80l64 41l54 -85q60 55 60 149q0 84 -50.5 137.5t-128.5 53.5q-79 0 -129 -53
t-50 -138q0 -86 50.5 -139t127.5 -53z" />
    <glyph glyph-name="R.sc" horiz-adv-x="554" 
d="M276 442h-66v-171q45 -3 68 -3q54 0 86.5 24t32.5 66q0 40 -32 62t-89 22zM210 197v-124h79v-73h-247v73h82v369h-82v73h239q93 0 148 -40.5t55 -115.5q0 -48 -27 -84.5t-72 -55.5l81 -146h74v-73h-137l-102 198q-18 -2 -37 -2q-38 0 -54 1z" />
    <glyph glyph-name="S.sc" horiz-adv-x="485" 
d="M318 405q0 18 9 29q-27 21 -84 21q-42 0 -68.5 -18.5t-26.5 -49.5q0 -29 25.5 -46t71.5 -34q8 -3 12 -4q38 -13 55.5 -20t46.5 -22t43 -29t25 -37.5t11 -51.5q0 -74 -54 -114t-143 -40q-82 0 -139.5 37t-57.5 87q0 29 15 45.5t41 16.5t42.5 -15.5t16.5 -37.5
q0 -18 -10 -35q33 -26 95 -26q51 0 80 19t29 56q0 16 -9 29.5t-28.5 23.5t-33.5 15.5t-40 14.5q-38 13 -57.5 20.5t-47.5 22t-41.5 29t-24 37.5t-10.5 51q0 66 51.5 107t136.5 41q78 0 130 -33.5t52 -83.5q0 -27 -15 -43t-38 -16q-28 0 -44 16t-16 38z" />
    <glyph glyph-name="T.sc" horiz-adv-x="542" 
d="M143 0v73h85v371h-115v-100h-80v171h476v-171h-80v100h-115v-371h85v-73h-256z" />
    <glyph glyph-name="U.sc" horiz-adv-x="618" 
d="M309 -8q-96 0 -150 52.5t-54 152.5v245h-78v73h244v-73h-80v-245q0 -62 31.5 -96.5t87.5 -34.5t87.5 33.5t31.5 95.5v247h-81v73h244v-73h-78v-242q0 -101 -55 -154.5t-150 -53.5z" />
    <glyph glyph-name="V.sc" horiz-adv-x="571" 
d="M256 -7l-185 449h-61v73h226v-73h-74l126 -324l126 324h-74v73h221v-73h-60l-186 -449h-59z" />
    <glyph glyph-name="W.sc" horiz-adv-x="798" 
d="M219 -9l-139 451h-68v73h238v-73h-78l89 -306l120 314h42l120 -314l90 306h-80v73h233v-73h-68l-139 -451h-60l-120 314l-121 -314h-59z" />
    <glyph glyph-name="X.sc" horiz-adv-x="587" 
d="M565 74v-74h-232v72h70l-114 145l-111 -145h75v-72h-231v74h66l152 190l-143 178h-67v73h229v-71h-65l102 -134l101 134h-65v71h225v-73h-71l-141 -178l155 -190h65z" />
    <glyph glyph-name="Y.sc" horiz-adv-x="535" 
d="M529 515v-73h-61l-158 -251v-118h85v-73h-255v73h84v118l-157 251h-61v73h226v-71h-73l111 -185l111 185h-75v71h223z" />
    <glyph glyph-name="Z.sc" horiz-adv-x="511" 
d="M43 0v49l305 396h-217v-97h-75v167h412v-48l-304 -396h230v96h75v-167h-426z" />
    <glyph glyph-name="Aacute.sc" horiz-adv-x="589" 
d="M138 515h313v-73h-72l136 -369h59v-73h-222v72h76l-34 95h-201l-34 -95h76v-72h-220v73h60l135 369h-72v73zM271 579l-25 28l116 136q23 26 48 26q18 0 31 -13t13 -33q0 -28 -32 -49zM293 448l-75 -211h151z" />
    <glyph glyph-name="Abreve.sc" horiz-adv-x="589" 
d="M138 515h313v-73h-72l136 -369h59v-73h-222v72h76l-34 95h-201l-34 -95h76v-72h-220v73h60l135 369h-72v73zM291 588q-58 0 -103.5 39t-65.5 113l57 23q18 -46 48 -70t64 -24q74 0 113 94l57 -23q-20 -74 -65.5 -113t-104.5 -39zM293 448l-75 -211h151z" />
    <glyph glyph-name="Acircumflex.sc" horiz-adv-x="589" 
d="M138 515h313v-73h-72l136 -369h59v-73h-222v72h76l-34 95h-201l-34 -95h76v-72h-220v73h60l135 369h-72v73zM167 579l-38 43l164 160l164 -160l-38 -43l-126 94zM293 448l-75 -211h151z" />
    <glyph glyph-name="Adieresis.sc" horiz-adv-x="589" 
d="M138 515h313v-73h-72l136 -369h59v-73h-222v72h76l-34 95h-201l-34 -95h76v-72h-220v73h60l135 369h-72v73zM293 448l-75 -211h151zM386 594q-26 0 -44.5 18.5t-18.5 45.5q0 26 19 44.5t45 18.5t44.5 -18.5t18.5 -44.5q0 -27 -19 -45.5t-45 -18.5zM198 594
q-26 0 -44.5 18.5t-18.5 45.5q0 26 19 44.5t45 18.5t44.5 -18.5t18.5 -44.5q0 -27 -19 -45.5t-45 -18.5z" />
    <glyph glyph-name="AE.sc" horiz-adv-x="728" 
d="M255 0v72h80v97h-153l-49 -97h72v-72h-211v73h54l191 369h-68v73h504v-164h-80v93h-174v-151h159v-70h-159v-151h174v90h80v-162h-420zM320 442l-103 -203h118v203h-15z" />
    <glyph glyph-name="AEacute.sc" horiz-adv-x="728" 
d="M255 0v72h80v97h-153l-49 -97h72v-72h-211v73h54l191 369h-68v73h504v-164h-80v93h-174v-151h159v-70h-159v-151h174v90h80v-162h-420zM372 579l-25 28l116 136q23 26 48 26q18 0 31 -13t13 -33q0 -28 -32 -49zM320 442l-103 -203h118v203h-15z" />
    </font>
</defs>
</svg>
