<?xml version="1.0" standalone="no"?>
<!DOCTYPE svg PUBLIC "-//W3C//DTD SVG 1.1//EN" "http://www.w3.org/Graphics/SVG/1.1/DTD/svg11.dtd" >
<svg>
<metadata>
Created by FontForge 20110222 at Fri May  9 17:04:29 2014
 By Orthosie Webhosting
Copyright (C) 2000, 2007 Hoefler &#38; Frere-Jones. http://www.typography.com
</metadata>
<defs>
<font id="ArcherSemiboldItalic" horiz-adv-x="0" >
  <font-face 
    font-family="ArcherSemiboldItalic"
    font-weight="375"
    font-style="italic"
    font-stretch="normal"
    units-per-em="1000"
    panose-1="0 0 0 0 0 0 0 0 0 0"
    ascent="800"
    descent="-200"
    x-height="431"
    cap-height="658"
    bbox="-109 -289 1084 1092"
    underline-thickness="50"
    underline-position="-50"
    slope="-13"
    unicode-range="U+0020-FB04"
  />
<missing-glyph horiz-adv-x="500" 
d="M0 -200v1000h500v-1000h-500zM71 750l179 -390l179 390h-358zM50 -76l172 376l-172 376v-752zM450 676l-172 -376l172 -376v752zM250 240l-179 -390h358z" />
    <glyph glyph-name="f_f" unicode="ff" horiz-adv-x="602" 
d="M369 600q-41 0 -52 37q-12 -3 -23 -14q-27 -25 -45 -103l-21 -89h195l29 124q21 92 68 137q48 46 119 46q41 0 65 -18.5t24 -46.5q0 -25 -16.5 -40.5t-39.5 -15.5q-22 0 -38 13t-17 33q-22 -3 -37 -20q-29 -27 -45 -97l-27 -115h114l-19 -74h-112l-81 -357h-86l82 357
h-195l-81 -357h-86l82 357h-76l19 74h74l24 104q21 91 66 136q47 47 109 47q37 0 58.5 -17.5t21.5 -45.5q0 -23 -15.5 -39t-37.5 -16z" />
    <glyph glyph-name="fi" unicode="fi" horiz-adv-x="574" 
d="M401 357h-189l-82 -357h-86l82 357h-76l19 74h74l27 115q17 74 61 124q57 68 144 68q49 0 78.5 -22.5t29.5 -54.5q0 -25 -15.5 -41t-39.5 -16t-39 15.5t-15 37.5v4q-4 1 -10 1q-41 0 -68 -35q-29 -31 -44 -97l-23 -99h279l-80 -305q-7 -30 -7 -44q0 -30 27 -30
q32 0 59 70l38 -14q-35 -115 -120 -115q-43 0 -67 23.5t-24 63.5q0 21 7 47z" />
    <glyph glyph-name="fl" unicode="fl" horiz-adv-x="575" 
d="M69 431h75l35 150q11 50 40 87q55 70 151 70q72 0 113 -52l29 46h55l-140 -605q-7 -30 -7 -43q0 -32 26 -32q33 0 58 70l39 -14q-35 -115 -120 -115q-43 0 -66.5 23.5t-23.5 64.5q0 13 6 45l54 231h-181l-82 -357h-86l83 357h-77zM261 568l-32 -137h181l26 110
q-16 6 -25.5 20.5t-9.5 31.5q0 28 21 44q-21 26 -58 26q-47 0 -75 -34q-20 -23 -28 -61z" />
    <glyph glyph-name="f_f_i" unicode="ffi" horiz-adv-x="854" 
d="M324 0l82 357h-194l-82 -357h-86l82 357h-76l19 74h74l29 125q11 52 41 90q55 71 151 71q37 0 62 -17t25 -47q0 -23 -16 -39t-38 -16q-43 0 -53 45q-35 -6 -60 -34q-20 -23 -28 -61l-27 -117h194l27 115q17 74 61 124q57 68 143 68q50 0 79.5 -22.5t29.5 -54.5
q0 -25 -16 -41t-40 -16t-38.5 15.5t-14.5 37.5v4q-4 1 -11 1q-40 0 -67 -35q-29 -31 -44 -97l-23 -99h279l-80 -305q-7 -24 -7 -44q0 -30 27 -30q33 0 58 70l39 -14q-35 -115 -120 -115q-43 0 -67 23.5t-24 63.5q0 21 7 47l60 230h-189l-82 -357h-86z" />
    <glyph glyph-name="f_f_l" unicode="ffl" horiz-adv-x="854" 
d="M50 357l19 74h74l29 125q11 52 41 90q55 71 151 71q37 0 62 -17t25 -47q0 -23 -16 -39t-38 -16q-43 0 -53 45q-35 -6 -60 -34q-20 -23 -28 -61l-27 -117h194l35 150q12 51 41 87q55 70 151 70q72 0 113 -52l29 46h55l-141 -605q-7 -40 -7 -43q0 -32 27 -32q31 0 58 70
l39 -14q-35 -115 -121 -115q-43 0 -66 23.5t-23 64.5q0 21 6 45l54 231h-182l-81 -357h-86l82 357h-194l-82 -357h-86l82 357h-76zM540 568l-32 -137h182l26 109q-35 14 -35 53q0 28 21 44q-21 26 -58 26q-47 0 -75 -34q-19 -22 -29 -61z" />
    <glyph glyph-name="f_b" unicode="fb" horiz-adv-x="821" 
d="M44 0l83 357h-77l19 74h75l35 150q11 50 40 87q55 70 151 70q72 0 113 -52l29 46h55l-89 -382q27 39 65.5 64t79.5 25q74 0 116 -47.5t42 -126.5q0 -112 -67.5 -192.5t-161.5 -80.5q-48 0 -84.5 27.5t-47.5 71.5l-26 -91h-82l82 357h-182l-82 -357h-86zM541 69
q62 0 105.5 55.5t43.5 128.5q0 50 -25.5 80.5t-70.5 30.5q-63 0 -110 -58.5t-47 -131.5q0 -48 27 -76.5t77 -28.5zM401 593q0 28 21 44q-21 26 -58 26q-47 0 -75 -34q-20 -23 -28 -61l-32 -137h182l25 110q-16 6 -25.5 20.5t-9.5 31.5z" />
    <glyph glyph-name="f_h" unicode="fh" horiz-adv-x="823" 
d="M311 0l82 357h-181l-82 -357h-86l83 357h-77l19 74h75l35 150q11 50 40 87q55 70 151 70q72 0 113 -52l29 46h54l-90 -385q25 39 62 65t77 26q51 0 85 -33t34 -89q0 -34 -10 -70l-36 -128q-5 -22 -5 -34q0 -32 26 -32q30 0 57 70l38 -14q-34 -115 -116 -115
q-43 0 -67.5 24t-24.5 62q0 26 7 48l35 131q7 24 7 44q-1 29 -19 46t-48 17q-42 0 -76.5 -34.5t-48.5 -98.5l-54 -232h-88zM401 593q0 28 21 44q-21 26 -58 26q-47 0 -75 -34q-20 -23 -28 -61l-32 -137h181l26 110q-16 6 -25.5 20.5t-9.5 31.5z" />
    <glyph glyph-name="f_j" unicode="fj" horiz-adv-x="535" 
d="M505 431l-92 -398q-33 -139 -82 -188q-43 -43 -105 -43q-37 0 -59 18t-22 44q0 22 15 37.5t37 15.5q18 0 32.5 -11t17.5 -27q23 5 37 29q22 36 45 131l72 318h-189l-82 -357h-86l82 357h-76l19 74h74l27 115q17 74 61 124q57 68 144 68q49 0 78.5 -22.5t29.5 -54.5
q0 -25 -15.5 -41t-39.5 -16t-39 15.5t-15 37.5v4q-4 1 -10 1q-41 0 -68 -35q-29 -31 -44 -97l-23 -99h276z" />
    <glyph glyph-name="f_k" unicode="fk" horiz-adv-x="774" 
d="M311 0l82 357h-181l-82 -357h-86l83 357h-77l19 74h75l35 150q11 50 40 87q55 70 151 70q72 0 113 -52l29 46h54l-118 -506q164 59 197 110q-27 16 -27 46q0 23 16.5 40t40.5 17q25 0 42 -17.5t17 -46.5q0 -94 -169 -174l42 -98q13 -31 22 -41q9 -9 20 -9q25 0 46 80
l40 -13q-16 -72 -42.5 -99.5t-63.5 -27.5q-33 0 -56 19q-23 20 -37 55l-47 112l-52 -20l-38 -159h-88zM401 593q0 28 21 44q-21 26 -58 26q-47 0 -75 -34q-20 -23 -28 -61l-32 -137h181l26 110q-16 6 -25.5 20.5t-9.5 31.5z" />
    <glyph glyph-name="f_f_b" unicode="ffb" horiz-adv-x="1101" 
d="M69 431h74l29 125q11 52 41 90q55 71 151 71q37 0 62 -17t25 -47q0 -23 -16 -39t-38 -16q-43 0 -53 45q-35 -6 -60 -34q-20 -23 -28 -61l-27 -117h194l35 150q12 51 41 87q55 70 151 70q72 0 113 -52l29 46h54l-88 -380q63 87 145 87q74 0 116 -47.5t42 -126.5
q0 -112 -67.5 -192.5t-161.5 -80.5q-48 0 -84.5 27.5t-47.5 71.5l-26 -91h-82l82 357h-183l-81 -357h-86l82 357h-194l-82 -357h-86l82 357h-76zM820 69q63 0 106.5 55.5t43.5 128.5q0 50 -25.5 80.5t-70.5 30.5q-63 0 -110 -58.5t-47 -131.5q0 -48 27 -76.5t76 -28.5z
M705 579q-2 20 12 30q-8 26 -28 40t-45 14q-47 0 -75 -34q-19 -22 -29 -61l-32 -137h183l26 113q2 8 4 24q-8 -3 -12 -1.5t-4 12.5zM751 566h-1h1z" />
    <glyph glyph-name="f_f_h" unicode="ffh" horiz-adv-x="1103" 
d="M591 0l82 357h-182l-81 -357h-86l82 357h-194l-82 -357h-86l82 357h-76l19 74h74l29 125q11 52 41 90q55 71 151 71q37 0 62 -17t25 -47q0 -23 -16 -39t-38 -16q-43 0 -53 45q-35 -6 -60 -34q-20 -23 -28 -61l-27 -117h194l35 150q12 51 41 87q55 70 151 70q72 0 113 -52
l29 46h54l-90 -385q25 39 62 65t77 26q51 0 85 -33t34 -89q0 -36 -11 -70l-35 -128q-5 -22 -5 -34q0 -32 26 -32q31 0 56 70l39 -14q-34 -115 -117 -115q-43 0 -67.5 24t-24.5 62q0 20 7 48l36 131q6 20 6 44q0 28 -18.5 45.5t-47.5 17.5q-42 0 -76.5 -34.5t-48.5 -98.5
l-54 -232h-88zM681 593q0 28 21 44q-21 26 -58 26q-47 0 -75 -34q-19 -22 -29 -61l-32 -137h182l26 109q-35 14 -35 53z" />
    <glyph glyph-name="f_f_j" unicode="ffj" horiz-adv-x="815" 
d="M44 0l82 357h-76l19 74h74l29 125q11 52 41 90q55 71 151 71q37 0 62 -17t25 -47q0 -23 -16 -39t-38 -16q-43 0 -53 45q-35 -6 -60 -34q-20 -23 -28 -61l-27 -117h194l27 115q17 74 61 124q57 68 143 68q50 0 79.5 -22.5t29.5 -54.5q0 -25 -16 -41t-40 -16t-38.5 15.5
t-14.5 37.5v4q-4 1 -11 1q-40 0 -67 -35q-29 -31 -44 -97l-23 -99h276l-92 -398q-33 -139 -82 -188q-43 -43 -106 -43q-36 0 -58.5 18t-22.5 44q0 22 15.5 37.5t37.5 15.5q18 0 32.5 -11t17.5 -27q21 5 36 29q24 39 45 131l73 318h-189l-82 -357h-86l82 357h-194l-82 -357
h-86z" />
    <glyph glyph-name="f_f_k" unicode="ffk" horiz-adv-x="1054" 
d="M591 0l82 357h-182l-81 -357h-86l82 357h-194l-82 -357h-86l82 357h-76l19 74h74l29 125q11 52 41 90q55 71 151 71q37 0 62 -17t25 -47q0 -23 -16 -39t-38 -16q-43 0 -53 45q-35 -6 -60 -34q-20 -23 -28 -61l-27 -117h194l35 150q12 51 41 87q55 70 151 70q72 0 113 -52
l29 46h54l-118 -506q164 59 197 110q-27 16 -27 46q0 23 16.5 40t40.5 17q25 0 42 -17.5t17 -46.5q0 -94 -169 -174l42 -98q13 -31 22 -41q9 -9 20 -9q25 0 46 80l40 -13q-16 -72 -42.5 -99.5t-63.5 -27.5q-33 0 -56 19q-23 20 -37 55l-47 112q-10 -4 -29 -10.5t-23 -8.5
l-38 -160h-88zM681 593q0 28 21 44q-21 26 -58 26q-47 0 -75 -34q-19 -22 -29 -61l-32 -137h182l26 109q-35 14 -35 53z" />
    <glyph glyph-name=".notdef" horiz-adv-x="500" 
d="M0 -200v1000h500v-1000h-500zM71 750l179 -390l179 390h-358zM50 -76l172 376l-172 376v-752zM450 676l-172 -376l172 -376v752zM250 240l-179 -390h358z" />
    <glyph glyph-name=".null" 
 />
    <glyph glyph-name="nonmarkingreturn" horiz-adv-x="333" 
 />
    <glyph glyph-name="space" unicode=" " horiz-adv-x="208" 
 />
    <glyph glyph-name="exclam" unicode="!" horiz-adv-x="254" 
d="M107 185l70 472h110l-137 -472h-43zM105 -8q-27 0 -45.5 19t-18.5 46t18.5 46.5t45.5 19.5t45.5 -19.5t18.5 -46.5t-18.5 -46t-45.5 -19z" />
    <glyph glyph-name="quotedbl" unicode="&#x22;" horiz-adv-x="375" 
d="M280 400l16 209q2 28 18.5 44.5t39.5 16.5q25 0 41.5 -16.5t16.5 -39.5q0 -12 -8 -30l-88 -184h-36zM100 400l16 209q2 28 19 44.5t40 16.5q24 0 40.5 -16.5t16.5 -39.5q0 -14 -7 -30l-89 -184h-36z" />
    <glyph glyph-name="numbersign" unicode="#" horiz-adv-x="573" 
d="M80 325l17 71h98l33 119h79l-33 -119h117l33 119h79l-33 -119h90l-17 -71h-93l-35 -127h96l-17 -71h-99l-35 -127h-79l36 127h-119l-34 -127h-79l35 127h-89l17 71h92l35 127h-95zM252 328l-38 -133h124l37 133h-123z" />
    <glyph glyph-name="dollar" unicode="$" horiz-adv-x="504" 
d="M188 -106l-61 17q13 48 31 100q-56 17 -92.5 50t-36.5 72q0 26 15 44t40 18q22 0 36.5 -15t14.5 -36q0 -23 -17 -38q15 -21 65 -34l50 159q-29 13 -48 23.5t-40 27.5t-31.5 39.5t-10.5 51.5q0 59 55 101.5t142 42.5q12 0 18 -1l22 68l61 -17l-20 -62q49 -14 80 -44
t31 -66q0 -28 -15.5 -44.5t-39.5 -16.5q-22 0 -36.5 14.5t-14.5 35.5q0 22 16 39q-13 13 -46 21l-48 -154q31 -14 51 -25.5t42.5 -29t33.5 -39.5t11 -49q0 -65 -54 -107t-143 -42q-10 0 -28 2zM355 137q0 41 -72 73l-45 -145h4q51 0 82 19t31 53zM194 382q0 -36 64 -68
l42 136q-51 0 -78.5 -18.5t-27.5 -49.5z" />
    <glyph glyph-name="percent" unicode="%" horiz-adv-x="652" 
d="M469 45q28 0 50.5 27t22.5 63q0 25 -14 41t-37 16q-29 0 -51 -27t-22 -63q0 -25 14 -41t37 -16zM71 -2l-34 39q107 87 288 242q89 77 284 251l34 -39q-109 -89 -289 -243q-65 -56 -170 -149.5t-113 -100.5zM175 323q29 0 51 27.5t22 63.5q0 25 -14 41t-37 16
q-28 0 -50.5 -27t-22.5 -63q0 -25 14 -41.5t37 -16.5zM173 271q-49 0 -79.5 31t-30.5 79q0 57 39.5 100t97.5 43q49 0 79.5 -31.5t30.5 -79.5q0 -57 -40 -99.5t-97 -42.5zM466 -8q-49 0 -79.5 31t-30.5 79q0 57 40 100t97 43q49 0 79.5 -31t30.5 -79q0 -58 -39.5 -100.5
t-97.5 -42.5z" />
    <glyph glyph-name="ampersand" unicode="&#x26;" horiz-adv-x="633" 
d="M15 145q0 130 177 203q-38 63 -38 121q0 70 52 119.5t128 49.5q67 0 108.5 -39.5t41.5 -93.5q0 -61 -47 -105.5t-133 -80.5l31 -36l65 -77q48 65 83.5 92.5t79.5 27.5q31 0 51 -19t20 -44q0 -23 -16.5 -39.5t-39.5 -16.5q-34 0 -48 30q-19 -6 -73 -79l-6 -9l97 -111
l-57 -52l-92 109q-96 -108 -208 -108q-81 0 -128.5 44t-47.5 114zM199 63q75 0 151 87l-76 91q-27 33 -42 52q-65 -30 -95.5 -63t-30.5 -78q0 -41 25 -65t68 -24zM237 468q0 -52 27 -95q68 30 101.5 59.5t33.5 71.5q0 26 -19 45.5t-50 19.5q-41 0 -67 -31t-26 -70z" />
    <glyph glyph-name="quotesingle" unicode="'" horiz-adv-x="195" 
d="M100 400l16 209q2 28 19 44.5t40 16.5q24 0 40.5 -16.5t16.5 -39.5q0 -14 -7 -30l-89 -184h-36z" />
    <glyph glyph-name="parenleft" unicode="(" horiz-adv-x="388" 
d="M286 -224q-93 74 -154.5 180t-61.5 236q0 188 105.5 335t278.5 223l33 -64q-157 -76 -242 -206t-85 -290q0 -107 48.5 -199t125.5 -160z" />
    <glyph glyph-name="parenright" unicode=")" horiz-adv-x="406" 
d="M-16 -224l-33 64q157 76 242 205.5t85 289.5q0 107 -48.5 199t-125.5 161l48 55q93 -74 154.5 -180t61.5 -236q0 -188 -105.5 -335t-278.5 -223z" />
    <glyph glyph-name="asterisk" unicode="*" horiz-adv-x="428" 
d="M329 344q-15 0 -27.5 13.5t-15.5 34.5l-16 103l-59 -85q-18 -27 -45 -27q-18 0 -28.5 12t-10.5 28q0 27 34 44l94 49l-102 31q-41 13 -41 44q0 17 12 29t28 12q21 0 41 -20l75 -75l-1 107q-1 24 10 39.5t29 15.5q27 0 38.5 -19.5t-4.5 -53.5l-49 -94l101 33q11 4 25 4
q18 0 30 -11.5t12 -28.5q0 -23 -17 -33.5t-45 -5.5l-104 17l63 -86q14 -19 14 -41q0 -15 -13 -25.5t-28 -10.5z" />
    <glyph glyph-name="plus" unicode="+" horiz-adv-x="438" 
d="M313 446l-31 -133h135l-18 -74h-134l-33 -141h-75l33 141h-135l18 74h134l31 133h75z" />
    <glyph glyph-name="comma" unicode="," horiz-adv-x="227" 
d="M-40 -151l-19 36q62 33 94 66t35 53q-21 8 -33.5 26t-12.5 34q0 29 20.5 49.5t49.5 20.5q30 0 51 -22t21 -56q0 -56 -56.5 -115t-149.5 -92z" />
    <glyph glyph-name="hyphen" unicode="-" horiz-adv-x="338" 
d="M49 236l20 88h246l-20 -88h-246z" />
    <glyph glyph-name="period" unicode="." horiz-adv-x="227" 
d="M94 -8q-29 0 -49.5 21t-20.5 50t20.5 50t49.5 21t49.5 -21t20.5 -50t-20.5 -50t-49.5 -21z" />
    <glyph glyph-name="slash" unicode="/" horiz-adv-x="398" 
d="M-26 -210l-67 38l524 915l67 -39z" />
    <glyph glyph-name="zero" unicode="0" horiz-adv-x="579" 
d="M277 -8q-103 0 -162.5 66t-59.5 166q0 117 79 208t195 91q102 0 162 -66.5t60 -165.5q0 -117 -79 -208t-195 -91zM279 66q77 0 129 67t52 157q0 69 -37.5 113.5t-95.5 44.5q-77 0 -129.5 -66.5t-52.5 -156.5q0 -69 37.5 -114t96.5 -45z" />
    <glyph glyph-name="one" unicode="1" horiz-adv-x="409" 
d="M9 1l17 72h118l82 355l-110 -27l-3 75l179 45l39 -18l-100 -430h119l-16 -72h-325z" />
    <glyph glyph-name="two" unicode="2" horiz-adv-x="522" 
d="M14 0l-10 48q32 70 96 118.5t154 89.5q77 35 114 61.5t37 62.5q0 31 -29.5 49.5t-77.5 18.5q-66 0 -100 -32q16 -14 16 -37t-16 -39t-39 -16q-24 0 -41.5 17t-17.5 43q0 53 58 96t147 43q85 0 138 -39.5t53 -98.5q0 -33 -16.5 -61.5t-50 -52t-63 -39t-76.5 -35.5
q-79 -35 -118.5 -62t-64.5 -64h258l20 85h74l-36 -156h-409z" />
    <glyph glyph-name="three" unicode="3" horiz-adv-x="499" 
d="M199 -126q-87 0 -148.5 44t-61.5 103q0 30 16 48.5t41 18.5q23 0 38 -15t15 -36q0 -32 -25 -43q8 -17 42.5 -32t84.5 -15q61 0 99.5 34t38.5 82q0 50 -40.5 81.5t-108.5 31.5h-25l18 71h23q81 0 133 31.5t52 84.5q0 40 -31.5 63.5t-83.5 23.5q-64 0 -93 -25
q17 -12 17 -36q0 -22 -15 -37t-38 -15t-39.5 15.5t-16.5 43.5q0 52 55 89.5t134 37.5q91 0 146 -43.5t55 -111.5q0 -60 -45.5 -103.5t-129.5 -56.5q60 -22 90 -61.5t30 -86.5q0 -79 -64 -132.5t-163 -53.5z" />
    <glyph glyph-name="four" unicode="4" horiz-adv-x="561" 
d="M446 288l-38 -163h105l-16 -72h-105l-40 -173h-86l40 173h-289l-9 40l425 437l55 -51l-345 -354h180l30 130z" />
    <glyph glyph-name="five" unicode="5" horiz-adv-x="500" 
d="M189 -124q-82 0 -136.5 36t-54.5 84q0 28 17.5 46t41.5 18q23 0 39.5 -16t16.5 -40q0 -20 -10 -29q23 -23 89 -23q72 0 117.5 42.5t45.5 104.5q0 50 -34.5 78.5t-94.5 28.5q-54 0 -106 -25l-50 31l102 303h324l-18 -82h-259l-56 -171q43 19 92 19q81 0 134 -47.5
t53 -128.5q0 -92 -72 -160.5t-181 -68.5z" />
    <glyph glyph-name="six" unicode="6" horiz-adv-x="544" 
d="M114 51q-58 58 -58 168q0 98 37.5 195t108.5 159q80 70 183 70q68 0 113.5 -30.5t45.5 -73.5q0 -26 -16 -43.5t-41 -17.5q-23 0 -38.5 15.5t-15.5 38.5q0 16 9 24q-19 17 -61 17q-73 0 -133 -56q-35 -32 -64.5 -88t-40.5 -114q25 37 71.5 64t103.5 27q83 0 134.5 -50
t51.5 -128q0 -97 -69.5 -166.5t-172.5 -69.5q-91 0 -148 59zM141 184q0 -50 31 -83q32 -34 90 -34q63 0 108 46t45 108q0 51 -30 81.5t-85 30.5q-67 0 -113 -44.5t-46 -104.5z" />
    <glyph glyph-name="seven" unicode="7" horiz-adv-x="504" 
d="M111 -123l-69 47l369 520h-247l-25 -105h-78l41 176h408l18 -38z" />
    <glyph glyph-name="eight" unicode="8" horiz-adv-x="531" 
d="M252 -8q-90 0 -147.5 50.5t-57.5 119.5q0 64 40.5 109.5t111.5 64.5q-80 47 -80 130q0 72 61.5 124.5t149.5 52.5t142.5 -48.5t54.5 -117.5q0 -58 -36.5 -100t-99.5 -59q45 -22 70 -59.5t25 -80.5q0 -77 -65.5 -131.5t-168.5 -54.5zM313 360q54 0 91 32t37 79
q0 42 -31 70t-81 28q-54 0 -90 -32.5t-36 -78.5q0 -41 31 -69.5t79 -28.5zM257 65q63 0 102.5 35t39.5 87q0 46 -36.5 76.5t-88.5 30.5q-61 0 -101.5 -36.5t-40.5 -86.5q0 -46 36.5 -76t88.5 -30z" />
    <glyph glyph-name="nine" unicode="9" horiz-adv-x="544" 
d="M181 -127q-68 0 -114 30.5t-46 73.5q0 26 16 43.5t41 17.5q23 0 39 -15.5t16 -37.5q0 -15 -10 -25q26 -16 65 -16q69 0 128 55q37 33 66 89t40 113q-25 -37 -71 -64.5t-104 -27.5q-83 0 -134.5 50t-51.5 128q0 97 70 166.5t172 69.5q91 0 148 -59q58 -58 58 -168
q0 -96 -34 -186.5t-94 -150.5q-86 -86 -200 -86zM424 332q0 50 -31 81q-34 36 -90 36q-63 0 -108 -46.5t-45 -107.5q0 -52 30.5 -82t85.5 -30q66 0 112 44.5t46 104.5z" />
    <glyph glyph-name="colon" unicode=":" horiz-adv-x="257" 
d="M169 256q-29 0 -49 20t-20 49t20 49.5t49 20.5t49 -20.5t20 -49.5t-20 -49t-49 -20zM109 -8q-29 0 -49 20.5t-20 49.5q0 28 20 48.5t49 20.5t49 -20t20 -49t-20 -49.5t-49 -20.5z" />
    <glyph glyph-name="semicolon" unicode=";" horiz-adv-x="257" 
d="M169 256q-29 0 -49 20t-20 49t20 49.5t49 20.5t49 -20.5t20 -49.5t-20 -49t-49 -20zM-23 -148l-18 36q61 32 91.5 63.5t33.5 52.5q-21 8 -32.5 25.5t-11.5 33.5q0 29 20 48.5t48 19.5q30 0 50.5 -21.5t20.5 -55.5q0 -54 -55 -111.5t-147 -90.5z" />
    <glyph glyph-name="less" unicode="&#x3c;" horiz-adv-x="451" 
d="M273 74l-214 177l10 44l292 175l37 -56l-246 -147l167 -139z" />
    <glyph glyph-name="equal" unicode="=" horiz-adv-x="438" 
d="M92 320l17 75h317l-17 -75h-317zM52 149l17 75h318l-17 -75h-318z" />
    <glyph glyph-name="greater" unicode="&#x3e;" horiz-adv-x="418" 
d="M87 76l-36 57l246 147l-168 138l47 54l214 -177l-11 -44z" />
    <glyph glyph-name="question" unicode="?" horiz-adv-x="463" 
d="M139 185l24 156q120 6 179 49t59 106q0 45 -30.5 70.5t-79.5 25.5q-36 0 -61 -10.5t-32 -24.5q22 -15 22 -41q0 -22 -16 -38t-39 -16q-24 0 -40.5 18t-16.5 46q0 62 58 103t134 41q83 0 138.5 -45.5t55.5 -123.5q0 -85 -66.5 -147.5t-194.5 -76.5l-36 -92h-58zM140 -8
q-27 0 -46 19t-19 46t19 46.5t46 19.5t45.5 -19.5t18.5 -46.5t-18.5 -46t-45.5 -19z" />
    <glyph glyph-name="at" unicode="@" horiz-adv-x="809" 
d="M343 -177q-132 0 -216 88.5t-84 227.5q0 196 124.5 335t299.5 139q135 0 218 -81t83 -210q0 -121 -57.5 -205t-143.5 -84q-48 0 -75 24t-29 61q-49 -85 -130 -85q-50 0 -83 38.5t-33 99.5q0 90 53.5 157t127.5 67t104 -79l23 73h80l-57 -226q-20 -74 37 -74q53 0 93 69
t40 162q0 107 -68 177t-182 70q-156 0 -265.5 -126t-109.5 -304q0 -116 70.5 -192.5t181.5 -76.5q83 0 159 41l21 -40q-86 -46 -182 -46zM372 107q45 0 79.5 40.5t34.5 96.5q0 35 -18.5 54.5t-52.5 19.5q-45 0 -76.5 -40.5t-31.5 -95.5q0 -33 17 -54t48 -21z" />
    <glyph glyph-name="A" unicode="A" horiz-adv-x="704" 
d="M-27 0l19 81h60l294 497h-78l18 80h331l-19 -80h-74l64 -497h69l-19 -81h-228l18 80h74l-17 139h-262l-81 -139h87l-19 -80h-237zM268 296h207l-36 289z" />
    <glyph glyph-name="B" unicode="B" horiz-adv-x="596" 
d="M-1 0l19 81h75l115 496h-85l18 81h225q92 0 143 -27q38 -20 59.5 -54.5t21.5 -76.5q0 -65 -46 -110t-115 -55q51 -15 84.5 -53t33.5 -86q0 -82 -59 -133q-47 -41 -127 -55q-37 -8 -93 -8h-269zM251 373h64q85 0 133 30.5t48 86.5q0 53 -49 74q-37 15 -93 15h-55zM183 79
h98q34 0 67 7q48 10 75 37q30 30 30 78q0 45 -39.5 72t-108.5 27h-70z" />
    <glyph glyph-name="C" unicode="C" horiz-adv-x="679" 
d="M352 -11q-121 0 -202 77.5t-81 210.5q0 160 110.5 276.5t264.5 116.5q103 0 169.5 -51.5t66.5 -113.5q0 -33 -19.5 -55.5t-47.5 -22.5q-25 0 -42.5 17t-17.5 41q0 29 25 47q-10 21 -47 38t-90 17q-115 0 -196.5 -91.5t-81.5 -211.5q0 -97 53.5 -154.5t143.5 -57.5
q105 0 195 88l55 -55q-107 -116 -258 -116z" />
    <glyph glyph-name="D" unicode="D" horiz-adv-x="701" 
d="M-1 0l19 81h75l115 496h-85l18 81h212q171 0 263 -92q71 -71 71 -187q0 -152 -104 -258q-122 -121 -340 -121h-244zM183 81h74q165 0 255 92q80 80 80 201q0 86 -51 137q-66 66 -197 66h-45z" />
    <glyph glyph-name="E" unicode="E" horiz-adv-x="578" 
d="M-1 0l19 81h75l115 496h-85l18 81h485l-42 -173h-86l22 93h-221l-48 -204h205l-18 -78h-204l-51 -216h222l23 93h86l-40 -173h-475z" />
    <glyph glyph-name="F" unicode="F" horiz-adv-x="558" 
d="M-1 0l19 81h75l115 496h-85l18 81h476l-42 -173h-86l22 93h-212l-51 -216h199l-18 -79h-198l-48 -202h95l-19 -81h-260z" />
    <glyph glyph-name="G" unicode="G" horiz-adv-x="715" 
d="M510 0l10 67q-92 -78 -200 -78q-105 0 -178 76t-73 196q0 167 114.5 288t279.5 121q131 0 199 -68q39 -38 39 -84q0 -32 -19.5 -52t-45.5 -20t-43 16.5t-17 41.5q0 23 20 41l-7 8q-36 34 -127 34q-126 0 -212.5 -94.5t-86.5 -226.5q0 -89 50.5 -141.5t128.5 -52.5
q109 0 184 57l29 123h-176l18 77h267l-78 -329h-76z" />
    <glyph glyph-name="H" unicode="H" horiz-adv-x="759" 
d="M-1 0l19 81h75l115 496h-85l18 81h256l-19 -81h-79l-47 -202h332l47 202h-90l19 81h255l-18 -81h-76l-115 -496h85l-18 -81h-255l18 81h80l50 215h-332l-51 -215h90l-19 -81h-255z" />
    <glyph glyph-name="I" unicode="I" horiz-adv-x="357" 
d="M2 0l19 81h82l115 496h-89l19 81h262l-18 -81h-83l-115 -496h89l-19 -81h-262z" />
    <glyph glyph-name="J" unicode="J" horiz-adv-x="561" 
d="M205 -11q-75 0 -130 45t-55 113q0 40 21.5 65t53.5 25q23 0 39 -15.5t16 -38.5q0 -19 -11.5 -33t-31.5 -18q2 -26 30 -43.5t74 -17.5q69 0 107 49q31 39 49 117l79 340h-110l19 81h272l-19 -81h-74l-81 -351q-24 -107 -72 -163q-61 -74 -176 -74z" />
    <glyph glyph-name="K" unicode="K" horiz-adv-x="662" 
d="M642 577l-251 -211l135 -285h92l-19 -81h-138l-140 311l-105 -88l-33 -142h89l-19 -81h-254l19 81h75l115 496h-85l18 81h248l-18 -79h-72l-60 -255l291 255h-76l17 79h258l-18 -81h-69z" />
    <glyph glyph-name="L" unicode="L" horiz-adv-x="547" 
d="M-1 0l19 81h75l115 496h-85l18 81h262l-19 -81h-85l-116 -497h205l23 97h87l-41 -177h-458z" />
    <glyph glyph-name="M" unicode="M" horiz-adv-x="857" 
d="M-3 0l18 81h76l138 496h-86l18 81h160l114 -416l297 416h167l-19 -81h-76l-93 -496h87l-18 -81h-254l18 81h78l79 409l-286 -394h-14l-112 394l-109 -409h89l-19 -81h-253z" />
    <glyph glyph-name="N" unicode="N" horiz-adv-x="744" 
d="M538 -2l-259 506l-98 -423h90l-19 -81h-253l19 81h75l115 496h-85l18 81h161l237 -466l89 385h-89l19 81h251l-18 -81h-74l-135 -579h-44z" />
    <glyph glyph-name="O" unicode="O" horiz-adv-x="731" 
d="M350 -12q-130 0 -205.5 80.5t-75.5 207.5q0 72 27.5 142.5t75 126.5t116.5 90.5t146 34.5q130 0 205.5 -80.5t75.5 -207.5q0 -97 -46.5 -187t-131.5 -148.5t-187 -58.5zM358 71q110 0 186.5 95.5t76.5 215.5q0 89 -50.5 147t-144.5 58q-110 0 -187 -95.5t-77 -215.5
q0 -89 51 -147t145 -58z" />
    <glyph glyph-name="P" unicode="P" horiz-adv-x="566" 
d="M-1 0l19 81h75l115 496h-85l18 81h221q42 0 84 -10q70 -18 107 -65.5t37 -112.5q0 -102 -75.5 -171.5t-203.5 -69.5q-57 0 -93 2l-35 -150h90l-19 -81h-255zM322 309q83 0 129.5 44.5t46.5 111.5q0 81 -85 105q-25 7 -60 7h-54l-62 -266q46 -2 85 -2z" />
    <glyph glyph-name="Q" unicode="Q" horiz-adv-x="731" 
d="M715 382q0 -133 -86 -247t-216 -140q39 -73 125 -73q36 0 73 19l27 -68q-54 -27 -105 -27q-68 0 -125.5 38t-91.5 106q-115 10 -181 89t-66 197q0 72 27.5 142.5t75 126.5t116.5 90.5t146 34.5q130 0 205.5 -80.5t75.5 -207.5zM358 71q110 0 186.5 95.5t76.5 215.5
q0 89 -50.5 147t-144.5 58q-110 0 -187 -95.5t-77 -215.5q0 -89 51 -147t145 -58z" />
    <glyph glyph-name="R" unicode="R" horiz-adv-x="604" 
d="M-1 0l19 81h75l115 496h-85l18 81h208q134 0 194 -61q47 -45 47 -119q0 -75 -48.5 -130.5t-133.5 -77.5l88 -189h78l-19 -81h-123l-112 259h-25q-25 0 -69 2l-43 -180h87l-19 -81h-252zM322 336q81 0 128.5 38t47.5 98q0 43 -27 70q-35 35 -125 35h-48l-55 -238
q34 -3 79 -3z" />
    <glyph glyph-name="S" unicode="S" horiz-adv-x="558" 
d="M269 -12q-96 0 -164.5 48t-68.5 108q0 34 19 55.5t48 21.5q24 0 41 -17t17 -40q0 -32 -25 -50q38 -47 138 -47q56 0 93.5 27.5t37.5 73.5q0 36 -27 63.5t-85 59.5q-74 43 -115 87t-41 111q0 74 62 127.5t161 53.5q89 0 149 -43t60 -96q0 -34 -18.5 -55.5t-46.5 -21.5
q-25 0 -41.5 17t-16.5 41q0 27 22 46q-27 33 -108 33q-58 0 -93 -27t-35 -67q0 -39 28.5 -67t91.5 -64q69 -39 109 -83t40 -107q0 -81 -64 -134.5t-168 -53.5z" />
    <glyph glyph-name="T" unicode="T" horiz-adv-x="621" 
d="M136 0l19 81h81l116 498h-146l-23 -104h-87l42 183h554l-42 -183h-86l23 104h-145l-115 -498h91l-18 -81h-264z" />
    <glyph glyph-name="U" unicode="U" horiz-adv-x="704" 
d="M326 -11q-99 0 -155.5 53t-56.5 142q0 36 12 87l71 306h-84l19 81h252l-18 -81h-79l-71 -310q-11 -50 -11 -75q0 -58 33.5 -89.5t99.5 -31.5q68 0 111 41t59 115l80 350h-89l19 81h252l-19 -81h-74l-83 -359q-26 -112 -90 -170.5t-178 -58.5z" />
    <glyph glyph-name="V" unicode="V" horiz-adv-x="683" 
d="M263 -9l-101 586h-68l18 81h234l-18 -81h-68l64 -430l258 430h-75l18 81h239l-18 -81h-59l-372 -586h-52z" />
    <glyph glyph-name="W" unicode="W" horiz-adv-x="961" 
d="M218 -8l-42 585h-71l19 81h242l-18 -81h-83l20 -414l244 423h43l73 -425l202 416h-80l18 81h243l-19 -81h-63l-299 -584h-49l-79 419l-253 -419z" />
    <glyph glyph-name="X" unicode="X" horiz-adv-x="713" 
d="M-16 0l18 81h68l266 262l-133 234h-79l19 81h256l-18 -81h-73l89 -185l174 185h-75l18 81h260l-18 -81h-71l-249 -245l144 -251h77l-18 -81h-252l19 81h75l-104 203l-193 -203h80l-19 -81h-261z" />
    <glyph glyph-name="Y" unicode="Y" horiz-adv-x="639" 
d="M125 0l19 81h84l43 180l-114 316h-66l19 81h232l-18 -81h-73l82 -250l202 250h-72l19 81h241l-18 -81h-63l-285 -333l-38 -163h90l-18 -81h-266z" />
    <glyph glyph-name="Z" unicode="Z" horiz-adv-x="620" 
d="M19 0l-6 48l508 534h-289l-25 -107h-84l43 183h488l6 -48l-509 -534h305l25 107h84l-43 -183h-503z" />
    <glyph glyph-name="bracketleft" unicode="[" horiz-adv-x="351" 
d="M1 -200l216 932h242l-17 -75h-157l-182 -781h157l-17 -76h-242z" />
    <glyph glyph-name="backslash" unicode="\" horiz-adv-x="331" 
d="M183 -203l-66 933l76 7l66 -933z" />
    <glyph glyph-name="bracketright" unicode="]" horiz-adv-x="351" 
d="M-86 -200l18 75h157l181 781h-157l18 76h242l-216 -932h-243z" />
    <glyph glyph-name="asciicircum" unicode="^" horiz-adv-x="448" 
d="M128 343l-36 45l201 160l121 -165l-44 -38l-95 88z" />
    <glyph glyph-name="underscore" unicode="_" horiz-adv-x="530" 
d="M-74 -156l20 82h561l-19 -82h-562z" />
    <glyph glyph-name="grave" unicode="`" horiz-adv-x="601" 
d="M392 491l-116 99q-24 20 -24 47q0 20 13.5 33.5t31.5 13.5q30 0 51 -36l73 -135z" />
    <glyph glyph-name="a" unicode="a" horiz-adv-x="568" 
d="M186 -8q-65 0 -106 47t-41 125q0 111 67 193t160 82q47 0 82 -29.5t47 -72.5l28 96h82l-76 -307q-8 -29 -8 -44q0 -30 26 -30q31 0 56 70l39 -14q-35 -115 -119 -115q-38 0 -60.5 24t-22.5 63v5q-67 -93 -154 -93zM221 67q64 0 109 58t45 131q0 49 -25 77.5t-73 28.5
q-62 0 -104.5 -56.5t-42.5 -131.5q0 -49 23.5 -78t67.5 -29z" />
    <glyph glyph-name="b" unicode="b" horiz-adv-x="532" 
d="M23 0l152 658h-81l19 74h165l-89 -382q27 39 65.5 64t79.5 25q74 0 116 -47.5t42 -126.5q0 -112 -67.5 -192.5t-161.5 -80.5q-48 0 -84.5 27.5t-47.5 71.5l-26 -91h-82zM252 69q62 0 106 55.5t44 128.5q0 50 -25.5 80.5t-71.5 30.5q-63 0 -110 -58.5t-47 -131.5
q0 -48 27.5 -76.5t76.5 -28.5z" />
    <glyph glyph-name="c" unicode="c" horiz-adv-x="474" 
d="M241 -8q-88 0 -145.5 51.5t-57.5 139.5q0 103 74.5 179.5t176.5 76.5q69 0 113.5 -36t44.5 -85q0 -29 -16.5 -48.5t-42.5 -19.5q-21 0 -36 15t-15 38t18 38q-21 24 -68 24q-63 0 -112 -49.5t-49 -127.5q0 -56 34 -89.5t89 -33.5q75 0 145 54l-2 -80q-66 -47 -151 -47z
" />
    <glyph glyph-name="d" unicode="d" horiz-adv-x="569" 
d="M39 164q0 112 67 193.5t159 81.5q46 0 81.5 -29t48.5 -70l73 318h-80l18 74h166l-142 -606q-7 -33 -7 -44q0 -30 25 -30q30 0 57 70l39 -14q-35 -115 -119 -115q-39 0 -61.5 24t-22.5 64v4q-64 -93 -153 -93q-65 0 -107 47.5t-42 124.5zM223 67q63 0 108.5 57t45.5 131
q0 50 -26 78.5t-74 28.5q-62 0 -104.5 -56.5t-42.5 -131.5q0 -48 24.5 -77.5t68.5 -29.5z" />
    <glyph glyph-name="e" unicode="e" horiz-adv-x="482" 
d="M431 188h-308v-15q0 -49 35.5 -78.5t94.5 -29.5q69 0 142 39l-17 -82q-61 -30 -143 -30t-140 49t-58 134q0 109 70 186.5t166 77.5q80 0 127 -43t47 -118q0 -42 -16 -90zM273 366q-46 0 -83.5 -31.5t-54.5 -83.5h224q6 18 6 37q0 35 -23.5 56.5t-68.5 21.5z" />
    <glyph glyph-name="f" unicode="f" horiz-adv-x="323" 
d="M44 0l82 357h-75l18 74h74l28 119q21 91 69 139q49 49 123 49q41 0 63.5 -19t22.5 -46q0 -25 -16.5 -40.5t-39.5 -15.5q-22 0 -37.5 13t-17.5 33q-20 -4 -36 -20q-29 -29 -47 -102l-25 -110h113l-19 -74h-111l-82 -357h-87z" />
    <glyph glyph-name="g" unicode="g" horiz-adv-x="531" 
d="M185 -200q-44 0 -87.5 15t-63.5 35q-25 25 -25 56q0 26 15.5 42.5t39.5 16.5q23 0 38 -16t15 -38q0 -15 -6 -26q26 -16 72 -16q59 0 95 36q30 29 48 104l19 81q-60 -85 -148 -85q-72 0 -114.5 47t-42.5 126q0 107 65.5 184t162.5 77q52 0 86 -29t47 -69l27 92h81
l-103 -444q-20 -90 -63 -134q-56 -55 -158 -55zM233 80q63 0 106.5 54t43.5 125q0 48 -28.5 75.5t-75.5 27.5q-63 0 -105.5 -52t-42.5 -126q0 -48 28.5 -76t73.5 -28z" />
    <glyph glyph-name="h" unicode="h" horiz-adv-x="535" 
d="M23 0l152 658h-81l19 74h165l-90 -385q25 39 62 65t77 26q51 0 85 -33t34 -89q0 -36 -11 -70l-35 -128q-5 -22 -5 -34q0 -32 26 -32q31 0 56 70l39 -14q-34 -115 -117 -115q-43 0 -67.5 24t-24.5 62q0 20 7 48l36 131q6 20 6 44q0 28 -18.5 45.5t-47.5 17.5
q-42 0 -76.5 -34.5t-48.5 -98.5l-54 -232h-88z" />
    <glyph glyph-name="i" unicode="i" horiz-adv-x="307" 
d="M207 504q-24 0 -41 17t-17 41t17 41t41 17q23 0 40.5 -17t17.5 -41t-17.5 -41t-40.5 -17zM155 -7q-43 0 -66.5 23.5t-23.5 63.5q0 21 7 47l60 230h-81l19 74h169l-80 -305q-7 -24 -7 -44q0 -30 26 -30q32 0 59 70l39 -14q-35 -115 -121 -115z" />
    <glyph glyph-name="j" unicode="j" horiz-adv-x="282" 
d="M-28 -198q-37 0 -59 18t-22 44q0 22 15.5 37.5t37.5 15.5q18 0 32 -11t18 -27q22 6 36 29q24 39 45 131l73 318h-84l19 74h168l-91 -398q-32 -137 -83 -188q-41 -43 -105 -43zM220 504q-24 0 -41 17t-17 41t17 41t41 17t41 -17t17 -41t-17 -41t-41 -17z" />
    <glyph glyph-name="k" unicode="k" horiz-adv-x="486" 
d="M111 0h-88l152 658h-81l19 74h165l-118 -506q164 59 197 110q-27 16 -27 46q0 23 16.5 40t40.5 17q25 0 42 -17.5t17 -46.5q0 -94 -169 -174l42 -98q13 -31 22 -41q9 -9 20 -9q25 0 46 80l40 -13q-16 -72 -42.5 -99.5t-63.5 -27.5q-33 0 -56 19q-23 20 -37 55l-47 112
q-10 -4 -29 -10.5t-23 -8.5z" />
    <glyph glyph-name="l" unicode="l" horiz-adv-x="291" 
d="M139 -7q-43 0 -66.5 23.5t-23.5 64.5q0 13 6 45l124 532h-81l19 74h166l-140 -605q-7 -30 -7 -43q0 -32 26 -32q32 0 59 70l38 -14q-35 -115 -120 -115z" />
    <glyph glyph-name="m" unicode="m" horiz-adv-x="800" 
d="M41 0l90 357h-80l19 74h154l-24 -101q28 48 65.5 78t78.5 30q47 0 76 -29t33 -78q29 50 68 78.5t78 28.5q49 0 80.5 -33t31.5 -89q0 -31 -11 -70l-37 -127q-6 -26 -6 -35q0 -32 27 -32q31 0 56 70l39 -14q-34 -115 -117 -115q-43 0 -67.5 24t-24.5 62q0 21 7 49l36 126
q8 24 8 48q0 29 -17 46t-42 17q-39 0 -71.5 -35.5t-49.5 -101.5l-58 -228h-88l65 253q7 33 7 51q0 26 -16.5 43.5t-42.5 17.5q-39 0 -72.5 -35.5t-49.5 -100.5l-57 -229h-88z" />
    <glyph glyph-name="n" unicode="n" horiz-adv-x="556" 
d="M418 -7q-43 0 -67.5 24t-24.5 62q0 21 7 49l37 130q7 24 7 44q0 28 -18 45.5t-47 17.5q-41 0 -75 -34t-50 -97l-58 -234h-88l90 357h-80l19 74h154l-23 -101q27 47 67 77.5t82 30.5q51 0 84 -33t33 -89q0 -31 -11 -70l-37 -127q-6 -26 -6 -35q0 -32 27 -32q31 0 56 70
l39 -14q-34 -115 -117 -115z" />
    <glyph glyph-name="o" unicode="o" horiz-adv-x="514" 
d="M232 -8q-90 0 -142 55.5t-52 135.5q0 102 70.5 179t173.5 77q90 0 142 -55.5t52 -136.5q0 -101 -70.5 -178t-173.5 -77zM236 65q63 0 107.5 53.5t44.5 129.5q0 54 -31 85.5t-79 31.5q-63 0 -107.5 -53t-44.5 -129q0 -55 31 -86.5t79 -31.5z" />
    <glyph glyph-name="p" unicode="p" horiz-adv-x="553" 
d="M-68 -196l19 72h64l113 481h-81l19 74h156l-22 -94q68 102 157 102q72 0 114 -47.5t42 -126.5q0 -112 -67.5 -192.5t-162.5 -80.5q-46 0 -80.5 27t-52.5 68l-49 -211h84l-19 -72h-234zM272 69q62 0 106 55.5t44 128.5q0 50 -25.5 80.5t-70.5 30.5q-63 0 -110 -58.5
t-47 -131.5q0 -48 27 -76.5t76 -28.5z" />
    <glyph glyph-name="q" unicode="q" horiz-adv-x="531" 
d="M193 -8q-72 0 -113 47t-41 127q0 111 68 192t163 81q47 0 82 -28t48 -68l26 88h81l-127 -553h88l-19 -74h-172l63 272q-63 -84 -147 -84zM226 67q65 0 110.5 58t45.5 131q0 49 -26 77.5t-74 28.5q-63 0 -107.5 -56.5t-44.5 -130.5q0 -48 25.5 -78t70.5 -30z" />
    <glyph glyph-name="r" unicode="r" horiz-adv-x="401" 
d="M41 0l90 357h-80l19 74h154l-28 -121q80 128 150 128q27 0 45.5 -17t18.5 -43q0 -25 -18 -43t-42 -18q-22 0 -38 12.5t-20 31.5q-29 -13 -64 -59t-51 -109l-48 -193h-88z" />
    <glyph glyph-name="s" unicode="s" horiz-adv-x="433" 
d="M204 -8q-103 0 -156 55q-27 27 -27 57q0 24 14.5 40t36.5 16q21 0 34.5 -14t13.5 -34q0 -16 -10 -28q4 -4 16 -11q34 -17 80 -17q36 0 59.5 14t23.5 39q0 17 -15 31.5t-29.5 22t-46.5 21.5q-28 12 -45 22t-36 25t-28 34.5t-9 44.5q0 54 44.5 91.5t121.5 37.5
q91 0 137 -48q25 -25 25 -56q0 -24 -14.5 -39.5t-35.5 -15.5q-20 0 -34.5 14t-14.5 34q0 13 9 28q-8 5 -15 8q-25 10 -58 10q-34 0 -56.5 -13t-22.5 -36q0 -15 15 -29.5t29.5 -22.5t48.5 -23q55 -25 85.5 -53t30.5 -73q0 -63 -46.5 -97.5t-124.5 -34.5z" />
    <glyph glyph-name="t" unicode="t" horiz-adv-x="352" 
d="M348 357h-131l-55 -221q-6 -22 -6 -38q0 -37 34 -37q29 0 86 38l31 -42q-73 -64 -145 -64q-42 0 -68.5 23.5t-26.5 67.5q0 17 7 52l55 221h-78l17 74h79l25 98l96 33l-33 -131h132z" />
    <glyph glyph-name="u" unicode="u" horiz-adv-x="557" 
d="M67 431h167l-66 -261q-6 -28 -6 -43q0 -28 16 -44.5t44 -16.5q43 0 77 34t50 97l58 234h88l-77 -305q-7 -32 -7 -44q0 -30 25 -30q30 0 57 70l39 -14q-35 -115 -119 -115q-38 0 -60.5 24t-22.5 65v9q-27 -46 -65.5 -72.5t-80.5 -26.5q-47 0 -79.5 31.5t-32.5 82.5
q0 30 10 72l46 179h-80z" />
    <glyph glyph-name="v" unicode="v" horiz-adv-x="483" 
d="M166 -12l-69 369h-75l19 74h132l50 -343q124 134 150 234q-42 15 -42 57q0 25 17.5 42.5t42.5 17.5q29 0 47.5 -21t18.5 -56q0 -67 -63.5 -167.5t-170.5 -206.5h-57z" />
    <glyph glyph-name="w" unicode="w" horiz-adv-x="685" 
d="M139 -12l-37 369h-79l19 74h135l19 -327l153 278h50l58 -286q107 164 115 230q-18 4 -31 18.5t-13 36.5q0 24 16.5 41t41.5 17q30 0 48.5 -20.5t18.5 -55.5q0 -108 -192 -375h-52l-57 263l-155 -263h-58z" />
    <glyph glyph-name="x" unicode="x" horiz-adv-x="531" 
d="M74 -7q-32 0 -51.5 17.5t-19.5 43.5q0 22 15.5 37.5t37.5 15.5q33 0 47 -32q24 5 71 72l47 67l-57 143h-85l19 74h123l53 -149l36 56q63 101 134 101q31 0 51 -18t20 -43q0 -22 -15.5 -37.5t-37.5 -15.5q-35 0 -47 30q-25 -7 -65 -67l-43 -63l48 -116q15 -35 23 -45
t17 -10q23 0 45 69l39 -12q-28 -118 -102 -118q-32 0 -53.5 18.5t-38.5 62.5l-31 83l-43 -66q-62 -98 -137 -98z" />
    <glyph glyph-name="y" unicode="y" horiz-adv-x="490" 
d="M-11 -200q-32 0 -53.5 18.5t-21.5 44.5q0 24 15.5 40t38.5 16q19 0 33.5 -12t18.5 -31q39 2 154 141l-70 340h-76l19 74h132l58 -344q128 169 145 236q-42 15 -42 58q0 24 17 41t42 17q31 0 49 -21t18 -57q0 -99 -199 -345q-107 -131 -165.5 -173.5t-112.5 -42.5z" />
    <glyph glyph-name="z" unicode="z" horiz-adv-x="475" 
d="M35 -8l-32 47l343 323h-183l-20 -81h-75l37 150h335l24 -51l-329 -309q35 11 64 11q21 0 59.5 -9t52.5 -9q33 0 48.5 17.5t32.5 66.5l37 -8q-16 -71 -41.5 -109.5t-81.5 -38.5q-20 0 -79.5 13t-83.5 13q-56 0 -108 -26z" />
    <glyph glyph-name="braceleft" unicode="{" horiz-adv-x="354" 
d="M227 -215q-98 12 -149 55.5t-51 105.5q0 75 91 145q66 51 66 81q0 21 -24.5 38t-71.5 17h-31l19 78h32q59 0 89 23.5t30 55.5q0 30 -33 81q-40 64 -40 111q0 73 69.5 120t202.5 50l-6 -59q-93 -7 -138.5 -37t-45.5 -69q0 -34 37 -93q40 -63 40 -101q0 -48 -35.5 -80.5
t-103.5 -41.5q47 -9 72 -34.5t25 -61.5q0 -48 -82 -114q-80 -62 -80 -107q0 -77 132 -105z" />
    <glyph glyph-name="bar" unicode="|" horiz-adv-x="276" 
d="M100 -200v932h76v-932h-76z" />
    <glyph glyph-name="braceright" unicode="}" horiz-adv-x="354" 
d="M-49 -215l6 60q93 7 138.5 36.5t45.5 69.5q0 34 -37 93q-40 63 -40 101q0 48 35.5 80t103.5 42q-47 8 -72 34t-25 61q0 50 82 114q80 62 80 107q0 78 -132 105l14 59q98 -12 149 -56t51 -106q0 -76 -91 -144q-66 -51 -66 -81q0 -22 24.5 -38.5t71.5 -16.5h31l-19 -78h-32
q-59 0 -89 -23.5t-30 -55.5q0 -30 33 -81q40 -66 40 -111q0 -73 -69.5 -120t-202.5 -51z" />
    <glyph glyph-name="asciitilde" unicode="~" horiz-adv-x="472" 
d="M313 185q-43 0 -84 41q-31 30 -49 30q-36 0 -66 -65l-53 20q15 59 49.5 95t72.5 36q42 0 86 -42q30 -30 48 -30q19 0 34 15t31 51l54 -21q-17 -61 -51 -95.5t-72 -34.5z" />
    <glyph glyph-name="uni00A0" unicode="&#xa0;" horiz-adv-x="208" 
 />
    <glyph glyph-name="exclamdown" unicode="&#xa1;" horiz-adv-x="254" 
d="M204 534q-27 0 -46 19.5t-19 46.5t19 46t46 19t45.5 -19t18.5 -46t-18.5 -46.5t-45.5 -19.5zM22 0l136 472h44l-70 -472h-110z" />
    <glyph glyph-name="cent" unicode="&#xa2;" horiz-adv-x="484" 
d="M259 36q-22 0 -33 2l-43 -144l-60 16l42 143q-54 22 -85.5 67t-31.5 106q0 101 73 176t176 80l32 102l59 -16l-27 -92q51 -11 83 -42.5t32 -70.5q0 -27 -16.5 -46.5t-42.5 -19.5q-21 0 -36.5 15t-15.5 38q0 24 19 38q-14 15 -48 22l-91 -303q7 -1 21 -1q89 0 156 53
l-2 -77q-63 -46 -161 -46zM136 231q0 -71 56 -106l86 285q-59 -11 -100.5 -60t-41.5 -119z" />
    <glyph glyph-name="sterling" unicode="&#xa3;" horiz-adv-x="521" 
d="M511 401q0 -30 -17 -48t-40 -18q-20 0 -35 14.5t-15 36.5t15 37q-6 10 -29 18t-45 8q-61 0 -92.5 -41t-31.5 -111q0 -22 5 -58.5t6 -53.5h174l-16 -68h-160q-12 -84 -76 -136q28 1 84 -17q52 -18 84 -18q30 0 53 10t53 37l40 -44q-61 -78 -152 -78q-46 0 -116 27
q-64 24 -99 25q-43 -50 -94 -50q-23 0 -38.5 13.5t-15.5 31.5q0 31 37.5 50.5t90.5 14.5q58 56 69 134h-112l16 68h98q-1 17 -6.5 54t-5.5 60q0 97 56.5 160.5t148.5 63.5q72 0 119 -36.5t47 -85.5z" />
    <glyph glyph-name="yen" unicode="&#xa5;" horiz-adv-x="507" 
d="M78 238l15 66h98l-65 144h-60l16 67h197l-15 -66h-64l70 -163l146 163h-68l16 66h203l-16 -67h-56l-133 -144h94l-15 -66h-145l-10 -48h144l-15 -67h-144l-12 -58h83l-14 -65h-241l15 65h80l13 58h-143l16 67h143l11 48h-144z" />
    <glyph glyph-name="section" unicode="&#xa7;" horiz-adv-x="426" 
d="M271 465q-27 0 -46 -8.5t-19 -24.5q0 -4 1 -8t4.5 -7.5l6.5 -6.5t8.5 -6.5t10.5 -6.5t13 -7t13.5 -6.5t15.5 -7.5t17 -8q50 -24 75.5 -47t25.5 -55q0 -74 -112 -95q40 -30 40 -75q0 -43 -38.5 -73.5t-108.5 -30.5q-66 0 -103.5 27t-37.5 62q0 19 13 31.5t32 12.5
q18 0 30 -12t12 -29q0 -12 -6 -20q24 -13 59 -13q27 0 45.5 8.5t18.5 24.5q0 15 -20.5 28.5t-68.5 35.5q-51 23 -76.5 46t-25.5 58q0 73 115 93q-42 31 -42 72q0 44 38.5 75t108.5 31q64 0 102 -27.5t38 -61.5q0 -19 -12.5 -31.5t-32.5 -12.5q-18 0 -30 12t-12 30q0 12 6 19
q-23 14 -58 14zM216 206l15 -7q44 10 62.5 21t18.5 30q0 25 -79 59l-19 8q-78 -18 -78 -51q0 -27 80 -60z" />
    <glyph glyph-name="dieresis" unicode="&#xa8;" horiz-adv-x="500" 
d="M430 517q-26 0 -44.5 18.5t-18.5 44.5t19 45t45 19t44.5 -19t18.5 -45t-19 -44.5t-45 -18.5zM242 517q-26 0 -44.5 18.5t-18.5 44.5t19 45t45 19t44.5 -19t18.5 -45t-19 -44.5t-45 -18.5z" />
    <glyph glyph-name="copyright" unicode="&#xa9;" horiz-adv-x="611" 
d="M306 -8q-111 0 -187 77t-76 188t76 188.5t187 77.5t186.5 -77t75.5 -189q0 -110 -76 -187.5t-186 -77.5zM306 32q90 0 153 66t63 160q0 95 -62.5 160t-153.5 65q-92 0 -154.5 -65t-62.5 -160t62.5 -160.5t154.5 -65.5zM315 128q-59 0 -97 37.5t-38 95.5q0 57 39.5 95.5
t93.5 38.5q44 0 72 -19.5t28 -43.5q0 -13 -8 -21.5t-20 -8.5q-11 0 -18.5 8t-7.5 18q0 9 4 13q-16 16 -50 16q-38 0 -63.5 -27t-25.5 -67t25.5 -67.5t66.5 -27.5t75 32l24 -27q-36 -45 -100 -45z" />
    <glyph glyph-name="ordfeminine" unicode="&#xaa;" horiz-adv-x="363" 
d="M157 400q-39 0 -64 28.5t-25 75.5q0 67 41 116.5t96 49.5q28 0 48.5 -17t27.5 -42l16 54h52l-45 -182q-4 -13 -4 -26q0 -17 13 -17q19 0 35 42l25 -11q-22 -70 -73 -70q-50 0 -52 53q-34 -54 -91 -54zM178 449q37 0 63 33.5t26 75.5q0 28 -14.5 44.5t-41.5 16.5
q-35 0 -60 -32.5t-25 -75.5q0 -28 13.5 -45t38.5 -17zM37 291l12 51h285l-12 -51h-285z" />
    <glyph glyph-name="guillemotleft" unicode="&#xab;" horiz-adv-x="515" 
d="M403 100l-151 179l226 177l42 -49l-158 -139l90 -126zM189 100l-150 179l225 177l42 -49l-158 -139l90 -126z" />
    <glyph glyph-name="registered" unicode="&#xae;" horiz-adv-x="398" 
d="M271 336q-75 0 -127.5 51.5t-52.5 126.5t52.5 127t127.5 52t127 -52t52 -127q0 -74 -52.5 -126t-126.5 -52zM271 659q-59 0 -100.5 -42t-41.5 -104q0 -60 41.5 -101.5t100.5 -41.5q58 0 99.5 41.5t41.5 101.5q0 62 -41 104t-100 42zM203 433v29h18v110h-18v29h67
q30 0 49 -13t19 -38q0 -32 -30 -46l22 -42h19v-29h-42l-31 62h-22v-33h19v-29h-70zM254 523h15q34 0 34 25q0 24 -34 24h-15v-49z" />
    <glyph glyph-name="macron" unicode="&#xaf;" horiz-adv-x="500" 
d="M167 531l18 73h312l-16 -73h-314z" />
    <glyph glyph-name="degree" unicode="&#xb0;" horiz-adv-x="327" 
d="M202 407q-53 0 -84 33t-31 80q0 59 41.5 104.5t102.5 45.5q53 0 83.5 -32.5t30.5 -80.5q0 -59 -41 -104.5t-102 -45.5zM204 460q32 0 56 29.5t24 66.5q0 28 -15.5 45t-39.5 17q-32 0 -56.5 -30t-24.5 -67q0 -28 16 -44.5t40 -16.5z" />
    <glyph glyph-name="plusminus" unicode="&#xb1;" horiz-adv-x="438" 
d="M333 516l-32 -135h135l-17 -74h-135l-31 -135h-75l31 135h-134l17 74h134l31 135h76zM8 17l17 74h343l-17 -74h-343z" />
    <glyph glyph-name="two.sup" unicode="&#xb2;" horiz-adv-x="353" 
d="M110 430l-12 28q38 94 175 165q42 22 61 39.5t19 39.5q0 20 -16.5 31.5t-44.5 11.5q-44 0 -59 -19q9 -11 9 -25q0 -15 -10.5 -25.5t-25.5 -10.5q-16 0 -27 11.5t-11 28.5q0 37 39 65.5t91 28.5q51 0 84.5 -26t33.5 -70q0 -40 -30.5 -67t-89.5 -57q-93 -48 -122 -99h146
l14 58h51l-25 -108h-250z" />
    <glyph glyph-name="three.sup" unicode="&#xb3;" horiz-adv-x="353" 
d="M245 424q-50 0 -89.5 23.5t-39.5 63.5q0 17 10.5 29t26.5 12t26 -10.5t10 -25.5q0 -13 -9 -22q14 -18 65 -18q37 0 58 16t21 42q0 20 -21.5 37.5t-58.5 17.5h-24l13 55h23q41 0 67 15t26 40q0 21 -19.5 34t-48.5 13q-23 0 -41 -9q6 -8 6 -15q0 -15 -11 -25.5t-26 -10.5
t-26 11t-11 27q0 28 31.5 50.5t85.5 22.5q56 0 90 -27.5t34 -63.5q0 -41 -28.5 -65t-77.5 -28q78 -19 78 -83q0 -50 -42 -78t-98 -28z" />
    <glyph glyph-name="acute" unicode="&#xb4;" horiz-adv-x="500" 
d="M236 501l-23 29l141 131q21 23 47 23q18 0 30.5 -13t12.5 -31q0 -32 -37 -52z" />
    <glyph glyph-name="paragraph" unicode="&#xb6;" horiz-adv-x="589" 
d="M129 0l18 73h80q29 118 30 118q-64 -1 -107 20q-48 6 -73.5 37t-25.5 74q0 84 68.5 131.5t171.5 47.5h320l-18 -75h-79l-87 -351h82l-18 -75h-362zM298 72h57l88 357h-56z" />
    <glyph glyph-name="periodcentered" unicode="&#xb7;" horiz-adv-x="227" 
d="M128 196q-29 0 -49.5 21t-20.5 50t20.5 50t49.5 21t49.5 -21t20.5 -50t-20.5 -50t-49.5 -21z" />
    <glyph glyph-name="cedilla" unicode="&#xb8;" horiz-adv-x="500" 
d="M169 -200q-65 0 -120 43l20 30q45 -28 95 -28q18 0 29.5 8.5t11.5 20.5q0 14 -16.5 22.5t-48.5 4.5l-15 20l60 101l30 -8l-17 -63q40 -5 62 -25t22 -49q0 -35 -32 -56t-81 -21z" />
    <glyph glyph-name="one.sup" unicode="&#xb9;" horiz-adv-x="353" 
d="M112 430l12 54h96l57 248l-93 -21l-3 54l138 33l30 -14l-69 -300h94l-12 -54h-250z" />
    <glyph glyph-name="ordmasculine" unicode="&#xba;" horiz-adv-x="342" 
d="M202 402q-55 0 -86 33t-31 82q0 62 41.5 107.5t104.5 45.5q55 0 86 -33t31 -82q0 -61 -41.5 -107t-104.5 -46zM45 291l12 51h246l-12 -51h-246zM204 450q38 0 63.5 30.5t25.5 74.5q0 31 -18.5 49.5t-46.5 18.5q-37 0 -62.5 -30.5t-25.5 -74.5q0 -31 18 -49.5t46 -18.5z
" />
    <glyph glyph-name="guillemotright" unicode="&#xbb;" horiz-adv-x="515" 
d="M284 100l-42 49l158 139l-90 126l49 42l151 -179zM70 100l-42 49l158 139l-90 126l50 42l150 -179z" />
    <glyph glyph-name="onequarter" unicode="&#xbc;" horiz-adv-x="795" 
d="M596 47l15 60h-163l-8 28l235 240l37 -35l-191 -188h101l15 60l61 23l-19 -80h58l-12 -48h-58l-14 -60h45l-11 -47h-164l11 47h62zM65 280l12 54h96l57 248l-93 -21l-3 54l138 33l30 -14l-69 -300h94l-12 -54h-250zM183 -14l-35 29q174 200 272 317q120 142 263 322
l35 -30q-170 -196 -272 -316q-77 -92 -263 -322z" />
    <glyph glyph-name="onehalf" unicode="&#xbd;" horiz-adv-x="795" 
d="M445 0l-12 28q38 94 175 165q42 22 61 39.5t19 39.5q0 20 -16.5 31.5t-44.5 11.5q-44 0 -59 -19q9 -11 9 -25q0 -15 -10.5 -25.5t-25.5 -10.5q-16 0 -27 11.5t-11 28.5q0 37 39 65.5t91 28.5q51 0 84.5 -26t33.5 -70q0 -40 -30.5 -67t-89.5 -57q-93 -48 -122 -99h146
l14 58h51l-25 -108h-250zM54 280l12 54h96l57 248l-93 -21l-3 54l138 33l30 -14l-69 -300h94l-12 -54h-250zM168 -14l-35 29q174 200 272 317q120 142 263 322l35 -30q-170 -196 -272 -316q-77 -92 -263 -322z" />
    <glyph glyph-name="threequarters" unicode="&#xbe;" horiz-adv-x="795" 
d="M208 274q-50 0 -89.5 23.5t-39.5 63.5q0 17 10.5 29t26.5 12t26 -10.5t10 -25.5q0 -13 -9 -22q14 -18 65 -18q37 0 58 16t21 42q0 20 -21.5 37.5t-58.5 17.5h-24l13 55h23q41 0 67 15t26 40q0 21 -19.5 34t-48.5 13q-23 0 -41 -9q6 -8 6 -15q0 -15 -11 -25.5t-26 -10.5
t-26 11t-11 27q0 28 31.5 50.5t85.5 22.5q56 0 90 -27.5t34 -63.5q0 -41 -28.5 -65t-77.5 -28q78 -19 78 -83q0 -50 -42 -78t-98 -28zM596 47l15 60h-163l-8 28l235 240l37 -35l-191 -188h101l15 60l61 23l-19 -80h58l-12 -48h-58l-14 -60h45l-11 -47h-164l11 47h62z
M184 -14l-35 29q174 200 272 317q120 142 263 322l35 -30q-170 -196 -272 -316q-77 -92 -263 -322z" />
    <glyph glyph-name="questiondown" unicode="&#xbf;" horiz-adv-x="463" 
d="M378 537q-27 0 -45.5 19.5t-18.5 46.5t18.5 46t45.5 19t45.5 -19t18.5 -46t-18.5 -46.5t-45.5 -19.5zM218 -10q-83 0 -138.5 45t-55.5 124q0 85 66.5 147.5t194.5 76.5l37 94h58l-25 -159q-120 -5 -179 -48.5t-59 -106.5q0 -45 30.5 -70t79.5 -25q36 0 60.5 10t32.5 24
q-22 16 -22 41q0 23 16 38.5t38 15.5q25 0 41.5 -17.5t16.5 -46.5q0 -61 -58.5 -102t-133.5 -41z" />
    <glyph glyph-name="Agrave" unicode="&#xc0;" horiz-adv-x="704" 
d="M-27 0l19 81h60l294 497h-78l18 80h331l-19 -80h-74l64 -497h69l-19 -81h-228l18 80h74l-17 139h-262l-81 -139h87l-19 -80h-237zM268 296h207l-36 289zM492 710l-116 99q-24 20 -24 47q0 20 13.5 33.5t31.5 13.5q30 0 51 -36l73 -135z" />
    <glyph glyph-name="Aacute" unicode="&#xc1;" horiz-adv-x="704" 
d="M-27 0l19 81h60l294 497h-78l18 80h331l-19 -80h-74l64 -497h69l-19 -81h-228l18 80h74l-17 139h-262l-81 -139h87l-19 -80h-237zM268 296h207l-36 289zM454 720l-23 29l141 131q21 23 47 23q18 0 30.5 -13t12.5 -31q0 -32 -37 -52z" />
    <glyph glyph-name="Acircumflex" unicode="&#xc2;" horiz-adv-x="704" 
d="M-27 0l19 81h60l294 497h-78l18 80h331l-19 -80h-74l64 -497h69l-19 -81h-228l18 80h74l-17 139h-262l-81 -139h87l-19 -80h-237zM268 296h207l-36 289zM350 718l-34 44l199 158l119 -164l-42 -37l-94 95z" />
    <glyph glyph-name="Atilde" unicode="&#xc3;" horiz-adv-x="704" 
d="M-27 0l19 81h60l294 497h-78l18 80h331l-19 -80h-74l64 -497h69l-19 -81h-228l18 80h74l-17 139h-262l-81 -139h87l-19 -80h-237zM268 296h207l-36 289zM553 721q-43 0 -84 41q-31 30 -51 30q-36 0 -66 -65l-51 19q15 59 50 95t73 36q43 0 84 -41q30 -30 50 -30
q37 0 66 65l52 -20q-15 -59 -50 -94.5t-73 -35.5z" />
    <glyph glyph-name="Adieresis" unicode="&#xc4;" horiz-adv-x="704" 
d="M-27 0l19 81h60l294 497h-78l18 80h331l-19 -80h-74l64 -497h69l-19 -81h-228l18 80h74l-17 139h-262l-81 -139h87l-19 -80h-237zM268 296h207l-36 289zM584 736q-26 0 -44.5 18.5t-18.5 44.5t19 45t45 19t44.5 -19t18.5 -45t-19 -44.5t-45 -18.5zM396 736
q-26 0 -44.5 18.5t-18.5 44.5t19 45t45 19t44.5 -19t18.5 -45t-19 -44.5t-45 -18.5z" />
    <glyph glyph-name="Aring" unicode="&#xc5;" horiz-adv-x="704" 
d="M-27 0l19 81h60l294 497h-78l18 80h97q-34 25 -34 77q0 45 37.5 83t91.5 38q47 0 74.5 -29t27.5 -69q0 -31 -16 -58t-43 -42h96l-19 -80h-74l64 -497h69l-19 -81h-228l18 80h74l-17 139h-262l-81 -139h87l-19 -80h-237zM453 675q26 0 44 22t18 52q0 21 -12 35.5t-30 14.5
q-27 0 -44.5 -22t-17.5 -53q0 -20 11.5 -34.5t30.5 -14.5zM268 296h207l-36 289z" />
    <glyph glyph-name="AE" unicode="&#xc6;" horiz-adv-x="922" 
d="M-22 0l19 81h76l364 496h-83l18 81h599l-42 -173h-86l22 93h-218l-47 -204h201l-18 -78h-201l-50 -216h217l23 93h87l-40 -173h-474l19 81h77l33 138h-208l-102 -139h85l-19 -80h-252zM319 295h172l67 286h-31z" />
    <glyph glyph-name="Ccedilla" unicode="&#xc7;" horiz-adv-x="679" 
d="M287 -200q-65 0 -120 43l20 30q46 -28 95 -28q18 0 29.5 8.5t11.5 20.5q0 14 -16.5 22.5t-48.5 4.5l-15 20l44 75q-97 19 -157.5 92.5t-60.5 188.5q0 160 110.5 276.5t264.5 116.5q103 0 169.5 -51.5t66.5 -113.5q0 -33 -19.5 -55.5t-47.5 -22.5q-25 0 -42.5 17t-17.5 41
q0 29 25 47q-10 21 -47 38t-90 17q-115 0 -196.5 -91.5t-81.5 -211.5q0 -97 53.5 -154.5t143.5 -57.5q105 0 195 88l55 -55q-107 -116 -258 -116q-4 0 -13 0.5t-13 0.5l-10 -39q40 -5 62 -25t22 -49q0 -35 -32 -56t-81 -21z" />
    <glyph glyph-name="Egrave" unicode="&#xc8;" horiz-adv-x="578" 
d="M-1 0l19 81h75l115 496h-85l18 81h485l-42 -173h-86l22 93h-221l-48 -204h205l-18 -78h-204l-51 -216h222l23 93h86l-40 -173h-475zM423 710l-116 99q-24 20 -24 47q0 20 13.5 33.5t31.5 13.5q30 0 51 -36l73 -135z" />
    <glyph glyph-name="Eacute" unicode="&#xc9;" horiz-adv-x="578" 
d="M385 720l-23 29l141 131q21 23 47 23q18 0 30.5 -13t12.5 -31q0 -32 -37 -52zM-1 0l19 81h75l115 496h-85l18 81h485l-42 -173h-86l22 93h-221l-48 -204h205l-18 -78h-204l-51 -216h222l23 93h86l-40 -173h-475z" />
    <glyph glyph-name="Ecircumflex" unicode="&#xca;" horiz-adv-x="578" 
d="M281 718l-34 44l199 158l119 -164l-42 -37l-94 95zM-1 0l19 81h75l115 496h-85l18 81h485l-42 -173h-86l22 93h-221l-48 -204h205l-18 -78h-204l-51 -216h222l23 93h86l-40 -173h-475z" />
    <glyph glyph-name="Edieresis" unicode="&#xcb;" horiz-adv-x="578" 
d="M515 736q-26 0 -44.5 18.5t-18.5 44.5t19 45t45 19t44.5 -19t18.5 -45t-19 -44.5t-45 -18.5zM327 736q-26 0 -44.5 18.5t-18.5 44.5t19 45t45 19t44.5 -19t18.5 -45t-19 -44.5t-45 -18.5zM-1 0l19 81h75l115 496h-85l18 81h485l-42 -173h-86l22 93h-221l-48 -204h205
l-18 -78h-204l-51 -216h222l23 93h86l-40 -173h-475z" />
    <glyph glyph-name="Igrave" unicode="&#xcc;" horiz-adv-x="357" 
d="M2 0l19 81h82l115 496h-89l19 81h262l-18 -81h-83l-115 -496h89l-19 -81h-262zM315 710l-116 99q-24 20 -24 47q0 20 13.5 33.5t31.5 13.5q30 0 51 -36l73 -135z" />
    <glyph glyph-name="Iacute" unicode="&#xcd;" horiz-adv-x="357" 
d="M2 0l19 81h82l115 496h-89l19 81h262l-18 -81h-83l-115 -496h89l-19 -81h-262zM277 720l-23 29l141 131q21 23 47 23q18 0 30.5 -13t12.5 -31q0 -32 -37 -52z" />
    <glyph glyph-name="Icircumflex" unicode="&#xce;" horiz-adv-x="357" 
d="M2 0l19 81h82l115 496h-89l19 81h262l-18 -81h-83l-115 -496h89l-19 -81h-262zM173 718l-34 44l199 158l119 -164l-42 -37l-94 95z" />
    <glyph glyph-name="Idieresis" unicode="&#xcf;" horiz-adv-x="357" 
d="M2 0l19 81h82l115 496h-89l19 81h262l-18 -81h-83l-115 -496h89l-19 -81h-262zM407 736q-26 0 -44.5 18.5t-18.5 44.5t19 45t45 19t44.5 -19t18.5 -45t-19 -44.5t-45 -18.5zM219 736q-26 0 -44.5 18.5t-18.5 44.5t19 45t45 19t44.5 -19t18.5 -45t-19 -44.5t-45 -18.5z
" />
    <glyph glyph-name="Eth" unicode="&#xd0;" horiz-adv-x="701" 
d="M-1 0l19 81h75l50 218h-84l17 75h85l47 203h-85l18 81h212q171 0 263 -92q71 -71 71 -187q0 -152 -104 -258q-122 -121 -340 -121h-244zM183 81h74q165 0 255 92q80 80 80 201q0 86 -51 137q-66 66 -197 66h-45l-48 -203h138l-18 -75h-137z" />
    <glyph glyph-name="Ntilde" unicode="&#xd1;" horiz-adv-x="744" 
d="M538 -2l-259 506l-98 -423h90l-19 -81h-253l19 81h75l115 496h-85l18 81h161l237 -466l89 385h-89l19 81h251l-18 -81h-74l-135 -579h-44zM572 721q-43 0 -84 41q-31 30 -51 30q-36 0 -66 -65l-51 19q15 59 50 95t73 36q43 0 84 -41q30 -30 50 -30q37 0 66 65l52 -20
q-15 -59 -50 -94.5t-73 -35.5z" />
    <glyph glyph-name="Ograve" unicode="&#xd2;" horiz-adv-x="731" 
d="M350 -12q-130 0 -205.5 80.5t-75.5 207.5q0 72 27.5 142.5t75 126.5t116.5 90.5t146 34.5q130 0 205.5 -80.5t75.5 -207.5q0 -97 -46.5 -187t-131.5 -148.5t-187 -58.5zM358 71q110 0 186.5 95.5t76.5 215.5q0 89 -50.5 147t-144.5 58q-110 0 -187 -95.5t-77 -215.5
q0 -89 51 -147t145 -58zM500 710l-116 99q-24 20 -24 47q0 20 13.5 33.5t31.5 13.5q30 0 51 -36l73 -135z" />
    <glyph glyph-name="Oacute" unicode="&#xd3;" horiz-adv-x="731" 
d="M462 720l-23 29l141 131q21 23 47 23q18 0 30.5 -13t12.5 -31q0 -32 -37 -52zM350 -12q-130 0 -205.5 80.5t-75.5 207.5q0 72 27.5 142.5t75 126.5t116.5 90.5t146 34.5q130 0 205.5 -80.5t75.5 -207.5q0 -97 -46.5 -187t-131.5 -148.5t-187 -58.5zM358 71
q110 0 186.5 95.5t76.5 215.5q0 89 -50.5 147t-144.5 58q-110 0 -187 -95.5t-77 -215.5q0 -89 51 -147t145 -58z" />
    <glyph glyph-name="Ocircumflex" unicode="&#xd4;" horiz-adv-x="731" 
d="M358 718l-34 44l199 158l119 -164l-42 -37l-94 95zM350 -12q-130 0 -205.5 80.5t-75.5 207.5q0 72 27.5 142.5t75 126.5t116.5 90.5t146 34.5q130 0 205.5 -80.5t75.5 -207.5q0 -97 -46.5 -187t-131.5 -148.5t-187 -58.5zM358 71q110 0 186.5 95.5t76.5 215.5
q0 89 -50.5 147t-144.5 58q-110 0 -187 -95.5t-77 -215.5q0 -89 51 -147t145 -58z" />
    <glyph glyph-name="Otilde" unicode="&#xd5;" horiz-adv-x="731" 
d="M350 -12q-130 0 -205.5 80.5t-75.5 207.5q0 72 27.5 142.5t75 126.5t116.5 90.5t146 34.5q130 0 205.5 -80.5t75.5 -207.5q0 -97 -46.5 -187t-131.5 -148.5t-187 -58.5zM358 71q110 0 186.5 95.5t76.5 215.5q0 89 -50.5 147t-144.5 58q-110 0 -187 -95.5t-77 -215.5
q0 -89 51 -147t145 -58zM561 721q-43 0 -84 41q-31 30 -51 30q-36 0 -66 -65l-51 19q15 59 50 95t73 36q43 0 84 -41q30 -30 50 -30q37 0 66 65l52 -20q-15 -59 -50 -94.5t-73 -35.5z" />
    <glyph glyph-name="Odieresis" unicode="&#xd6;" horiz-adv-x="731" 
d="M592 736q-26 0 -44.5 18.5t-18.5 44.5t19 45t45 19t44.5 -19t18.5 -45t-19 -44.5t-45 -18.5zM404 736q-26 0 -44.5 18.5t-18.5 44.5t19 45t45 19t44.5 -19t18.5 -45t-19 -44.5t-45 -18.5zM350 -12q-130 0 -205.5 80.5t-75.5 207.5q0 72 27.5 142.5t75 126.5t116.5 90.5
t146 34.5q130 0 205.5 -80.5t75.5 -207.5q0 -97 -46.5 -187t-131.5 -148.5t-187 -58.5zM358 71q110 0 186.5 95.5t76.5 215.5q0 89 -50.5 147t-144.5 58q-110 0 -187 -95.5t-77 -215.5q0 -89 51 -147t145 -58z" />
    <glyph glyph-name="multiply" unicode="&#xd7;" horiz-adv-x="438" 
d="M167 440l80 -110l125 105l45 -57l-127 -106l82 -112l-61 -48l-81 110l-125 -105l-45 57l127 106l-81 112z" />
    <glyph glyph-name="Oslash" unicode="&#xd8;" horiz-adv-x="731" 
d="M355 -12q-126 0 -204 78l-88 -78l-47 54l92 83q-36 66 -36 153q0 96 46 185.5t131 148t186 58.5q129 0 205 -81l92 82l48 -55l-97 -86q35 -70 35 -150q0 -96 -46 -186t-131 -148t-186 -58zM165 276q0 -53 18 -95l392 347q-52 60 -146 60q-110 0 -187 -96t-77 -216z
M361 70q110 0 187 96t77 216q0 48 -17 91l-391 -346q54 -57 144 -57z" />
    <glyph glyph-name="Ugrave" unicode="&#xd9;" horiz-adv-x="704" 
d="M326 -11q-99 0 -155.5 53t-56.5 142q0 36 12 87l71 306h-84l19 81h252l-18 -81h-79l-71 -310q-11 -50 -11 -75q0 -58 33.5 -89.5t99.5 -31.5q68 0 111 41t59 115l80 350h-89l19 81h252l-19 -81h-74l-83 -359q-26 -112 -90 -170.5t-178 -58.5zM484 710l-116 99
q-24 20 -24 47q0 20 13.5 33.5t31.5 13.5q30 0 51 -36l73 -135z" />
    <glyph glyph-name="Uacute" unicode="&#xda;" horiz-adv-x="704" 
d="M447 720l-23 29l141 131q21 23 47 23q18 0 30.5 -13t12.5 -31q0 -32 -37 -52zM326 -11q-99 0 -155.5 53t-56.5 142q0 36 12 87l71 306h-84l19 81h252l-18 -81h-79l-71 -310q-11 -50 -11 -75q0 -58 33.5 -89.5t99.5 -31.5q68 0 111 41t59 115l80 350h-89l19 81h252
l-19 -81h-74l-83 -359q-26 -112 -90 -170.5t-178 -58.5z" />
    <glyph glyph-name="Ucircumflex" unicode="&#xdb;" horiz-adv-x="704" 
d="M343 718l-34 44l199 158l119 -164l-42 -37l-94 95zM326 -11q-99 0 -155.5 53t-56.5 142q0 36 12 87l71 306h-84l19 81h252l-18 -81h-79l-71 -310q-11 -50 -11 -75q0 -58 33.5 -89.5t99.5 -31.5q68 0 111 41t59 115l80 350h-89l19 81h252l-19 -81h-74l-83 -359
q-26 -112 -90 -170.5t-178 -58.5z" />
    <glyph glyph-name="Udieresis" unicode="&#xdc;" horiz-adv-x="704" 
d="M577 736q-26 0 -44.5 18.5t-18.5 44.5t19 45t45 19t44.5 -19t18.5 -45t-19 -44.5t-45 -18.5zM389 736q-26 0 -44.5 18.5t-18.5 44.5t19 45t45 19t44.5 -19t18.5 -45t-19 -44.5t-45 -18.5zM326 -11q-99 0 -155.5 53t-56.5 142q0 36 12 87l71 306h-84l19 81h252l-18 -81
h-79l-71 -310q-11 -50 -11 -75q0 -58 33.5 -89.5t99.5 -31.5q68 0 111 41t59 115l80 350h-89l19 81h252l-19 -81h-74l-83 -359q-26 -112 -90 -170.5t-178 -58.5z" />
    <glyph glyph-name="Yacute" unicode="&#xdd;" horiz-adv-x="639" 
d="M125 0l19 81h84l43 180l-114 316h-66l19 81h232l-18 -81h-73l82 -250l202 250h-72l19 81h241l-18 -81h-63l-285 -333l-38 -163h90l-18 -81h-266zM403 720l-23 29l141 131q21 23 47 23q18 0 30.5 -13t12.5 -31q0 -32 -37 -52z" />
    <glyph glyph-name="Thorn" unicode="&#xde;" horiz-adv-x="573" 
d="M-1 0l19 81h75l115 496h-85l18 81h256l-18 -79h-80l-15 -65h74q112 0 165 -55q41 -41 41 -107q0 -92 -68 -146.5t-187 -54.5q-71 0 -109 3l-17 -75h89l-18 -79h-255zM315 227q78 0 117.5 32.5t39.5 86.5q0 39 -23 62q-34 31 -109 31h-74l-48 -209q40 -3 97 -3z" />
    <glyph glyph-name="germandbls" unicode="&#xdf;" horiz-adv-x="563" 
d="M356 -6q-54 0 -92.5 28t-38.5 67q0 23 15.5 39t36.5 16t35 -14.5t14 -33.5q0 -14 -9 -27q13 -10 39 -10q39 0 61 22t22 57q0 39 -62 94q-24 22 -37 37.5t-24.5 40t-11.5 50.5q0 27 12.5 49.5t26.5 35.5t39 31q27 19 40 30.5t26 33t13 47.5q0 31 -25.5 53t-60.5 22
q-45 0 -76.5 -32t-44.5 -92l-123 -538h-86l82 357h-76l18 74h75l26 116q20 89 72 140t137 51q74 0 120 -42.5t46 -110.5q0 -54 -26 -88.5t-71 -65.5q-61 -40 -61 -71q0 -17 13 -34t46 -48q77 -71 77 -141q0 -60 -43.5 -101.5t-123.5 -41.5z" />
    <glyph glyph-name="agrave" unicode="&#xe0;" horiz-adv-x="568" 
d="M186 -8q-65 0 -106 47t-41 125q0 111 67 193t160 82q47 0 82 -29.5t47 -72.5l28 96h82l-76 -307q-8 -29 -8 -44q0 -30 26 -30q31 0 56 70l39 -14q-35 -115 -119 -115q-38 0 -60.5 24t-22.5 63v5q-67 -93 -154 -93zM221 67q64 0 109 58t45 131q0 49 -25 77.5t-73 28.5
q-62 0 -104.5 -56.5t-42.5 -131.5q0 -49 23.5 -78t67.5 -29zM352 491l-116 99q-24 20 -24 47q0 20 13.5 33.5t31.5 13.5q30 0 51 -36l73 -135z" />
    <glyph glyph-name="aacute" unicode="&#xe1;" horiz-adv-x="568" 
d="M186 -8q-65 0 -106 47t-41 125q0 111 67 193t160 82q47 0 82 -29.5t47 -72.5l28 96h82l-76 -307q-8 -29 -8 -44q0 -30 26 -30q31 0 56 70l39 -14q-35 -115 -119 -115q-38 0 -60.5 24t-22.5 63v5q-67 -93 -154 -93zM221 67q64 0 109 58t45 131q0 49 -25 77.5t-73 28.5
q-62 0 -104.5 -56.5t-42.5 -131.5q0 -49 23.5 -78t67.5 -29zM314 501l-23 29l141 131q21 23 47 23q18 0 30.5 -13t12.5 -31q0 -32 -37 -52z" />
    <glyph glyph-name="acircumflex" unicode="&#xe2;" horiz-adv-x="568" 
d="M186 -8q-65 0 -106 47t-41 125q0 111 67 193t160 82q47 0 82 -29.5t47 -72.5l28 96h82l-76 -307q-8 -29 -8 -44q0 -30 26 -30q31 0 56 70l39 -14q-35 -115 -119 -115q-38 0 -60.5 24t-22.5 63v5q-67 -93 -154 -93zM221 67q64 0 109 58t45 131q0 49 -25 77.5t-73 28.5
q-62 0 -104.5 -56.5t-42.5 -131.5q0 -49 23.5 -78t67.5 -29zM210 499l-34 44l199 158l119 -164l-42 -37l-94 95z" />
    <glyph glyph-name="atilde" unicode="&#xe3;" horiz-adv-x="568" 
d="M186 -8q-65 0 -106 47t-41 125q0 111 67 193t160 82q47 0 82 -29.5t47 -72.5l28 96h82l-76 -307q-8 -29 -8 -44q0 -30 26 -30q31 0 56 70l39 -14q-35 -115 -119 -115q-38 0 -60.5 24t-22.5 63v5q-67 -93 -154 -93zM221 67q64 0 109 58t45 131q0 49 -25 77.5t-73 28.5
q-62 0 -104.5 -56.5t-42.5 -131.5q0 -49 23.5 -78t67.5 -29zM413 502q-43 0 -84 41q-31 30 -51 30q-36 0 -66 -65l-51 19q15 59 50 95t73 36q43 0 84 -41q30 -30 50 -30q37 0 66 65l52 -20q-15 -59 -50 -94.5t-73 -35.5z" />
    <glyph glyph-name="adieresis" unicode="&#xe4;" horiz-adv-x="568" 
d="M186 -8q-65 0 -106 47t-41 125q0 111 67 193t160 82q47 0 82 -29.5t47 -72.5l28 96h82l-76 -307q-8 -29 -8 -44q0 -30 26 -30q31 0 56 70l39 -14q-35 -115 -119 -115q-38 0 -60.5 24t-22.5 63v5q-67 -93 -154 -93zM221 67q64 0 109 58t45 131q0 49 -25 77.5t-73 28.5
q-62 0 -104.5 -56.5t-42.5 -131.5q0 -49 23.5 -78t67.5 -29zM443 517q-26 0 -44.5 18.5t-18.5 44.5t19 45t45 19t44.5 -19t18.5 -45t-19 -44.5t-45 -18.5zM255 517q-26 0 -44.5 18.5t-18.5 44.5t19 45t45 19t44.5 -19t18.5 -45t-19 -44.5t-45 -18.5z" />
    <glyph glyph-name="aring" unicode="&#xe5;" horiz-adv-x="568" 
d="M186 -8q-65 0 -106 47t-41 125q0 111 67 193t160 82q47 0 82 -29.5t47 -72.5l28 96h82l-76 -307q-8 -29 -8 -44q0 -30 26 -30q31 0 56 70l39 -14q-35 -115 -119 -115q-38 0 -60.5 24t-22.5 63v5q-67 -93 -154 -93zM221 67q64 0 109 58t45 131q0 49 -25 77.5t-73 28.5
q-62 0 -104.5 -56.5t-42.5 -131.5q0 -49 23.5 -78t67.5 -29zM346 500q-46 0 -74 29.5t-28 72.5q0 55 38 96t93 41q47 0 75 -29.5t28 -73.5q0 -54 -38.5 -95t-93.5 -41zM351 558q26 0 44 22t18 52q0 21 -12 35t-30 14q-26 0 -44 -22t-18 -52q0 -21 11.5 -35t30.5 -14z" />
    <glyph glyph-name="ae" unicode="&#xe6;" horiz-adv-x="799" 
d="M750 188h-309v-15q0 -49 36 -78.5t95 -29.5q69 0 142 39l-17 -82q-61 -30 -138 -30q-68 0 -114 33.5t-62 90.5q-31 -57 -88.5 -90.5t-124.5 -33.5q-64 0 -102.5 32.5t-38.5 76.5q0 73 60.5 112t163.5 39h109q-5 54 -38.5 88t-85.5 34q-14 0 -27 -3q-9 -3 -11 -5
q5 -10 5 -19q0 -20 -14.5 -35t-34.5 -15q-23 0 -37.5 16t-14.5 39q0 45 52 71q34 16 80 16q69 0 113.5 -33t58.5 -92q26 56 78 90.5t110 34.5q77 0 123.5 -43t46.5 -118q0 -42 -16 -90zM178 65q58 0 110 34.5t69 91.5h-81q-165 0 -165 -79q0 -21 17.5 -34t49.5 -13zM592 366
q-47 0 -84 -31.5t-55 -83.5h225q5 15 5 37q0 35 -23 56.5t-68 21.5z" />
    <glyph glyph-name="ccedilla" unicode="&#xe7;" horiz-adv-x="474" 
d="M173 -200q-65 0 -120 43l20 30q45 -28 95 -28q18 0 29.5 8.5t11.5 20.5q0 14 -16.5 22.5t-48.5 4.5l-15 20l47 79q-63 17 -100.5 65t-37.5 118q0 103 74.5 179.5t176.5 76.5q69 0 113.5 -36t44.5 -85q0 -29 -16.5 -48.5t-42.5 -19.5q-21 0 -36 15t-15 38t18 38
q-21 24 -68 24q-63 0 -112 -49.5t-49 -127.5q0 -56 34 -89.5t89 -33.5q75 0 145 54l-2 -80q-66 -47 -151 -47q-10 0 -28 2l-11 -43q40 -5 62 -25t22 -49q0 -35 -32 -56t-81 -21z" />
    <glyph glyph-name="egrave" unicode="&#xe8;" horiz-adv-x="482" 
d="M431 188h-308v-15q0 -49 35.5 -78.5t94.5 -29.5q69 0 142 39l-17 -82q-61 -30 -143 -30t-140 49t-58 134q0 109 70 186.5t166 77.5q80 0 127 -43t47 -118q0 -42 -16 -90zM273 366q-46 0 -83.5 -31.5t-54.5 -83.5h224q6 18 6 37q0 35 -23.5 56.5t-68.5 21.5zM327 491
l-116 99q-24 20 -24 47q0 20 13.5 33.5t31.5 13.5q30 0 51 -36l73 -135z" />
    <glyph glyph-name="eacute" unicode="&#xe9;" horiz-adv-x="482" 
d="M431 188h-308v-15q0 -49 35.5 -78.5t94.5 -29.5q69 0 142 39l-17 -82q-61 -30 -143 -30t-140 49t-58 134q0 109 70 186.5t166 77.5q80 0 127 -43t47 -118q0 -42 -16 -90zM273 366q-46 0 -83.5 -31.5t-54.5 -83.5h224q6 18 6 37q0 35 -23.5 56.5t-68.5 21.5zM289 501
l-23 29l141 131q21 23 47 23q18 0 30.5 -13t12.5 -31q0 -32 -37 -52z" />
    <glyph glyph-name="ecircumflex" unicode="&#xea;" horiz-adv-x="482" 
d="M431 188h-308v-15q0 -49 35.5 -78.5t94.5 -29.5q69 0 142 39l-17 -82q-61 -30 -143 -30t-140 49t-58 134q0 109 70 186.5t166 77.5q80 0 127 -43t47 -118q0 -42 -16 -90zM186 499l-34 44l199 158l119 -164l-42 -37l-94 95zM273 366q-46 0 -83.5 -31.5t-54.5 -83.5h224
q6 18 6 37q0 35 -23.5 56.5t-68.5 21.5z" />
    <glyph glyph-name="edieresis" unicode="&#xeb;" horiz-adv-x="482" 
d="M431 188h-308v-15q0 -49 35.5 -78.5t94.5 -29.5q69 0 142 39l-17 -82q-61 -30 -143 -30t-140 49t-58 134q0 109 70 186.5t166 77.5q80 0 127 -43t47 -118q0 -42 -16 -90zM273 366q-46 0 -83.5 -31.5t-54.5 -83.5h224q6 18 6 37q0 35 -23.5 56.5t-68.5 21.5zM419 517
q-26 0 -44.5 18.5t-18.5 44.5t19 45t45 19t44.5 -19t18.5 -45t-19 -44.5t-45 -18.5zM231 517q-26 0 -44.5 18.5t-18.5 44.5t19 45t45 19t44.5 -19t18.5 -45t-19 -44.5t-45 -18.5z" />
    <glyph glyph-name="igrave" unicode="&#xec;" horiz-adv-x="307" 
d="M155 -7q-43 0 -66.5 23.5t-23.5 63.5q0 21 7 47l60 230h-81l19 74h169l-80 -305q-7 -24 -7 -44q0 -30 26 -30q32 0 59 70l39 -14q-35 -115 -121 -115zM225 491l-116 99q-24 20 -24 47q0 20 13.5 33.5t31.5 13.5q30 0 51 -36l73 -135z" />
    <glyph glyph-name="iacute" unicode="&#xed;" horiz-adv-x="307" 
d="M187 501l-23 29l141 131q21 23 47 23q18 0 30.5 -13t12.5 -31q0 -32 -37 -52zM155 -7q-43 0 -66.5 23.5t-23.5 63.5q0 21 7 47l60 230h-81l19 74h169l-80 -305q-7 -24 -7 -44q0 -30 26 -30q32 0 59 70l39 -14q-35 -115 -121 -115z" />
    <glyph glyph-name="icircumflex" unicode="&#xee;" horiz-adv-x="307" 
d="M83 499l-34 44l199 158l119 -164l-42 -37l-94 95zM155 -7q-43 0 -66.5 23.5t-23.5 63.5q0 21 7 47l60 230h-81l19 74h169l-80 -305q-7 -24 -7 -44q0 -30 26 -30q32 0 59 70l39 -14q-35 -115 -121 -115z" />
    <glyph glyph-name="idieresis" unicode="&#xef;" horiz-adv-x="307" 
d="M317 517q-26 0 -44.5 18.5t-18.5 44.5t19 45t45 19t44.5 -19t18.5 -45t-19 -44.5t-45 -18.5zM129 517q-26 0 -44.5 18.5t-18.5 44.5t19 45t45 19t44.5 -19t18.5 -45t-19 -44.5t-45 -18.5zM155 -7q-43 0 -66.5 23.5t-23.5 63.5q0 21 7 47l60 230h-81l19 74h169l-80 -305
q-7 -24 -7 -44q0 -30 26 -30q32 0 59 70l39 -14q-35 -115 -121 -115z" />
    <glyph glyph-name="eth" unicode="&#xf0;" horiz-adv-x="530" 
d="M227 -8q-85 0 -138.5 53t-53.5 135q0 92 68 165t156 73q111 0 148 -100q3 27 3 58q0 102 -44 183l-103 -92l-44 48l108 97q-36 39 -78 50q-13 -40 -52 -40q-23 0 -39 15.5t-16 39.5q0 23 20 42t57 19q87 0 163 -77l88 78l44 -48l-91 -81q63 -103 63 -249q0 -205 -97 -302
q-65 -67 -162 -67zM230 66q59 0 103 42q51 49 51 120q0 52 -31 83.5t-81 31.5q-63 0 -107 -49.5t-44 -112.5q0 -52 30.5 -83.5t78.5 -31.5z" />
    <glyph glyph-name="ntilde" unicode="&#xf1;" horiz-adv-x="556" 
d="M418 -7q-43 0 -67.5 24t-24.5 62q0 21 7 49l37 130q7 24 7 44q0 28 -18 45.5t-47 17.5q-41 0 -75 -34t-50 -97l-58 -234h-88l90 357h-80l19 74h154l-23 -101q27 47 67 77.5t82 30.5q51 0 84 -33t33 -89q0 -31 -11 -70l-37 -127q-6 -26 -6 -35q0 -32 27 -32q31 0 56 70
l39 -14q-34 -115 -117 -115zM423 502q-43 0 -84 41q-31 30 -51 30q-36 0 -66 -65l-51 19q15 59 50 95t73 36q43 0 84 -41q30 -30 50 -30q37 0 66 65l52 -20q-15 -59 -50 -94.5t-73 -35.5z" />
    <glyph glyph-name="ograve" unicode="&#xf2;" horiz-adv-x="514" 
d="M232 -8q-90 0 -142 55.5t-52 135.5q0 102 70.5 179t173.5 77q90 0 142 -55.5t52 -136.5q0 -101 -70.5 -178t-173.5 -77zM236 65q63 0 107.5 53.5t44.5 129.5q0 54 -31 85.5t-79 31.5q-63 0 -107.5 -53t-44.5 -129q0 -55 31 -86.5t79 -31.5zM342 491l-116 99
q-24 20 -24 47q0 20 13.5 33.5t31.5 13.5q30 0 51 -36l73 -135z" />
    <glyph glyph-name="oacute" unicode="&#xf3;" horiz-adv-x="514" 
d="M304 501l-23 29l141 131q21 23 47 23q18 0 30.5 -13t12.5 -31q0 -32 -37 -52zM232 -8q-90 0 -142 55.5t-52 135.5q0 102 70.5 179t173.5 77q90 0 142 -55.5t52 -136.5q0 -101 -70.5 -178t-173.5 -77zM236 65q63 0 107.5 53.5t44.5 129.5q0 54 -31 85.5t-79 31.5
q-63 0 -107.5 -53t-44.5 -129q0 -55 31 -86.5t79 -31.5z" />
    <glyph glyph-name="ocircumflex" unicode="&#xf4;" horiz-adv-x="514" 
d="M200 499l-34 44l199 158l119 -164l-42 -37l-94 95zM232 -8q-90 0 -142 55.5t-52 135.5q0 102 70.5 179t173.5 77q90 0 142 -55.5t52 -136.5q0 -101 -70.5 -178t-173.5 -77zM236 65q63 0 107.5 53.5t44.5 129.5q0 54 -31 85.5t-79 31.5q-63 0 -107.5 -53t-44.5 -129
q0 -55 31 -86.5t79 -31.5z" />
    <glyph glyph-name="otilde" unicode="&#xf5;" horiz-adv-x="514" 
d="M232 -8q-90 0 -142 55.5t-52 135.5q0 102 70.5 179t173.5 77q90 0 142 -55.5t52 -136.5q0 -101 -70.5 -178t-173.5 -77zM236 65q63 0 107.5 53.5t44.5 129.5q0 54 -31 85.5t-79 31.5q-63 0 -107.5 -53t-44.5 -129q0 -55 31 -86.5t79 -31.5zM403 502q-43 0 -84 41
q-31 30 -51 30q-36 0 -66 -65l-51 19q15 59 50 95t73 36q43 0 84 -41q30 -30 50 -30q37 0 66 65l52 -20q-15 -59 -50 -94.5t-73 -35.5z" />
    <glyph glyph-name="odieresis" unicode="&#xf6;" horiz-adv-x="514" 
d="M433 517q-26 0 -44.5 18.5t-18.5 44.5t19 45t45 19t44.5 -19t18.5 -45t-19 -44.5t-45 -18.5zM245 517q-26 0 -44.5 18.5t-18.5 44.5t19 45t45 19t44.5 -19t18.5 -45t-19 -44.5t-45 -18.5zM232 -8q-90 0 -142 55.5t-52 135.5q0 102 70.5 179t173.5 77q90 0 142 -55.5
t52 -136.5q0 -101 -70.5 -178t-173.5 -77zM236 65q63 0 107.5 53.5t44.5 129.5q0 54 -31 85.5t-79 31.5q-63 0 -107.5 -53t-44.5 -129q0 -55 31 -86.5t79 -31.5z" />
    <glyph glyph-name="divide" unicode="&#xf7;" horiz-adv-x="438" 
d="M55 239l18 74h344l-18 -74h-344zM269 363q-23 0 -39 16.5t-16 39.5t17 39.5t40 16.5q22 0 38.5 -16.5t16.5 -39.5t-17 -39.5t-40 -16.5zM204 77q-23 0 -39.5 16.5t-16.5 39.5t17 39.5t40 16.5t39 -16.5t16 -39.5t-17 -39.5t-39 -16.5z" />
    <glyph glyph-name="oslash" unicode="&#xf8;" horiz-adv-x="528" 
d="M242 -8q-77 0 -127 41l-66 -62l-44 47l69 62q-28 47 -28 104q0 102 70.5 178.5t173.5 76.5q80 0 132 -46l71 66l44 -47l-75 -69q24 -42 24 -96q0 -102 -70.5 -178.5t-173.5 -76.5zM134 183q0 -30 8 -50l222 204q-30 28 -76 28q-64 0 -109 -52.5t-45 -129.5zM245 65
q63 0 108.5 53t45.5 129q0 16 -6 42l-219 -201q29 -23 71 -23z" />
    <glyph glyph-name="ugrave" unicode="&#xf9;" horiz-adv-x="557" 
d="M67 431h167l-66 -261q-6 -28 -6 -43q0 -28 16 -44.5t44 -16.5q43 0 77 34t50 97l58 234h88l-77 -305q-7 -32 -7 -44q0 -30 25 -30q30 0 57 70l39 -14q-35 -115 -119 -115q-38 0 -60.5 24t-22.5 65v9q-27 -46 -65.5 -72.5t-80.5 -26.5q-47 0 -79.5 31.5t-32.5 82.5
q0 30 10 72l46 179h-80zM355 491l-116 99q-24 20 -24 47q0 20 13.5 33.5t31.5 13.5q30 0 51 -36l73 -135z" />
    <glyph glyph-name="uacute" unicode="&#xfa;" horiz-adv-x="557" 
d="M67 431h167l-66 -261q-6 -28 -6 -43q0 -28 16 -44.5t44 -16.5q43 0 77 34t50 97l58 234h88l-77 -305q-7 -32 -7 -44q0 -30 25 -30q30 0 57 70l39 -14q-35 -115 -119 -115q-38 0 -60.5 24t-22.5 65v9q-27 -46 -65.5 -72.5t-80.5 -26.5q-47 0 -79.5 31.5t-32.5 82.5
q0 30 10 72l46 179h-80zM316 501l-23 29l141 131q21 23 47 23q18 0 30.5 -13t12.5 -31q0 -32 -37 -52z" />
    <glyph glyph-name="ucircumflex" unicode="&#xfb;" horiz-adv-x="557" 
d="M67 431h167l-66 -261q-6 -28 -6 -43q0 -28 16 -44.5t44 -16.5q43 0 77 34t50 97l58 234h88l-77 -305q-7 -32 -7 -44q0 -30 25 -30q30 0 57 70l39 -14q-35 -115 -119 -115q-38 0 -60.5 24t-22.5 65v9q-27 -46 -65.5 -72.5t-80.5 -26.5q-47 0 -79.5 31.5t-32.5 82.5
q0 30 10 72l46 179h-80zM212 499l-34 44l199 158l119 -164l-42 -37l-94 95z" />
    <glyph glyph-name="udieresis" unicode="&#xfc;" horiz-adv-x="557" 
d="M67 431h167l-66 -261q-6 -28 -6 -43q0 -28 16 -44.5t44 -16.5q43 0 77 34t50 97l58 234h88l-77 -305q-7 -32 -7 -44q0 -30 25 -30q30 0 57 70l39 -14q-35 -115 -119 -115q-38 0 -60.5 24t-22.5 65v9q-27 -46 -65.5 -72.5t-80.5 -26.5q-47 0 -79.5 31.5t-32.5 82.5
q0 30 10 72l46 179h-80zM446 517q-26 0 -44.5 18.5t-18.5 44.5t19 45t45 19t44.5 -19t18.5 -45t-19 -44.5t-45 -18.5zM258 517q-26 0 -44.5 18.5t-18.5 44.5t19 45t45 19t44.5 -19t18.5 -45t-19 -44.5t-45 -18.5z" />
    <glyph glyph-name="yacute" unicode="&#xfd;" horiz-adv-x="490" 
d="M-11 -200q-32 0 -53.5 18.5t-21.5 44.5q0 24 15.5 40t38.5 16q19 0 33.5 -12t18.5 -31q39 2 154 141l-70 340h-76l19 74h132l58 -344q128 169 145 236q-42 15 -42 58q0 24 17 41t42 17q31 0 49 -21t18 -57q0 -99 -199 -345q-107 -131 -165.5 -173.5t-112.5 -42.5z
M281 501l-23 29l141 131q21 23 47 23q18 0 30.5 -13t12.5 -31q0 -32 -37 -52z" />
    <glyph glyph-name="thorn" unicode="&#xfe;" horiz-adv-x="532" 
d="M-89 -196l19 72h64l182 782h-81l19 74h165l-89 -379q62 86 146 86q72 0 114 -47.5t42 -126.5q0 -112 -67.5 -192.5t-162.5 -80.5q-47 0 -83.5 27.5t-49.5 67.5l-49 -211h84l-19 -72h-234zM251 69q62 0 106 55.5t44 128.5q0 50 -25.5 80.5t-70.5 30.5q-63 0 -110 -58.5
t-47 -131.5q0 -48 27 -76.5t76 -28.5z" />
    <glyph glyph-name="ydieresis" unicode="&#xff;" horiz-adv-x="490" 
d="M-11 -200q-32 0 -53.5 18.5t-21.5 44.5q0 24 15.5 40t38.5 16q19 0 33.5 -12t18.5 -31q39 2 154 141l-70 340h-76l19 74h132l58 -344q128 169 145 236q-42 15 -42 58q0 24 17 41t42 17q31 0 49 -21t18 -57q0 -99 -199 -345q-107 -131 -165.5 -173.5t-112.5 -42.5z
M412 517q-26 0 -44.5 18.5t-18.5 44.5t19 45t45 19t44.5 -19t18.5 -45t-19 -44.5t-45 -18.5zM224 517q-26 0 -44.5 18.5t-18.5 44.5t19 45t45 19t44.5 -19t18.5 -45t-19 -44.5t-45 -18.5z" />
    <glyph glyph-name="Amacron" unicode="&#x100;" horiz-adv-x="704" 
d="M-27 0l19 81h60l294 497h-78l18 80h331l-19 -80h-74l64 -497h69l-19 -81h-228l18 80h74l-17 139h-262l-81 -139h87l-19 -80h-237zM268 296h207l-36 289zM323 750l18 73h312l-16 -73h-314z" />
    <glyph glyph-name="amacron" unicode="&#x101;" horiz-adv-x="568" 
d="M186 -8q-65 0 -106 47t-41 125q0 111 67 193t160 82q47 0 82 -29.5t47 -72.5l28 96h82l-76 -307q-8 -29 -8 -44q0 -30 26 -30q31 0 56 70l39 -14q-35 -115 -119 -115q-38 0 -60.5 24t-22.5 63v5q-67 -93 -154 -93zM221 67q64 0 109 58t45 131q0 49 -25 77.5t-73 28.5
q-62 0 -104.5 -56.5t-42.5 -131.5q0 -49 23.5 -78t67.5 -29zM182 531l18 73h312l-16 -73h-314z" />
    <glyph glyph-name="Abreve" unicode="&#x102;" horiz-adv-x="704" 
d="M-27 0l19 81h60l294 497h-78l18 80h331l-19 -80h-74l64 -497h69l-19 -81h-228l18 80h74l-17 139h-262l-81 -139h87l-19 -80h-237zM268 296h207l-36 289zM480 724q-60 0 -97 42t-41 117l55 17q23 -97 96 -97q70 0 129 96l49 -24q-33 -73 -84.5 -112t-106.5 -39z" />
    <glyph glyph-name="abreve" unicode="&#x103;" horiz-adv-x="568" 
d="M186 -8q-65 0 -106 47t-41 125q0 111 67 193t160 82q47 0 82 -29.5t47 -72.5l28 96h82l-76 -307q-8 -29 -8 -44q0 -30 26 -30q31 0 56 70l39 -14q-35 -115 -119 -115q-38 0 -60.5 24t-22.5 63v5q-67 -93 -154 -93zM221 67q64 0 109 58t45 131q0 49 -25 77.5t-73 28.5
q-62 0 -104.5 -56.5t-42.5 -131.5q0 -49 23.5 -78t67.5 -29zM339 505q-60 0 -97 42t-41 117l55 17q23 -97 96 -97q70 0 129 96l49 -24q-33 -73 -84.5 -112t-106.5 -39z" />
    <glyph glyph-name="Aogonek" unicode="&#x104;" horiz-adv-x="704" 
d="M-27 0l19 81h60l294 497h-78l18 80h331l-19 -80h-74l64 -497h69l-19 -81h-79q-70 -53 -70 -97q0 -35 42 -35q30 0 53 9l-14 -57q-29 -21 -74 -21q-37 0 -61 21t-24 57q0 63 78 123h-79l18 80h74l-17 139h-262l-81 -139h87l-19 -80h-237zM268 296h207l-36 289z" />
    <glyph glyph-name="aogonek" unicode="&#x105;" horiz-adv-x="568" 
d="M340 82v3q-67 -93 -154 -93q-65 0 -106 47t-41 125q0 111 67 193t160 82q47 0 82 -29.5t47 -72.5l28 96h82l-76 -307q-8 -29 -8 -44q0 -28 24 -28q33 0 58 68l39 -14q-17 -57 -56 -93q-10 -9 -30.5 -26.5t-31.5 -27.5t-20.5 -26t-9.5 -32q0 -35 42 -35q28 0 53 9l-14 -57
q-29 -21 -74 -21q-37 0 -61 21t-24 57q0 66 79 121q-33 9 -46 39q-9 19 -9 45zM221 67q64 0 109 58t45 131q0 49 -25 77.5t-73 28.5q-62 0 -104.5 -56.5t-42.5 -131.5q0 -49 23.5 -78t67.5 -29z" />
    <glyph glyph-name="Cacute" unicode="&#x106;" horiz-adv-x="679" 
d="M445 720l-23 29l141 131q21 23 47 23q18 0 30.5 -13t12.5 -31q0 -32 -37 -52zM352 -11q-121 0 -202 77.5t-81 210.5q0 160 110.5 276.5t264.5 116.5q103 0 169.5 -51.5t66.5 -113.5q0 -33 -19.5 -55.5t-47.5 -22.5q-25 0 -42.5 17t-17.5 41q0 29 25 47q-10 21 -47 38
t-90 17q-115 0 -196.5 -91.5t-81.5 -211.5q0 -97 53.5 -154.5t143.5 -57.5q105 0 195 88l55 -55q-107 -116 -258 -116z" />
    <glyph glyph-name="cacute" unicode="&#x107;" horiz-adv-x="474" 
d="M299 501l-23 29l141 131q21 23 47 23q18 0 30.5 -13t12.5 -31q0 -32 -37 -52zM241 -8q-88 0 -145.5 51.5t-57.5 139.5q0 103 74.5 179.5t176.5 76.5q69 0 113.5 -36t44.5 -85q0 -29 -16.5 -48.5t-42.5 -19.5q-21 0 -36 15t-15 38t18 38q-21 24 -68 24q-63 0 -112 -49.5
t-49 -127.5q0 -56 34 -89.5t89 -33.5q75 0 145 54l-2 -80q-66 -47 -151 -47z" />
    <glyph glyph-name="Cdotaccent" unicode="&#x10a;" horiz-adv-x="679" 
d="M352 -11q-121 0 -202 77.5t-81 210.5q0 160 110.5 276.5t264.5 116.5q103 0 169.5 -51.5t66.5 -113.5q0 -33 -19.5 -55.5t-47.5 -22.5q-25 0 -42.5 17t-17.5 41q0 29 25 47q-10 21 -47 38t-90 17q-115 0 -196.5 -91.5t-81.5 -211.5q0 -97 53.5 -154.5t143.5 -57.5
q105 0 195 88l55 -55q-107 -116 -258 -116zM482 735q-26 0 -45 19t-19 45q0 27 19.5 46t45.5 19t44.5 -19t18.5 -46q0 -26 -19 -45t-45 -19z" />
    <glyph glyph-name="cdotaccent" unicode="&#x10b;" horiz-adv-x="474" 
d="M241 -8q-88 0 -145.5 51.5t-57.5 139.5q0 103 74.5 179.5t176.5 76.5q69 0 113.5 -36t44.5 -85q0 -29 -16.5 -48.5t-42.5 -19.5q-21 0 -36 15t-15 38t18 38q-21 24 -68 24q-63 0 -112 -49.5t-49 -127.5q0 -56 34 -89.5t89 -33.5q75 0 145 54l-2 -80q-66 -47 -151 -47z
M335 516q-26 0 -45 19t-19 45q0 27 19.5 46t45.5 19t44.5 -19t18.5 -46q0 -26 -19 -45t-45 -19z" />
    <glyph glyph-name="Ccaron" unicode="&#x10c;" horiz-adv-x="679" 
d="M464 714l-119 163l42 37l94 -94l148 96l34 -45zM352 -11q-121 0 -202 77.5t-81 210.5q0 160 110.5 276.5t264.5 116.5q103 0 169.5 -51.5t66.5 -113.5q0 -33 -19.5 -55.5t-47.5 -22.5q-25 0 -42.5 17t-17.5 41q0 29 25 47q-10 21 -47 38t-90 17q-115 0 -196.5 -91.5
t-81.5 -211.5q0 -97 53.5 -154.5t143.5 -57.5q105 0 195 88l55 -55q-107 -116 -258 -116z" />
    <glyph glyph-name="ccaron" unicode="&#x10d;" horiz-adv-x="474" 
d="M317 495l-119 163l42 37l94 -94l148 96l34 -45zM241 -8q-88 0 -145.5 51.5t-57.5 139.5q0 103 74.5 179.5t176.5 76.5q69 0 113.5 -36t44.5 -85q0 -29 -16.5 -48.5t-42.5 -19.5q-21 0 -36 15t-15 38t18 38q-21 24 -68 24q-63 0 -112 -49.5t-49 -127.5q0 -56 34 -89.5
t89 -33.5q75 0 145 54l-2 -80q-66 -47 -151 -47z" />
    <glyph glyph-name="Dcaron" unicode="&#x10e;" horiz-adv-x="701" 
d="M432 714l-119 163l42 37l94 -94l148 96l34 -45zM-1 0l19 81h75l115 496h-85l18 81h212q171 0 263 -92q71 -71 71 -187q0 -152 -104 -258q-122 -121 -340 -121h-244zM183 81h74q165 0 255 92q80 80 80 201q0 86 -51 137q-66 66 -197 66h-45z" />
    <glyph glyph-name="dcaron" unicode="&#x10f;" horiz-adv-x="569" 
d="M39 164q0 112 67 193.5t159 81.5q46 0 81.5 -29t48.5 -70l73 318h-80l18 74h166l-142 -606q-7 -33 -7 -44q0 -30 25 -30q30 0 57 70l39 -14q-35 -115 -119 -115q-39 0 -61.5 24t-22.5 64v4q-64 -93 -153 -93q-65 0 -107 47.5t-42 124.5zM223 67q63 0 108.5 57t45.5 131
q0 50 -26 78.5t-74 28.5q-62 0 -104.5 -56.5t-42.5 -131.5q0 -48 24.5 -77.5t68.5 -29.5zM580 493l-23 21q48 55 59 104q3 14 4 44t6 47q12 43 52 43q22 0 35 -13.5t13 -36.5q0 -47 -49 -111q-30 -40 -97 -98z" />
    <glyph glyph-name="Dcroat" unicode="&#x110;" horiz-adv-x="701" 
d="M-1 0l19 81h75l50 218h-84l17 75h85l47 203h-85l18 81h212q171 0 263 -92q71 -71 71 -187q0 -152 -104 -258q-122 -121 -340 -121h-244zM183 81h74q165 0 255 92q80 80 80 201q0 86 -51 137q-66 66 -197 66h-45l-48 -203h138l-18 -75h-137z" />
    <glyph glyph-name="dcroat" unicode="&#x111;" horiz-adv-x="569" 
d="M283 508l17 74h150l18 76h-80l18 74h166l-35 -150h76l-16 -74h-78l-89 -382q-7 -33 -7 -44q0 -30 25 -30q30 0 57 70l39 -14q-35 -115 -119 -115q-39 0 -61.5 24t-22.5 64v4q-64 -93 -153 -93q-65 0 -107 47.5t-42 124.5q0 112 67 193.5t159 81.5q46 0 81.5 -29t48.5 -70
l38 168h-150zM223 67q63 0 108.5 57t45.5 131q0 50 -26 78.5t-74 28.5q-62 0 -104.5 -56.5t-42.5 -131.5q0 -48 24.5 -77.5t68.5 -29.5z" />
    <glyph glyph-name="Emacron" unicode="&#x112;" horiz-adv-x="578" 
d="M-1 0l19 81h75l115 496h-85l18 81h485l-42 -173h-86l22 93h-221l-48 -204h205l-18 -78h-204l-51 -216h222l23 93h86l-40 -173h-475zM253 750l18 73h312l-16 -73h-314z" />
    <glyph glyph-name="emacron" unicode="&#x113;" horiz-adv-x="482" 
d="M431 188h-308v-15q0 -49 35.5 -78.5t94.5 -29.5q69 0 142 39l-17 -82q-61 -30 -143 -30t-140 49t-58 134q0 109 70 186.5t166 77.5q80 0 127 -43t47 -118q0 -42 -16 -90zM158 531l18 73h312l-16 -73h-314zM273 366q-46 0 -83.5 -31.5t-54.5 -83.5h224q6 18 6 37
q0 35 -23.5 56.5t-68.5 21.5z" />
    <glyph glyph-name="Ebreve" unicode="&#x114;" horiz-adv-x="578" 
d="M-1 0l19 81h75l115 496h-85l18 81h485l-42 -173h-86l22 93h-221l-48 -204h205l-18 -78h-204l-51 -216h222l23 93h86l-40 -173h-475zM410 724q-60 0 -97 42t-41 117l55 17q23 -97 96 -97q70 0 129 96l49 -24q-33 -73 -84.5 -112t-106.5 -39z" />
    <glyph glyph-name="ebreve" unicode="&#x115;" horiz-adv-x="482" 
d="M431 188h-308v-15q0 -49 35.5 -78.5t94.5 -29.5q69 0 142 39l-17 -82q-61 -30 -143 -30t-140 49t-58 134q0 109 70 186.5t166 77.5q80 0 127 -43t47 -118q0 -42 -16 -90zM315 505q-60 0 -97 42t-41 117l55 17q23 -97 96 -97q70 0 129 96l49 -24q-33 -73 -84.5 -112
t-106.5 -39zM273 366q-46 0 -83.5 -31.5t-54.5 -83.5h224q6 18 6 37q0 35 -23.5 56.5t-68.5 21.5z" />
    <glyph glyph-name="Edotaccent" unicode="&#x116;" horiz-adv-x="578" 
d="M-1 0l19 81h75l115 496h-85l18 81h485l-42 -173h-86l22 93h-221l-48 -204h205l-18 -78h-204l-51 -216h222l23 93h86l-40 -173h-475zM422 735q-26 0 -45 19t-19 45q0 27 19.5 46t45.5 19t44.5 -19t18.5 -46q0 -26 -19 -45t-45 -19z" />
    <glyph glyph-name="edotaccent" unicode="&#x117;" horiz-adv-x="482" 
d="M431 188h-308v-15q0 -49 35.5 -78.5t94.5 -29.5q69 0 142 39l-17 -82q-61 -30 -143 -30t-140 49t-58 134q0 109 70 186.5t166 77.5q80 0 127 -43t47 -118q0 -42 -16 -90zM273 366q-46 0 -83.5 -31.5t-54.5 -83.5h224q6 18 6 37q0 35 -23.5 56.5t-68.5 21.5zM326 516
q-26 0 -45 19t-19 45q0 27 19.5 46t45.5 19t44.5 -19t18.5 -46q0 -26 -19 -45t-45 -19z" />
    <glyph glyph-name="Eogonek" unicode="&#x118;" horiz-adv-x="578" 
d="M-1 0l19 81h75l115 496h-85l18 81h485l-42 -173h-86l22 93h-221l-48 -204h205l-18 -78h-204l-51 -216h222l23 93h86l-40 -173h-51q-70 -53 -70 -97q0 -35 42 -35q30 0 53 9l-14 -57q-29 -21 -74 -21q-37 0 -61 21t-24 57q0 63 78 123h-354z" />
    <glyph glyph-name="eogonek" unicode="&#x119;" horiz-adv-x="482" 
d="M260 -201q-37 0 -61 21t-24 57q0 61 74 115h-14q-82 0 -140 49t-58 134q0 109 70 186.5t166 77.5q80 0 127 -43t47 -118q0 -42 -16 -90h-308v-15q0 -49 35.5 -78.5t94.5 -29.5q69 0 142 39l-17 -81q-52 -25 -88.5 -56.5t-36.5 -63.5q0 -35 42 -35q30 0 53 9l-14 -57
q-29 -21 -74 -21zM273 366q-46 0 -83.5 -31.5t-54.5 -83.5h224q6 18 6 37q0 35 -23.5 56.5t-68.5 21.5z" />
    <glyph glyph-name="Ecaron" unicode="&#x11a;" horiz-adv-x="578" 
d="M404 714l-119 163l42 37l94 -94l148 96l34 -45zM-1 0l19 81h75l115 496h-85l18 81h485l-42 -173h-86l22 93h-221l-48 -204h205l-18 -78h-204l-51 -216h222l23 93h86l-40 -173h-475z" />
    <glyph glyph-name="ecaron" unicode="&#x11b;" horiz-adv-x="482" 
d="M431 188h-308v-15q0 -49 35.5 -78.5t94.5 -29.5q69 0 142 39l-17 -82q-61 -30 -143 -30t-140 49t-58 134q0 109 70 186.5t166 77.5q80 0 127 -43t47 -118q0 -42 -16 -90zM308 495l-119 163l42 37l94 -94l148 96l34 -45zM273 366q-46 0 -83.5 -31.5t-54.5 -83.5h224
q6 18 6 37q0 35 -23.5 56.5t-68.5 21.5z" />
    <glyph glyph-name="Gbreve" unicode="&#x11e;" horiz-adv-x="715" 
d="M510 0l10 67q-92 -78 -200 -78q-105 0 -178 76t-73 196q0 167 114.5 288t279.5 121q131 0 199 -68q39 -38 39 -84q0 -32 -19.5 -52t-45.5 -20t-43 16.5t-17 41.5q0 23 20 41l-7 8q-36 34 -127 34q-126 0 -212.5 -94.5t-86.5 -226.5q0 -89 50.5 -141.5t128.5 -52.5
q109 0 184 57l29 123h-176l18 77h267l-78 -329h-76zM481 724q-60 0 -97 42t-41 117l55 17q23 -97 96 -97q70 0 129 96l49 -24q-33 -73 -84.5 -112t-106.5 -39z" />
    <glyph glyph-name="gbreve" unicode="&#x11f;" horiz-adv-x="531" 
d="M185 -200q-44 0 -87.5 15t-63.5 35q-25 25 -25 56q0 26 15.5 42.5t39.5 16.5q23 0 38 -16t15 -38q0 -15 -6 -26q26 -16 72 -16q59 0 95 36q30 29 48 104l19 81q-60 -85 -148 -85q-72 0 -114.5 47t-42.5 126q0 107 65.5 184t162.5 77q52 0 86 -29t47 -69l27 92h81
l-103 -444q-20 -90 -63 -134q-56 -55 -158 -55zM233 80q63 0 106.5 54t43.5 125q0 48 -28.5 75.5t-75.5 27.5q-63 0 -105.5 -52t-42.5 -126q0 -48 28.5 -76t73.5 -28zM341 505q-60 0 -97 42t-41 117l55 17q23 -97 96 -97q70 0 129 96l49 -24q-33 -73 -84.5 -112t-106.5 -39z
" />
    <glyph glyph-name="Gdotaccent" unicode="&#x120;" horiz-adv-x="715" 
d="M510 0l10 67q-92 -78 -200 -78q-105 0 -178 76t-73 196q0 167 114.5 288t279.5 121q131 0 199 -68q39 -38 39 -84q0 -32 -19.5 -52t-45.5 -20t-43 16.5t-17 41.5q0 23 20 41l-7 8q-36 34 -127 34q-126 0 -212.5 -94.5t-86.5 -226.5q0 -89 50.5 -141.5t128.5 -52.5
q109 0 184 57l29 123h-176l18 77h267l-78 -329h-76zM493 735q-26 0 -45 19t-19 45q0 27 19.5 46t45.5 19t44.5 -19t18.5 -46q0 -26 -19 -45t-45 -19z" />
    <glyph glyph-name="gdotaccent" unicode="&#x121;" horiz-adv-x="531" 
d="M185 -200q-44 0 -87.5 15t-63.5 35q-25 25 -25 56q0 26 15.5 42.5t39.5 16.5q23 0 38 -16t15 -38q0 -15 -6 -26q26 -16 72 -16q59 0 95 36q30 29 48 104l19 81q-60 -85 -148 -85q-72 0 -114.5 47t-42.5 126q0 107 65.5 184t162.5 77q52 0 86 -29t47 -69l27 92h81
l-103 -444q-20 -90 -63 -134q-56 -55 -158 -55zM233 80q63 0 106.5 54t43.5 125q0 48 -28.5 75.5t-75.5 27.5q-63 0 -105.5 -52t-42.5 -126q0 -48 28.5 -76t73.5 -28zM352 516q-26 0 -45 19t-19 45q0 27 19.5 46t45.5 19t44.5 -19t18.5 -46q0 -26 -19 -45t-45 -19z" />
    <glyph glyph-name="Gcommaaccent" unicode="&#x122;" horiz-adv-x="715" 
d="M510 0l10 67q-92 -78 -200 -78q-105 0 -178 76t-73 196q0 167 114.5 288t279.5 121q131 0 199 -68q39 -38 39 -84q0 -32 -19.5 -52t-45.5 -20t-43 16.5t-17 41.5q0 23 20 41l-7 8q-36 34 -127 34q-126 0 -212.5 -94.5t-86.5 -226.5q0 -89 50.5 -141.5t128.5 -52.5
q109 0 184 57l29 123h-176l18 77h267l-78 -329h-76zM183 -289l-16 30q52 27 78.5 55t29.5 45q-18 7 -28 22t-10 29q0 25 16.5 42t41.5 17t43 -18.5t18 -47.5q0 -47 -47 -96.5t-126 -77.5z" />
    <glyph glyph-name="gcommaaccent" unicode="&#x123;" horiz-adv-x="531" 
d="M185 -200q-44 0 -87.5 15t-63.5 35q-25 25 -25 56q0 26 15.5 42.5t39.5 16.5q23 0 38 -16t15 -38q0 -15 -6 -26q26 -16 72 -16q59 0 95 36q30 29 48 104l19 81q-60 -85 -148 -85q-72 0 -114.5 47t-42.5 126q0 107 65.5 184t162.5 77q52 0 86 -29t47 -69l27 92h81
l-103 -444q-20 -90 -63 -134q-56 -55 -158 -55zM233 80q63 0 106.5 54t43.5 125q0 48 -28.5 75.5t-75.5 27.5q-63 0 -105.5 -52t-42.5 -126q0 -48 28.5 -76t73.5 -28zM460 753l16 -30q-52 -27 -78.5 -55t-29.5 -45q18 -7 28 -22t10 -29q0 -25 -16.5 -42t-41.5 -17t-43 18.5
t-18 47.5q0 47 47 96.5t126 77.5z" />
    <glyph glyph-name="Hbar" unicode="&#x126;" horiz-adv-x="759" 
d="M768 508l-16 -69h-63l-83 -358h85l-18 -81h-255l18 81h80l47 202h-332l-48 -202h90l-19 -81h-255l19 81h75l83 358h-62l16 69h62l17 72h-86l18 78h256l-18 -78h-80l-17 -72h332l17 72h-89l18 78h255l-18 -78h-75l-17 -72h63zM249 363h332l17 76h-332z" />
    <glyph glyph-name="hbar" unicode="&#x127;" horiz-adv-x="535" 
d="M23 0l117 508h-79l17 74h79l18 76h-81l19 74h165l-35 -150h151l-16 -74h-152l-38 -161q25 39 62 65t77 26q51 0 85 -33t34 -89q0 -36 -11 -70l-35 -128q-5 -22 -5 -34q0 -32 26 -32q31 0 56 70l39 -14q-34 -115 -117 -115q-43 0 -67.5 24t-24.5 62q0 20 7 48l36 131
q6 20 6 44q0 28 -18.5 45.5t-47.5 17.5q-42 0 -76.5 -34.5t-48.5 -98.5l-54 -232h-88z" />
    <glyph glyph-name="Imacron" unicode="&#x12a;" horiz-adv-x="357" 
d="M2 0l19 81h82l115 496h-89l19 81h262l-18 -81h-83l-115 -496h89l-19 -81h-262zM146 750l18 73h312l-16 -73h-314z" />
    <glyph glyph-name="imacron" unicode="&#x12b;" horiz-adv-x="307" 
d="M155 -7q-43 0 -66.5 23.5t-23.5 63.5q0 21 7 47l60 230h-81l19 74h169l-80 -305q-7 -24 -7 -44q0 -30 26 -30q32 0 59 70l39 -14q-35 -115 -121 -115zM55 531l18 73h312l-16 -73h-314z" />
    <glyph glyph-name="Ibreve" unicode="&#x12c;" horiz-adv-x="357" 
d="M2 0l19 81h82l115 496h-89l19 81h262l-18 -81h-83l-115 -496h89l-19 -81h-262zM303 724q-60 0 -97 42t-41 117l55 17q23 -97 96 -97q70 0 129 96l49 -24q-33 -73 -84.5 -112t-106.5 -39z" />
    <glyph glyph-name="ibreve" unicode="&#x12d;" horiz-adv-x="307" 
d="M155 -7q-43 0 -66.5 23.5t-23.5 63.5q0 21 7 47l60 230h-81l19 74h169l-80 -305q-7 -24 -7 -44q0 -30 26 -30q32 0 59 70l39 -14q-35 -115 -121 -115zM213 505q-60 0 -97 42t-41 117l55 17q23 -97 96 -97q70 0 129 96l49 -24q-33 -73 -84.5 -112t-106.5 -39z" />
    <glyph glyph-name="Iogonek" unicode="&#x12e;" horiz-adv-x="357" 
d="M2 0l19 81h82l115 496h-89l19 81h262l-18 -81h-83l-115 -496h89l-19 -81h-98q-70 -53 -70 -97q0 -35 42 -35q30 0 53 9l-14 -57q-29 -21 -74 -21q-37 0 -61 21t-24 57q0 63 78 123h-94z" />
    <glyph glyph-name="iogonek" unicode="&#x12f;" horiz-adv-x="307" 
d="M237 122l39 -14q-19 -58 -56 -93q-10 -10 -30.5 -27t-31.5 -27t-20.5 -26t-9.5 -32q0 -35 41 -35q29 0 54 9l-14 -57q-29 -21 -74 -21q-37 0 -61.5 21t-24.5 57q0 65 77 119q-61 15 -61 84q0 21 7 47l60 230h-81l19 74h169l-80 -305q-7 -24 -7 -44q0 -29 26 -29
q33 0 59 69zM207 504q-24 0 -41 17t-17 41t17 41t41 17q23 0 40.5 -17t17.5 -41t-17.5 -41t-40.5 -17z" />
    <glyph glyph-name="Idotaccent" unicode="&#x130;" horiz-adv-x="357" 
d="M2 0l19 81h82l115 496h-89l19 81h262l-18 -81h-83l-115 -496h89l-19 -81h-262zM315 735q-26 0 -45 19t-19 45q0 27 19.5 46t45.5 19t44.5 -19t18.5 -46q0 -26 -19 -45t-45 -19z" />
    <glyph glyph-name="dotlessi" unicode="&#x131;" horiz-adv-x="307" 
d="M155 -7q-43 0 -66.5 23.5t-23.5 63.5q0 21 7 47l60 230h-81l19 74h169l-80 -305q-7 -24 -7 -44q0 -30 26 -30q32 0 59 70l39 -14q-35 -115 -121 -115z" />
    <glyph glyph-name="Kcommaaccent" unicode="&#x136;" horiz-adv-x="662" 
d="M642 577l-251 -211l135 -285h92l-19 -81h-138l-140 311l-105 -88l-33 -142h89l-19 -81h-254l19 81h75l115 496h-85l18 81h248l-18 -79h-72l-60 -255l291 255h-76l17 79h258l-18 -81h-69zM151 -289l-16 30q52 27 78.5 55t29.5 45q-18 7 -28 22t-10 29q0 25 16.5 42
t41.5 17t43 -18.5t18 -47.5q0 -47 -47 -96.5t-126 -77.5z" />
    <glyph glyph-name="kcommaaccent" unicode="&#x137;" horiz-adv-x="486" 
d="M111 0h-88l152 658h-81l19 74h165l-118 -506q164 59 197 110q-27 16 -27 46q0 23 16.5 40t40.5 17q25 0 42 -17.5t17 -46.5q0 -94 -169 -174l42 -98q13 -31 22 -41q9 -9 20 -9q25 0 46 80l40 -13q-16 -72 -42.5 -99.5t-63.5 -27.5q-33 0 -56 19q-23 20 -37 55l-47 112
q-10 -4 -29 -10.5t-23 -8.5zM44 -289l-16 30q52 27 78.5 55t29.5 45q-18 7 -28 22t-10 29q0 25 16.5 42t41.5 17t43 -18.5t18 -47.5q0 -47 -47 -96.5t-126 -77.5z" />
    <glyph glyph-name="Lacute" unicode="&#x139;" horiz-adv-x="547" 
d="M274 726l-23 29l141 131q21 23 47 23q18 0 30.5 -13t12.5 -31q0 -32 -37 -52zM-1 0l19 81h75l115 496h-85l18 81h262l-19 -81h-85l-116 -497h205l23 97h87l-41 -177h-458z" />
    <glyph glyph-name="lacute" unicode="&#x13a;" horiz-adv-x="291" 
d="M245 774l-23 29l141 131q21 23 47 23q18 0 30.5 -13t12.5 -31q0 -32 -37 -52zM139 -7q-43 0 -66.5 23.5t-23.5 64.5q0 13 6 45l124 532h-81l19 74h166l-140 -605q-7 -30 -7 -43q0 -32 26 -32q32 0 59 70l38 -14q-35 -115 -120 -115z" />
    <glyph glyph-name="Lcommaaccent" unicode="&#x13b;" horiz-adv-x="547" 
d="M89 -289l-16 30q52 27 78.5 55t29.5 45q-18 7 -28 22t-10 29q0 25 16.5 42t41.5 17t43 -18.5t18 -47.5q0 -47 -47 -96.5t-126 -77.5zM-1 0l19 81h75l115 496h-85l18 81h262l-19 -81h-85l-116 -497h205l23 97h87l-41 -177h-458z" />
    <glyph glyph-name="lcommaaccent" unicode="&#x13c;" horiz-adv-x="291" 
d="M-12 -289l-16 30q52 27 78.5 55t29.5 45q-18 7 -28 22t-10 29q0 25 16.5 42t41.5 17t43 -18.5t18 -47.5q0 -47 -47 -96.5t-126 -77.5zM139 -7q-43 0 -66.5 23.5t-23.5 64.5q0 13 6 45l124 532h-81l19 74h166l-140 -605q-7 -30 -7 -43q0 -32 26 -32q32 0 59 70l38 -14
q-35 -115 -120 -115z" />
    <glyph glyph-name="Lcaron" unicode="&#x13d;" horiz-adv-x="547" 
d="M414 399l-23 21q48 55 59 104q3 14 4 44t6 47q12 43 52 43q22 0 35 -13.5t13 -36.5q0 -47 -49 -111q-30 -40 -97 -98zM-1 0l19 81h75l115 496h-85l18 81h262l-19 -81h-85l-116 -497h205l23 97h87l-41 -177h-458z" />
    <glyph glyph-name="lcaron" unicode="&#x13e;" horiz-adv-x="291" 
d="M291 493l-23 21q48 55 59 104q3 14 4 44t6 47q12 43 52 43q22 0 35 -13.5t13 -36.5q0 -47 -49 -111q-30 -40 -97 -98zM139 -7q-43 0 -66.5 23.5t-23.5 64.5q0 13 6 45l124 532h-81l19 74h166l-140 -605q-7 -30 -7 -43q0 -32 26 -32q32 0 59 70l38 -14q-35 -115 -120 -115
z" />
    <glyph glyph-name="Ldot" unicode="&#x13f;" horiz-adv-x="547" 
d="M-1 0l19 81h75l115 496h-85l18 81h262l-19 -81h-85l-116 -497h205l23 97h87l-41 -177h-458zM480 298q-26 0 -45 19t-19 45q0 27 19.5 46t45.5 19t44.5 -19t18.5 -46q0 -26 -19 -45t-45 -19z" />
    <glyph glyph-name="ldot" unicode="&#x140;" horiz-adv-x="339" 
d="M139 -7q-43 0 -66.5 23.5t-23.5 64.5q0 13 6 45l124 532h-81l19 74h166l-140 -605q-7 -30 -7 -43q0 -32 26 -32q32 0 59 70l38 -14q-35 -115 -120 -115zM321 277q-26 0 -45 19t-19 45q0 27 19.5 46t45.5 19t44.5 -19t18.5 -46q0 -26 -19 -45t-45 -19z" />
    <glyph glyph-name="Lslash" unicode="&#x141;" horiz-adv-x="565" 
d="M16 0l19 81h75l42 184l-90 -39l-27 61l136 60l54 230h-85l18 81h262l-19 -81h-85l-44 -189l126 56l27 -62l-172 -76l-53 -226h205l23 97h87l-41 -177h-458z" />
    <glyph glyph-name="lslash" unicode="&#x142;" horiz-adv-x="330" 
d="M158 -7q-43 0 -66.5 23.5t-23.5 64.5q0 13 6 45l52 223l-81 -35l-26 59l125 56l54 229h-81l19 74h166l-61 -262l100 46l27 -61l-145 -65l-61 -263q-7 -30 -7 -43q0 -32 26 -32q32 0 59 70l38 -14q-35 -115 -120 -115z" />
    <glyph glyph-name="Nacute" unicode="&#x143;" horiz-adv-x="744" 
d="M474 720l-23 29l141 131q21 23 47 23q18 0 30.5 -13t12.5 -31q0 -32 -37 -52zM538 -2l-259 506l-98 -423h90l-19 -81h-253l19 81h75l115 496h-85l18 81h161l237 -466l89 385h-89l19 81h251l-18 -81h-74l-135 -579h-44z" />
    <glyph glyph-name="nacute" unicode="&#x144;" horiz-adv-x="556" 
d="M325 501l-23 29l141 131q21 23 47 23q18 0 30.5 -13t12.5 -31q0 -32 -37 -52zM418 -7q-43 0 -67.5 24t-24.5 62q0 21 7 49l37 130q7 24 7 44q0 28 -18 45.5t-47 17.5q-41 0 -75 -34t-50 -97l-58 -234h-88l90 357h-80l19 74h154l-23 -101q27 47 67 77.5t82 30.5
q51 0 84 -33t33 -89q0 -31 -11 -70l-37 -127q-6 -26 -6 -35q0 -32 27 -32q31 0 56 70l39 -14q-34 -115 -117 -115z" />
    <glyph glyph-name="Ncommaaccent" unicode="&#x145;" horiz-adv-x="744" 
d="M193 -289l-16 30q52 27 78.5 55t29.5 45q-18 7 -28 22t-10 29q0 25 16.5 42t41.5 17t43 -18.5t18 -47.5q0 -47 -47 -96.5t-126 -77.5zM538 -2l-259 506l-98 -423h90l-19 -81h-253l19 81h75l115 496h-85l18 81h161l237 -466l89 385h-89l19 81h251l-18 -81h-74l-135 -579
h-44z" />
    <glyph glyph-name="ncommaaccent" unicode="&#x146;" horiz-adv-x="556" 
d="M91 -289l-16 30q52 27 78.5 55t29.5 45q-18 7 -28 22t-10 29q0 25 16.5 42t41.5 17t43 -18.5t18 -47.5q0 -47 -47 -96.5t-126 -77.5zM418 -7q-43 0 -67.5 24t-24.5 62q0 21 7 49l37 130q7 24 7 44q0 28 -18 45.5t-47 17.5q-41 0 -75 -34t-50 -97l-58 -234h-88l90 357h-80
l19 74h154l-23 -101q27 47 67 77.5t82 30.5q51 0 84 -33t33 -89q0 -31 -11 -70l-37 -127q-6 -26 -6 -35q0 -32 27 -32q31 0 56 70l39 -14q-34 -115 -117 -115z" />
    <glyph glyph-name="Ncaron" unicode="&#x147;" horiz-adv-x="744" 
d="M493 714l-119 163l42 37l94 -94l148 96l34 -45zM538 -2l-259 506l-98 -423h90l-19 -81h-253l19 81h75l115 496h-85l18 81h161l237 -466l89 385h-89l19 81h251l-18 -81h-74l-135 -579h-44z" />
    <glyph glyph-name="ncaron" unicode="&#x148;" horiz-adv-x="556" 
d="M343 495l-119 163l42 37l94 -94l148 96l34 -45zM418 -7q-43 0 -67.5 24t-24.5 62q0 21 7 49l37 130q7 24 7 44q0 28 -18 45.5t-47 17.5q-41 0 -75 -34t-50 -97l-58 -234h-88l90 357h-80l19 74h154l-23 -101q27 47 67 77.5t82 30.5q51 0 84 -33t33 -89q0 -31 -11 -70
l-37 -127q-6 -26 -6 -35q0 -32 27 -32q31 0 56 70l39 -14q-34 -115 -117 -115z" />
    <glyph glyph-name="Omacron" unicode="&#x14c;" horiz-adv-x="731" 
d="M331 750l18 73h312l-16 -73h-314zM350 -12q-130 0 -205.5 80.5t-75.5 207.5q0 72 27.5 142.5t75 126.5t116.5 90.5t146 34.5q130 0 205.5 -80.5t75.5 -207.5q0 -97 -46.5 -187t-131.5 -148.5t-187 -58.5zM358 71q110 0 186.5 95.5t76.5 215.5q0 89 -50.5 147t-144.5 58
q-110 0 -187 -95.5t-77 -215.5q0 -89 51 -147t145 -58z" />
    <glyph glyph-name="omacron" unicode="&#x14d;" horiz-adv-x="514" 
d="M172 531l18 73h312l-16 -73h-314zM232 -8q-90 0 -142 55.5t-52 135.5q0 102 70.5 179t173.5 77q90 0 142 -55.5t52 -136.5q0 -101 -70.5 -178t-173.5 -77zM236 65q63 0 107.5 53.5t44.5 129.5q0 54 -31 85.5t-79 31.5q-63 0 -107.5 -53t-44.5 -129q0 -55 31 -86.5
t79 -31.5z" />
    <glyph glyph-name="Obreve" unicode="&#x14e;" horiz-adv-x="731" 
d="M350 -12q-130 0 -205.5 80.5t-75.5 207.5q0 72 27.5 142.5t75 126.5t116.5 90.5t146 34.5q130 0 205.5 -80.5t75.5 -207.5q0 -97 -46.5 -187t-131.5 -148.5t-187 -58.5zM358 71q110 0 186.5 95.5t76.5 215.5q0 89 -50.5 147t-144.5 58q-110 0 -187 -95.5t-77 -215.5
q0 -89 51 -147t145 -58zM487 724q-60 0 -97 42t-41 117l55 17q23 -97 96 -97q70 0 129 96l49 -24q-33 -73 -84.5 -112t-106.5 -39z" />
    <glyph glyph-name="obreve" unicode="&#x14f;" horiz-adv-x="514" 
d="M232 -8q-90 0 -142 55.5t-52 135.5q0 102 70.5 179t173.5 77q90 0 142 -55.5t52 -136.5q0 -101 -70.5 -178t-173.5 -77zM236 65q63 0 107.5 53.5t44.5 129.5q0 54 -31 85.5t-79 31.5q-63 0 -107.5 -53t-44.5 -129q0 -55 31 -86.5t79 -31.5zM329 505q-60 0 -97 42t-41 117
l55 17q23 -97 96 -97q70 0 129 96l49 -24q-33 -73 -84.5 -112t-106.5 -39z" />
    <glyph glyph-name="Ohungarumlaut" unicode="&#x150;" horiz-adv-x="731" 
d="M368 721l-23 29l124 129q22 24 48 24q18 0 30 -12.5t12 -31.5q0 -30 -36 -50zM566 723l-23 29l128 126q21 23 47 23q18 0 30 -13t12 -31q0 -30 -37 -51zM350 -12q-130 0 -205.5 80.5t-75.5 207.5q0 72 27.5 142.5t75 126.5t116.5 90.5t146 34.5q130 0 205.5 -80.5
t75.5 -207.5q0 -97 -46.5 -187t-131.5 -148.5t-187 -58.5zM358 71q110 0 186.5 95.5t76.5 215.5q0 89 -50.5 147t-144.5 58q-110 0 -187 -95.5t-77 -215.5q0 -89 51 -147t145 -58z" />
    <glyph glyph-name="ohungarumlaut" unicode="&#x151;" horiz-adv-x="514" 
d="M210 502l-23 29l124 129q22 24 48 24q18 0 30 -12.5t12 -31.5q0 -30 -36 -50zM408 504l-23 29l128 126q21 23 47 23q18 0 30 -13t12 -31q0 -30 -37 -51zM232 -8q-90 0 -142 55.5t-52 135.5q0 102 70.5 179t173.5 77q90 0 142 -55.5t52 -136.5q0 -101 -70.5 -178
t-173.5 -77zM236 65q63 0 107.5 53.5t44.5 129.5q0 54 -31 85.5t-79 31.5q-63 0 -107.5 -53t-44.5 -129q0 -55 31 -86.5t79 -31.5z" />
    <glyph glyph-name="OE" unicode="&#x152;" horiz-adv-x="929" 
d="M401 0q-171 0 -263 92q-71 71 -71 187q0 154 104 258q122 121 340 121h466l-41 -173h-86l21 93h-221l-47 -204h204l-17 -78h-205l-50 -216h221l23 93h86l-40 -173h-424zM410 81h34l115 496h-62q-165 0 -255 -92q-80 -80 -80 -201q0 -86 51 -137q66 -66 197 -66z" />
    <glyph glyph-name="oe" unicode="&#x153;" horiz-adv-x="827" 
d="M742 104l-18 -82q-61 -30 -137 -30q-61 0 -106 28.5t-64 77.5q-70 -106 -187 -106q-88 0 -140 55.5t-52 135.5q0 102 69.5 179t169.5 77q127 0 167 -110q63 110 182 110q75 0 121.5 -43.5t46.5 -117.5q0 -39 -17 -90h-308v-15q0 -49 36 -78.5t95 -29.5q68 0 142 39z
M237 65q64 0 109 53.5t45 129.5q0 54 -32 85.5t-79 31.5q-64 0 -109 -53t-45 -129q0 -55 31.5 -86.5t79.5 -31.5zM619 366q-46 0 -83.5 -31.5t-54.5 -83.5h224q6 18 6 37q0 35 -23.5 56.5t-68.5 21.5z" />
    <glyph glyph-name="Racute" unicode="&#x154;" horiz-adv-x="604" 
d="M-1 0l19 81h75l115 496h-85l18 81h208q134 0 194 -61q47 -45 47 -119q0 -75 -48.5 -130.5t-133.5 -77.5l88 -189h78l-19 -81h-123l-112 259h-25q-25 0 -69 2l-43 -180h87l-19 -81h-252zM322 336q81 0 128.5 38t47.5 98q0 43 -27 70q-35 35 -125 35h-48l-55 -238
q34 -3 79 -3zM384 720l-23 29l141 131q21 23 47 23q18 0 30.5 -13t12.5 -31q0 -32 -37 -52z" />
    <glyph glyph-name="racute" unicode="&#x155;" horiz-adv-x="401" 
d="M41 0l90 357h-80l19 74h154l-28 -121q80 128 150 128q27 0 45.5 -17t18.5 -43q0 -25 -18 -43t-42 -18q-22 0 -38 12.5t-20 31.5q-29 -13 -64 -59t-51 -109l-48 -193h-88zM265 501l-23 29l141 131q21 23 47 23q18 0 30.5 -13t12.5 -31q0 -32 -37 -52z" />
    <glyph glyph-name="Rcommaaccent" unicode="&#x156;" horiz-adv-x="604" 
d="M-1 0l19 81h75l115 496h-85l18 81h208q134 0 194 -61q47 -45 47 -119q0 -75 -48.5 -130.5t-133.5 -77.5l88 -189h78l-19 -81h-123l-112 259h-25q-25 0 -69 2l-43 -180h87l-19 -81h-252zM322 336q81 0 128.5 38t47.5 98q0 43 -27 70q-35 35 -125 35h-48l-55 -238
q34 -3 79 -3zM135 -289l-16 30q52 27 78.5 55t29.5 45q-18 7 -28 22t-10 29q0 25 16.5 42t41.5 17t43 -18.5t18 -47.5q0 -47 -47 -96.5t-126 -77.5z" />
    <glyph glyph-name="rcommaaccent" unicode="&#x157;" horiz-adv-x="401" 
d="M41 0l90 357h-80l19 74h154l-28 -121q80 128 150 128q27 0 45.5 -17t18.5 -43q0 -25 -18 -43t-42 -18q-22 0 -38 12.5t-20 31.5q-29 -13 -64 -59t-51 -109l-48 -193h-88zM-46 -289l-16 30q52 27 78.5 55t29.5 45q-18 7 -28 22t-10 29q0 25 16.5 42t41.5 17t43 -18.5
t18 -47.5q0 -47 -47 -96.5t-126 -77.5z" />
    <glyph glyph-name="Rcaron" unicode="&#x158;" horiz-adv-x="604" 
d="M-1 0l19 81h75l115 496h-85l18 81h208q134 0 194 -61q47 -45 47 -119q0 -75 -48.5 -130.5t-133.5 -77.5l88 -189h78l-19 -81h-123l-112 259h-25q-25 0 -69 2l-43 -180h87l-19 -81h-252zM322 336q81 0 128.5 38t47.5 98q0 43 -27 70q-35 35 -125 35h-48l-55 -238
q34 -3 79 -3zM403 714l-119 163l42 37l94 -94l148 96l34 -45z" />
    <glyph glyph-name="rcaron" unicode="&#x159;" horiz-adv-x="401" 
d="M41 0l90 357h-80l19 74h154l-28 -121q80 128 150 128q27 0 45.5 -17t18.5 -43q0 -25 -18 -43t-42 -18q-22 0 -38 12.5t-20 31.5q-29 -13 -64 -59t-51 -109l-48 -193h-88zM285 495l-119 163l42 37l94 -94l148 96l34 -45z" />
    <glyph glyph-name="Sacute" unicode="&#x15a;" horiz-adv-x="558" 
d="M384 720l-23 29l141 131q21 23 47 23q18 0 30.5 -13t12.5 -31q0 -32 -37 -52zM269 -12q-96 0 -164.5 48t-68.5 108q0 34 19 55.5t48 21.5q24 0 41 -17t17 -40q0 -32 -25 -50q38 -47 138 -47q56 0 93.5 27.5t37.5 73.5q0 36 -27 63.5t-85 59.5q-74 43 -115 87t-41 111
q0 74 62 127.5t161 53.5q89 0 149 -43t60 -96q0 -34 -18.5 -55.5t-46.5 -21.5q-25 0 -41.5 17t-16.5 41q0 27 22 46q-27 33 -108 33q-58 0 -93 -27t-35 -67q0 -39 28.5 -67t91.5 -64q69 -39 109 -83t40 -107q0 -81 -64 -134.5t-168 -53.5z" />
    <glyph glyph-name="sacute" unicode="&#x15b;" horiz-adv-x="433" 
d="M270 501l-23 29l141 131q21 23 47 23q18 0 30.5 -13t12.5 -31q0 -32 -37 -52zM204 -8q-103 0 -156 55q-27 27 -27 57q0 24 14.5 40t36.5 16q21 0 34.5 -14t13.5 -34q0 -16 -10 -28q4 -4 16 -11q34 -17 80 -17q36 0 59.5 14t23.5 39q0 17 -15 31.5t-29.5 22t-46.5 21.5
q-28 12 -45 22t-36 25t-28 34.5t-9 44.5q0 54 44.5 91.5t121.5 37.5q91 0 137 -48q25 -25 25 -56q0 -24 -14.5 -39.5t-35.5 -15.5q-20 0 -34.5 14t-14.5 34q0 13 9 28q-8 5 -15 8q-25 10 -58 10q-34 0 -56.5 -13t-22.5 -36q0 -15 15 -29.5t29.5 -22.5t48.5 -23
q55 -25 85.5 -53t30.5 -73q0 -63 -46.5 -97.5t-124.5 -34.5z" />
    <glyph glyph-name="Scedilla" unicode="&#x15e;" horiz-adv-x="558" 
d="M269 -12l-10 -37q40 -5 62 -25t22 -49q0 -35 -32 -56t-81 -21q-65 0 -120 43l20 30q46 -28 95 -28q18 0 29.5 8.5t11.5 20.5q0 14 -16.5 22.5t-48.5 4.5l-15 20l41 70q-82 10 -136.5 55t-54.5 98q0 34 19 55.5t48 21.5q24 0 41 -17t17 -40q0 -32 -25 -50q38 -47 138 -47
q56 0 93.5 27.5t37.5 73.5q0 36 -27 63.5t-85 59.5q-74 43 -115 87t-41 111q0 74 62 127.5t161 53.5q89 0 149 -43t60 -96q0 -34 -18.5 -55.5t-46.5 -21.5q-25 0 -41.5 17t-16.5 41q0 27 22 46q-27 33 -108 33q-58 0 -93 -27t-35 -67q0 -39 28.5 -67t91.5 -64
q69 -39 109 -83t40 -107q0 -81 -64 -134.5t-168 -53.5z" />
    <glyph glyph-name="scedilla" unicode="&#x15f;" horiz-adv-x="433" 
d="M160 -200q-65 0 -120 43l20 30q46 -28 95 -28q18 0 29.5 8.5t11.5 20.5q0 14 -16.5 22.5t-48.5 4.5l-15 20l44 74q-74 11 -112 52q-27 27 -27 57q0 24 14.5 40t36.5 16q21 0 34.5 -14t13.5 -34q0 -16 -10 -28q4 -4 16 -11q34 -17 80 -17q36 0 59.5 14t23.5 39
q0 17 -15 31.5t-29.5 22t-46.5 21.5q-28 12 -45 22t-36 25t-28 34.5t-9 44.5q0 54 44.5 91.5t121.5 37.5q91 0 137 -48q25 -25 25 -56q0 -24 -14.5 -39.5t-35.5 -15.5q-20 0 -34.5 14t-14.5 34q0 13 9 28q-8 5 -15 8q-25 10 -58 10q-34 0 -56.5 -13t-22.5 -36
q0 -15 15 -29.5t29.5 -22.5t48.5 -23q55 -25 85.5 -53t30.5 -73q0 -63 -46.5 -97.5t-124.5 -34.5h-4l-11 -41q40 -5 62 -25t22 -49q0 -35 -32 -56t-81 -21z" />
    <glyph glyph-name="Scaron" unicode="&#x160;" horiz-adv-x="558" 
d="M403 714l-119 163l42 37l94 -94l148 96l34 -45zM269 -12q-96 0 -164.5 48t-68.5 108q0 34 19 55.5t48 21.5q24 0 41 -17t17 -40q0 -32 -25 -50q38 -47 138 -47q56 0 93.5 27.5t37.5 73.5q0 36 -27 63.5t-85 59.5q-74 43 -115 87t-41 111q0 74 62 127.5t161 53.5
q89 0 149 -43t60 -96q0 -34 -18.5 -55.5t-46.5 -21.5q-25 0 -41.5 17t-16.5 41q0 27 22 46q-27 33 -108 33q-58 0 -93 -27t-35 -67q0 -39 28.5 -67t91.5 -64q69 -39 109 -83t40 -107q0 -81 -64 -134.5t-168 -53.5z" />
    <glyph glyph-name="scaron" unicode="&#x161;" horiz-adv-x="433" 
d="M290 495l-119 163l42 37l94 -94l148 96l34 -45zM204 -8q-103 0 -156 55q-27 27 -27 57q0 24 14.5 40t36.5 16q21 0 34.5 -14t13.5 -34q0 -16 -10 -28q4 -4 16 -11q34 -17 80 -17q36 0 59.5 14t23.5 39q0 17 -15 31.5t-29.5 22t-46.5 21.5q-28 12 -45 22t-36 25t-28 34.5
t-9 44.5q0 54 44.5 91.5t121.5 37.5q91 0 137 -48q25 -25 25 -56q0 -24 -14.5 -39.5t-35.5 -15.5q-20 0 -34.5 14t-14.5 34q0 13 9 28q-8 5 -15 8q-25 10 -58 10q-34 0 -56.5 -13t-22.5 -36q0 -15 15 -29.5t29.5 -22.5t48.5 -23q55 -25 85.5 -53t30.5 -73q0 -63 -46.5 -97.5
t-124.5 -34.5z" />
    <glyph glyph-name="Tcommaaccent" unicode="&#x162;" horiz-adv-x="621" 
d="M125 -289l-16 30q52 27 78.5 55t29.5 45q-18 7 -28 22t-10 29q0 25 16.5 42t41.5 17t43 -18.5t18 -47.5q0 -47 -47 -96.5t-126 -77.5zM136 0l19 81h81l116 498h-146l-23 -104h-87l42 183h554l-42 -183h-86l23 104h-145l-115 -498h91l-18 -81h-264z" />
    <glyph glyph-name="tcommaaccent" unicode="&#x163;" horiz-adv-x="352" 
d="M348 357h-131l-55 -221q-6 -22 -6 -38q0 -37 34 -37q29 0 86 38l31 -42q-73 -64 -145 -64q-42 0 -68.5 23.5t-26.5 67.5q0 17 7 52l55 221h-78l17 74h79l25 98l96 33l-33 -131h132zM8 -289l-16 30q52 27 78.5 55t29.5 45q-18 7 -28 22t-10 29q0 25 16.5 42t41.5 17
t43 -18.5t18 -47.5q0 -47 -47 -96.5t-126 -77.5z" />
    <glyph glyph-name="Tcaron" unicode="&#x164;" horiz-adv-x="621" 
d="M429 714l-119 163l42 37l94 -94l148 96l34 -45zM136 0l19 81h81l116 498h-146l-23 -104h-87l42 183h554l-42 -183h-86l23 104h-145l-115 -498h91l-18 -81h-264z" />
    <glyph glyph-name="tcaron" unicode="&#x165;" horiz-adv-x="352" 
d="M348 357h-131l-55 -221q-6 -22 -6 -38q0 -37 34 -37q29 0 86 38l31 -42q-73 -64 -145 -64q-42 0 -68.5 23.5t-26.5 67.5q0 17 7 52l55 221h-78l17 74h79l25 98l96 33l-33 -131h132zM311 472l-23 21q48 55 59 104q3 14 4 44t6 47q12 43 52 43q22 0 35 -13.5t13 -36.5
q0 -47 -49 -111q-30 -40 -97 -98z" />
    <glyph glyph-name="Umacron" unicode="&#x16a;" horiz-adv-x="704" 
d="M326 -11q-99 0 -155.5 53t-56.5 142q0 36 12 87l71 306h-84l19 81h252l-18 -81h-79l-71 -310q-11 -50 -11 -75q0 -58 33.5 -89.5t99.5 -31.5q68 0 111 41t59 115l80 350h-89l19 81h252l-19 -81h-74l-83 -359q-26 -112 -90 -170.5t-178 -58.5zM315 750l18 73h312l-16 -73
h-314z" />
    <glyph glyph-name="umacron" unicode="&#x16b;" horiz-adv-x="557" 
d="M67 431h167l-66 -261q-6 -28 -6 -43q0 -28 16 -44.5t44 -16.5q43 0 77 34t50 97l58 234h88l-77 -305q-7 -32 -7 -44q0 -30 25 -30q30 0 57 70l39 -14q-35 -115 -119 -115q-38 0 -60.5 24t-22.5 65v9q-27 -46 -65.5 -72.5t-80.5 -26.5q-47 0 -79.5 31.5t-32.5 82.5
q0 30 10 72l46 179h-80zM184 531l18 73h312l-16 -73h-314z" />
    <glyph glyph-name="Ubreve" unicode="&#x16c;" horiz-adv-x="704" 
d="M326 -11q-99 0 -155.5 53t-56.5 142q0 36 12 87l71 306h-84l19 81h252l-18 -81h-79l-71 -310q-11 -50 -11 -75q0 -58 33.5 -89.5t99.5 -31.5q68 0 111 41t59 115l80 350h-89l19 81h252l-19 -81h-74l-83 -359q-26 -112 -90 -170.5t-178 -58.5zM472 724q-60 0 -97 42
t-41 117l55 17q23 -97 96 -97q70 0 129 96l49 -24q-33 -73 -84.5 -112t-106.5 -39z" />
    <glyph glyph-name="ubreve" unicode="&#x16d;" horiz-adv-x="557" 
d="M67 431h167l-66 -261q-6 -28 -6 -43q0 -28 16 -44.5t44 -16.5q43 0 77 34t50 97l58 234h88l-77 -305q-7 -32 -7 -44q0 -30 25 -30q30 0 57 70l39 -14q-35 -115 -119 -115q-38 0 -60.5 24t-22.5 65v9q-27 -46 -65.5 -72.5t-80.5 -26.5q-47 0 -79.5 31.5t-32.5 82.5
q0 30 10 72l46 179h-80zM342 505q-60 0 -97 42t-41 117l55 17q23 -97 96 -97q70 0 129 96l49 -24q-33 -73 -84.5 -112t-106.5 -39z" />
    <glyph glyph-name="Uring" unicode="&#x16e;" horiz-adv-x="704" 
d="M478 719q-46 0 -74 29.5t-28 72.5q0 55 38 96t93 41q47 0 75 -29.5t28 -73.5q0 -54 -38.5 -95t-93.5 -41zM483 777q26 0 44 22t18 52q0 21 -12 35t-30 14q-26 0 -44 -22t-18 -52q0 -21 11.5 -35t30.5 -14zM326 -11q-99 0 -155.5 53t-56.5 142q0 36 12 87l71 306h-84
l19 81h252l-18 -81h-79l-71 -310q-11 -50 -11 -75q0 -58 33.5 -89.5t99.5 -31.5q68 0 111 41t59 115l80 350h-89l19 81h252l-19 -81h-74l-83 -359q-26 -112 -90 -170.5t-178 -58.5z" />
    <glyph glyph-name="uring" unicode="&#x16f;" horiz-adv-x="557" 
d="M67 431h167l-66 -261q-6 -28 -6 -43q0 -28 16 -44.5t44 -16.5q43 0 77 34t50 97l58 234h88l-77 -305q-7 -32 -7 -44q0 -30 25 -30q30 0 57 70l39 -14q-35 -115 -119 -115q-38 0 -60.5 24t-22.5 65v9q-27 -46 -65.5 -72.5t-80.5 -26.5q-47 0 -79.5 31.5t-32.5 82.5
q0 30 10 72l46 179h-80zM348 500q-46 0 -74 29.5t-28 72.5q0 55 38 96t93 41q47 0 75 -29.5t28 -73.5q0 -54 -38.5 -95t-93.5 -41zM353 558q26 0 44 22t18 52q0 21 -12 35t-30 14q-26 0 -44 -22t-18 -52q0 -21 11.5 -35t30.5 -14z" />
    <glyph glyph-name="Uhungarumlaut" unicode="&#x170;" horiz-adv-x="704" 
d="M326 -11q-99 0 -155.5 53t-56.5 142q0 36 12 87l71 306h-84l19 81h252l-18 -81h-79l-71 -310q-11 -50 -11 -75q0 -58 33.5 -89.5t99.5 -31.5q68 0 111 41t59 115l80 350h-89l19 81h252l-19 -81h-74l-83 -359q-26 -112 -90 -170.5t-178 -58.5zM353 721l-23 29l124 129
q22 24 48 24q18 0 30 -12.5t12 -31.5q0 -30 -36 -50zM551 723l-23 29l128 126q21 23 47 23q18 0 30 -13t12 -31q0 -30 -37 -51z" />
    <glyph glyph-name="uhungarumlaut" unicode="&#x171;" horiz-adv-x="557" 
d="M67 431h167l-66 -261q-6 -28 -6 -43q0 -28 16 -44.5t44 -16.5q43 0 77 34t50 97l58 234h88l-77 -305q-7 -32 -7 -44q0 -30 25 -30q30 0 57 70l39 -14q-35 -115 -119 -115q-38 0 -60.5 24t-22.5 65v9q-27 -46 -65.5 -72.5t-80.5 -26.5q-47 0 -79.5 31.5t-32.5 82.5
q0 30 10 72l46 179h-80zM420 504l-23 29l128 126q21 23 47 23q18 0 30 -13t12 -31q0 -30 -37 -51zM222 502l-23 29l124 129q22 24 48 24q18 0 30 -12.5t12 -31.5q0 -30 -36 -50z" />
    <glyph glyph-name="Uogonek" unicode="&#x172;" horiz-adv-x="704" 
d="M228 -123q0 58 66 114q-85 8 -132.5 59.5t-47.5 133.5q0 36 12 87l71 306h-84l19 81h252l-18 -81h-79l-71 -310q-11 -50 -11 -75q0 -58 33.5 -89.5t99.5 -31.5q68 0 111 41t59 115l80 350h-89l19 81h252l-19 -81h-74l-83 -359q-48 -209 -229 -227q-58 -48 -58 -88
q0 -35 41 -35q29 0 54 9l-14 -57q-29 -21 -74 -21q-37 0 -61.5 21t-24.5 57z" />
    <glyph glyph-name="uogonek" unicode="&#x173;" horiz-adv-x="557" 
d="M493 122l39 -14q-19 -58 -56 -93q-10 -10 -30.5 -27t-31.5 -27t-20.5 -26t-9.5 -32q0 -35 42 -35q28 0 53 9l-14 -57q-29 -21 -74 -21q-37 0 -61.5 21t-24.5 57q0 64 79 120q-54 17 -54 85v9q-27 -46 -65.5 -72.5t-80.5 -26.5q-47 0 -79.5 31.5t-32.5 82.5q0 30 10 72
l46 179h-80l19 74h167l-66 -261q-6 -28 -6 -43q0 -28 16 -44.5t44 -16.5q43 0 77 34t50 97l58 234h88l-77 -305q-7 -32 -7 -44q0 -29 25 -29q31 0 57 69z" />
    <glyph glyph-name="Wcircumflex" unicode="&#x174;" horiz-adv-x="961" 
d="M468 718l-34 44l199 158l119 -164l-42 -37l-94 95zM218 -8l-42 585h-71l19 81h242l-18 -81h-83l20 -414l244 423h43l73 -425l202 416h-80l18 81h243l-19 -81h-63l-299 -584h-49l-79 419l-253 -419z" />
    <glyph glyph-name="wcircumflex" unicode="&#x175;" horiz-adv-x="685" 
d="M139 -12l-37 369h-79l19 74h135l19 -327l153 278h50l58 -286q107 164 115 230q-18 4 -31 18.5t-13 36.5q0 24 16.5 41t41.5 17q30 0 48.5 -20.5t18.5 -55.5q0 -108 -192 -375h-52l-57 263l-155 -263h-58zM287 499l-34 44l199 158l119 -164l-42 -37l-94 95z" />
    <glyph glyph-name="Ycircumflex" unicode="&#x176;" horiz-adv-x="639" 
d="M125 0l19 81h84l43 180l-114 316h-66l19 81h232l-18 -81h-73l82 -250l202 250h-72l19 81h241l-18 -81h-63l-285 -333l-38 -163h90l-18 -81h-266zM299 718l-34 44l199 158l119 -164l-42 -37l-94 95z" />
    <glyph glyph-name="ycircumflex" unicode="&#x177;" horiz-adv-x="490" 
d="M-11 -200q-32 0 -53.5 18.5t-21.5 44.5q0 24 15.5 40t38.5 16q19 0 33.5 -12t18.5 -31q39 2 154 141l-70 340h-76l19 74h132l58 -344q128 169 145 236q-42 15 -42 58q0 24 17 41t42 17q31 0 49 -21t18 -57q0 -99 -199 -345q-107 -131 -165.5 -173.5t-112.5 -42.5z
M178 499l-34 44l199 158l119 -164l-42 -37l-94 95z" />
    <glyph glyph-name="Ydieresis" unicode="&#x178;" horiz-adv-x="639" 
d="M125 0l19 81h84l43 180l-114 316h-66l19 81h232l-18 -81h-73l82 -250l202 250h-72l19 81h241l-18 -81h-63l-285 -333l-38 -163h90l-18 -81h-266zM533 736q-26 0 -44.5 18.5t-18.5 44.5t19 45t45 19t44.5 -19t18.5 -45t-19 -44.5t-45 -18.5zM345 736q-26 0 -44.5 18.5
t-18.5 44.5t19 45t45 19t44.5 -19t18.5 -45t-19 -44.5t-45 -18.5z" />
    <glyph glyph-name="Zacute" unicode="&#x179;" horiz-adv-x="620" 
d="M407 720l-23 29l141 131q21 23 47 23q18 0 30.5 -13t12.5 -31q0 -32 -37 -52zM19 0l-6 48l508 534h-289l-25 -107h-84l43 183h488l6 -48l-509 -534h305l25 107h84l-43 -183h-503z" />
    <glyph glyph-name="zacute" unicode="&#x17a;" horiz-adv-x="475" 
d="M281 501l-23 29l141 131q21 23 47 23q18 0 30.5 -13t12.5 -31q0 -32 -37 -52zM35 -8l-32 47l343 323h-183l-20 -81h-75l37 150h335l24 -51l-329 -309q35 11 64 11q21 0 59.5 -9t52.5 -9q33 0 48.5 17.5t32.5 66.5l37 -8q-16 -71 -41.5 -109.5t-81.5 -38.5q-20 0 -79.5 13
t-83.5 13q-56 0 -108 -26z" />
    <glyph glyph-name="Zdotaccent" unicode="&#x17b;" horiz-adv-x="620" 
d="M19 0l-6 48l508 534h-289l-25 -107h-84l43 183h488l6 -48l-509 -534h305l25 107h84l-43 -183h-503zM444 735q-26 0 -45 19t-19 45q0 27 19.5 46t45.5 19t44.5 -19t18.5 -46q0 -26 -19 -45t-45 -19z" />
    <glyph glyph-name="zdotaccent" unicode="&#x17c;" horiz-adv-x="475" 
d="M35 -8l-32 47l343 323h-183l-20 -81h-75l37 150h335l24 -51l-329 -309q35 11 64 11q21 0 59.5 -9t52.5 -9q33 0 48.5 17.5t32.5 66.5l37 -8q-16 -71 -41.5 -109.5t-81.5 -38.5q-20 0 -79.5 13t-83.5 13q-56 0 -108 -26zM319 516q-26 0 -45 19t-19 45q0 27 19.5 46
t45.5 19t44.5 -19t18.5 -46q0 -26 -19 -45t-45 -19z" />
    <glyph glyph-name="Zcaron" unicode="&#x17d;" horiz-adv-x="620" 
d="M426 714l-119 163l42 37l94 -94l148 96l34 -45zM19 0l-6 48l508 534h-289l-25 -107h-84l43 183h488l6 -48l-509 -534h305l25 107h84l-43 -183h-503z" />
    <glyph glyph-name="zcaron" unicode="&#x17e;" horiz-adv-x="475" 
d="M301 495l-119 163l42 37l94 -94l148 96l34 -45zM35 -8l-32 47l343 323h-183l-20 -81h-75l37 150h335l24 -51l-329 -309q35 11 64 11q21 0 59.5 -9t52.5 -9q33 0 48.5 17.5t32.5 66.5l37 -8q-16 -71 -41.5 -109.5t-81.5 -38.5q-20 0 -79.5 13t-83.5 13q-56 0 -108 -26z
" />
    <glyph glyph-name="Aringacute" unicode="&#x1fa;" horiz-adv-x="704" 
d="M500 909l-23 29l141 131q21 23 47 23q18 0 30.5 -13t12.5 -31q0 -32 -37 -52zM-27 0l19 81h60l294 497h-78l18 80h97q-34 25 -34 77q0 45 37.5 83t91.5 38q47 0 74.5 -29t27.5 -69q0 -31 -16 -58t-43 -42h96l-19 -80h-74l64 -497h69l-19 -81h-228l18 80h74l-17 139h-262
l-81 -139h87l-19 -80h-237zM453 675q26 0 44 22t18 52q0 21 -12 35.5t-30 14.5q-27 0 -44.5 -22t-17.5 -53q0 -20 11.5 -34.5t30.5 -14.5zM268 296h207l-36 289z" />
    <glyph glyph-name="aringacute" unicode="&#x1fb;" horiz-adv-x="568" 
d="M186 -8q-65 0 -106 47t-41 125q0 111 67 193t160 82q47 0 82 -29.5t47 -72.5l28 96h82l-76 -307q-8 -29 -8 -44q0 -30 26 -30q31 0 56 70l39 -14q-35 -115 -119 -115q-38 0 -60.5 24t-22.5 63v5q-67 -93 -154 -93zM221 67q64 0 109 58t45 131q0 49 -25 77.5t-73 28.5
q-62 0 -104.5 -56.5t-42.5 -131.5q0 -49 23.5 -78t67.5 -29zM346 500q-46 0 -74 29.5t-28 72.5q0 55 38 96t93 41q47 0 75 -29.5t28 -73.5q0 -54 -38.5 -95t-93.5 -41zM398 796l-23 29l141 131q21 23 47 23q18 0 30.5 -13t12.5 -31q0 -32 -37 -52zM351 558q26 0 44 22t18 52
q0 21 -12 35t-30 14q-26 0 -44 -22t-18 -52q0 -21 11.5 -35t30.5 -14z" />
    <glyph glyph-name="AEacute" unicode="&#x1fc;" horiz-adv-x="922" 
d="M628 720l-23 29l141 131q21 23 47 23q18 0 30.5 -13t12.5 -31q0 -32 -37 -52zM-22 0l19 81h76l364 496h-83l18 81h599l-42 -173h-86l22 93h-218l-47 -204h201l-18 -78h-201l-50 -216h217l23 93h87l-40 -173h-474l19 81h77l33 138h-208l-102 -139h85l-19 -80h-252z
M319 295h172l67 286h-31z" />
    <glyph glyph-name="aeacute" unicode="&#x1fd;" horiz-adv-x="799" 
d="M750 188h-309v-15q0 -49 36 -78.5t95 -29.5q69 0 142 39l-17 -82q-61 -30 -138 -30q-68 0 -114 33.5t-62 90.5q-31 -57 -88.5 -90.5t-124.5 -33.5q-64 0 -102.5 32.5t-38.5 76.5q0 73 60.5 112t163.5 39h109q-5 54 -38.5 88t-85.5 34q-14 0 -27 -3q-9 -3 -11 -5
q5 -10 5 -19q0 -20 -14.5 -35t-34.5 -15q-23 0 -37.5 16t-14.5 39q0 45 52 71q34 16 80 16q69 0 113.5 -33t58.5 -92q26 56 78 90.5t110 34.5q77 0 123.5 -43t46.5 -118q0 -42 -16 -90zM178 65q58 0 110 34.5t69 91.5h-81q-165 0 -165 -79q0 -21 17.5 -34t49.5 -13zM592 366
q-47 0 -84 -31.5t-55 -83.5h225q5 15 5 37q0 35 -23 56.5t-68 21.5zM448 501l-23 29l141 131q21 23 47 23q18 0 30.5 -13t12.5 -31q0 -32 -37 -52z" />
    <glyph glyph-name="Oslashacute" unicode="&#x1fe;" horiz-adv-x="731" 
d="M355 -12q-126 0 -204 78l-88 -78l-47 54l92 83q-36 66 -36 153q0 96 46 185.5t131 148t186 58.5q129 0 205 -81l92 82l48 -55l-97 -86q35 -70 35 -150q0 -96 -46 -186t-131 -148t-186 -58zM165 276q0 -53 18 -95l392 347q-52 60 -146 60q-110 0 -187 -96t-77 -216z
M361 70q110 0 187 96t77 216q0 48 -17 91l-391 -346q54 -57 144 -57zM469 720l-23 29l141 131q21 23 47 23q18 0 30.5 -13t12.5 -31q0 -32 -37 -52z" />
    <glyph glyph-name="oslashacute" unicode="&#x1ff;" horiz-adv-x="528" 
d="M242 -8q-77 0 -127 41l-66 -62l-44 47l69 62q-28 47 -28 104q0 102 70.5 178.5t173.5 76.5q80 0 132 -46l71 66l44 -47l-75 -69q24 -42 24 -96q0 -102 -70.5 -178.5t-173.5 -76.5zM134 183q0 -30 8 -50l222 204q-30 28 -76 28q-64 0 -109 -52.5t-45 -129.5zM245 65
q63 0 108.5 53t45.5 129q0 16 -6 42l-219 -201q29 -23 71 -23zM318 501l-23 29l141 131q21 23 47 23q18 0 30.5 -13t12.5 -31q0 -32 -37 -52z" />
    <glyph glyph-name="Scommaaccent" unicode="&#x218;" horiz-adv-x="558" 
d="M99 -289l-16 30q52 27 78.5 55t29.5 45q-18 7 -28 22t-10 29q0 25 16.5 42t41.5 17t43 -18.5t18 -47.5q0 -47 -47 -96.5t-126 -77.5zM269 -12q-96 0 -164.5 48t-68.5 108q0 34 19 55.5t48 21.5q24 0 41 -17t17 -40q0 -32 -25 -50q38 -47 138 -47q56 0 93.5 27.5
t37.5 73.5q0 36 -27 63.5t-85 59.5q-74 43 -115 87t-41 111q0 74 62 127.5t161 53.5q89 0 149 -43t60 -96q0 -34 -18.5 -55.5t-46.5 -21.5q-25 0 -41.5 17t-16.5 41q0 27 22 46q-27 33 -108 33q-58 0 -93 -27t-35 -67q0 -39 28.5 -67t91.5 -64q69 -39 109 -83t40 -107
q0 -81 -64 -134.5t-168 -53.5z" />
    <glyph glyph-name="scommaaccent" unicode="&#x219;" horiz-adv-x="433" 
d="M36 -289l-16 30q52 27 78.5 55t29.5 45q-18 7 -28 22t-10 29q0 25 16.5 42t41.5 17t43 -18.5t18 -47.5q0 -47 -47 -96.5t-126 -77.5zM204 -8q-103 0 -156 55q-27 27 -27 57q0 24 14.5 40t36.5 16q21 0 34.5 -14t13.5 -34q0 -16 -10 -28q4 -4 16 -11q34 -17 80 -17
q36 0 59.5 14t23.5 39q0 17 -15 31.5t-29.5 22t-46.5 21.5q-28 12 -45 22t-36 25t-28 34.5t-9 44.5q0 54 44.5 91.5t121.5 37.5q91 0 137 -48q25 -25 25 -56q0 -24 -14.5 -39.5t-35.5 -15.5q-20 0 -34.5 14t-14.5 34q0 13 9 28q-8 5 -15 8q-25 10 -58 10q-34 0 -56.5 -13
t-22.5 -36q0 -15 15 -29.5t29.5 -22.5t48.5 -23q55 -25 85.5 -53t30.5 -73q0 -63 -46.5 -97.5t-124.5 -34.5z" />
    <glyph glyph-name="schwa" unicode="&#x259;" horiz-adv-x="482" 
d="M35 153q0 42 16 90h307q1 5 1 15q0 48 -36 78t-94 30q-69 0 -142 -39l17 81q63 31 143 31q82 0 140 -49.5t58 -133.5q0 -110 -69.5 -187t-166.5 -77q-80 0 -127 43t-47 118zM209 65q46 0 82.5 31.5t54.5 83.5h-223q-6 -20 -6 -37q0 -35 23.5 -56.5t68.5 -21.5z" />
    <glyph glyph-name="circumflex" unicode="&#x2c6;" horiz-adv-x="500" 
d="M196 499l-34 44l199 158l119 -164l-42 -37l-94 95z" />
    <glyph glyph-name="caron" unicode="&#x2c7;" horiz-adv-x="500" 
d="M315 495l-119 163l42 37l94 -94l148 96l34 -45z" />
    <glyph glyph-name="breve" unicode="&#x2d8;" horiz-adv-x="500" 
d="M320 505q-60 0 -97 42t-41 117l55 17q23 -97 96 -97q70 0 129 96l49 -24q-33 -73 -84.5 -112t-106.5 -39z" />
    <glyph glyph-name="dotaccent" unicode="&#x2d9;" horiz-adv-x="500" 
d="M332 516q-26 0 -45 19t-19 45q0 27 19.5 46t45.5 19t44.5 -19t18.5 -46q0 -26 -19 -45t-45 -19z" />
    <glyph glyph-name="ring" unicode="&#x2da;" horiz-adv-x="500" 
d="M328 500q-46 0 -74 29.5t-28 72.5q0 55 38 96t93 41q47 0 75 -29.5t28 -73.5q0 -54 -38.5 -95t-93.5 -41zM333 558q26 0 44 22t18 52q0 21 -12 35t-30 14q-26 0 -44 -22t-18 -52q0 -21 11.5 -35t30.5 -14z" />
    <glyph glyph-name="ogonek" unicode="&#x2db;" horiz-adv-x="501" 
d="M281 59l25 -23q-123 -76 -123 -133q0 -35 42 -35q30 0 53 9l-14 -57q-29 -21 -74 -21q-37 0 -61 21t-24 57q0 51 49 97.5t127 84.5z" />
    <glyph glyph-name="tilde" unicode="&#x2dc;" horiz-adv-x="500" 
d="M401 502q-43 0 -84 41q-31 30 -51 30q-36 0 -66 -65l-51 19q15 59 50 95t73 36q43 0 84 -41q30 -30 50 -30q37 0 66 65l52 -20q-15 -59 -50 -94.5t-73 -35.5z" />
    <glyph glyph-name="hungarumlaut" unicode="&#x2dd;" horiz-adv-x="500" 
d="M150 502l-23 29l124 129q22 24 48 24q18 0 30 -12.5t12 -31.5q0 -30 -36 -50zM348 504l-23 29l128 126q21 23 47 23q18 0 30 -13t12 -31q0 -30 -37 -51z" />
    <glyph glyph-name="commaaccent" unicode="&#x326;" horiz-adv-x="208" 
d="M17 -289l-16 30q52 27 78.5 55t29.5 45q-18 7 -28 22t-10 29q0 25 16.5 42t41.5 17t43 -18.5t18 -47.5q0 -47 -47 -96.5t-126 -77.5z" />
    <glyph glyph-name="Wgrave" unicode="&#x1e80;" horiz-adv-x="961" 
d="M218 -8l-42 585h-71l19 81h242l-18 -81h-83l20 -414l244 423h43l73 -425l202 416h-80l18 81h243l-19 -81h-63l-299 -584h-49l-79 419l-253 -419zM609 710l-116 99q-24 20 -24 47q0 20 13.5 33.5t31.5 13.5q30 0 51 -36l73 -135z" />
    <glyph glyph-name="wgrave" unicode="&#x1e81;" horiz-adv-x="685" 
d="M139 -12l-37 369h-79l19 74h135l19 -327l153 278h50l58 -286q107 164 115 230q-18 4 -31 18.5t-13 36.5q0 24 16.5 41t41.5 17q30 0 48.5 -20.5t18.5 -55.5q0 -108 -192 -375h-52l-57 263l-155 -263h-58zM428 491l-116 99q-24 20 -24 47q0 20 13.5 33.5t31.5 13.5
q30 0 51 -36l73 -135z" />
    <glyph glyph-name="Wacute" unicode="&#x1e82;" horiz-adv-x="961" 
d="M571 720l-23 29l141 131q21 23 47 23q18 0 30.5 -13t12.5 -31q0 -32 -37 -52zM218 -8l-42 585h-71l19 81h242l-18 -81h-83l20 -414l244 423h43l73 -425l202 416h-80l18 81h243l-19 -81h-63l-299 -584h-49l-79 419l-253 -419z" />
    <glyph glyph-name="wacute" unicode="&#x1e83;" horiz-adv-x="685" 
d="M139 -12l-37 369h-79l19 74h135l19 -327l153 278h50l58 -286q107 164 115 230q-18 4 -31 18.5t-13 36.5q0 24 16.5 41t41.5 17q30 0 48.5 -20.5t18.5 -55.5q0 -108 -192 -375h-52l-57 263l-155 -263h-58zM391 501l-23 29l141 131q21 23 47 23q18 0 30.5 -13t12.5 -31
q0 -32 -37 -52z" />
    <glyph glyph-name="Wdieresis" unicode="&#x1e84;" horiz-adv-x="961" 
d="M701 736q-26 0 -44.5 18.5t-18.5 44.5t19 45t45 19t44.5 -19t18.5 -45t-19 -44.5t-45 -18.5zM513 736q-26 0 -44.5 18.5t-18.5 44.5t19 45t45 19t44.5 -19t18.5 -45t-19 -44.5t-45 -18.5zM218 -8l-42 585h-71l19 81h242l-18 -81h-83l20 -414l244 423h43l73 -425l202 416
h-80l18 81h243l-19 -81h-63l-299 -584h-49l-79 419l-253 -419z" />
    <glyph glyph-name="wdieresis" unicode="&#x1e85;" horiz-adv-x="685" 
d="M139 -12l-37 369h-79l19 74h135l19 -327l153 278h50l58 -286q107 164 115 230q-18 4 -31 18.5t-13 36.5q0 24 16.5 41t41.5 17q30 0 48.5 -20.5t18.5 -55.5q0 -108 -192 -375h-52l-57 263l-155 -263h-58zM520 517q-26 0 -44.5 18.5t-18.5 44.5t19 45t45 19t44.5 -19
t18.5 -45t-19 -44.5t-45 -18.5zM332 517q-26 0 -44.5 18.5t-18.5 44.5t19 45t45 19t44.5 -19t18.5 -45t-19 -44.5t-45 -18.5z" />
    <glyph glyph-name="Ygrave" unicode="&#x1ef2;" horiz-adv-x="639" 
d="M125 0l19 81h84l43 180l-114 316h-66l19 81h232l-18 -81h-73l82 -250l202 250h-72l19 81h241l-18 -81h-63l-285 -333l-38 -163h90l-18 -81h-266zM441 710l-116 99q-24 20 -24 47q0 20 13.5 33.5t31.5 13.5q30 0 51 -36l73 -135z" />
    <glyph glyph-name="ygrave" unicode="&#x1ef3;" horiz-adv-x="490" 
d="M-11 -200q-32 0 -53.5 18.5t-21.5 44.5q0 24 15.5 40t38.5 16q19 0 33.5 -12t18.5 -31q39 2 154 141l-70 340h-76l19 74h132l58 -344q128 169 145 236q-42 15 -42 58q0 24 17 41t42 17q31 0 49 -21t18 -57q0 -99 -199 -345q-107 -131 -165.5 -173.5t-112.5 -42.5z
M320 491l-116 99q-24 20 -24 47q0 20 13.5 33.5t31.5 13.5q30 0 51 -36l73 -135z" />
    <glyph glyph-name="enspace" unicode="&#x2002;" horiz-adv-x="500" 
 />
    <glyph glyph-name="emspace" unicode="&#x2003;" horiz-adv-x="1000" 
 />
    <glyph glyph-name="threeperemspace" unicode="&#x2004;" horiz-adv-x="333" 
 />
    <glyph glyph-name="fourperemspace" unicode="&#x2005;" horiz-adv-x="250" 
 />
    <glyph glyph-name="figurespace" unicode="&#x2007;" horiz-adv-x="530" 
 />
    <glyph glyph-name="thinspace" unicode="&#x2009;" horiz-adv-x="133" 
 />
    <glyph glyph-name="hairspace" unicode="&#x200a;" horiz-adv-x="75" 
 />
    <glyph glyph-name="endash" unicode="&#x2013;" horiz-adv-x="525" 
d="M38 239l20 82h455l-19 -82h-456z" />
    <glyph glyph-name="emdash" unicode="&#x2014;" horiz-adv-x="785" 
d="M38 239l20 82h715l-19 -82h-716z" />
    <glyph glyph-name="quoteleft" unicode="&#x2018;" horiz-adv-x="245" 
d="M163 384q-30 0 -51 22t-21 57q0 55 59 115.5t150 96.5l18 -36q-62 -35 -92.5 -68.5t-34.5 -54.5q20 -9 31.5 -26.5t11.5 -34.5q0 -29 -20.5 -50t-50.5 -21z" />
    <glyph glyph-name="quoteright" unicode="&#x2019;" horiz-adv-x="245" 
d="M80 380l-18 37q62 36 92.5 69t34.5 53q-20 9 -31.5 26.5t-11.5 34.5q0 30 20.5 51t50.5 21t51 -22t21 -57q0 -56 -59 -116.5t-150 -96.5z" />
    <glyph glyph-name="quotesinglbase" unicode="&#x201a;" horiz-adv-x="237" 
d="M-35 -151l-19 36q62 33 94 66t35 53q-21 8 -33.5 26t-12.5 34q0 29 20.5 49.5t49.5 20.5q30 0 51 -22t21 -56q0 -56 -56.5 -115t-149.5 -92z" />
    <glyph glyph-name="quotedblleft" unicode="&#x201c;" horiz-adv-x="455" 
d="M376 388q-30 0 -50.5 21.5t-20.5 56.5q0 55 57.5 114t146.5 94l19 -36q-61 -35 -91 -67t-35 -53q20 -9 31.5 -26t11.5 -34q0 -29 -20 -49.5t-49 -20.5zM162 388q-30 0 -50.5 21.5t-20.5 56.5q0 55 57.5 114t146.5 94l19 -36q-60 -35 -90.5 -67.5t-34.5 -52.5
q42 -20 42 -60q0 -29 -20 -49.5t-49 -20.5z" />
    <glyph glyph-name="quotedblright" unicode="&#x201d;" horiz-adv-x="455" 
d="M294 386l-19 36q60 35 90.5 67.5t34.5 52.5q-42 20 -42 60q0 29 20 49.5t49 20.5q30 0 50.5 -21.5t20.5 -56.5q0 -55 -57.5 -114t-146.5 -94zM80 386l-18 36q60 35 90 67t35 53q-42 20 -42 60q0 29 20 49.5t49 20.5q30 0 50 -21.5t20 -56.5q0 -55 -57.5 -114t-146.5 -94z
" />
    <glyph glyph-name="quotedblbase" unicode="&#x201e;" horiz-adv-x="440" 
d="M175 -146l-18 35q60 32 90.5 63.5t33.5 51.5q-21 8 -32.5 25t-11.5 33q0 28 20 47.5t48 19.5q29 0 49 -20.5t20 -54.5q0 -54 -54.5 -110.5t-144.5 -89.5zM-36 -146l-18 35q60 32 90.5 63.5t33.5 51.5q-21 8 -32.5 25t-11.5 33q0 28 20 47.5t48 19.5q29 0 49 -20.5
t20 -54.5q0 -54 -54.5 -110.5t-144.5 -89.5z" />
    <glyph glyph-name="dagger" unicode="&#x2020;" horiz-adv-x="483" 
d="M157 -2l73 385l-74 7q0 -25 -15.5 -41.5t-38.5 -16.5t-39 16t-16 40q0 28 19.5 46t53.5 18q17 0 40 -5l100 -21l8 149q3 68 54 68q32 0 43.5 -24.5t-1.5 -52.5l-62 -144l99 23q24 4 32 4q31 0 49.5 -16t18.5 -44q0 -24 -16 -40.5t-40 -16.5q-22 0 -37.5 16.5t-15.5 40.5
l-80 -10l-113 -381h-42z" />
    <glyph glyph-name="daggerdbl" unicode="&#x2021;" horiz-adv-x="503" 
d="M235 66l-8 -128q-3 -64 -50 -64q-28 0 -39 22t1 51l52 122l-81 -19q-20 -4 -30 -4q-30 0 -48.5 15t-18.5 40q0 22 15 37t38 15q20 0 35 -14.5t15 -36.5l68 7l54 152l14 149l-65 8q0 -23 -14.5 -38t-35.5 -15q-22 0 -37 14.5t-15 36.5q0 25 19 42t51 17q14 0 36 -5l86 -19
l7 129q3 63 50 63q29 0 40 -21.5t-1 -50.5l-52 -122l81 19q20 4 30 4q29 0 47.5 -15t18.5 -40q0 -23 -14.5 -37.5t-37.5 -14.5q-21 0 -35.5 14.5t-14.5 36.5l-68 -8l-54 -151l-14 -150l65 -7q-1 23 13.5 38t36.5 15q21 0 36.5 -15t15.5 -36q0 -26 -19 -42.5t-51 -16.5
q-10 0 -36 4z" />
    <glyph glyph-name="bullet" unicode="&#x2022;" horiz-adv-x="314" 
d="M176 162q-46 0 -78 33t-32 80t32 80t78 33t78 -33t32 -80t-32 -80t-78 -33z" />
    <glyph glyph-name="ellipsis" unicode="&#x2026;" horiz-adv-x="650" 
d="M508 -8q-28 0 -47.5 19.5t-19.5 48.5t19.5 48.5t47.5 19.5t47.5 -19.5t19.5 -48.5t-19.5 -48.5t-47.5 -19.5zM294 -8q-28 0 -47.5 19.5t-19.5 48.5t19.5 48.5t47.5 19.5t47.5 -19.5t19.5 -48.5t-19.5 -48.5t-47.5 -19.5zM79 -8q-28 0 -47.5 20t-19.5 48t19.5 48t47.5 20
t47.5 -19.5t19.5 -48.5t-19.5 -48.5t-47.5 -19.5z" />
    <glyph glyph-name="perthousand" unicode="&#x2030;" horiz-adv-x="915" 
d="M71 -2l-34 39q107 87 288 242q89 77 284 251l34 -39q-109 -89 -289 -243q-65 -56 -170 -149.5t-113 -100.5zM175 323q29 0 51 27.5t22 63.5q0 25 -14 41t-37 16q-28 0 -50.5 -27t-22.5 -63q0 -25 14 -41.5t37 -16.5zM173 271q-49 0 -79.5 31t-30.5 79q0 57 39.5 100
t97.5 43q49 0 79.5 -31.5t30.5 -79.5q0 -57 -40 -99.5t-97 -42.5zM469 45q28 0 50.5 27t22.5 63q0 25 -14 41t-37 16q-29 0 -51 -27t-22 -63q0 -25 14 -41t37 -16zM466 -8q-49 0 -79.5 31t-30.5 79q0 57 40 100t97 43q49 0 79.5 -31t30.5 -79q0 -58 -39.5 -100.5
t-97.5 -42.5zM750 45q28 0 50.5 27t22.5 63q0 25 -13.5 41t-37.5 16q-28 0 -50.5 -27t-22.5 -63q0 -25 14 -41t37 -16zM747 -8q-49 0 -79.5 31t-30.5 79q0 57 40 100t98 43q49 0 79.5 -31t30.5 -79q0 -57 -40 -100t-98 -43z" />
    <glyph glyph-name="guilsinglleft" unicode="&#x2039;" horiz-adv-x="301" 
d="M189 100l-150 179l225 177l42 -49l-158 -139l90 -126z" />
    <glyph glyph-name="guilsinglright" unicode="&#x203a;" horiz-adv-x="301" 
d="M70 100l-42 49l158 139l-90 126l50 42l150 -179z" />
    <glyph glyph-name="fraction" unicode="&#x2044;" horiz-adv-x="500" 
d="M-3 -14l-35 29q174 200 272 317q120 142 263 322l35 -30q-170 -196 -272 -316q-77 -92 -263 -322z" />
    <glyph glyph-name="zero.sup" unicode="&#x2070;" horiz-adv-x="353" 
d="M244 423q-56 0 -87.5 38.5t-31.5 106.5q0 94 48.5 161.5t119.5 67.5q56 0 87 -38.5t31 -106.5q0 -94 -48.5 -161.5t-118.5 -67.5zM247 477q44 0 74 54t30 123q0 41 -16 65t-45 24q-44 0 -74 -54t-30 -123q0 -89 61 -89z" />
    <glyph glyph-name="four.sup" unicode="&#x2074;" horiz-adv-x="353" 
d="M265 477l15 60h-163l-8 28l235 240l37 -35l-191 -188h101l15 60l61 23l-19 -80h58l-12 -48h-58l-14 -60h45l-11 -47h-164l11 47h62z" />
    <glyph glyph-name="five.sup" unicode="&#x2075;" horiz-adv-x="353" 
d="M227 423q-48 0 -81.5 23t-33.5 51q0 17 10.5 29t27.5 12q15 0 26 -10.5t11 -25.5q0 -6 -4 -16q18 -11 48 -11q41 0 69.5 23t28.5 57q0 27 -18 42t-50 15q-37 0 -74 -16l-32 22l56 174h206l-12 -56h-158l-29 -88q32 12 66 12q43 0 73.5 -28t30.5 -73q0 -57 -48 -96.5
t-113 -39.5z" />
    <glyph glyph-name="six.sup" unicode="&#x2076;" horiz-adv-x="353" 
d="M161 457q-34 34 -34 100q0 120 82 196q53 46 113 46q41 0 69 -20t28 -48q0 -16 -11 -27.5t-26 -11.5q-14 0 -24.5 10t-10.5 25q0 10 4 15q-11 7 -29 7q-44 0 -79 -34q-39 -36 -56 -103q39 47 96 47q48 0 79.5 -29t31.5 -73q0 -56 -42.5 -95t-101.5 -39q-55 0 -89 34z
M248 476q38 0 62 22.5t24 54.5q0 25 -17 41.5t-45 16.5q-36 0 -61 -23.5t-25 -52.5q0 -26 16 -42q17 -17 46 -17z" />
    <glyph glyph-name="seven.sup" unicode="&#x2077;" horiz-adv-x="353" 
d="M156 430l216 312h-144l-16 -67h-54l28 117h243l17 -33l-222 -329h-68z" />
    <glyph glyph-name="eight.sup" unicode="&#x2078;" horiz-adv-x="353" 
d="M252 424q-58 0 -95.5 29t-37.5 71q0 38 25 64t69 36q-53 25 -53 75q0 38 36 68t96 30q54 0 89.5 -28t35.5 -70q0 -67 -83 -88q58 -26 58 -79q0 -45 -37.5 -76.5t-102.5 -31.5zM286 639q30 0 49.5 16t19.5 41q0 21 -18 36t-46 15q-30 0 -50 -15t-20 -39q0 -23 19 -38.5
t46 -15.5zM252 475q35 0 57 17t22 43q0 23 -19 40t-52 17q-36 0 -58 -17t-22 -44q0 -24 20 -40t52 -16z" />
    <glyph glyph-name="nine.sup" unicode="&#x2079;" horiz-adv-x="353" 
d="M148 665q0 56 43 95t102 39q56 0 88 -34q35 -33 35 -100q0 -56 -21.5 -108t-61.5 -88q-51 -46 -113 -46q-40 0 -68 20t-28 48q0 16 11 27.5t26 11.5q14 0 24.5 -10t10.5 -25q0 -8 -5 -15q10 -7 29 -7q44 0 79 34q41 38 56 103q-39 -47 -95 -47q-48 0 -80 29t-32 73z
M294 746q-37 0 -61 -22.5t-24 -54.5q0 -25 17 -41.5t45 -16.5q35 0 60.5 23.5t25.5 52.5q0 24 -16 42q-19 17 -47 17z" />
    <glyph glyph-name="zero.inf" unicode="&#x2080;" horiz-adv-x="353" 
d="M112 -147q-56 0 -87.5 38.5t-31.5 106.5q0 94 48.5 161.5t119.5 67.5q56 0 87 -38.5t31 -106.5q0 -94 -48.5 -161.5t-118.5 -67.5zM115 -93q44 0 74 54t30 123q0 41 -16 65t-45 24q-44 0 -74 -54t-30 -123q0 -89 61 -89z" />
    <glyph glyph-name="one.inf" unicode="&#x2081;" horiz-adv-x="353" 
d="M-20 -140l12 54h96l57 248l-93 -21l-3 54l138 33l30 -14l-69 -300h94l-12 -54h-250z" />
    <glyph glyph-name="two.inf" unicode="&#x2082;" horiz-adv-x="353" 
d="M-22 -140l-12 28q38 94 175 165q42 22 61 39.5t19 39.5q0 20 -16.5 31.5t-44.5 11.5q-44 0 -59 -19q9 -11 9 -25q0 -15 -10.5 -25.5t-25.5 -10.5q-16 0 -27 11.5t-11 28.5q0 37 39 65.5t91 28.5q51 0 84.5 -26t33.5 -70q0 -40 -30.5 -67t-89.5 -57q-93 -48 -122 -99h146
l14 58h51l-25 -108h-250z" />
    <glyph glyph-name="three.inf" unicode="&#x2083;" horiz-adv-x="353" 
d="M113 -146q-50 0 -89.5 23.5t-39.5 63.5q0 17 10.5 29t26.5 12t26 -10.5t10 -25.5q0 -13 -9 -22q14 -18 65 -18q37 0 58 16t21 42q0 20 -21.5 37.5t-58.5 17.5h-24l13 55h23q41 0 67 15t26 40q0 21 -19.5 34t-48.5 13q-23 0 -41 -9q6 -8 6 -15q0 -15 -11 -25.5t-26 -10.5
t-26 11t-11 27q0 28 31.5 50.5t85.5 22.5q56 0 90 -27.5t34 -63.5q0 -41 -28.5 -65t-77.5 -28q78 -19 78 -83q0 -50 -42 -78t-98 -28z" />
    <glyph glyph-name="four.inf" unicode="&#x2084;" horiz-adv-x="353" 
d="M133 -93l15 60h-163l-8 28l235 240l37 -35l-191 -188h101l15 60l61 23l-19 -80h58l-12 -48h-58l-14 -60h45l-11 -47h-164l11 47h62z" />
    <glyph glyph-name="five.inf" unicode="&#x2085;" horiz-adv-x="353" 
d="M95 -147q-48 0 -81.5 23t-33.5 51q0 17 10.5 29t27.5 12q15 0 26 -10.5t11 -25.5q0 -6 -4 -16q18 -11 48 -11q41 0 69.5 23t28.5 57q0 27 -18 42t-50 15q-37 0 -74 -16l-32 22l56 174h206l-12 -56h-158l-29 -88q32 12 66 12q43 0 73.5 -28t30.5 -73q0 -57 -48 -96.5
t-113 -39.5z" />
    <glyph glyph-name="six.inf" unicode="&#x2086;" horiz-adv-x="353" 
d="M29 -113q-34 34 -34 100q0 120 82 196q53 46 113 46q41 0 69 -20t28 -48q0 -16 -11 -27.5t-26 -11.5q-14 0 -24.5 10t-10.5 25q0 10 4 15q-11 7 -29 7q-44 0 -79 -34q-39 -36 -56 -103q39 47 96 47q48 0 79.5 -29t31.5 -73q0 -56 -42.5 -95t-101.5 -39q-55 0 -89 34z
M116 -94q38 0 62 22.5t24 54.5q0 25 -17 41.5t-45 16.5q-36 0 -61 -23.5t-25 -52.5q0 -26 16 -42q17 -17 46 -17z" />
    <glyph glyph-name="seven.inf" unicode="&#x2087;" horiz-adv-x="353" 
d="M24 -140l216 312h-144l-16 -67h-54l28 117h243l17 -33l-222 -329h-68z" />
    <glyph glyph-name="eight.inf" unicode="&#x2088;" horiz-adv-x="353" 
d="M120 -146q-58 0 -95.5 29t-37.5 71q0 38 25 64t69 36q-53 25 -53 75q0 38 36 68t96 30q54 0 89.5 -28t35.5 -70q0 -67 -83 -88q58 -26 58 -79q0 -45 -37.5 -76.5t-102.5 -31.5zM154 69q30 0 49.5 16t19.5 41q0 21 -18 36t-46 15q-30 0 -50 -15t-20 -39q0 -23 19 -38.5
t46 -15.5zM120 -95q35 0 57 17t22 43q0 23 -19 40t-52 17q-36 0 -58 -17t-22 -44q0 -24 20 -40t52 -16z" />
    <glyph glyph-name="nine.inf" unicode="&#x2089;" horiz-adv-x="353" 
d="M16 95q0 56 43 95t102 39q56 0 88 -34q35 -33 35 -100q0 -56 -21.5 -108t-61.5 -88q-51 -46 -113 -46q-40 0 -68 20t-28 48q0 16 11 27.5t26 11.5q14 0 24.5 -10t10.5 -25q0 -8 -5 -15q11 -7 29 -7q44 0 79 34q42 40 56 103q-39 -47 -95 -47q-48 0 -80 29t-32 73z
M162 176q-37 0 -61 -22.5t-24 -54.5q0 -25 17 -41.5t45 -16.5q35 0 60.5 23.5t25.5 52.5q0 24 -16 42q-19 17 -47 17z" />
    <glyph glyph-name="Euro" unicode="&#x20ac;" horiz-adv-x="609" 
d="M41 227h64q0 26 9 64h-67l15 66h73q37 77 109.5 121.5t160.5 44.5q81 0 134 -43t53 -98q0 -31 -18 -51t-45 -20q-23 0 -39 15.5t-16 39.5q0 27 22 42q-24 37 -94 37q-118 0 -177 -91h166l-15 -63h-178q-9 -36 -9 -64h181l-14 -64h-162q30 -95 153 -95q83 0 157 58l43 -58
q-92 -77 -207 -77q-84 0 -148.5 42.5t-82.5 126.5h-83z" />
    <glyph glyph-name="published" unicode="&#x2117;" horiz-adv-x="611" 
d="M306 -8q-111 0 -187 77t-76 188t76 188.5t187 77.5t186.5 -77t75.5 -189q0 -110 -76 -187.5t-186 -77.5zM306 32q90 0 153 66t63 160q0 95 -62.5 160t-153.5 65q-92 0 -154.5 -65t-62.5 -160t62.5 -160.5t154.5 -65.5zM218 124v36h31v191h-31v36h105q43 0 71 -23t28 -62
q0 -43 -28 -66t-75 -23q-23 0 -29 1v-54h34v-36h-106zM322 249q27 0 42.5 14.5t15.5 38.5q0 22 -16.5 35.5t-42.5 13.5h-31v-101q2 0 12 -0.5t20 -0.5z" />
    <glyph glyph-name="servicemark" unicode="&#x2120;" horiz-adv-x="644" 
d="M197 402q-36 0 -62 18.5t-26 42.5q0 16 9 26t23 10q27 0 27 -25q0 -14 -9 -19q12 -14 43 -14q19 0 32 9t13 25q0 4 -1.5 8t-3 7t-5 6t-6 5t-8 5t-8 4t-9.5 4.5l-9 4.5q-51 26 -51 68q0 32 27 54t67 22q36 0 60 -17.5t24 -39.5q0 -15 -8.5 -24.5t-22.5 -9.5q-27 0 -27 24
q0 10 7 17q-11 11 -38 11q-17 0 -28.5 -8.5t-11.5 -21.5q0 -7 2.5 -12t8.5 -10t10 -7.5t14.5 -7t13.5 -6.5q52 -26 52 -71q0 -35 -28 -56.5t-71 -21.5zM316 408l8 39h34l49 172h-37l9 39h88l32 -146l98 146h95l-9 -39h-37l-33 -172h35l-8 -39h-109l8 39h31l29 146l-104 -148
h-20l-35 148l-40 -146h32l-9 -39h-107z" />
    <glyph glyph-name="trademark" unicode="&#x2122;" horiz-adv-x="656" 
d="M328 408l8 39h34l49 172h-37l9 39h88l32 -146l98 146h95l-9 -39h-37l-33 -172h35l-8 -39h-109l8 39h31l29 146l-104 -148h-20l-35 148l-40 -146h32l-9 -39h-107zM122 408l8 39h36l41 174h-53l-10 -42h-41l19 79h232l-18 -79h-42l12 42h-53l-41 -174h35l-9 -39h-116z" />
    <glyph glyph-name="onethird" unicode="&#x2153;" horiz-adv-x="795" 
d="M64 280l12 54h96l57 248l-93 -21l-3 54l138 33l30 -14l-69 -300h94l-12 -54h-250zM177 -14l-35 29q174 200 272 317q120 142 263 322l35 -30q-170 -196 -272 -316q-77 -92 -263 -322zM583 -6q-50 0 -89.5 23.5t-39.5 63.5q0 17 10.5 29t26.5 12t26 -10.5t10 -25.5
q0 -13 -9 -22q14 -18 65 -18q37 0 58 16t21 42q0 20 -21.5 37.5t-58.5 17.5h-24l13 55h23q41 0 67 15t26 40q0 21 -19.5 34t-48.5 13q-23 0 -41 -9q6 -8 6 -15q0 -15 -11 -25.5t-26 -10.5t-26 11t-11 27q0 28 31.5 50.5t85.5 22.5q56 0 90 -27.5t34 -63.5q0 -41 -28.5 -65
t-77.5 -28q78 -19 78 -83q0 -50 -42 -78t-98 -28z" />
    <glyph glyph-name="twothirds" unicode="&#x2154;" horiz-adv-x="795" 
d="M71 280l-12 28q38 94 175 165q42 22 61 39.5t19 39.5q0 20 -16.5 31.5t-44.5 11.5q-44 0 -59 -19q9 -11 9 -25q0 -15 -10.5 -25.5t-25.5 -10.5q-16 0 -27 11.5t-11 28.5q0 37 39 65.5t91 28.5q51 0 84.5 -26t33.5 -70q0 -40 -30.5 -67t-89.5 -57q-93 -48 -122 -99h146
l14 58h51l-25 -108h-250zM588 -6q-50 0 -89.5 23.5t-39.5 63.5q0 17 10.5 29t26.5 12t26 -10.5t10 -25.5q0 -13 -9 -22q14 -18 65 -18q37 0 58 16t21 42q0 20 -21.5 37.5t-58.5 17.5h-24l13 55h23q41 0 67 15t26 40q0 21 -19.5 34t-48.5 13q-23 0 -41 -9q6 -8 6 -15
q0 -15 -11 -25.5t-26 -10.5t-26 11t-11 27q0 28 31.5 50.5t85.5 22.5q56 0 90 -27.5t34 -63.5q0 -41 -28.5 -65t-77.5 -28q78 -19 78 -83q0 -50 -42 -78t-98 -28zM183 -14l-35 29q174 200 272 317q120 142 263 322l35 -30q-170 -196 -272 -316q-77 -92 -263 -322z" />
    <glyph glyph-name="onefifth" unicode="&#x2155;" horiz-adv-x="795" 
d="M564 -7q-48 0 -81.5 23t-33.5 51q0 17 10.5 29t27.5 12q15 0 26 -10.5t11 -25.5q0 -6 -4 -16q18 -11 48 -11q41 0 69.5 23t28.5 57q0 27 -18 42t-50 15q-37 0 -74 -16l-32 22l56 174h206l-12 -56h-158l-29 -88q32 12 66 12q43 0 73.5 -28t30.5 -73q0 -57 -48 -96.5
t-113 -39.5zM64 280l12 54h96l57 248l-93 -21l-3 54l138 33l30 -14l-69 -300h94l-12 -54h-250zM174 -14l-35 29q174 200 272 317q120 142 263 322l35 -30q-170 -196 -272 -316q-77 -92 -263 -322z" />
    <glyph glyph-name="twofifths" unicode="&#x2156;" horiz-adv-x="795" 
d="M84 280l-12 28q38 94 175 165q42 22 61 39.5t19 39.5q0 20 -16.5 31.5t-44.5 11.5q-44 0 -59 -19q9 -11 9 -25q0 -15 -10.5 -25.5t-25.5 -10.5q-16 0 -27 11.5t-11 28.5q0 37 39 65.5t91 28.5q51 0 84.5 -26t33.5 -70q0 -40 -30.5 -67t-89.5 -57q-93 -48 -122 -99h146
l14 58h51l-25 -108h-250zM571 -7q-48 0 -81.5 23t-33.5 51q0 17 10.5 29t27.5 12q15 0 26 -10.5t11 -25.5q0 -6 -4 -16q18 -11 48 -11q41 0 69.5 23t28.5 57q0 27 -18 42t-50 15q-37 0 -74 -16l-32 22l56 174h206l-12 -56h-158l-29 -88q32 12 66 12q43 0 73.5 -28t30.5 -73
q0 -57 -48 -96.5t-113 -39.5zM190 -14l-35 29q174 200 272 317q120 142 263 322l35 -30q-170 -196 -272 -316q-77 -92 -263 -322z" />
    <glyph glyph-name="threefifths" unicode="&#x2157;" horiz-adv-x="795" 
d="M565 -7q-48 0 -81.5 23t-33.5 51q0 17 10.5 29t27.5 12q15 0 26 -10.5t11 -25.5q0 -6 -4 -16q18 -11 48 -11q41 0 69.5 23t28.5 57q0 27 -18 42t-50 15q-37 0 -74 -16l-32 22l56 174h206l-12 -56h-158l-29 -88q32 12 66 12q43 0 73.5 -28t30.5 -73q0 -57 -48 -96.5
t-113 -39.5zM173 -14l-35 29q174 200 272 317q120 142 263 322l35 -30q-170 -196 -272 -316q-77 -92 -263 -322zM211 274q-50 0 -89.5 23.5t-39.5 63.5q0 17 10.5 29t26.5 12t26 -10.5t10 -25.5q0 -13 -9 -22q14 -18 65 -18q37 0 58 16t21 42q0 20 -21.5 37.5t-58.5 17.5
h-24l13 55h23q41 0 67 15t26 40q0 21 -19.5 34t-48.5 13q-23 0 -41 -9q6 -8 6 -15q0 -15 -11 -25.5t-26 -10.5t-26 11t-11 27q0 28 31.5 50.5t85.5 22.5q56 0 90 -27.5t34 -63.5q0 -41 -28.5 -65t-77.5 -28q78 -19 78 -83q0 -50 -42 -78t-98 -28z" />
    <glyph glyph-name="fourfifths" unicode="&#x2158;" horiz-adv-x="795" 
d="M570 -7q-48 0 -81.5 23t-33.5 51q0 17 10.5 29t27.5 12q15 0 26 -10.5t11 -25.5q0 -6 -4 -16q18 -11 48 -11q41 0 69.5 23t28.5 57q0 27 -18 42t-50 15q-37 0 -74 -16l-32 22l56 174h206l-12 -56h-158l-29 -88q32 12 66 12q43 0 73.5 -28t30.5 -73q0 -57 -48 -96.5
t-113 -39.5zM232 327l15 60h-163l-8 28l235 240l37 -35l-191 -188h101l15 60l61 23l-19 -80h58l-12 -48h-58l-14 -60h45l-11 -47h-164l11 47h62zM180 -14l-35 29q174 200 272 317q120 142 263 322l35 -30q-170 -196 -272 -316q-77 -92 -263 -322z" />
    <glyph glyph-name="onesixth" unicode="&#x2159;" horiz-adv-x="795" 
d="M488 27q-34 34 -34 100q0 120 82 196q53 46 113 46q41 0 69 -20t28 -48q0 -16 -11 -27.5t-26 -11.5q-14 0 -24.5 10t-10.5 25q0 10 4 15q-10 7 -29 7q-44 0 -79 -34q-39 -36 -56 -103q39 47 96 47q48 0 79.5 -29t31.5 -73q0 -56 -42.5 -95t-101.5 -39q-55 0 -89 34z
M59 280l12 54h96l57 248l-93 -21l-3 54l138 33l30 -14l-69 -300h94l-12 -54h-250zM169 -14l-35 29q174 200 272 317q120 142 263 322l35 -30q-170 -196 -272 -316q-77 -92 -263 -322zM575 46q38 0 62 22.5t24 54.5q0 25 -17 41.5t-45 16.5q-36 0 -61 -23.5t-25 -52.5
q0 -26 16 -42q17 -17 46 -17z" />
    <glyph glyph-name="fivesixths" unicode="&#x215a;" horiz-adv-x="795" 
d="M487 27q-34 34 -34 100q0 120 82 196q53 46 113 46q41 0 69 -20t28 -48q0 -16 -11 -27.5t-26 -11.5q-14 0 -24.5 10t-10.5 25q0 10 4 15q-10 7 -29 7q-44 0 -79 -34q-39 -36 -56 -103q39 47 96 47q48 0 79.5 -29t31.5 -73q0 -56 -42.5 -95t-101.5 -39q-55 0 -89 34z
M191 273q-48 0 -81.5 23t-33.5 51q0 17 10.5 29t27.5 12q15 0 26 -10.5t11 -25.5q0 -6 -4 -16q18 -11 48 -11q41 0 69.5 23t28.5 57q0 27 -18 42t-50 15q-37 0 -74 -16l-32 22l56 174h206l-12 -56h-158l-29 -88q32 12 66 12q43 0 73.5 -28t30.5 -73q0 -57 -48 -96.5
t-113 -39.5zM166 -14l-35 29q174 200 272 317q120 142 263 322l35 -30q-170 -196 -272 -316q-77 -92 -263 -322zM574 46q38 0 62 22.5t24 54.5q0 25 -17 41.5t-45 16.5q-36 0 -61 -23.5t-25 -52.5q0 -26 16 -42q17 -17 46 -17z" />
    <glyph glyph-name="oneeighth" unicode="&#x215b;" horiz-adv-x="795" 
d="M61 280l12 54h96l57 248l-93 -21l-3 54l138 33l30 -14l-69 -300h94l-12 -54h-250zM165 -14l-35 29q174 200 272 317q120 142 263 322l35 -30q-170 -196 -272 -316q-77 -92 -263 -322zM583 -6q-58 0 -95.5 29t-37.5 71q0 38 25 64t69 36q-53 25 -53 75q0 38 36 68t96 30
q54 0 89.5 -28t35.5 -70q0 -67 -83 -88q58 -26 58 -79q0 -45 -37.5 -76.5t-102.5 -31.5zM617 209q30 0 49.5 16t19.5 41q0 21 -18 36t-46 15q-30 0 -50 -15t-20 -39q0 -23 19 -38.5t46 -15.5zM583 45q35 0 57 17t22 43q0 23 -19 40t-52 17q-36 0 -58 -17t-22 -44
q0 -24 20 -40t52 -16z" />
    <glyph glyph-name="threeeighths" unicode="&#x215c;" horiz-adv-x="795" 
d="M587 -6q-58 0 -95.5 29t-37.5 71q0 38 25 64t69 36q-53 25 -53 75q0 38 36 68t96 30q54 0 89.5 -28t35.5 -70q0 -67 -83 -88q58 -26 58 -79q0 -45 -37.5 -76.5t-102.5 -31.5zM621 209q30 0 49.5 16t19.5 41q0 21 -18 36t-46 15q-30 0 -50 -15t-20 -39q0 -23 19 -38.5
t46 -15.5zM587 45q35 0 57 17t22 43q0 23 -19 40t-52 17q-36 0 -58 -17t-22 -44q0 -24 20 -40t52 -16zM166 -14l-35 29q174 200 272 317q120 142 263 322l35 -30q-170 -196 -272 -316q-77 -92 -263 -322zM209 274q-50 0 -89.5 23.5t-39.5 63.5q0 17 10.5 29t26.5 12
t26 -10.5t10 -25.5q0 -13 -9 -22q14 -18 65 -18q37 0 58 16t21 42q0 20 -21.5 37.5t-58.5 17.5h-24l13 55h23q41 0 67 15t26 40q0 21 -19.5 34t-48.5 13q-23 0 -41 -9q6 -8 6 -15q0 -15 -11 -25.5t-26 -10.5t-26 11t-11 27q0 28 31.5 50.5t85.5 22.5q56 0 90 -27.5t34 -63.5
q0 -41 -28.5 -65t-77.5 -28q78 -19 78 -83q0 -50 -42 -78t-98 -28z" />
    <glyph glyph-name="fiveeighths" unicode="&#x215d;" horiz-adv-x="795" 
d="M191 273q-48 0 -81.5 23t-33.5 51q0 17 10.5 29t27.5 12q15 0 26 -10.5t11 -25.5q0 -6 -4 -16q18 -11 48 -11q41 0 69.5 23t28.5 57q0 27 -18 42t-50 15q-37 0 -74 -16l-32 22l56 174h206l-12 -56h-158l-29 -88q32 12 66 12q43 0 73.5 -28t30.5 -73q0 -57 -48 -96.5
t-113 -39.5zM157 -14l-35 29q174 200 272 317q120 142 263 322l35 -30q-170 -196 -272 -316q-77 -92 -263 -322zM577 -6q-58 0 -95.5 29t-37.5 71q0 38 25 64t69 36q-53 25 -53 75q0 38 36 68t96 30q54 0 89.5 -28t35.5 -70q0 -67 -83 -88q58 -26 58 -79q0 -45 -37.5 -76.5
t-102.5 -31.5zM611 209q30 0 49.5 16t19.5 41q0 21 -18 36t-46 15q-30 0 -50 -15t-20 -39q0 -23 19 -38.5t46 -15.5zM577 45q35 0 57 17t22 43q0 23 -19 40t-52 17q-36 0 -58 -17t-22 -44q0 -24 20 -40t52 -16z" />
    <glyph glyph-name="seveneighths" unicode="&#x215e;" horiz-adv-x="795" 
d="M132 280l216 312h-144l-16 -67h-54l28 117h243l17 -33l-222 -329h-68zM573 -6q-58 0 -95.5 29t-37.5 71q0 38 25 64t69 36q-53 25 -53 75q0 38 36 68t96 30q54 0 89.5 -28t35.5 -70q0 -67 -83 -88q58 -26 58 -79q0 -45 -37.5 -76.5t-102.5 -31.5zM607 209q30 0 49.5 16
t19.5 41q0 21 -18 36t-46 15q-30 0 -50 -15t-20 -39q0 -23 19 -38.5t46 -15.5zM573 45q35 0 57 17t22 43q0 23 -19 40t-52 17q-36 0 -58 -17t-22 -44q0 -24 20 -40t52 -16zM133 -14l-35 29q174 200 272 317q120 142 263 322l35 -30q-170 -196 -272 -316q-77 -92 -263 -322z
" />
    <glyph glyph-name="minus" unicode="&#x2212;" horiz-adv-x="438" 
d="M55 239l18 74h344l-18 -74h-344z" />
    <glyph glyph-name="Q.alt" horiz-adv-x="731" 
d="M350 -12q-130 0 -205.5 80.5t-75.5 207.5q0 72 27.5 142.5t75 126.5t116.5 90.5t146 34.5q130 0 205.5 -80.5t75.5 -207.5q0 -98 -49.5 -190.5t-131.5 -147.5l48 -130l-76 -26l-43 120q-58 -20 -113 -20zM358 71q38 0 71 12l-46 128l76 27l41 -115q56 44 88.5 114
t32.5 145q0 89 -50.5 147t-144.5 58q-110 0 -187 -95.5t-77 -215.5q0 -89 51 -147t145 -58z" />
    <glyph glyph-name="zero.lin" horiz-adv-x="643" 
d="M302 -12q-102 0 -166.5 70t-64.5 188q0 172 96 298t228 126q102 0 166.5 -70t64.5 -188q0 -113 -44 -210.5t-119 -155.5t-161 -58zM307 71q61 0 113.5 49t82 126t29.5 160q0 81 -37.5 131t-104.5 50q-93 0 -159 -103t-66 -232q0 -82 37.5 -131.5t104.5 -49.5z" />
    <glyph glyph-name="one.lin" horiz-adv-x="439" 
d="M11 1l19 80h126l113 487l-122 -29l-5 82l192 47l44 -20l-131 -567h124l-19 -80h-341z" />
    <glyph glyph-name="two.lin" horiz-adv-x="567" 
d="M22 0l-17 41q41 100 117 168t194 131q80 42 117.5 78.5t37.5 80.5q0 40 -32.5 65.5t-85.5 25.5q-94 0 -126 -46q22 -22 22 -48q0 -24 -17 -41t-42 -17q-28 0 -45 19t-17 51q0 58 65 110t168 52q90 0 147 -46.5t57 -124.5q0 -71 -53 -120t-161 -107q-176 -93 -231 -195
h281l24 106h80l-43 -183h-440z" />
    <glyph glyph-name="three.lin" horiz-adv-x="543" 
d="M246 -9q-99 0 -161 42.5t-62 100.5q0 31 17.5 51.5t44.5 20.5q24 0 40 -16.5t16 -38.5q0 -28 -25 -44q34 -38 135 -38q68 0 109 33t41 86q0 49 -44 80.5t-115 31.5h-36l19 80h34q85 0 136 33t51 83q0 46 -37.5 70t-95.5 24q-57 0 -87 -25q15 -13 15 -34q0 -23 -17 -39
t-40 -16q-26 0 -43.5 18t-17.5 47q0 49 56 88t153 39q92 0 150.5 -47t58.5 -118q0 -70 -49 -112.5t-131 -54.5q61 -17 97 -57.5t36 -96.5q0 -88 -74 -139.5t-174 -51.5z" />
    <glyph glyph-name="four.lin" horiz-adv-x="569" 
d="M481 426l-37 -161h108l-17 -75h-108l-26 -113h84l-17 -77h-289l17 75h116l26 116h-300l-10 41l436 446l58 -54l-357 -360h190l29 125z" />
    <glyph glyph-name="five.lin" horiz-adv-x="523" 
d="M217 -12q-81 0 -139.5 37.5t-58.5 86.5q0 29 18 48t43 19q24 0 41 -16.5t17 -40.5q0 -18 -11 -29q26 -26 97 -26q79 0 128 45t49 112q0 53 -35.5 84.5t-94.5 31.5t-122 -25l-46 32l101 311h345l-19 -84h-271l-60 -180q45 20 101 20q82 0 136.5 -50.5t54.5 -134.5
q0 -103 -76.5 -172t-197.5 -69z" />
    <glyph glyph-name="six.lin" horiz-adv-x="570" 
d="M127 48q-64 63 -64 190q0 97 41 196.5t115 162.5q84 73 192 73q71 0 120 -34.5t49 -83.5q0 -28 -17 -46.5t-42 -18.5q-22 0 -39.5 16.5t-17.5 40.5q0 18 14 33q-22 18 -70 18q-75 0 -139 -58q-40 -36 -71.5 -94.5t-41.5 -120.5q27 38 74 66t105 28q88 0 144 -53t56 -132
q0 -99 -76 -171t-180 -72q-94 0 -152 60zM279 67q70 0 117.5 46.5t47.5 111.5q0 51 -33.5 83.5t-89.5 32.5q-69 0 -118 -47.5t-49 -107.5q0 -51 34 -85q36 -34 91 -34z" />
    <glyph glyph-name="seven.lin" horiz-adv-x="504" 
d="M57 0l398 581h-262l-27 -115h-82l44 192h419l25 -45l-411 -613h-104z" />
    <glyph glyph-name="eight.lin" horiz-adv-x="569" 
d="M282 -10q-100 0 -167.5 52.5t-67.5 128.5q0 70 46 118t120 64q-45 22 -69 59t-24 77q0 71 63 125t167 54q94 0 158 -50.5t64 -124.5q0 -62 -39.5 -102.5t-109.5 -58.5q46 -19 75 -59t29 -89q0 -81 -67.5 -137.5t-177.5 -56.5zM336 374q61 0 101 32.5t40 82.5
q0 42 -35.5 71t-89.5 29q-61 0 -101 -31.5t-40 -80.5q0 -43 37 -73t88 -30zM280 69q67 0 110.5 34.5t43.5 87.5q0 47 -39 79.5t-100 32.5q-69 0 -111.5 -35t-42.5 -89q0 -45 39 -77.5t100 -32.5z" />
    <glyph glyph-name="nine.lin" horiz-adv-x="570" 
d="M88 427q0 99 75.5 171t179.5 72q95 0 153 -60q64 -63 64 -190q0 -98 -41.5 -197t-115.5 -162q-84 -73 -191 -73q-71 0 -120.5 35t-49.5 83q0 28 17.5 46.5t42.5 18.5q22 0 39 -16.5t17 -40.5q0 -17 -13 -33q22 -18 70 -18q74 0 139 59q40 36 71 94.5t41 119.5
q-27 -38 -74 -66t-105 -28q-88 0 -143.5 52.5t-55.5 132.5zM469 472q0 50 -35 85q-36 34 -91 34q-69 0 -116.5 -46.5t-47.5 -111.5q0 -51 33.5 -83.5t89.5 -32.5q68 0 117.5 48t49.5 107z" />
    <glyph glyph-name="bullet.alt" horiz-adv-x="635" 
d="M318 -48q-121 0 -195 77.5t-74 190.5q0 112 75 190t194 78q121 0 196 -77.5t75 -190.5q0 -111 -75.5 -189.5t-195.5 -78.5z" />
    <glyph glyph-name="hyphen.lin" horiz-adv-x="294" 
d="M64 297l20 80h219l-17 -80h-222z" />
    <glyph glyph-name="endash.lin" horiz-adv-x="465" 
d="M50 300l19 75h419l-16 -75h-422z" />
    <glyph glyph-name="emdash.lin" horiz-adv-x="697" 
d="M50 300l19 75h651l-16 -75h-654z" />
    <glyph glyph-name="parenleft.lin" horiz-adv-x="388" 
d="M298 -164q-93 74 -154.5 180t-61.5 236q0 188 105.5 335t278.5 223l33 -64q-157 -76 -242 -206t-85 -290q0 -107 48.5 -199t125.5 -160z" />
    <glyph glyph-name="parenright.lin" horiz-adv-x="388" 
d="M-12 -162l-33 64q157 76 242 205.5t85 289.5q0 107 -48.5 199t-125.5 161l48 55q93 -74 154.5 -180t61.5 -236q0 -188 -105.5 -335t-278.5 -223z" />
    <glyph glyph-name="bracketleft.lin" horiz-adv-x="351" 
d="M31 -140l217 932h236l-16 -68h-158l-185 -796h157l-16 -68h-235z" />
    <glyph glyph-name="bracketright.lin" horiz-adv-x="351" 
d="M-65 -140l16 68h158l186 796h-158l16 68h235l-217 -932h-236z" />
    <glyph glyph-name="braceleft.lin" horiz-adv-x="347" 
d="M252 -154q-98 12 -149 55.5t-51 105.5q0 75 91 145q66 51 66 81q0 21 -24.5 38t-71.5 17h-31l19 78h32q59 0 89 23.5t30 55.5q0 30 -33 81q-40 64 -40 111q0 73 69.5 120t202.5 50l-6 -59q-93 -7 -138.5 -37t-45.5 -69q0 -34 37 -93q40 -63 40 -101q0 -48 -35.5 -80.5
t-103.5 -41.5q47 -9 72 -34.5t25 -61.5q0 -48 -82 -114q-80 -62 -80 -107q0 -77 132 -105z" />
    <glyph glyph-name="braceright.lin" horiz-adv-x="347" 
d="M-39 -154l6 60q93 7 138.5 36.5t45.5 69.5q0 34 -37 93q-40 63 -40 101q0 48 35.5 80t103.5 42q-47 8 -72 34t-25 61q0 50 82 114q80 62 80 107q0 78 -132 105l14 59q98 -12 149 -56t51 -106q0 -76 -91 -144q-66 -51 -66 -81q0 -22 24.5 -38.5t71.5 -16.5h31l-19 -78h-32
q-59 0 -89 -23.5t-30 -55.5q0 -30 33 -81q40 -66 40 -111q0 -73 -69.5 -120t-202.5 -51z" />
    <glyph glyph-name="registered.alt" horiz-adv-x="611" 
d="M306 -8q-111 0 -187 77t-76 188t76 188.5t187 77.5t186.5 -77t75.5 -189q0 -110 -76 -187.5t-186 -77.5zM306 32q90 0 153 66t63 160q0 95 -62.5 160t-153.5 65q-92 0 -154.5 -65t-62.5 -160t62.5 -160.5t154.5 -65.5zM202 131v37h32v190h-32v36h102q46 0 74 -20.5
t28 -58.5q0 -51 -52 -72l45 -75h30v-37h-58l-56 102h-41v-65h34v-37h-106zM274 268h28q28 0 44.5 12t16.5 34q0 44 -61 44h-28v-90z" />
    <glyph glyph-name="copyright.lin" horiz-adv-x="782" 
d="M409 -12q-140 0 -237 99.5t-97 241.5t97 241.5t237 99.5t237 -99.5t97 -241.5t-97 -241.5t-237 -99.5zM409 31q122 0 204 87t82 211t-82 211t-204 87t-204 -87t-82 -211t82 -211t204 -87zM416 165q-71 0 -121 48t-50 122q0 72 51.5 121.5t121.5 49.5q56 0 93 -26t37 -57
q0 -17 -11.5 -29t-26.5 -12t-25.5 10.5t-10.5 25.5q0 13 6 15q-17 19 -63 19q-47 0 -80 -33.5t-33 -83.5q0 -49 32 -82.5t80 -33.5q58 0 98 42l36 -38q-47 -58 -134 -58z" />
    <glyph glyph-name="published.lin" horiz-adv-x="782" 
d="M409 -12q-140 0 -237 99.5t-97 241.5t97 241.5t237 99.5t237 -99.5t97 -241.5t-97 -241.5t-237 -99.5zM409 31q122 0 204 87t82 211t-82 211t-204 87t-204 -87t-82 -211t82 -211t204 -87zM294 164v50h37v229h-37v50h132q54 0 89 -29.5t35 -78.5q0 -55 -35 -83t-95 -28
h-33v-60h41v-50h-134zM424 320q32 0 50 17.5t18 47.5q0 26 -19 42t-50 16h-36v-122q1 0 6 -0.5t13 -0.5h18z" />
    <glyph glyph-name="registered.lin" horiz-adv-x="782" 
d="M409 -12q-140 0 -237 99.5t-97 241.5t97 241.5t237 99.5t237 -99.5t97 -241.5t-97 -241.5t-237 -99.5zM409 31q122 0 204 87t82 211t-82 211t-204 87t-204 -87t-82 -211t82 -211t204 -87zM280 172v50h38v229h-38v50h128q58 0 93.5 -25.5t35.5 -73.5q0 -67 -62 -90l51 -90
h37v-50h-74l-66 125h-49v-75h41v-50h-135zM374 343h36q31 0 50 14t19 40q0 54 -70 54h-35v-108z" />
    <glyph glyph-name="dollar.lin" horiz-adv-x="555" 
d="M145 -85l30 99q-64 19 -105 57.5t-41 81.5q0 34 19 55.5t48 21.5q24 0 41 -17t17 -40q0 -32 -27 -52q23 -24 76 -38l69 222q-142 68 -142 175q0 75 63 126.5t167 51.5q13 0 20 -1l28 93l67 -19l-26 -86q58 -17 94 -51t36 -72q0 -34 -18.5 -55.5t-46.5 -21.5q-25 0 -42 17
t-17 41q0 26 25 47q-19 16 -58 26l-67 -215q37 -18 59.5 -31.5t47.5 -35t36.5 -49t11.5 -62.5q0 -80 -65 -131.5t-173 -51.5q-19 0 -28 1l-32 -105zM417 175q0 34 -22 58t-67 46l-64 -204h13q61 0 100.5 26.5t39.5 73.5zM221 485q0 -53 78 -96l60 194h-4q-61 0 -97.5 -27
t-36.5 -71z" />
    <glyph glyph-name="sterling.lin" horiz-adv-x="572" 
d="M441 245h-161q-12 -89 -81 -142q31 0 76 -13q8 -2 24 -7.5t25.5 -8t24.5 -5t30 -2.5q49 0 104 46l43 -45q-61 -80 -157 -80q-17 0 -32 1.5t-30.5 6t-24 7t-26.5 9.5t-24 9q-49 17 -91 18q-17 -23 -44.5 -37t-48.5 -14q-26 0 -42 13t-16 33q0 31 35.5 52t92.5 18
q69 61 77 141h-117l16 70h101q-1 17 -6.5 56t-5.5 62q0 103 60 170t158 67q72 0 122 -37t50 -90q0 -31 -17 -49.5t-42 -18.5q-23 0 -39.5 16t-16.5 38q0 23 16 39q-3 10 -24 17.5t-48 7.5q-65 0 -100 -45t-35 -115q0 -23 6 -61.5t7 -56.5h177z" />
    <glyph glyph-name="Euro.lin" horiz-adv-x="724" 
d="M478 369h-233q-12 -50 -12 -89h225l-17 -71h-203q14 -64 56.5 -100.5t109.5 -36.5q104 0 192 88l56 -54q-106 -117 -255 -117q-97 0 -165.5 58.5t-84.5 158.5h-117l17 75h95q2 45 12 87h-86l17 75h92q44 102 130 164.5t192 62.5q98 0 159.5 -50.5t61.5 -114.5
q0 -33 -19.5 -55.5t-47.5 -22.5q-25 0 -42 16.5t-17 41.5q0 28 24 47q-10 22 -41.5 38.5t-81.5 16.5q-70 0 -129.5 -40t-94.5 -107h224z" />
    <glyph glyph-name="yen.lin" horiz-adv-x="639" 
d="M110 271l16 69h127l-92 242h-68l18 76h233l-18 -76h-73l83 -238l194 238h-75l18 76h242l-18 -76h-62l-212 -242h119l-15 -69h-167l-14 -63h167l-15 -69h-168l-15 -69h93l-16 -70h-266l16 70h88l16 69h-164l15 69h165l14 63h-166z" />
    <glyph glyph-name="cent.lin" horiz-adv-x="486" 
d="M269 119q-22 0 -32 1l-44 -142l-60 16l43 142q-55 22 -86.5 67t-31.5 107q0 100 73.5 175.5t176.5 80.5l32 105l60 -15l-29 -96q51 -12 83 -43.5t32 -70.5q0 -27 -16.5 -46t-42.5 -19q-21 0 -36 14.5t-15 38.5q0 23 18 38q-13 14 -48 21l-91 -302q7 -1 22 -1q88 0 155 53
l-1 -77q-66 -47 -162 -47zM146 315q0 -71 56 -106l86 284q-59 -12 -100.5 -60t-41.5 -118z" />
    <glyph glyph-name="numbersign.lin" horiz-adv-x="601" 
d="M553 658l-50 -179h116l-20 -79h-118l-43 -153h117l-20 -78h-119l-47 -169h-81l47 169h-119l-46 -169h-81l47 169h-116l20 78h118l43 153h-117l20 79h119l50 179h81l-51 -179h119l50 179h81zM279 403l-45 -159h126l44 159h-125z" />
    <glyph glyph-name="paragraph.lin" horiz-adv-x="704" 
d="M184 0l19 81h94l34 147h-25q-111 0 -172.5 52.5t-61.5 141.5q0 100 81 168t212 68h401l-19 -81h-81l-114 -496h80l-18 -81h-430zM385 76h77l117 506h-77z" />
    <glyph glyph-name="section.lin" horiz-adv-x="519" 
d="M72 328q0 44 39.5 74.5t106.5 43.5q-53 39 -53 93q0 55 49.5 93t133.5 38q102 0 150 -53q25 -26 25 -58q0 -23 -14.5 -39t-36.5 -16t-36.5 14.5t-14.5 35.5q0 16 11 30q-9 6 -17 9q-33 11 -67 11q-39 0 -67 -14t-28 -37q0 -24 24.5 -41t83.5 -42q34 -15 54 -25.5
t44 -27.5t35 -38.5t11 -48.5q0 -88 -147 -118q54 -38 54 -92q0 -55 -49.5 -93t-133.5 -38q-104 0 -151 54q-24 27 -24 57q0 23 15 38.5t37 15.5q21 0 35.5 -14.5t14.5 -34.5q0 -18 -11 -30q4 -4 16 -9q31 -11 69 -11q39 0 66.5 14t27.5 37q0 24 -23.5 40t-84.5 43
q-34 15 -54 25.5t-44 27.5t-35 38.5t-11 47.5zM310 401l-30 12q-119 -24 -119 -76q0 -23 24.5 -39.5t81.5 -39.5q6 -3 31 -13q118 25 118 77q0 23 -25.5 40t-80.5 39z" />
    <glyph glyph-name="ordfeminine.lin" horiz-adv-x="363" 
d="M169 460q-39 0 -64 28.5t-25 75.5q0 67 41 116.5t96 49.5q28 0 48.5 -17t27.5 -42l16 54h52l-45 -182q-4 -13 -4 -26q0 -17 13 -17q19 0 35 42l25 -11q-22 -70 -73 -70q-50 0 -52 53q-34 -54 -91 -54zM190 509q37 0 63 33.5t26 75.5q0 28 -14.5 44.5t-41.5 16.5
q-35 0 -60 -32.5t-25 -75.5q0 -28 13.5 -45t38.5 -17zM49 351l12 51h285l-12 -51h-285z" />
    <glyph glyph-name="ordmasculine.lin" horiz-adv-x="342" 
d="M214 462q-55 0 -86 33t-31 82q0 62 41.5 107.5t104.5 45.5q55 0 86 -33t31 -82q0 -61 -41.5 -107t-104.5 -46zM57 351l12 51h246l-12 -51h-246zM216 510q38 0 63.5 30.5t25.5 74.5q0 31 -18.5 49.5t-46.5 18.5q-37 0 -62.5 -30.5t-25.5 -74.5q0 -31 18 -49.5t46 -18.5z
" />
    <glyph glyph-name="degree.lin" horiz-adv-x="327" 
d="M214 467q-53 0 -84 33t-31 80q0 59 41.5 104.5t102.5 45.5q53 0 83.5 -32.5t30.5 -80.5q0 -59 -41 -104.5t-102 -45.5zM216 520q32 0 56 29.5t24 66.5q0 28 -15.5 45t-39.5 17q-32 0 -56.5 -30t-24.5 -67q0 -28 16 -44.5t40 -16.5z" />
    <glyph glyph-name="percent.lin" horiz-adv-x="705" 
d="M221 366q-55 0 -89.5 37t-34.5 92q0 66 46 117t111 51q56 0 90 -36.5t34 -92.5q0 -67 -45.5 -117.5t-111.5 -50.5zM73 -4l-38 36q22 20 150 142.5t181 171.5q45 41 116 110t134 131.5t76 75.5l37 -37q-20 -18 -146.5 -139t-182.5 -172q-62 -57 -193.5 -187t-133.5 -132z
M498 -8q-55 0 -89.5 36.5t-34.5 91.5q0 66 46 117t111 51q56 0 90 -36t34 -92q0 -67 -45.5 -117.5t-111.5 -50.5zM226 424q38 0 63.5 32.5t25.5 73.5q0 33 -18 54t-47 21q-38 0 -64 -32.5t-26 -73.5q0 -34 18.5 -54.5t47.5 -20.5zM503 50q38 0 63.5 32.5t25.5 72.5
q0 33 -18 54.5t-47 21.5q-38 0 -64 -32.5t-26 -73.5q0 -34 18.5 -54.5t47.5 -20.5z" />
    <glyph glyph-name="perthousand.lin" horiz-adv-x="1043" 
d="M73 -4l-38 36q22 20 150 142.5t181 171.5q45 41 116 110t134 131.5t76 75.5l37 -37q-20 -18 -146.5 -139t-182.5 -172q-62 -57 -193.5 -187t-133.5 -132zM226 424q38 0 63.5 32t25.5 71q0 32 -18 52t-47 20q-38 0 -64 -32t-26 -71q0 -32 18.5 -52t47.5 -20zM221 366
q-55 0 -89.5 35.5t-34.5 90.5q0 65 46 115t111 50q56 0 90 -35.5t34 -90.5q0 -65 -45.5 -115t-111.5 -50zM503 50q38 0 64 31.5t26 70.5q0 33 -18.5 53t-47.5 20q-38 0 -64 -31.5t-26 -70.5q0 -33 18.5 -53t47.5 -20zM498 -8q-55 0 -89 36t-34 89q0 66 45.5 116t111.5 50
q55 0 89 -36t34 -89q0 -66 -45.5 -116t-111.5 -50zM842 50q38 0 64 31.5t26 70.5q0 33 -18.5 53t-48.5 20q-38 0 -63.5 -31.5t-25.5 -70.5q0 -33 18 -53t48 -20zM837 -8q-55 0 -89.5 35.5t-34.5 89.5q0 66 45.5 116t111.5 50q55 0 89.5 -35.5t34.5 -89.5q0 -66 -45.5 -116
t-111.5 -50z" />
    <glyph glyph-name="quotedbl.lin" horiz-adv-x="375" 
d="M292 460l16 209q2 28 18.5 44.5t39.5 16.5q25 0 41.5 -16.5t16.5 -39.5q0 -12 -8 -30l-88 -184h-36zM112 460l16 209q2 28 19 44.5t40 16.5q24 0 40.5 -16.5t16.5 -39.5q0 -14 -7 -30l-89 -184h-36z" />
    <glyph glyph-name="quotesingle.lin" horiz-adv-x="195" 
d="M112 460l16 209q2 28 19 44.5t40 16.5q24 0 40.5 -16.5t16.5 -39.5q0 -14 -7 -30l-89 -184h-36z" />
    <glyph glyph-name="plus.lin" horiz-adv-x="430" 
d="M325 506l-31 -133h135l-18 -74h-134l-33 -141h-75l33 141h-135l18 74h134l31 133h75z" />
    <glyph glyph-name="minus.lin" horiz-adv-x="438" 
d="M67 299l18 74h344l-18 -74h-344z" />
    <glyph glyph-name="divide.lin" horiz-adv-x="438" 
d="M67 299l18 74h344l-18 -74h-344zM281 423q-23 0 -39 16.5t-16 39.5t17 39.5t40 16.5q22 0 38.5 -16.5t16.5 -39.5t-17 -39.5t-40 -16.5zM216 137q-23 0 -39.5 16.5t-16.5 39.5t17 39.5t40 16.5t39 -16.5t16 -39.5t-17 -39.5t-39 -16.5z" />
    <glyph glyph-name="equal.lin" horiz-adv-x="430" 
d="M89 380l17 75h317l-17 -75h-317zM49 209l17 75h318l-17 -75h-318z" />
    <glyph glyph-name="multiply.lin" horiz-adv-x="438" 
d="M160 500l80 -110l125 105l45 -57l-127 -106l82 -112l-61 -48l-81 110l-125 -105l-45 57l127 106l-81 112z" />
    <glyph glyph-name="less.lin" horiz-adv-x="418" 
d="M284 134l-214 177l10 44l292 175l37 -56l-246 -147l167 -139z" />
    <glyph glyph-name="greater.lin" horiz-adv-x="418" 
d="M98 136l-36 57l246 147l-168 138l47 54l214 -177l-11 -44z" />
    <glyph glyph-name="plusminus.lin" horiz-adv-x="438" 
d="M339 576l-32 -135h135l-17 -74h-135l-31 -135h-75l31 135h-134l17 74h134l31 135h76zM14 77l17 74h343l-17 -74h-343z" />
    <glyph glyph-name="zero.tab" horiz-adv-x="530" 
d="M528 428q0 -117 -38.5 -218.5t-105 -161.5t-144.5 -60q-86 0 -134 64t-48 178q0 178 85 309t203 131q86 0 134 -64t48 -178zM151 232q0 -74 25.5 -117.5t73.5 -43.5q50 0 93 53.5t67.5 135t24.5 166.5q0 74 -25.5 117t-73.5 43q-75 0 -130 -111t-55 -243z" />
    <glyph glyph-name="one.tab" horiz-adv-x="530" 
d="M27 1l19 80h156l114 487l-151 -36l-6 81l221 55l45 -20l-132 -567h154l-19 -80h-401z" />
    <glyph glyph-name="two.tab" horiz-adv-x="530" 
d="M122 77h251l24 106h80l-43 -183h-410l-17 41q38 100 109 168t181 130q75 43 109.5 79.5t34.5 82.5q0 39 -30 64.5t-78 25.5q-80 0 -114 -48q23 -21 23 -47q0 -25 -17 -42t-42 -17q-28 0 -45.5 19t-17.5 51q0 59 61 111t158 52q86 0 140 -46t54 -122q0 -72 -49 -122.5
t-148 -107.5q-83 -49 -134.5 -94t-79.5 -101z" />
    <glyph glyph-name="three.tab" horiz-adv-x="530" 
d="M351 336q60 -18 95 -58t35 -96q0 -88 -71 -139.5t-168 -51.5q-95 0 -155 42.5t-60 99.5q0 32 17.5 53.5t46.5 21.5q25 0 40 -15.5t15 -38.5q0 -31 -26 -46q42 -40 126 -40q64 0 103 33.5t39 86.5q0 50 -40 81t-111 31h-34l18 80h33q81 0 128 32.5t47 83.5q0 46 -35 70.5
t-86 24.5q-53 0 -83 -28q15 -13 15 -33q0 -24 -17 -40t-40 -16q-26 0 -43.5 18.5t-17.5 47.5q0 49 54.5 88.5t147.5 39.5q88 0 144.5 -46t56.5 -117t-47.5 -113.5t-126.5 -55.5z" />
    <glyph glyph-name="four.tab" horiz-adv-x="530" 
d="M452 426l-37 -161h100l-17 -75h-101l-26 -115h78l-17 -75h-279l17 73h115l27 118h-276l-11 41l402 446l58 -54l-325 -360h169l29 125z" />
    <glyph glyph-name="five.tab" horiz-adv-x="530" 
d="M221 -12q-81 0 -139 37.5t-58 87.5q0 30 17.5 48.5t43.5 18.5q25 0 41 -16t16 -40q0 -21 -12 -32q35 -26 98 -26q79 0 128 46t49 114q0 52 -35.5 83t-93.5 31t-123 -25l-46 32l101 311h344l-19 -84h-270l-60 -180q47 20 100 20q82 0 137 -50t55 -134q0 -103 -77 -172.5
t-197 -69.5z" />
    <glyph glyph-name="six.tab" horiz-adv-x="530" 
d="M446 577q-20 18 -63 18q-68 0 -125 -58q-36 -35 -63.5 -92.5t-37.5 -118.5q25 37 67.5 63.5t94.5 26.5q82 0 133.5 -52.5t51.5 -132.5q0 -99 -71 -171t-168 -72q-87 0 -142 59q-60 63 -60 191q0 97 39 196.5t108 162.5q79 73 180 73q67 0 112.5 -34.5t45.5 -83.5
q0 -28 -17 -46.5t-42 -18.5q-22 0 -39.5 16.5t-17.5 40.5q0 18 14 33zM265 67q62 0 104.5 47t42.5 111q0 51 -29.5 83.5t-78.5 32.5q-62 0 -106 -47.5t-44 -107.5q0 -50 30 -85q32 -34 81 -34z" />
    <glyph glyph-name="seven.tab" horiz-adv-x="530" 
d="M72 0l399 581h-271l-27 -115h-82l44 192h429l24 -45l-413 -613h-103z" />
    <glyph glyph-name="eight.tab" horiz-adv-x="530" 
d="M440 489q0 43 -30.5 71.5t-77.5 28.5q-53 0 -87.5 -31.5t-34.5 -80.5q0 -43 32 -73t76 -30q53 0 87.5 32.5t34.5 82.5zM490 184q0 -81 -63 -137.5t-165 -56.5q-94 0 -155 51.5t-61 128.5q0 70 45 118.5t117 64.5q-43 22 -66 60t-23 78q0 71 58.5 124t154.5 53
q86 0 144 -50t58 -124q0 -62 -38.5 -103t-104.5 -59q44 -19 71.5 -59t27.5 -89zM397 191q0 47 -34.5 79.5t-88.5 32.5q-60 0 -97.5 -35t-37.5 -89q0 -46 34.5 -78t89.5 -32q57 0 95.5 35t38.5 87z" />
    <glyph glyph-name="nine.tab" horiz-adv-x="530" 
d="M145 81q20 -18 63 -18q68 0 125 58q35 35 63 92t38 118q-26 -37 -68 -63t-94 -26q-82 0 -133.5 52.5t-51.5 132.5q0 99 71 171t168 72q87 0 142 -59q60 -63 60 -191q0 -97 -39 -196.5t-108 -162.5q-79 -73 -180 -73q-67 0 -112.5 34.5t-45.5 83.5q0 28 17 46.5t42 18.5
q22 0 39.5 -16.5t17.5 -40.5q0 -18 -14 -33zM326 591q-62 0 -104.5 -47t-42.5 -111q0 -51 30 -83.5t80 -32.5q61 0 104.5 48t43.5 107q0 50 -30 85q-32 34 -81 34z" />
    <glyph glyph-name="period.tab" horiz-adv-x="265" 
d="M114 -9q-30 0 -50.5 21t-20.5 51q0 31 20.5 52t50.5 21t50.5 -21t20.5 -52q0 -30 -20.5 -51t-50.5 -21z" />
    <glyph glyph-name="comma.tab" horiz-adv-x="265" 
d="M-20 -152l-19 36q62 33 93.5 66t34.5 53q-22 8 -34 26.5t-12 34.5q0 30 20.5 50.5t49.5 20.5q31 0 52.5 -22t21.5 -57q0 -56 -57 -115.5t-150 -92.5z" />
    <glyph glyph-name="colon.tab" horiz-adv-x="265" 
d="M114 -9q-29 0 -49.5 21t-20.5 50t20.5 50t49.5 21t49.5 -21t20.5 -50t-20.5 -50t-49.5 -21zM174 254q-29 0 -49.5 21t-20.5 50t20.5 50t49.5 21t49.5 -21t20.5 -50t-20.5 -50t-49.5 -21z" />
    <glyph glyph-name="semicolon.tab" horiz-adv-x="265" 
d="M-18 -149l-19 35q61 32 92 64.5t34 52.5q-21 8 -33 26t-12 34q0 29 20 49t49 20q30 0 51 -21.5t21 -56.5q0 -54 -55.5 -112t-147.5 -91zM174 254q-29 0 -49.5 21t-20.5 50t20.5 50t49.5 21t49.5 -21t20.5 -50t-20.5 -50t-49.5 -21z" />
    <glyph glyph-name="twodotleader.tab" horiz-adv-x="530" 
d="M114 -9q-30 0 -50.5 21t-20.5 51q0 31 20.5 52t50.5 21t50.5 -21t20.5 -52q0 -30 -20.5 -51t-50.5 -21zM379 -9q-30 0 -50.5 21t-20.5 51q0 31 20.5 52t50.5 21t50.5 -21t20.5 -52q0 -30 -20.5 -51t-50.5 -21z" />
    <glyph glyph-name="periodcentered.tab" horiz-adv-x="265" 
d="M148 195q-30 0 -50.5 21t-20.5 51t20.5 51t50.5 21t50.5 -21t20.5 -51t-20.5 -51t-50.5 -21z" />
    <glyph glyph-name="slash.tab" horiz-adv-x="530" 
d="M-12 -212l-65 41l627 916l64 -43z" />
    <glyph glyph-name="bar.tab" horiz-adv-x="265" 
d="M95 -200v932h76v-932h-76z" />
    <glyph glyph-name="underscore.tab" horiz-adv-x="530" 
d="M-74 -156l20 82h562l-19 -82h-563z" />
    <glyph glyph-name="dollar.tab" horiz-adv-x="530" 
d="M25 153q0 34 19 55.5t48 21.5q24 0 41 -17t17 -40q0 -32 -26 -52q19 -24 70 -38l67 222q-133 67 -133 177q0 74 60 125t160 51q10 0 15 -1l28 94l67 -19l-26 -87q56 -17 91 -51t35 -72q0 -34 -18.5 -55.5t-46.5 -21.5q-25 0 -42 17t-17 41q0 26 24 47q-18 16 -52 26
l-65 -215q72 -37 109 -75.5t37 -104.5q0 -79 -62 -130t-165 -51q-16 0 -24 1l-31 -106l-67 18l29 100q-63 19 -102.5 58t-39.5 82zM396 173q0 35 -20 59t-61 46l-60 -205h10q57 0 94 27t37 73zM217 487q0 -52 69 -96l58 194h-2q-57 -1 -91 -27.5t-34 -70.5z" />
    <glyph glyph-name="sterling.tab" horiz-adv-x="530" 
d="M253 445q0 -24 6.5 -69t7.5 -61h160l-16 -70h-144q-10 -92 -76 -142q27 0 68 -13q8 -2 22.5 -7.5t23 -8t22 -5t26.5 -2.5q44 0 95 46l43 -45q-57 -80 -145 -80q-13 0 -25.5 1.5t-21.5 3.5t-23 6.5t-19.5 6t-21 8t-18.5 7.5q-45 17 -80 18q-17 -23 -44 -37t-48 -14
q-25 0 -40.5 13t-15.5 33q0 31 34.5 52t90.5 18q63 56 70 141h-114l17 70h96q-1 17 -7.5 62t-6.5 69q0 98 56.5 161t150.5 63q68 0 115 -37t47 -90q0 -31 -17.5 -49.5t-42.5 -18.5q-23 0 -39 16t-16 38q0 24 15 39q-2 10 -21 17.5t-43 7.5q-58 0 -89.5 -41.5t-31.5 -106.5z
" />
    <glyph glyph-name="Euro.tab" horiz-adv-x="530" 
d="M343 365h-132q-10 -45 -14 -81h126l-16 -71h-112q4 -67 30.5 -104.5t69.5 -37.5q62 0 123 87l56 -53q-84 -117 -190 -117q-79 0 -127 58t-53 164h-75l18 75h59q3 40 12 79h-52l17 75h57q38 104 106.5 167.5t147.5 63.5q70 0 110.5 -44t40.5 -103q0 -38 -18.5 -61.5
t-47.5 -23.5q-25 0 -40.5 16.5t-15.5 40.5q0 35 30 52q-21 42 -67 42q-44 0 -84.5 -42t-67.5 -111h126z" />
    <glyph glyph-name="yen.tab" horiz-adv-x="530" 
d="M74 271l15 69h119l-68 242h-63l18 76h221l-18 -76h-71l60 -234l171 234h-75l18 76h229l-18 -76h-58l-189 -242h112l-15 -69h-152l-14 -63h152l-15 -69h-153l-16 -69h93l-16 -70h-266l16 70h88l16 69h-150l15 69h151l14 63h-151z" />
    <glyph glyph-name="cent.tab" horiz-adv-x="530" 
d="M466 243l-2 -77q-67 -47 -170 -47q-23 0 -34 1l-43 -142l-60 16l42 141q-59 21 -93 66.5t-34 108.5q0 100 76.5 175t183.5 80l32 106l60 -15l-29 -95q55 -11 90 -43t35 -72q0 -27 -16.5 -46t-42.5 -19q-21 0 -36 14.5t-15 38.5q0 25 18 38q-19 17 -58 22l-91 -303
q3 0 10 -0.5t11 -0.5q94 0 166 53zM160 315q0 -76 65 -109l87 287q-63 -12 -107.5 -60t-44.5 -118z" />
    <glyph glyph-name="numbersign.tab" horiz-adv-x="530" 
d="M507 658l-50 -179h97l-21 -79h-98l-43 -153h98l-21 -78h-99l-47 -169h-79l47 169h-102l-46 -169h-79l47 169h-97l21 78h98l43 153h-98l21 79h99l50 179h79l-51 -179h102l50 179h79zM252 403l-45 -159h109l44 159h-108z" />
    <glyph glyph-name="paragraph.tab" horiz-adv-x="530" 
d="M211 81l35 148h-5q-79 0 -128.5 50t-49.5 134q0 112 77.5 178.5t199.5 66.5h264l-18 -81h-69l-114 -496h68l-18 -81h-342l18 81h82zM281 76h47l117 506h-48z" />
    <glyph glyph-name="section.tab" horiz-adv-x="530" 
d="M73 328q0 44 39.5 74t108.5 44q-56 37 -56 93q0 55 51.5 93t137.5 38q106 0 155 -53q25 -26 25 -59q0 -22 -15 -38t-36 -16q-22 0 -36.5 14.5t-14.5 35.5q0 16 11 30l-18 9q-35 11 -71 11q-42 0 -71 -14t-29 -37q0 -24 25.5 -41t87.5 -42q35 -15 55.5 -25.5t45.5 -27.5
t36.5 -38.5t11.5 -48.5q0 -86 -149 -118q56 -38 56 -92q0 -55 -51 -93t-137 -38q-108 0 -156 53q-25 28 -25 58q0 23 15 38.5t37 15.5t36 -14.5t14 -34.5q0 -17 -10 -30q4 -4 17 -9q33 -11 72 -11q42 0 71 14t29 37q0 24 -25 40t-88 43q-35 14 -56 25t-45.5 28t-36 38.5
t-11.5 47.5zM316 401l-31 12q-124 -24 -124 -76q0 -23 26 -39t86 -40q5 -2 15.5 -6t15.5 -7q123 25 123 77q0 23 -26.5 39.5t-84.5 39.5z" />
    <glyph glyph-name="degree.tab" horiz-adv-x="530" 
d="M301 381q-69 0 -109.5 43t-40.5 108q0 81 59.5 145t144.5 64q69 0 109.5 -43t40.5 -108q0 -81 -60 -145t-144 -64zM307 437q56 0 96.5 45.5t40.5 102.5q0 45 -26.5 72.5t-68.5 27.5q-56 0 -96.5 -45.5t-40.5 -102.5q0 -46 26 -73t69 -27z" />
    <glyph glyph-name="percent.tab" horiz-adv-x="530" 
d="M57 -8l-38 32l260 320l255 323l37 -33l-258 -317zM175 365q-40 0 -64 28.5t-24 77.5q0 79 38 135.5t94 56.5q39 0 63.5 -28.5t24.5 -77.5q0 -79 -38.5 -135.5t-93.5 -56.5zM181 422q27 0 45.5 45.5t18.5 90.5q0 48 -33 48q-27 0 -45.5 -45.5t-18.5 -90.5q0 -48 33 -48z
M373 -7q-40 0 -64.5 28t-24.5 77q0 79 38.5 135.5t94.5 56.5q39 0 63 -28t24 -77q0 -79 -38 -135.5t-93 -56.5zM378 49q28 0 46 46t18 90q0 49 -32 49q-28 0 -46.5 -46t-18.5 -90q0 -49 33 -49z" />
    <glyph glyph-name="quotedbl.tab" horiz-adv-x="530" 
d="M172 409l24 258q3 29 20.5 46t40.5 17q25 0 41 -16t16 -40q0 -12 -7 -33l-99 -232h-36zM375 409l24 258q3 29 20.5 46t40.5 17q25 0 41.5 -16t16.5 -40q0 -15 -8 -33l-99 -232h-36z" />
    <glyph glyph-name="quotesingle.tab" horiz-adv-x="265" 
d="M140 409l24 258q2 29 19.5 46t41.5 17q25 0 41 -16t16 -40q0 -15 -8 -33l-98 -232h-36z" />
    <glyph glyph-name="plus.tab" horiz-adv-x="530" 
d="M381 526l-36 -153h155l-17 -74h-155l-37 -161h-76l38 161h-154l17 74h154l36 153h75z" />
    <glyph glyph-name="minus.tab" horiz-adv-x="530" 
d="M94 299l18 74h384l-18 -74h-384z" />
    <glyph glyph-name="divide.tab" horiz-adv-x="530" 
d="M94 299l18 74h384l-18 -74h-384zM333 443q-23 0 -39.5 16.5t-16.5 39.5t17 39.5t40 16.5t39 -16.5t16 -39.5t-16.5 -39.5t-39.5 -16.5zM257 117q-23 0 -39.5 16.5t-16.5 39.5t17 39.5t40 16.5t39.5 -16.5t16.5 -39.5t-17 -39.5t-40 -16.5z" />
    <glyph glyph-name="equal.tab" horiz-adv-x="530" 
d="M121 390l17 75h357l-17 -75h-357zM77 199l17 75h358l-17 -75h-358z" />
    <glyph glyph-name="multiply.tab" horiz-adv-x="530" 
d="M187 527l100 -135l145 123l45 -58l-146 -124l99 -133l-61 -49l-98 132l-148 -125l-45 57l149 127l-101 137z" />
    <glyph glyph-name="less.tab" horiz-adv-x="530" 
d="M354 111l-250 205l8 33l338 201l34 -53l-280 -170l197 -163z" />
    <glyph glyph-name="greater.tab" horiz-adv-x="530" 
d="M233 555l250 -204l-8 -34l-338 -201l-34 53l280 170l-197 163z" />
    <glyph glyph-name="plusminus.tab" horiz-adv-x="530" 
d="M392 606l-36 -155h155l-17 -74h-155l-36 -155h-75l36 155h-154l17 74h154l36 155h75zM37 65l16 74h384l-17 -74h-383z" />
    <glyph glyph-name="zero.idx_P2D" horiz-adv-x="1100" 
d="M550 798q137 0 250.5 -67.5t177.5 -181.5t64 -249t-64 -249t-177.5 -181.5t-250.5 -67.5t-250.5 67.5t-177.5 181.5t-64 249t64 249t177.5 181.5t250.5 67.5zM550 741q-120 0 -218.5 -60t-154 -161t-55.5 -220t55.5 -220t154 -161t218.5 -60t218.5 60t154 161t55.5 220
t-55.5 220t-154 161t-218.5 60zM549 64q-82 0 -139.5 68.5t-57.5 173.5q0 106 58 174.5t141 68.5q81 0 138.5 -68.5t57.5 -173.5q0 -107 -57.5 -175t-140.5 -68zM549 135q54 0 86.5 48t32.5 123t-32.5 123.5t-86.5 48.5q-53 0 -85 -48t-32 -123t32 -123.5t85 -48.5z" />
    <glyph glyph-name="one.idx_P2D" horiz-adv-x="1100" 
d="M550 798q137 0 250.5 -67.5t177.5 -181.5t64 -249t-64 -249t-177.5 -181.5t-250.5 -67.5t-250.5 67.5t-177.5 181.5t-64 249t64 249t177.5 181.5t250.5 67.5zM550 741q-120 0 -218.5 -60t-154 -161t-55.5 -220t55.5 -220t154 -161t218.5 -60t218.5 60t154 161t55.5 220
t-55.5 220t-154 161t-218.5 60zM694 74h-281v68h103v320l-97 -20l-15 66l151 34h38v-400h101v-68z" />
    <glyph glyph-name="two.idx_P2D" horiz-adv-x="1100" 
d="M550 798q137 0 250.5 -67.5t177.5 -181.5t64 -249t-64 -249t-177.5 -181.5t-250.5 -67.5t-250.5 67.5t-177.5 181.5t-64 249t64 249t177.5 181.5t250.5 67.5zM550 741q-120 0 -218.5 -60t-154 -161t-55.5 -220t55.5 -220t154 -161t218.5 -60t218.5 60t154 161t55.5 220
t-55.5 220t-154 161t-218.5 60zM385 428q0 27 15 52q19 32 58.5 50.5t92.5 18.5q67 0 114 -38.5t47 -98.5q0 -35 -19 -65t-38.5 -45t-55.5 -38q-101 -64 -134 -127h193v78h64v-142h-328l-23 35q19 50 53.5 92.5t61 63.5t64.5 47q30 20 44 31.5t26.5 30.5t12.5 40
q0 29 -25 49t-63 20q-57 0 -83 -28q22 -13 22 -40q0 -20 -13.5 -33.5t-33.5 -13.5q-26 0 -39 17t-13 44z" />
    <glyph glyph-name="three.idx_P2D" horiz-adv-x="1100" 
d="M550 798q137 0 250.5 -67.5t177.5 -181.5t64 -249t-64 -249t-177.5 -181.5t-250.5 -67.5t-250.5 67.5t-177.5 181.5t-64 249t64 249t177.5 181.5t250.5 67.5zM550 741q-120 0 -218.5 -60t-154 -161t-55.5 -220t55.5 -220t154 -161t218.5 -60t218.5 60t154 161t55.5 220
t-55.5 220t-154 161t-218.5 60zM378 176q0 22 14 38t35 16q20 0 34 -13.5t14 -33.5q0 -17 -11 -30q25 -22 85 -22q40 0 68.5 19.5t28.5 51.5q0 47 -48 67q-29 13 -80 13h-23v63h26q47 0 79 19q35 21 35 60q0 28 -25 43t-61 15q-48 0 -67 -17q10 -14 10 -28q0 -19 -14 -32.5
t-34 -13.5t-34 15t-14 40q0 24 18 45q43 56 138 56q69 0 115.5 -34.5t46.5 -86.5q0 -57 -51 -90q-21 -14 -45 -20q25 -7 43 -17q63 -36 63 -101q0 -60 -50.5 -96t-125.5 -36q-95 0 -147 55q-23 28 -23 55z" />
    <glyph glyph-name="four.idx_P2D" horiz-adv-x="1100" 
d="M550 798q137 0 250.5 -67.5t177.5 -181.5t64 -249t-64 -249t-177.5 -181.5t-250.5 -67.5t-250.5 67.5t-177.5 181.5t-64 249t64 249t177.5 181.5t250.5 67.5zM550 741q-120 0 -218.5 -60t-154 -161t-55.5 -220t55.5 -220t154 -161t218.5 -60t218.5 60t154 161t55.5 220
t-55.5 220t-154 161t-218.5 60zM487 73v61h83v75h-217l-18 34l253 313l56 -43l-203 -246h129v79l72 30v-108h74v-62h-74v-71h57v-62h-212z" />
    <glyph glyph-name="five.idx_P2D" horiz-adv-x="1100" 
d="M550 798q137 0 250.5 -67.5t177.5 -181.5t64 -249t-64 -249t-177.5 -181.5t-250.5 -67.5t-250.5 67.5t-177.5 181.5t-64 249t64 249t177.5 181.5t250.5 67.5zM550 741q-120 0 -218.5 -60t-154 -161t-55.5 -220t55.5 -220t154 -161t218.5 -60t218.5 60t154 161t55.5 220
t-55.5 220t-154 161t-218.5 60zM545 64q-72 0 -116 28.5t-44 64.5q0 21 14 35.5t35 14.5q22 0 35 -14t13 -33q0 -11 -4 -19q22 -11 61 -11q47 0 73 26.5t26 68.5q0 37 -25.5 61t-73.5 24q-58 0 -100 -22l-34 20l22 232h257v-70h-195l-9 -100q33 7 70 7q69 0 116 -41.5
t47 -110.5q0 -71 -47.5 -116t-120.5 -45z" />
    <glyph glyph-name="six.idx_P2D" horiz-adv-x="1100" 
d="M550 798q137 0 250.5 -67.5t177.5 -181.5t64 -249t-64 -249t-177.5 -181.5t-250.5 -67.5t-250.5 67.5t-177.5 181.5t-64 249t64 249t177.5 181.5t250.5 67.5zM550 741q-120 0 -218.5 -60t-154 -161t-55.5 -220t55.5 -220t154 -161t218.5 -60t218.5 60t154 161t55.5 220
t-55.5 220t-154 161t-218.5 60zM653 414q-23 0 -35 13.5t-12 31.5q0 12 2 18q-22 6 -41 6q-52 0 -88 -46t-38 -118q45 47 114 47q72 0 119 -42.5t47 -105.5q0 -65 -49 -109.5t-123 -44.5q-77 0 -127 50q-55 55 -55 175t57.5 190t142.5 70q56 0 91 -23q42 -24 42 -63
q0 -25 -13.5 -37t-33.5 -12zM447 220q0 -39 30 -64q31 -26 73 -26q40 0 67 25.5t27 61.5q0 37 -28 60t-72 23q-41 0 -69 -22.5t-28 -57.5z" />
    <glyph glyph-name="seven.idx_P2D" horiz-adv-x="1100" 
d="M550 798q137 0 250.5 -67.5t177.5 -181.5t64 -249t-64 -249t-177.5 -181.5t-250.5 -67.5t-250.5 67.5t-177.5 181.5t-64 249t64 249t177.5 181.5t250.5 67.5zM550 741q-120 0 -218.5 -60t-154 -161t-55.5 -220t55.5 -220t154 -161t218.5 -60t218.5 60t154 161t55.5 220
t-55.5 220t-154 161t-218.5 60zM531 73h-83l197 403h-179v-88h-68v152h316l18 -41z" />
    <glyph glyph-name="eight.idx_P2D" horiz-adv-x="1100" 
d="M550 798q137 0 250.5 -67.5t177.5 -181.5t64 -249t-64 -249t-177.5 -181.5t-250.5 -67.5t-250.5 67.5t-177.5 181.5t-64 249t64 249t177.5 181.5t250.5 67.5zM550 741q-120 0 -218.5 -60t-154 -161t-55.5 -220t55.5 -220t154 -161t218.5 -60t218.5 60t154 161t55.5 220
t-55.5 220t-154 161t-218.5 60zM549 66q-80 0 -128 38.5t-48 95.5q0 38 27 71t70 43q-41 12 -63.5 40t-22.5 62q0 56 46.5 93.5t118.5 37.5q73 0 120 -37.5t47 -93.5q0 -34 -23 -62t-65 -40q44 -10 71 -42.5t27 -71.5q0 -57 -48.5 -95.5t-128.5 -38.5zM549 340q36 0 61.5 21
t25.5 51q0 31 -25 51t-62 20t-61.5 -20t-24.5 -51q0 -30 25.5 -51t60.5 -21zM549 131q43 0 70.5 22t27.5 53q0 32 -28 55t-70 23t-69.5 -23t-27.5 -55q0 -31 27.5 -53t69.5 -22z" />
    <glyph glyph-name="nine.idx_P2D" horiz-adv-x="1100" 
d="M550 798q137 0 250.5 -67.5t177.5 -181.5t64 -249t-64 -249t-177.5 -181.5t-250.5 -67.5t-250.5 67.5t-177.5 181.5t-64 249t64 249t177.5 181.5t250.5 67.5zM550 741q-120 0 -218.5 -60t-154 -161t-55.5 -220t55.5 -220t154 -161t218.5 -60t218.5 60t154 161t55.5 220
t-55.5 220t-154 161t-218.5 60zM401 151q0 24 13.5 36t33.5 12q22 0 34.5 -13.5t12.5 -31.5q0 -10 -3 -17q17 -6 43 -6q51 0 87 45t37 117q-44 -46 -114 -46q-71 0 -118 42t-47 106q0 65 49.5 109.5t123.5 44.5q75 0 125 -50q56 -56 56 -174q0 -122 -57 -191.5t-143 -69.5
q-75 0 -113 40q-20 20 -20 47zM654 393q0 39 -30 64q-29 27 -73 27q-39 0 -66.5 -25.5t-27.5 -61.5q0 -38 28 -61.5t72 -23.5q41 0 69 23t28 58z" />
    <glyph glyph-name="space.tab" horiz-adv-x="265" 
 />
    <glyph glyph-name="NUL" 
 />
    <glyph glyph-name="hfjslug" horiz-adv-x="694" 
d="M644 -200h-208l-8 14h-163l-8 -14h-207v303q14 0 23 9.5t9 22.5t-9.5 22.5t-22.5 9.5v554h100l30 79h334l29 -79h101v-921zM400 563v-172h15v78h38v14h-38v66h43v14h-58zM184 563v-172h15v79h47v-79h15v172h-15v-79h-47v79h-15zM460 394q10 -4 21 -4q31 0 31 36v137h-16
v-137q0 -22 -16 -22q-8 0 -20 5v-15zM371 465l-13 3q-4 -18 -8 -30h-1l-16 31q23 21 23 42q0 12 -7 21.5t-20 9.5q-12 0 -20 -9.5t-8 -21.5q0 -13 14 -39q-23 -18 -23 -47q0 -16 8 -26.5t21 -10.5q19 0 29 24h1l12 -24l12 6l-17 32q6 14 13 39zM523 323v-46h8v12l8 8l15 -20
h10l-20 26l18 20h-10l-20 -24h-1v24h-8zM488 292l10 -15h9l-12 17q10 4 10 14q0 15 -17 15h-20v-46h8v15h12zM426 276q10 0 17 7t7 17q0 9 -7 16.5t-17 7.5t-17 -7.5t-7 -16.5q0 -10 7 -17t17 -7zM370 301l-13 22h-9l18 -29v-17h8v17l18 29h-9zM193 323v-46h34v7h-26v13h23
v7h-23v12h26v7h-34zM132 323v-46h8v32l25 -32h7v46h-8v-32l-25 32h-7zM241 323l14 -47h8l11 34h1l11 -34h8l14 47h-8l-10 -35h-1l-11 35h-7l-11 -35h-1l-10 35h-8zM327 479q-12 22 -12 32q0 19 14 19q13 0 13 -19q0 -15 -15 -32zM342 423q-8 -21 -20 -21q-16 0 -16 25
q0 19 16 35zM487 299h-11v17h11q10 0 10 -8q0 -9 -10 -9zM426 283q-16 0 -16 17q0 6 4.5 11.5t11.5 5.5t11.5 -5.5t4.5 -11.5q0 -17 -16 -17z" />
    <glyph glyph-name="i.dot" horiz-adv-x="307" 
d="M207 504q-24 0 -41 17t-17 41t17 41t41 17q23 0 40.5 -17t17.5 -41t-17.5 -41t-40.5 -17zM155 -7q-43 0 -66.5 23.5t-23.5 63.5q0 21 7 47l60 230h-81l19 74h169l-80 -305q-7 -24 -7 -44q0 -30 26 -30q32 0 59 70l39 -14q-35 -115 -121 -115z" />
    <glyph glyph-name="zero.num" horiz-adv-x="353" 
d="M182 273q-56 0 -87.5 38.5t-31.5 106.5q0 94 48.5 161.5t119.5 67.5q56 0 87 -38.5t31 -106.5q0 -94 -48.5 -161.5t-118.5 -67.5zM185 327q44 0 74 54t30 123q0 41 -16 65t-45 24q-44 0 -74 -54t-30 -123q0 -89 61 -89z" />
    <glyph glyph-name="one.num" horiz-adv-x="353" 
d="M50 280l12 54h96l57 248l-93 -21l-3 54l138 33l30 -14l-69 -300h94l-12 -54h-250z" />
    <glyph glyph-name="two.num" horiz-adv-x="353" 
d="M48 280l-12 28q38 94 175 165q42 22 61 39.5t19 39.5q0 20 -16.5 31.5t-44.5 11.5q-44 0 -59 -19q9 -11 9 -25q0 -15 -10.5 -25.5t-25.5 -10.5q-16 0 -27 11.5t-11 28.5q0 37 39 65.5t91 28.5q51 0 84.5 -26t33.5 -70q0 -40 -30.5 -67t-89.5 -57q-93 -48 -122 -99h146
l14 58h51l-25 -108h-250z" />
    <glyph glyph-name="three.num" horiz-adv-x="353" 
d="M183 274q-50 0 -89.5 23.5t-39.5 63.5q0 17 10.5 29t26.5 12t26 -10.5t10 -25.5q0 -13 -9 -22q14 -18 65 -18q37 0 58 16t21 42q0 20 -21.5 37.5t-58.5 17.5h-24l13 55h23q41 0 67 15t26 40q0 21 -19.5 34t-48.5 13q-23 0 -41 -9q6 -8 6 -15q0 -15 -11 -25.5t-26 -10.5
t-26 11t-11 27q0 28 31.5 50.5t85.5 22.5q56 0 90 -27.5t34 -63.5q0 -41 -28.5 -65t-77.5 -28q78 -19 78 -83q0 -50 -42 -78t-98 -28z" />
    <glyph glyph-name="four.num" horiz-adv-x="353" 
d="M203 327l15 60h-163l-8 28l235 240l37 -35l-191 -188h101l15 60l61 23l-19 -80h58l-12 -48h-58l-14 -60h45l-11 -47h-164l11 47h62z" />
    <glyph glyph-name="five.num" horiz-adv-x="353" 
d="M165 273q-48 0 -81.5 23t-33.5 51q0 17 10.5 29t27.5 12q15 0 26 -10.5t11 -25.5q0 -6 -4 -16q18 -11 48 -11q41 0 69.5 23t28.5 57q0 27 -18 42t-50 15q-37 0 -74 -16l-32 22l56 174h206l-12 -56h-158l-29 -88q32 12 66 12q43 0 73.5 -28t30.5 -73q0 -57 -48 -96.5
t-113 -39.5z" />
    <glyph glyph-name="six.num" horiz-adv-x="353" 
d="M99 307q-34 34 -34 100q0 120 82 196q53 46 113 46q41 0 69 -20t28 -48q0 -16 -11 -27.5t-26 -11.5q-14 0 -24.5 10t-10.5 25q0 10 4 15q-10 7 -29 7q-44 0 -79 -34q-39 -36 -56 -103q39 47 96 47q48 0 79.5 -29t31.5 -73q0 -56 -42.5 -95t-101.5 -39q-55 0 -89 34z
M186 326q38 0 62 22.5t24 54.5q0 25 -17 41.5t-45 16.5q-36 0 -61 -23.5t-25 -52.5q0 -26 16 -42q17 -17 46 -17z" />
    <glyph glyph-name="seven.num" horiz-adv-x="353" 
d="M94 280l216 312h-144l-16 -67h-54l28 117h243l17 -33l-222 -329h-68z" />
    <glyph glyph-name="eight.num" horiz-adv-x="353" 
d="M190 274q-58 0 -95.5 29t-37.5 71q0 38 25 64t69 36q-53 25 -53 75q0 38 36 68t96 30q54 0 89.5 -28t35.5 -70q0 -67 -83 -88q58 -26 58 -79q0 -45 -37.5 -76.5t-102.5 -31.5zM224 489q30 0 49.5 16t19.5 41q0 21 -18 36t-46 15q-30 0 -50 -15t-20 -39q0 -23 19 -38.5
t46 -15.5zM190 325q35 0 57 17t22 43q0 23 -19 40t-52 17q-36 0 -58 -17t-22 -44q0 -24 20 -40t52 -16z" />
    <glyph glyph-name="nine.num" horiz-adv-x="353" 
d="M86 515q0 56 43 95t102 39q56 0 88 -34q35 -33 35 -100q0 -56 -21.5 -108t-61.5 -88q-51 -46 -113 -46q-40 0 -68 20t-28 48q0 16 11 27.5t26 11.5q14 0 24.5 -10t10.5 -25q0 -8 -5 -15q11 -7 29 -7q44 0 79 34q41 38 56 103q-39 -47 -95 -47q-48 0 -80 29t-32 73z
M232 596q-37 0 -61 -22.5t-24 -54.5q0 -25 17 -41.5t45 -16.5q35 0 60.5 23.5t25.5 52.5q0 24 -16 42q-19 17 -47 17z" />
    <glyph glyph-name="zero.den" horiz-adv-x="353" 
d="M117 -7q-56 0 -87.5 38.5t-31.5 106.5q0 94 48.5 161.5t119.5 67.5q56 0 87 -38.5t31 -106.5q0 -94 -48.5 -161.5t-118.5 -67.5zM120 47q44 0 74 54t30 123q0 41 -16 65t-45 24q-44 0 -74 -54t-30 -123q0 -89 61 -89z" />
    <glyph glyph-name="one.den" horiz-adv-x="353" 
d="M-15 0l12 54h96l57 248l-93 -21l-3 54l138 33l30 -14l-69 -300h94l-12 -54h-250z" />
    <glyph glyph-name="two.den" horiz-adv-x="353" 
d="M-17 0l-12 28q38 94 175 165q42 22 61 39.5t19 39.5q0 20 -16.5 31.5t-44.5 11.5q-44 0 -59 -19q9 -11 9 -25q0 -15 -10.5 -25.5t-25.5 -10.5q-16 0 -27 11.5t-11 28.5q0 37 39 65.5t91 28.5q51 0 84.5 -26t33.5 -70q0 -40 -30.5 -67t-89.5 -57q-93 -48 -122 -99h146
l14 58h51l-25 -108h-250z" />
    <glyph glyph-name="three.den" horiz-adv-x="353" 
d="M118 -6q-50 0 -89.5 23.5t-39.5 63.5q0 17 10.5 29t26.5 12t26 -10.5t10 -25.5q0 -13 -9 -22q14 -18 65 -18q37 0 58 16t21 42q0 20 -21.5 37.5t-58.5 17.5h-24l13 55h23q41 0 67 15t26 40q0 21 -19.5 34t-48.5 13q-23 0 -41 -9q6 -8 6 -15q0 -15 -11 -25.5t-26 -10.5
t-26 11t-11 27q0 28 31.5 50.5t85.5 22.5q56 0 90 -27.5t34 -63.5q0 -41 -28.5 -65t-77.5 -28q78 -19 78 -83q0 -50 -42 -78t-98 -28z" />
    <glyph glyph-name="four.den" horiz-adv-x="353" 
d="M138 47l15 60h-163l-8 28l235 240l37 -35l-191 -188h101l15 60l61 23l-19 -80h58l-12 -48h-58l-14 -60h45l-11 -47h-164l11 47h62z" />
    <glyph glyph-name="five.den" horiz-adv-x="353" 
d="M100 -7q-48 0 -81.5 23t-33.5 51q0 17 10.5 29t27.5 12q15 0 26 -10.5t11 -25.5q0 -6 -4 -16q18 -11 48 -11q41 0 69.5 23t28.5 57q0 27 -18 42t-50 15q-37 0 -74 -16l-32 22l56 174h206l-12 -56h-158l-29 -88q32 12 66 12q43 0 73.5 -28t30.5 -73q0 -57 -48 -96.5
t-113 -39.5z" />
    <glyph glyph-name="six.den" horiz-adv-x="353" 
d="M34 27q-34 34 -34 100q0 120 82 196q53 46 113 46q41 0 69 -20t28 -48q0 -16 -11 -27.5t-26 -11.5q-14 0 -24.5 10t-10.5 25q0 10 4 15q-10 7 -29 7q-44 0 -79 -34q-39 -36 -56 -103q39 47 96 47q48 0 79.5 -29t31.5 -73q0 -56 -42.5 -95t-101.5 -39q-55 0 -89 34z
M121 46q38 0 62 22.5t24 54.5q0 25 -17 41.5t-45 16.5q-36 0 -61 -23.5t-25 -52.5q0 -26 16 -42q17 -17 46 -17z" />
    <glyph glyph-name="seven.den" horiz-adv-x="353" 
d="M29 0l216 312h-144l-16 -67h-54l28 117h243l17 -33l-222 -329h-68z" />
    <glyph glyph-name="eight.den" horiz-adv-x="353" 
d="M125 -6q-58 0 -95.5 29t-37.5 71q0 38 25 64t69 36q-53 25 -53 75q0 38 36 68t96 30q54 0 89.5 -28t35.5 -70q0 -67 -83 -88q58 -26 58 -79q0 -45 -37.5 -76.5t-102.5 -31.5zM159 209q30 0 49.5 16t19.5 41q0 21 -18 36t-46 15q-30 0 -50 -15t-20 -39q0 -23 19 -38.5
t46 -15.5zM125 45q35 0 57 17t22 43q0 23 -19 40t-52 17q-36 0 -58 -17t-22 -44q0 -24 20 -40t52 -16z" />
    <glyph glyph-name="nine.den" horiz-adv-x="353" 
d="M21 235q0 56 43 95t102 39q56 0 88 -34q35 -33 35 -100q0 -56 -21.5 -108t-61.5 -88q-51 -46 -113 -46q-40 0 -68 20t-28 48q0 16 11 27.5t26 11.5q14 0 24.5 -10t10.5 -25q0 -8 -5 -15q11 -7 29 -7q44 0 79 34q41 38 56 103q-39 -47 -95 -47q-48 0 -80 29t-32 73z
M167 316q-37 0 -61 -22.5t-24 -54.5q0 -25 17 -41.5t45 -16.5q35 0 60.5 23.5t25.5 52.5q0 24 -16 42q-19 17 -47 17z" />
    <glyph glyph-name="caron.alt" horiz-adv-x="500" 
d="M171 469l-23 21q48 55 59 104q3 14 4 44t6 47q12 43 52 43q22 0 35 -13.5t13 -36.5q0 -47 -49 -111q-30 -40 -97 -98z" />
    <glyph glyph-name="g.sc" 
 />
    <glyph glyph-name="gbreve.sc" 
 />
    <glyph glyph-name="i.sc" 
 />
    <glyph glyph-name="iacute.sc" 
 />
    <glyph glyph-name="ibreve.sc" 
 />
    <glyph glyph-name="icircumflex.sc" 
 />
    <glyph glyph-name="idieresis.sc" 
 />
    <glyph glyph-name="igrave.sc" 
 />
    <glyph glyph-name="imacron.sc" 
 />
    <glyph glyph-name="iogonek.sc" 
 />
    <glyph glyph-name="S.sc" 
 />
    <glyph glyph-name="Sacute.sc" 
 />
    <glyph glyph-name="Aring.sc" 
 />
    <glyph glyph-name="Aringacute.sc" 
 />
    <glyph glyph-name="E.sc" 
 />
    <glyph glyph-name="Eacute.sc" 
 />
    <glyph glyph-name="Ebreve.sc" 
 />
    <glyph glyph-name="Ecircumflex.sc" 
 />
    <glyph glyph-name="Edieresis.sc" 
 />
    <glyph glyph-name="Egrave.sc" 
 />
    <glyph glyph-name="Emacron.sc" 
 />
    <glyph glyph-name="Eogonek.sc" 
 />
    <glyph glyph-name="N.sc" 
 />
    <glyph glyph-name="Nacute.sc" 
 />
    <glyph glyph-name="Ntilde.sc" 
 />
    <glyph glyph-name="a.sc" 
 />
    <glyph glyph-name="aogonek.sc" 
 />
    <glyph glyph-name="L.sc" 
 />
    <glyph glyph-name="Lacute.sc" 
 />
    <glyph glyph-name="s.sc" 
 />
    <glyph glyph-name="sacute.sc" 
 />
    <glyph glyph-name="aring.sc" 
 />
    <glyph glyph-name="aringacute.sc" 
 />
    <glyph glyph-name="C.sc" 
 />
    <glyph glyph-name="Cacute.sc" 
 />
    <glyph glyph-name="e.sc" 
 />
    <glyph glyph-name="eacute.sc" 
 />
    <glyph glyph-name="ebreve.sc" 
 />
    <glyph glyph-name="ecircumflex.sc" 
 />
    <glyph glyph-name="edieresis.sc" 
 />
    <glyph glyph-name="egrave.sc" 
 />
    <glyph glyph-name="emacron.sc" 
 />
    <glyph glyph-name="eogonek.sc" 
 />
    <glyph glyph-name="n.sc" 
 />
    <glyph glyph-name="nacute.sc" 
 />
    <glyph glyph-name="ntilde.sc" 
 />
    <glyph glyph-name="l.sc" 
 />
    <glyph glyph-name="lacute.sc" 
 />
    <glyph glyph-name="c.sc" 
 />
    <glyph glyph-name="cacute.sc" 
 />
    <glyph glyph-name="R.sc" 
 />
    <glyph glyph-name="Racute.sc" 
 />
    <glyph glyph-name="G.sc" 
 />
    <glyph glyph-name="Gbreve.sc" 
 />
    <glyph glyph-name="I.sc" 
 />
    <glyph glyph-name="Iacute.sc" 
 />
    <glyph glyph-name="Ibreve.sc" 
 />
    <glyph glyph-name="Icircumflex.sc" 
 />
    <glyph glyph-name="Idieresis.sc" 
 />
    <glyph glyph-name="Igrave.sc" 
 />
    <glyph glyph-name="Imacron.sc" 
 />
    <glyph glyph-name="Iogonek.sc" 
 />
    <glyph glyph-name="r.sc" 
 />
    <glyph glyph-name="racute.sc" 
 />
    <glyph glyph-name="A.sc" 
 />
    <glyph glyph-name="Aogonek.sc" 
 />
    </font>
</defs>
</svg>
