<?xml version="1.0" standalone="no"?>
<!DOCTYPE svg PUBLIC "-//W3C//DTD SVG 1.1//EN" "http://www.w3.org/Graphics/SVG/1.1/DTD/svg11.dtd" >
<svg>
<metadata>
Created by FontForge 20110222 at Fri May  9 17:04:01 2014
 By Orthosie Webhosting
Copyright (C) 2000, 2007 Hoefler &#38; Frere-Jones. http://www.typography.com
</metadata>
<defs>
<font id="ArcherMediumItalic" horiz-adv-x="0" >
  <font-face 
    font-family="ArcherMediumItalic"
    font-weight="350"
    font-style="italic"
    font-stretch="normal"
    units-per-em="1000"
    panose-1="0 0 0 0 0 0 0 0 0 0"
    ascent="800"
    descent="-200"
    x-height="426"
    cap-height="658"
    bbox="-111 -278 1060 1069"
    underline-thickness="50"
    underline-position="-50"
    slope="-12"
    unicode-range="U+0020-FB04"
  />
<missing-glyph horiz-adv-x="500" 
d="M0 -200v1000h500v-1000h-500zM71 750l179 -390l179 390h-358zM50 -76l172 376l-172 376v-752zM450 676l-172 -376l172 -376v752zM250 240l-179 -390h358z" />
    <glyph glyph-name="f_f" unicode="ff" horiz-adv-x="585" 
d="M368 611q-20 0 -33.5 11t-14.5 30q-16 -3 -33 -18q-29 -29 -44 -98l-25 -110h202l33 142q20 83 64 127q44 42 108 42q37 0 58.5 -16.5t21.5 -42.5q0 -21 -15 -35t-34 -14q-20 0 -33 13t-15 33q-25 -3 -44 -21q-28 -27 -44 -95l-31 -133h112l-15 -61h-111l-84 -365h-69
l84 365h-202l-84 -365h-69l84 365h-76l15 61h75l28 121q19 83 63 127q42 42 100 42q35 0 55 -16t20 -41q0 -21 -14 -34.5t-33 -13.5z" />
    <glyph glyph-name="fi" unicode="fi" horiz-adv-x="558" 
d="M406 365h-202l-84 -365h-69l84 365h-76l15 61h75l29 125q17 68 49 110q52 76 144 76q47 0 74 -20.5t27 -49.5q0 -23 -13.5 -37.5t-35.5 -14.5q-21 0 -34 14t-13 33q0 8 1 12q-3 0 -8 0.5t-7 0.5q-50 0 -81 -47q-26 -36 -37 -90l-26 -112h275l-84 -310q-7 -22 -7 -42
q0 -31 29 -31q31 0 58 67l35 -12q-34 -105 -109 -105q-38 0 -60.5 22t-22.5 58q0 20 7 46z" />
    <glyph glyph-name="fl" unicode="fl" horiz-adv-x="557" 
d="M74 426h75l37 158q11 50 39 84q53 69 144 69q72 0 109 -55l30 50h43l-144 -615q-7 -37 -7 -42q0 -32 29 -32q31 0 58 67l35 -12q-34 -105 -108 -105q-39 0 -61.5 22t-22.5 58q0 9 7 44l59 248h-192l-84 -365h-69l84 365h-76zM252 573l-34 -147h193l30 126q0 3 1 4
q-33 12 -33 46q0 26 20 41q-21 32 -65 32q-51 0 -82 -37q-22 -25 -30 -65z" />
    <glyph glyph-name="f_f_i" unicode="ffi" horiz-adv-x="829" 
d="M322 0l85 365h-203l-84 -365h-69l84 365h-76l15 61h75l31 134q10 49 39 87q54 68 144 68q34 0 60 -15t26 -44q0 -21 -14 -35t-33 -14q-21 0 -34 13.5t-15 34.5q-45 -3 -75 -38q-23 -24 -31 -65l-29 -126h203l29 125q17 70 48 110q54 76 145 76q47 0 74 -20.5t27 -49.5
q0 -23 -14 -37.5t-35 -14.5q-22 0 -35 14t-13 33q0 8 2 12q-3 0 -8 0.5t-7 0.5q-50 0 -81 -47q-25 -35 -38 -90l-26 -112h275l-84 -310q-7 -28 -7 -42q0 -31 29 -31q32 0 59 67l35 -12q-35 -105 -109 -105q-39 0 -61.5 22t-22.5 58q0 16 8 46l67 246h-203l-84 -365h-69z" />
    <glyph glyph-name="f_f_l" unicode="ffl" horiz-adv-x="829" 
d="M59 365l15 61h75l31 134q10 49 39 87q54 68 144 68q34 0 60 -15t26 -44q0 -21 -14 -35t-33 -14q-21 0 -34 13.5t-15 34.5q-45 -3 -75 -38q-23 -24 -31 -65l-29 -126h202l37 158q13 50 39 84q55 69 144 69q72 0 110 -55l30 50h42l-143 -615q-7 -37 -7 -42q0 -32 29 -32
q31 0 58 67l35 -12q-34 -105 -109 -105q-38 0 -60.5 22t-22.5 58q0 9 7 44l58 248h-192l-84 -365h-69l84 365h-202l-84 -365h-69l84 365h-76zM523 573l-34 -147h193l30 126v2q1 2 1 3q-32 12 -32 45q0 27 20 41q-24 32 -66 32q-50 0 -81 -37q-22 -25 -31 -65z" />
    <glyph glyph-name="f_b" unicode="fb" horiz-adv-x="812" 
d="M51 0l84 365h-76l15 61h75l37 158q11 50 39 84q53 69 144 69q72 0 109 -55l30 50h44l-91 -388q62 90 148 90q71 0 115.5 -48.5t44.5 -127.5q0 -110 -68 -188.5t-159 -78.5q-51 0 -88.5 28.5t-48.5 74.5l-25 -94h-68l85 365h-193l-84 -365h-69zM536 54q67 0 113 59t46 136
q0 56 -28 89.5t-77 33.5q-68 0 -118 -64t-50 -139q0 -52 30.5 -83.5t83.5 -31.5zM409 602q0 26 20 41q-21 32 -65 32q-51 0 -82 -37q-22 -25 -30 -65l-34 -147h193l30 126q0 3 1 4q-33 12 -33 46z" />
    <glyph glyph-name="f_h" unicode="fh" horiz-adv-x="811" 
d="M312 0l85 365h-193l-84 -365h-69l84 365h-76l15 61h75l37 158q11 50 39 84q53 69 144 69q72 0 109 -55l30 50h43l-92 -396q60 97 143 97q51 0 85 -32.5t35 -83.5q0 -29 -10 -67l-38 -138q-6 -21 -6 -37q0 -15 8 -23.5t21 -8.5q30 0 57 67l35 -12q-32 -105 -106 -105
q-39 0 -62 22t-23 57q0 19 7 47l38 140q7 27 7 50q-1 28 -20.5 46t-50.5 18q-46 0 -88 -41.5t-58 -114.5l-50 -217h-71zM409 602q0 26 20 41q-21 32 -65 32q-51 0 -82 -37q-22 -25 -30 -65l-34 -147h193l30 126q0 3 1 4q-33 12 -33 46z" />
    <glyph glyph-name="f_j" unicode="fj" horiz-adv-x="520" 
d="M489 426l-99 -432q-26 -109 -70 -153q-42 -40 -102 -40q-32 0 -53 16t-21 39q0 21 14 34t33 13q18 0 31 -12.5t13 -28.5q25 5 41 25q27 32 46 115l84 363h-202l-84 -365h-69l84 365h-76l15 61h75l29 125q17 68 49 110q52 76 144 76q47 0 74 -20.5t27 -49.5
q0 -23 -13.5 -37.5t-35.5 -14.5q-21 0 -34 14t-13 33q0 8 1 12q-3 0 -8 0.5t-7 0.5q-50 0 -81 -47q-26 -36 -37 -90l-26 -112h271z" />
    <glyph glyph-name="f_k" unicode="fk" horiz-adv-x="754" 
d="M312 0l85 365h-193l-84 -365h-69l84 365h-76l15 61h75l37 158q11 50 39 84q53 69 144 69q72 0 109 -55l30 50h43l-120 -515q178 73 208 123q-25 13 -25 41q0 23 15 38t37 15t37 -15.5t15 -41.5q0 -83 -177 -170l45 -107q16 -38 24 -46q8 -10 23 -10q27 0 47 78l36 -11
q-25 -118 -96 -118q-33 0 -56 20q-23 21 -36 57l-49 116q-52 -22 -59 -25l-37 -161h-71zM409 602q0 26 20 41q-21 32 -65 32q-51 0 -82 -37q-22 -25 -30 -65l-34 -147h193l30 126q0 3 1 4q-33 12 -33 46z" />
    <glyph glyph-name="f_f_b" unicode="ffb" horiz-adv-x="1084" 
d="M74 426h75l31 134q10 49 39 87q54 68 144 68q34 0 60 -15t26 -44q0 -21 -14 -35t-33 -14q-21 0 -34 13.5t-15 34.5q-45 -3 -75 -38q-23 -24 -31 -65l-29 -126h202l37 158q13 50 39 84q55 69 144 69q72 0 110 -55l30 50h43l-90 -388q62 90 147 90q72 0 116.5 -48.5
t44.5 -127.5q0 -110 -68 -188.5t-159 -78.5q-52 0 -89.5 28.5t-48.5 75.5l-25 -95h-67l84 365h-193l-84 -365h-69l84 365h-202l-84 -365h-69l84 365h-76zM808 54q67 0 113 59.5t46 135.5q0 56 -28 89.5t-78 33.5q-67 0 -117 -64t-50 -139q0 -52 30 -83.5t84 -31.5zM717 589
q-3 6 -1 11q-4 35 -26.5 55t-54.5 20q-50 0 -81 -37q-22 -25 -31 -65l-34 -147h193l30 126q4 23 5 32v3v1v1zM729 595q-1 0 -3 -1h-2q-1 -2 -1 -5q1 4 6 6zM717 587v-3v3z" />
    <glyph glyph-name="f_f_h" unicode="ffh" horiz-adv-x="1082" 
d="M584 0l84 365h-193l-84 -365h-69l84 365h-202l-84 -365h-69l84 365h-76l15 61h75l31 134q10 49 39 87q54 68 144 68q34 0 60 -15t26 -44q0 -21 -14 -35t-33 -14q-21 0 -34 13.5t-15 34.5q-45 -3 -75 -38q-23 -24 -31 -65l-29 -126h202l37 158q13 50 39 84q55 69 144 69
q72 0 110 -55l30 50h43l-92 -394q62 95 142 95q52 0 86 -32.5t35 -83.5q0 -31 -11 -67l-37 -138q-6 -21 -6 -37q0 -15 8 -23.5t21 -8.5q31 0 56 67l35 -12q-32 -105 -105 -105q-39 0 -62 22t-23 57q0 19 7 47l38 140q7 27 7 50q-1 28 -20.5 46t-50.5 18q-46 0 -88 -41.5
t-59 -114.5l-50 -217h-70zM681 602q0 27 20 41q-24 32 -66 32q-50 0 -81 -37q-22 -25 -31 -65l-34 -147h193l30 126v2q1 2 1 3q-32 12 -32 45z" />
    <glyph glyph-name="f_f_j" unicode="ffj" horiz-adv-x="792" 
d="M51 0l84 365h-76l15 61h75l31 134q10 49 39 87q54 68 144 68q34 0 60 -15t26 -44q0 -21 -14 -35t-33 -14q-21 0 -34 13.5t-15 34.5q-45 -3 -75 -38q-23 -24 -31 -65l-29 -126h203l29 125q17 70 48 110q54 76 145 76q47 0 74 -20.5t27 -49.5q0 -23 -14 -37.5t-35 -14.5
q-22 0 -35 14t-13 33q0 8 2 12q-3 0 -8 0.5t-7 0.5q-50 0 -81 -47q-25 -35 -38 -90l-26 -112h272l-100 -432q-24 -107 -70 -153q-40 -40 -101 -40q-32 0 -53 16t-21 39q0 21 13.5 34t32.5 13q18 0 31.5 -12.5t13.5 -28.5q23 5 41 25q27 32 46 115l84 363h-203l-84 -365h-69
l85 365h-203l-84 -365h-69z" />
    <glyph glyph-name="f_f_k" unicode="ffk" horiz-adv-x="1026" 
d="M584 0l84 365h-193l-84 -365h-69l84 365h-202l-84 -365h-69l84 365h-76l15 61h75l31 134q10 49 39 87q54 68 144 68q34 0 60 -15t26 -44q0 -21 -14 -35t-33 -14q-21 0 -34 13.5t-15 34.5q-45 -3 -75 -38q-23 -24 -31 -65l-29 -126h202l37 158q13 50 39 84q55 69 144 69
q72 0 110 -55l30 50h43l-120 -515q176 72 208 123q-25 13 -25 41q0 23 15 38t37 15t36.5 -15.5t14.5 -41.5q0 -44 -48 -88t-128 -82l45 -107q13 -34 23 -46q9 -10 23 -10q28 0 47 78l37 -11q-26 -118 -96 -118q-33 0 -56 20q-21 18 -37 57l-48 116l-59 -25l-38 -161h-70z
M681 602q0 27 20 41q-24 32 -66 32q-50 0 -81 -37q-22 -25 -31 -65l-34 -147h193l30 126v2q1 2 1 3q-32 12 -32 45z" />
    <glyph glyph-name=".notdef" horiz-adv-x="500" 
d="M0 -200v1000h500v-1000h-500zM71 750l179 -390l179 390h-358zM50 -76l172 376l-172 376v-752zM450 676l-172 -376l172 -376v752zM250 240l-179 -390h358z" />
    <glyph glyph-name=".null" 
 />
    <glyph glyph-name="nonmarkingreturn" horiz-adv-x="333" 
 />
    <glyph glyph-name="space" unicode=" " horiz-adv-x="209" 
 />
    <glyph glyph-name="exclam" unicode="!" horiz-adv-x="245" 
d="M105 175l77 482h89l-132 -482h-34zM98 -8q-24 0 -41 17t-17 41t17 41.5t41 17.5t40.5 -17.5t16.5 -41.5t-16.5 -41t-40.5 -17z" />
    <glyph glyph-name="quotedbl" unicode="&#x22;" horiz-adv-x="329" 
d="M248 420l21 194q3 27 17.5 41.5t33.5 14.5q21 0 34.5 -13.5t13.5 -33.5q0 -12 -7 -28l-85 -175h-28zM93 420l21 194q3 27 17.5 41.5t33.5 14.5q21 0 34.5 -13.5t13.5 -33.5q0 -12 -7 -28l-85 -175h-28z" />
    <glyph glyph-name="numbersign" unicode="#" horiz-adv-x="547" 
d="M74 326l14 59h103l34 123h62l-34 -123h128l34 123h63l-34 -123h93l-15 -59h-95l-38 -139h101l-14 -59h-104l-35 -128h-63l35 128h-127l-35 -128h-63l35 128h-92l15 59h94l38 139h-100zM235 328l-39 -142h131l39 142h-131z" />
    <glyph glyph-name="dollar" unicode="$" horiz-adv-x="483" 
d="M174 -106l-51 14q3 11 14.5 48.5t15.5 51.5q-54 16 -89 47.5t-35 66.5q0 24 14 40.5t36 16.5q20 0 33 -13.5t13 -30.5q0 -22 -19 -39q17 -23 67 -36q28 96 53 176q-38 17 -60.5 31t-42 41.5t-19.5 62.5q0 58 52 99t132 41q3 0 9.5 -0.5t10.5 -0.5l20 69l52 -14l-20 -64
q48 -14 78 -42t30 -61q0 -26 -14 -41t-35 -15q-19 0 -32 13t-13 32q0 21 16 38q-12 14 -51 23l-50 -165q30 -15 48.5 -25.5t40.5 -28t32.5 -39.5t10.5 -48q0 -65 -52.5 -105.5t-132.5 -40.5q-11 0 -31 2zM348 133q0 27 -20.5 46t-58.5 37l-49 -163h12q50 0 83 21t33 59z
M177 379q0 -41 69 -76q7 25 25.5 84t20.5 67h-6q-48 0 -78.5 -20t-30.5 -55z" />
    <glyph glyph-name="percent" unicode="%" horiz-adv-x="629" 
d="M448 37q30 0 54.5 29.5t24.5 68.5q0 26 -14.5 42.5t-38.5 16.5q-30 0 -54.5 -29.5t-24.5 -68.5q0 -26 14.5 -42.5t38.5 -16.5zM70 -6l-31 36q115 100 271 241q47 42 106.5 96.5t107.5 99t58 53.5l31 -36q-65 -55 -274 -244q-160 -143 -269 -246zM171 315q31 0 55.5 29.5
t24.5 68.5q0 26 -14.5 42.5t-38.5 16.5q-30 0 -54.5 -29t-24.5 -69q0 -26 14 -42.5t38 -16.5zM169 270q-46 0 -74 30t-28 75q0 56 38.5 99t94.5 43q47 0 75 -29.5t28 -75.5q0 -56 -39 -99t-95 -43zM446 -8q-47 0 -75 29.5t-28 75.5q0 56 38.5 99t94.5 43q47 0 75 -29.5
t28 -75.5q0 -56 -38.5 -99t-94.5 -43z" />
    <glyph glyph-name="ampersand" unicode="&#x26;" horiz-adv-x="610" 
d="M11 138q0 129 180 206q-36 60 -36 118q0 72 48.5 120t120.5 48q61 0 100 -37t39 -87q0 -63 -47.5 -105t-136.5 -81q2 -3 33 -41l75 -90q45 64 79 92.5t76 28.5q29 0 47 -16.5t18 -38.5q0 -21 -14.5 -35.5t-34.5 -14.5q-34 0 -45 33q-4 -1 -8 -3.5t-8.5 -6t-8.5 -7.5
t-9.5 -10t-9 -10.5t-10 -13t-10.5 -13.5t-11 -15t-11 -15l99 -116l-47 -41l-92 111q-97 -111 -209 -111q-76 0 -121.5 43t-45.5 108zM185 49q83 0 162 94l-84 103q-18 22 -41 52q-70 -33 -103.5 -68t-33.5 -86q0 -42 26.5 -68.5t73.5 -26.5zM222 464q0 -55 27 -99
q74 32 109.5 64t35.5 74q0 28 -20.5 49t-54.5 21q-43 0 -70 -33t-27 -76z" />
    <glyph glyph-name="quotesingle" unicode="'" horiz-adv-x="175" 
d="M93 420l21 194q3 27 17.5 41.5t33.5 14.5q21 0 34.5 -13.5t13.5 -33.5q0 -12 -7 -28l-85 -175h-28z" />
    <glyph glyph-name="parenleft" unicode="(" horiz-adv-x="365" 
d="M278 -221q-93 75 -148 178.5t-55 228.5q0 185 102 335t268 230l28 -52q-151 -79 -237.5 -216t-86.5 -298q0 -106 44.5 -198.5t123.5 -162.5z" />
    <glyph glyph-name="parenright" unicode=")" horiz-adv-x="374" 
d="M-34 -221l-29 51q152 79 238 216t86 298q0 212 -167 361l38 46q93 -75 148.5 -179t55.5 -229q0 -185 -102 -334.5t-268 -229.5z" />
    <glyph glyph-name="asterisk" unicode="*" horiz-adv-x="405" 
d="M323 370q-14 0 -25 11.5t-14 28.5l-20 102l-57 -86q-17 -23 -39 -23q-15 0 -25 10t-10 25q0 24 27 39l90 51l-99 30q-37 10 -37 39q0 15 10.5 25.5t26.5 10.5t34 -16l76 -69l-2 103q-1 22 9.5 35.5t26.5 13.5q22 0 32 -17t-2 -46l-43 -93l98 32q9 4 22 4q16 0 26.5 -10
t10.5 -25q0 -20 -15 -30t-38 -6l-101 12l62 -83q12 -16 12 -35q0 -13 -11.5 -23t-24.5 -10z" />
    <glyph glyph-name="plus" unicode="+" horiz-adv-x="419" 
d="M294 433l-31 -132h135l-14 -61h-135l-34 -146h-63l34 146h-135l15 61h134l31 132h63z" />
    <glyph glyph-name="comma" unicode="," horiz-adv-x="206" 
d="M-43 -143l-15 29q56 28 87 61t34 55q-20 6 -31.5 22.5t-11.5 32.5q0 25 17.5 43t43.5 18q27 0 45 -19.5t18 -50.5q0 -53 -49.5 -106.5t-137.5 -84.5z" />
    <glyph glyph-name="hyphen" unicode="-" horiz-adv-x="292" 
d="M41 243l17 70h213l-15 -70h-215z" />
    <glyph glyph-name="period" unicode="." horiz-adv-x="206" 
d="M82 -8q-26 0 -44 18.5t-18 44.5t18 44.5t44 18.5q25 0 43 -18.5t18 -44.5t-18 -44.5t-43 -18.5z" />
    <glyph glyph-name="slash" unicode="/" horiz-adv-x="377" 
d="M-40 -209l-57 32l517 918l57 -32z" />
    <glyph glyph-name="zero" unicode="0" horiz-adv-x="568" 
d="M269 -8q-98 0 -156 65t-58 162q0 118 76.5 207t190.5 89q97 0 155.5 -66t58.5 -162q0 -117 -76.5 -206t-190.5 -89zM270 54q82 0 137 69t55 163q0 72 -40.5 119.5t-101.5 47.5q-82 0 -137 -69t-55 -164q0 -71 40.5 -118.5t101.5 -47.5z" />
    <glyph glyph-name="one" unicode="1" horiz-adv-x="391" 
d="M6 0l13 60h120l86 374l-113 -28l-2 63l172 44l29 -13l-102 -440h119l-14 -60h-308z" />
    <glyph glyph-name="two" unicode="2" horiz-adv-x="499" 
d="M9 0l-9 40q30 69 93.5 117.5t156.5 92.5q75 36 111.5 64t36.5 66q0 32 -30.5 53.5t-84.5 21.5q-71 0 -108 -40q20 -11 20 -37q0 -20 -14 -34.5t-34 -14.5q-21 0 -36.5 15.5t-15.5 38.5q0 51 56 92t137 41q83 0 133 -38.5t50 -93.5q0 -33 -15.5 -60.5t-47 -50.5
t-59.5 -38.5t-73 -36.5q-85 -40 -125.5 -69t-64.5 -70h264l20 86h62l-34 -145h-389z" />
    <glyph glyph-name="three" unicode="3" horiz-adv-x="489" 
d="M191 -126q-79 0 -139.5 40t-60.5 97q0 26 15 43t38 17q20 0 33 -13t13 -31q0 -12 -8 -24.5t-20 -16.5q9 -19 44 -35t88 -16q65 0 106 35.5t41 87.5q0 53 -43.5 87t-113.5 34h-22l14 59h23q86 0 140 34t54 89q0 43 -33 68.5t-89 25.5q-69 0 -103 -30q23 -13 23 -36
q0 -19 -14 -32.5t-34 -13.5t-35 15t-15 39q0 48 54.5 83.5t125.5 35.5q88 0 140 -42t52 -107q0 -64 -46.5 -106t-127.5 -56q60 -20 91 -59t31 -88q0 -77 -64 -130.5t-158 -53.5z" />
    <glyph glyph-name="four" unicode="4" horiz-adv-x="542" 
d="M420 286l-39 -169h111l-14 -59h-110l-41 -178h-70l41 178h-287l-7 30l415 431l46 -41l-347 -361h193l33 142z" />
    <glyph glyph-name="five" unicode="5" horiz-adv-x="489" 
d="M179 -123q-75 0 -127 34t-52 78q0 24 15 40.5t37 16.5q20 0 34.5 -13.5t14.5 -33.5q0 -21 -15 -31q25 -29 96 -29q74 0 121.5 45.5t47.5 111.5q0 54 -36.5 84t-97.5 30q-58 0 -112 -28l-36 24l100 302h310l-15 -66h-255l-61 -187q37 17 91 17q80 0 132 -46.5t52 -123.5
q0 -91 -70.5 -158t-173.5 -67z" />
    <glyph glyph-name="six" unicode="6" horiz-adv-x="535" 
d="M113 48q-57 57 -57 167q0 96 38 192.5t107 160.5q80 72 180 72q63 0 107 -29.5t44 -70.5q0 -24 -14 -40t-37 -16q-20 0 -34 13t-14 33q0 19 14 30q-21 21 -71 21q-74 0 -136 -59q-38 -36 -69 -96.5t-43 -124.5q27 40 73.5 69t108.5 29q81 0 130.5 -50t49.5 -126
q0 -93 -69 -162t-167 -69q-85 0 -141 56zM127 179q0 -54 33 -87q35 -38 97 -38q66 0 113 49t47 114q0 55 -32 88t-89 33q-72 0 -120.5 -48t-48.5 -111z" />
    <glyph glyph-name="seven" unicode="7" horiz-adv-x="488" 
d="M93 -123l-56 36l373 537h-258l-25 -100h-65l37 158h392l16 -31z" />
    <glyph glyph-name="eight" unicode="8" horiz-adv-x="510" 
d="M236 -8q-85 0 -140 48.5t-55 116.5q0 66 42.5 112t113.5 65q-79 45 -79 131q0 69 59.5 121.5t144.5 52.5q82 0 133 -46t51 -114q0 -60 -37 -103t-102 -61q93 -47 93 -139q0 -74 -64.5 -129t-159.5 -55zM300 352q58 0 97 35t39 87q0 45 -32 75t-84 30q-57 0 -94.5 -35
t-37.5 -87q0 -44 31.5 -74.5t80.5 -30.5zM239 53q66 0 107.5 37.5t41.5 91.5q0 50 -37 82.5t-91 32.5q-65 0 -107 -39.5t-42 -93.5q0 -49 37 -80t91 -31z" />
    <glyph glyph-name="nine" unicode="9" horiz-adv-x="535" 
d="M174 -126q-63 0 -107 29.5t-44 70.5q0 24 14 40t37 16q20 0 34 -13t14 -33q0 -19 -14 -30q23 -21 73 -21q69 0 132 57q39 36 70 97t42 122q-25 -40 -72.5 -69.5t-109.5 -29.5q-81 0 -130.5 49.5t-49.5 125.5q0 94 69 162.5t168 68.5q86 0 140 -56q57 -57 57 -166
q0 -97 -35 -187t-94 -149q-84 -84 -194 -84zM426 329q0 53 -32 88q-37 37 -97 37q-66 0 -113.5 -49t-47.5 -114q0 -54 32 -87t89 -33q72 0 120.5 47.5t48.5 110.5z" />
    <glyph glyph-name="colon" unicode=":" horiz-adv-x="231" 
d="M154 255q-25 0 -43 18t-18 44t17.5 44t43.5 18t43.5 -18t17.5 -44t-18 -44t-43 -18zM94 -8q-25 0 -43 18t-18 44t18 44t43 18t43 -18t18 -44t-18 -44t-43 -18z" />
    <glyph glyph-name="semicolon" unicode=";" horiz-adv-x="231" 
d="M154 255q-25 0 -43 18t-18 44t17.5 44t43.5 18t43.5 -18t17.5 -44t-18 -44t-43 -18zM-30 -142l-15 29q56 28 87 60.5t34 54.5q-20 6 -31.5 22.5t-11.5 32.5q0 24 17.5 41.5t42.5 17.5q26 0 44.5 -19.5t18.5 -49.5q0 -52 -49 -105t-137 -84z" />
    <glyph glyph-name="less" unicode="&#x3c;" horiz-adv-x="426" 
d="M268 79l-213 170l8 33l286 167l30 -48l-241 -141l169 -135z" />
    <glyph glyph-name="equal" unicode="=" horiz-adv-x="419" 
d="M89 313l14 62h299l-14 -62h-299zM51 153l14 62h299l-14 -62h-299z" />
    <glyph glyph-name="greater" unicode="&#x3e;" horiz-adv-x="409" 
d="M87 82l-31 47l241 141l-169 136l39 46l213 -170l-8 -33z" />
    <glyph glyph-name="question" unicode="?" horiz-adv-x="452" 
d="M132 176l28 158q124 5 187 54t63 115q0 49 -33 75.5t-85 26.5q-39 0 -67.5 -13t-35.5 -30q25 -15 25 -41q0 -20 -15 -34t-35 -14q-22 0 -37 16.5t-15 41.5q0 57 57.5 98t129.5 41q80 0 133 -44.5t53 -118.5q0 -85 -71 -149t-197 -78l-38 -104h-47zM129 -8q-24 0 -41 17
t-17 41t17 41.5t41 17.5t40.5 -17.5t16.5 -41.5t-16.5 -41t-40.5 -17z" />
    <glyph glyph-name="at" unicode="@" horiz-adv-x="805" 
d="M337 -176q-130 0 -211 86t-81 219q0 199 126.5 339t300.5 140q132 0 211.5 -79t79.5 -208q0 -119 -56.5 -202t-137.5 -83q-46 0 -70 24.5t-22 59.5q-22 -39 -57 -61.5t-75 -22.5q-54 0 -88.5 38t-34.5 101q0 87 54.5 151.5t128.5 64.5q43 0 70.5 -23t37.5 -59l22 78h64
l-56 -224q-22 -79 36 -79q56 0 97 71.5t41 165.5q0 107 -66.5 176t-178.5 69q-157 0 -269 -128t-112 -310q0 -112 68.5 -187t178.5 -75q85 0 160 40l19 -36q-83 -46 -180 -46zM370 95q52 0 89.5 46t37.5 104q0 40 -22 62.5t-61 22.5q-50 0 -85 -44.5t-35 -104.5
q0 -39 19.5 -62.5t56.5 -23.5z" />
    <glyph glyph-name="A" unicode="A" horiz-adv-x="705" 
d="M-27 0l16 66h60l314 527h-78l15 65h302l-15 -65h-75l70 -527h70l-16 -66h-215l15 65h73l-20 162h-268l-96 -162h87l-16 -65h-223zM259 291h221l-39 307z" />
    <glyph glyph-name="B" unicode="B" horiz-adv-x="600" 
d="M3 0l16 66h79l122 526h-89l15 66h232q82 0 134 -28q76 -42 76 -127q0 -65 -47 -111t-119 -57q52 -14 86.5 -52t34.5 -89q0 -78 -58 -130q-45 -41 -119 -56q-43 -8 -88 -8h-275zM242 369h77q88 0 140.5 33.5t52.5 94.5q0 54 -51 79q-36 17 -94 17h-73zM172 65h116
q37 0 69 8q49 12 77 41q32 31 32 82q0 49 -43 80.5t-122 31.5h-73z" />
    <glyph glyph-name="C" unicode="C" horiz-adv-x="686" 
d="M354 -12q-120 0 -201 78t-81 212q0 158 110 275t262 117q106 0 171 -52.5t65 -108.5q0 -32 -17.5 -52.5t-42.5 -20.5q-24 0 -38.5 14.5t-14.5 35.5q0 30 29 47q-9 27 -50.5 48.5t-104.5 21.5q-123 0 -207.5 -98t-84.5 -220q0 -107 58 -168t154 -61q112 0 206 92l44 -46
q-111 -114 -257 -114z" />
    <glyph glyph-name="D" unicode="D" horiz-adv-x="708" 
d="M3 0l16 66h79l122 526h-89l15 66h209q173 0 265 -92q69 -71 69 -182q0 -156 -103 -259q-124 -125 -347 -125h-236zM172 66h79q178 0 274 98q86 85 86 217q0 89 -53 140q-69 71 -210 71h-54z" />
    <glyph glyph-name="E" unicode="E" horiz-adv-x="583" 
d="M3 0l16 66h79l122 526h-89l15 66h479l-39 -161h-71l22 96h-243l-52 -226h211l-14 -64h-212l-55 -238h244l23 96h71l-37 -161h-470z" />
    <glyph glyph-name="F" unicode="F" horiz-adv-x="562" 
d="M3 0l16 66h79l122 526h-89l15 66h470l-38 -161h-72l23 96h-235l-55 -238h206l-15 -64h-206l-52 -225h97l-16 -66h-250z" />
    <glyph glyph-name="G" unicode="G" horiz-adv-x="718" 
d="M519 0l11 64q-92 -74 -205 -74q-109 0 -181.5 74t-72.5 195q0 165 114 287.5t277 122.5q126 0 197 -67q38 -38 38 -80q0 -30 -17.5 -48.5t-41.5 -18.5t-38.5 14t-14.5 36q0 26 26 44q-3 5 -13 15q-49 38 -139 38q-89 0 -161 -49t-110.5 -126.5t-38.5 -164.5
q0 -93 52.5 -149.5t140.5 -56.5q110 0 197 67l33 134h-184l15 63h257l-76 -320h-65z" />
    <glyph glyph-name="H" unicode="H" horiz-adv-x="767" 
d="M3 0l16 66h79l122 526h-89l15 66h244l-15 -66h-81l-51 -222h357l50 222h-91l16 66h244l-15 -66h-79l-122 -526h89l-16 -66h-244l15 66h81l57 238h-358l-55 -238h91l-15 -66h-245z" />
    <glyph glyph-name="I" unicode="I" horiz-adv-x="353" 
d="M3 0l16 66h88l121 526h-91l15 66h253l-15 -66h-88l-121 -526h91l-16 -66h-253z" />
    <glyph glyph-name="J" unicode="J" horiz-adv-x="560" 
d="M204 -11q-74 0 -127 43t-53 113q0 37 21 61t51 24q21 0 35 -13.5t14 -32.5q0 -20 -13.5 -34t-36.5 -14q-2 -35 30 -58t84 -23q71 0 112 52q33 41 51 121l83 364h-111l16 66h263l-16 -66h-78l-87 -375q-23 -101 -69 -157q-62 -71 -169 -71z" />
    <glyph glyph-name="K" unicode="K" horiz-adv-x="657" 
d="M641 592l-263 -222l145 -304h90l-15 -66h-128l-150 325l-109 -92l-39 -167h91l-16 -66h-244l16 66h79l122 526h-89l15 66h240l-15 -65h-77l-64 -277l320 277h-85l14 65h249l-15 -66h-72z" />
    <glyph glyph-name="L" unicode="L" horiz-adv-x="549" 
d="M3 0l16 66h79l122 526h-89l15 66h250l-15 -66h-87l-122 -527h224l24 101h71l-38 -166h-450z" />
    <glyph glyph-name="M" unicode="M" horiz-adv-x="865" 
d="M0 0l16 66h79l146 526h-91l15 66h156l110 -450l313 450h158l-15 -66h-82l-98 -526h91l-16 -66h-242l15 66h79l90 460l-310 -440h-13l-112 440l-121 -460h89l-15 -66h-242z" />
    <glyph glyph-name="N" unicode="N" horiz-adv-x="752" 
d="M548 -3l-270 537l-108 -468h91l-15 -66h-243l16 66h79l122 526h-89l15 66h151l253 -503l101 437h-92l16 66h239l-15 -66h-77l-137 -595h-37z" />
    <glyph glyph-name="O" unicode="O" horiz-adv-x="732" 
d="M349 -12q-129 0 -203.5 79.5t-74.5 203.5q0 73 28 144.5t75.5 128t116.5 91.5t146 35q129 0 203.5 -79.5t74.5 -203.5q0 -73 -28 -144.5t-75.5 -128t-116.5 -91.5t-146 -35zM355 56q118 0 200.5 101.5t82.5 228.5q0 93 -53.5 154.5t-153.5 61.5q-118 0 -200.5 -101.5
t-82.5 -228.5q0 -93 53.5 -154.5t153.5 -61.5z" />
    <glyph glyph-name="P" unicode="P" horiz-adv-x="563" 
d="M3 0l16 66h79l122 526h-89l15 66h216q49 0 83 -10q69 -18 104.5 -64t35.5 -109q0 -100 -74 -169t-200 -69q-58 0 -98 2l-41 -173h91l-15 -66h-245zM321 302q90 0 139.5 49t49.5 119q0 90 -92 115q-27 7 -64 7h-60l-66 -287q34 -3 93 -3z" />
    <glyph glyph-name="Q" unicode="Q" horiz-adv-x="732" 
d="M715 387q0 -136 -87 -252t-219 -141q21 -36 58.5 -57.5t81.5 -21.5q36 0 69 18l23 -59q-48 -24 -95 -24q-70 0 -128 38.5t-92 100.5q-119 7 -187 85.5t-68 196.5q0 73 28 144.5t75.5 128t116.5 91.5t146 35q129 0 203.5 -79.5t74.5 -203.5zM355 56q118 0 200.5 101.5
t82.5 228.5q0 93 -53.5 154.5t-153.5 61.5q-118 0 -200.5 -101.5t-82.5 -228.5q0 -93 53.5 -154.5t153.5 -61.5z" />
    <glyph glyph-name="R" unicode="R" horiz-adv-x="603" 
d="M3 0l16 66h79l122 526h-89l15 66h202q130 0 192 -60q45 -45 45 -116q0 -75 -50 -130t-138 -75l100 -211h77l-15 -66h-115l-120 268q-11 -1 -33 -1q-29 0 -71 2l-48 -203h90l-16 -66h-243zM317 331q89 0 141 41t52 106q0 45 -30 75q-39 39 -134 39h-52l-60 -258
q35 -3 83 -3z" />
    <glyph glyph-name="S" unicode="S" horiz-adv-x="551" 
d="M268 -11q-95 0 -161.5 47.5t-66.5 102.5q0 30 17 49.5t43 19.5q22 0 36.5 -15t14.5 -34q0 -31 -28 -50q17 -23 56 -39t94 -16q58 0 99 32t41 83q0 39 -28 67.5t-85 61.5q-76 44 -115.5 86.5t-39.5 106.5q0 73 60 125.5t153 52.5q83 0 142 -40.5t59 -92.5q0 -31 -17 -49.5
t-41 -18.5q-22 0 -36.5 15t-14.5 36q0 26 25 44q-35 41 -119 41q-60 0 -97 -31t-37 -77q0 -41 28.5 -69t93.5 -66q70 -42 108 -83.5t38 -103.5q0 -80 -63 -132.5t-159 -52.5z" />
    <glyph glyph-name="T" unicode="T" horiz-adv-x="627" 
d="M144 0l15 66h85l121 527h-163l-24 -104h-71l39 169h543l-39 -169h-71l24 104h-163l-122 -527h95l-16 -66h-253z" />
    <glyph glyph-name="U" unicode="U" horiz-adv-x="714" 
d="M334 -11q-101 0 -156.5 52.5t-55.5 140.5q0 32 10 79l77 331h-88l15 66h243l-15 -66h-81l-77 -335q-9 -45 -9 -70q0 -62 35.5 -97t109.5 -35q73 0 119 44.5t63 120.5l85 372h-91l15 66h243l-15 -66h-79l-87 -381q-51 -222 -261 -222z" />
    <glyph glyph-name="V" unicode="V" horiz-adv-x="686" 
d="M270 -10l-100 602h-70l16 66h218l-15 -66h-70l71 -479l288 479h-77l15 66h221l-16 -66h-60l-378 -602h-43z" />
    <glyph glyph-name="W" unicode="W" horiz-adv-x="946" 
d="M214 -9l-33 601h-70l15 66h223l-15 -66h-82l16 -463l258 450h34l65 -452l235 465h-80l16 66h222l-15 -66h-65l-314 -601h-40l-69 442l-261 -442h-40z" />
    <glyph glyph-name="X" unicode="X" horiz-adv-x="710" 
d="M-14 0l15 66h73l271 276l-131 250h-82l15 66h245l-15 -66h-79l97 -209l196 209h-80l16 66h247l-16 -66h-76l-255 -260l141 -266h80l-16 -66h-242l15 66h82l-109 227l-214 -227h85l-16 -66h-247z" />
    <glyph glyph-name="Y" unicode="Y" horiz-adv-x="631" 
d="M124 0l16 66h89l49 199l-114 327h-69l16 66h220l-14 -66h-76l88 -271l220 271h-74l16 66h226l-15 -66h-66l-288 -341l-44 -185h93l-14 -66h-259z" />
    <glyph glyph-name="Z" unicode="Z" horiz-adv-x="613" 
d="M14 0l-4 36l529 560h-317l-24 -104h-70l38 166h485l4 -36l-529 -560h333l24 104h70l-39 -166h-500z" />
    <glyph glyph-name="bracketleft" unicode="[" horiz-adv-x="341" 
d="M6 -200l217 932h229l-14 -62h-158l-189 -808h158l-14 -62h-229z" />
    <glyph glyph-name="backslash" unicode="\" horiz-adv-x="311" 
d="M175 -201l-65 930l64 5l66 -929z" />
    <glyph glyph-name="bracketright" unicode="]" horiz-adv-x="341" 
d="M-88 -200l15 62h158l189 808h-159l15 62h228l-216 -932h-230z" />
    <glyph glyph-name="asciicircum" unicode="^" horiz-adv-x="443" 
d="M132 359l-29 38l188 147l114 -153l-35 -31l-94 88z" />
    <glyph glyph-name="underscore" unicode="_" horiz-adv-x="516" 
d="M-56 -148l17 67h541l-15 -67h-543z" />
    <glyph glyph-name="grave" unicode="`" horiz-adv-x="552" 
d="M397 498l-117 87q-26 21 -26 45q0 17 12.5 29.5t29.5 12.5q25 0 46 -32l78 -123z" />
    <glyph glyph-name="a" unicode="a" horiz-adv-x="560" 
d="M193 -8q-67 0 -109 47t-42 126q0 109 67 189t159 80q51 0 87 -29.5t46 -76.5l27 101h67l-77 -313q-7 -30 -7 -42q0 -31 28 -31q30 0 57 67l35 -12q-34 -105 -107 -105q-36 0 -57.5 21.5t-21.5 56.5v10q-66 -89 -152 -89zM216 53q70 0 118 63.5t48 139.5q0 53 -28 84.5
t-79 31.5q-68 0 -113.5 -61t-45.5 -141q0 -54 26 -85.5t74 -31.5z" />
    <glyph glyph-name="b" unicode="b" horiz-adv-x="528" 
d="M29 0l156 672h-81l15 60h149l-91 -388q62 90 148 90q72 0 116 -48.5t44 -127.5q0 -110 -67.5 -188.5t-158.5 -78.5q-52 0 -89.5 28.5t-48.5 75.5l-25 -95h-67zM252 54q67 0 113 59t46 136q0 56 -27.5 89.5t-77.5 33.5q-68 0 -117.5 -63.5t-49.5 -139.5q0 -52 30 -83.5
t83 -31.5z" />
    <glyph glyph-name="c" unicode="c" horiz-adv-x="464" 
d="M233 -8q-83 0 -137.5 50t-54.5 134q0 102 72.5 180t171.5 78q70 0 112 -35t42 -79q0 -25 -15 -42.5t-38 -17.5q-17 0 -30 12t-13 33q0 24 20 36q-24 32 -80 32q-67 0 -119 -56.5t-52 -136.5q0 -57 35 -92t94 -35q77 0 142 56l-2 -68q-66 -49 -148 -49z" />
    <glyph glyph-name="d" unicode="d" horiz-adv-x="562" 
d="M43 165q0 111 66.5 190t156.5 79q50 0 87 -29t48 -74l80 341h-81l15 60h150l-144 -616q-8 -29 -8 -42q0 -31 28 -31q31 0 58 67l35 -12q-34 -105 -108 -105q-36 0 -57 22t-21 58v5q-1 4 0 4q-65 -90 -152 -90q-67 0 -110 47.5t-43 125.5zM220 53q69 0 116.5 62.5
t47.5 139.5q0 54 -29 85.5t-81 31.5q-67 0 -112 -60.5t-45 -140.5q0 -54 27 -86t76 -32z" />
    <glyph glyph-name="e" unicode="e" horiz-adv-x="476" 
d="M423 192h-313q-1 -7 -1 -21q0 -54 39 -86.5t97 -32.5q67 0 141 39l-15 -68q-63 -31 -140 -31q-79 0 -135 48.5t-56 131.5q0 107 70 184.5t166 77.5q74 0 118.5 -42t44.5 -114q0 -41 -16 -86zM273 373q-50 0 -91.5 -35.5t-60.5 -91.5h245q7 18 7 42q0 37 -25.5 61
t-74.5 24z" />
    <glyph glyph-name="f" unicode="f" horiz-adv-x="313" 
d="M51 0l84 365h-76l15 61h75l32 139q18 81 64 128q44 44 110 44q36 0 57 -16.5t21 -42.5q0 -21 -14.5 -35t-33.5 -14q-20 0 -34 13t-15 34q-25 -5 -42 -22q-29 -29 -46 -98l-30 -130h111l-15 -61h-110l-84 -365h-69z" />
    <glyph glyph-name="g" unicode="g" horiz-adv-x="528" 
d="M181 -200q-42 0 -84 14.5t-62 33.5q-23 24 -23 50q0 23 13.5 38t35.5 15t35 -14.5t13 -34.5q0 -15 -8 -26q29 -19 80 -19q63 0 101 38q33 33 51 108l20 86q-56 -86 -149 -86q-72 0 -116.5 47t-44.5 126q0 107 66.5 182.5t161.5 75.5q54 0 89.5 -29.5t46.5 -73.5l26 98h67
l-102 -439q-22 -93 -65 -135q-54 -55 -152 -55zM227 64q69 0 115 59t46 135q0 53 -30 83.5t-82 30.5q-68 0 -113.5 -56.5t-45.5 -135.5q0 -53 30 -84.5t80 -31.5z" />
    <glyph glyph-name="h" unicode="h" horiz-adv-x="527" 
d="M29 0l156 672h-81l15 60h149l-92 -394q62 95 142 95q52 0 86 -32.5t35 -83.5q0 -31 -11 -67l-37 -138q-6 -21 -6 -37q0 -15 8 -23.5t21 -8.5q31 0 56 67l35 -12q-32 -105 -105 -105q-39 0 -62 22t-23 57q0 19 7 47l38 140q7 27 7 50q-1 28 -20.5 46t-50.5 18
q-46 0 -88 -41.5t-59 -114.5l-50 -217h-70z" />
    <glyph glyph-name="i" unicode="i" horiz-adv-x="295" 
d="M204 508q-21 0 -36 15t-15 36t15 36t36 15q20 0 35 -15t15 -36t-15 -36t-35 -15zM149 -7q-39 0 -61.5 22t-22.5 58q0 16 8 46l67 246h-83l16 61h153l-84 -310q-7 -28 -7 -42q0 -31 29 -31q33 0 58 67l35 -12q-34 -105 -108 -105z" />
    <glyph glyph-name="j" unicode="j" horiz-adv-x="265" 
d="M-37 -199q-32 0 -53 16t-21 39q0 21 14 34t33 13q18 0 31 -12.5t13 -28.5q23 5 41 25q27 32 46 115l84 363h-86l16 61h153l-99 -432q-26 -109 -70 -153q-42 -40 -102 -40zM212 508q-21 0 -35.5 15t-14.5 36t14.5 36t35.5 15t35.5 -15t14.5 -36t-14.5 -36t-35.5 -15z" />
    <glyph glyph-name="k" unicode="k" horiz-adv-x="471" 
d="M99 0h-70l156 672h-81l15 60h149l-120 -515q176 72 208 123q-25 13 -25 41q0 23 15 38t37 15t36.5 -15.5t14.5 -41.5q0 -44 -48 -88t-128 -82l45 -107q13 -34 23 -46q9 -10 23 -10q28 0 47 78l37 -11q-26 -118 -96 -118q-33 0 -56 20q-21 18 -37 57l-48 116
q-34 -15 -59 -25z" />
    <glyph glyph-name="l" unicode="l" horiz-adv-x="278" 
d="M135 -7q-38 0 -60.5 22t-22.5 58q0 16 7 44l129 555h-80l15 60h149l-143 -615q-7 -37 -7 -42q0 -32 28 -32q32 0 59 67l35 -12q-34 -105 -109 -105z" />
    <glyph glyph-name="m" unicode="m" horiz-adv-x="791" 
d="M44 0l92 365h-80l15 61h142l-25 -101q66 108 146 108q48 0 78 -29t32 -78q65 107 148 107q48 0 79.5 -32.5t31.5 -83.5q0 -31 -11 -67l-40 -138q-6 -26 -6 -37q0 -15 8 -23.5t21 -8.5q30 0 57 67l35 -12q-33 -105 -107 -105q-38 0 -61 22t-23 57q0 24 8 48l39 137
q8 32 8 52q0 29 -17 46.5t-45 17.5q-43 0 -83.5 -42t-59.5 -117l-55 -214h-70l66 256q8 34 8 54q0 27 -17.5 45t-45.5 18q-43 0 -84.5 -42t-59.5 -116l-54 -215h-70z" />
    <glyph glyph-name="n" unicode="n" horiz-adv-x="544" 
d="M413 -7q-38 0 -61 22t-23 57q0 24 8 48l40 139q7 27 7 50q0 29 -19 46.5t-50 17.5q-45 0 -86.5 -41.5t-59.5 -114.5l-55 -217h-70l92 365h-80l15 61h142l-24 -101q64 108 150 108q51 0 84 -32.5t33 -83.5q0 -31 -11 -67l-39 -138q-7 -23 -7 -37q0 -15 8 -23.5t21 -8.5
q30 0 57 67l35 -12q-33 -105 -107 -105z" />
    <glyph glyph-name="o" unicode="o" horiz-adv-x="508" 
d="M226 -8q-85 0 -135 53.5t-50 132.5q0 102 70 179t171 77q85 0 135 -54t50 -132q0 -102 -70 -179t-171 -77zM229 53q70 0 118.5 57.5t48.5 137.5q0 57 -33 91t-84 34q-69 0 -118 -57.5t-49 -138.5q0 -57 33 -90.5t84 -33.5z" />
    <glyph glyph-name="p" unicode="p" horiz-adv-x="546" 
d="M-65 -196l15 60h64l120 501h-81l15 61h143l-20 -89q65 97 154 97q71 0 114.5 -48.5t43.5 -127.5q0 -110 -67.5 -188.5t-159.5 -78.5q-49 0 -86 28t-53 71l-52 -226h87l-15 -60h-222zM270 54q67 0 113 59t46 136q0 56 -27.5 89.5t-77.5 33.5q-68 0 -118 -64t-50 -139
q0 -52 30.5 -83.5t83.5 -31.5z" />
    <glyph glyph-name="q" unicode="q" horiz-adv-x="528" 
d="M198 -8q-71 0 -113.5 48t-42.5 127q0 109 68 188t161 79q50 0 86.5 -28.5t48.5 -72.5l25 93h67l-130 -562h89l-15 -60h-158l64 273q-62 -85 -150 -85zM221 53q70 0 118 63t48 139q0 53 -28 85t-80 32q-68 0 -115.5 -60.5t-47.5 -139.5q0 -54 28 -86.5t77 -32.5z" />
    <glyph glyph-name="r" unicode="r" horiz-adv-x="382" 
d="M44 0l92 365h-80l15 61h142l-28 -118q85 125 146 125q25 0 41.5 -15t16.5 -38q0 -22 -16 -38.5t-38 -16.5q-20 0 -33.5 11.5t-17.5 28.5q-31 -15 -69 -63.5t-53 -112.5l-48 -189h-70z" />
    <glyph glyph-name="s" unicode="s" horiz-adv-x="422" 
d="M201 -7q-96 0 -151 55q-25 25 -25 53q0 22 13.5 37t33.5 15q19 0 31 -12.5t12 -29.5q0 -16 -13 -32q6 -6 17 -12q35 -19 85 -19q37 0 61.5 15.5t24.5 43.5q0 18 -14 34t-29 24.5t-45 22.5q-29 14 -45.5 23t-36 24t-28 33t-8.5 41q0 53 41.5 87.5t112.5 34.5q87 0 131 -46
q24 -24 24 -52q0 -23 -13 -37t-32 -14q-18 0 -31 12t-13 30q0 13 11 32q-9 6 -15 9q-26 12 -64 12q-37 0 -60 -15.5t-23 -40.5q0 -16 14.5 -30.5t29 -22.5t47.5 -24q56 -26 86 -53.5t30 -71.5q0 -60 -45 -93t-114 -33z" />
    <glyph glyph-name="t" unicode="t" horiz-adv-x="338" 
d="M335 365h-130l-60 -244q-6 -21 -6 -37q0 -15 9.5 -24.5t24.5 -9.5q29 0 89 40l26 -37q-76 -61 -134 -61q-38 0 -63 22t-25 59q0 19 8 48l60 244h-76l15 61h76l25 100l77 25l-31 -125h130z" />
    <glyph glyph-name="u" unicode="u" horiz-adv-x="544" 
d="M68 426h150l-69 -267q-6 -21 -6 -46q0 -27 17.5 -44t47.5 -17q46 0 88 42t60 114l54 218h70l-77 -310q-8 -27 -8 -42q0 -31 29 -31q30 0 57 67l35 -12q-34 -105 -108 -105q-35 0 -56.5 22t-21.5 59q0 4 2 20q-63 -101 -148 -101q-49 0 -81 29.5t-32 78.5q0 28 9 64
l52 200h-80z" />
    <glyph glyph-name="v" unicode="v" horiz-adv-x="471" 
d="M168 -14l-69 379h-77l16 61h124l52 -353q60 67 103.5 135.5t56.5 119.5q-17 5 -28.5 18.5t-11.5 33.5q0 23 15 38.5t38 15.5q25 0 41.5 -18.5t16.5 -50.5q0 -61 -68.5 -168.5t-169.5 -210.5h-39z" />
    <glyph glyph-name="w" unicode="w" horiz-adv-x="668" 
d="M140 -14l-36 379h-78l16 61h123l22 -334l161 282h34l62 -292q113 166 123 248q-17 4 -29.5 17.5t-12.5 33.5q0 22 15 37.5t37 15.5q25 0 41.5 -18t16.5 -48q0 -114 -193 -382h-35l-60 277l-168 -277h-39z" />
    <glyph glyph-name="x" unicode="x" horiz-adv-x="528" 
d="M68 -7q-28 0 -45 16t-17 38q0 20 14 34.5t33 14.5q33 0 44 -34q25 6 77 78l56 78l-58 147h-85l15 61h115l55 -156l44 65q65 99 129 99q30 0 47.5 -16t17.5 -39q0 -19 -14.5 -33.5t-33.5 -14.5q-34 0 -45 33q-24 -6 -68 -70l-51 -72l50 -120q15 -36 24 -47.5t19 -11.5
q24 0 45 67l35 -10q-27 -107 -93 -107q-30 0 -50 18.5t-36 61.5l-36 98l-54 -80q-64 -98 -134 -98z" />
    <glyph glyph-name="y" unicode="y" horiz-adv-x="482" 
d="M-15 -200q-28 0 -47.5 16.5t-19.5 40.5q0 20 14 35t34 15q19 0 32 -12t15 -32h2q42 0 163 146l-73 356h-76l15 61h123l62 -356q141 183 159 259q-41 14 -41 54q0 21 15 36t37 15q26 0 42 -18.5t16 -50.5q0 -51 -46 -131.5t-160 -224.5q-99 -123 -157 -166t-109 -43z" />
    <glyph glyph-name="z" unicode="z" horiz-adv-x="472" 
d="M32 -7l-26 35l352 341h-203l-20 -82h-62l34 139h332l20 -37l-340 -329q29 11 63 11q23 0 64.5 -9.5t59.5 -9.5q31 0 46 17t32 67l34 -8q-16 -70 -40 -103t-76 -33q-24 0 -81 13.5t-83 13.5q-56 0 -106 -26z" />
    <glyph glyph-name="braceleft" unicode="{" horiz-adv-x="337" 
d="M208 -214q-86 11 -131 54.5t-45 104.5q0 73 85 143q63 53 63 83q0 24 -22 43t-68 19h-34l16 68h35q55 0 85 24t30 59q0 30 -29 83q-34 62 -34 108q0 72 66 120.5t192 51.5l-8 -51q-92 -6 -137.5 -40t-45.5 -78q0 -34 32 -94q32 -62 32 -98q0 -49 -32.5 -81t-91.5 -40
q42 -9 63 -35t21 -59q0 -52 -77 -115q-73 -61 -73 -108q0 -85 121 -113z" />
    <glyph glyph-name="bar" unicode="|" horiz-adv-x="270" 
d="M104 -200v932h62v-932h-62z" />
    <glyph glyph-name="braceright" unicode="}" horiz-adv-x="337" 
d="M-56 -213l8 51q92 6 137.5 40t45.5 78q0 35 -32 95t-32 98q0 49 32.5 80.5t91.5 39.5q-42 9 -63 35t-21 59q0 51 77 116q73 61 73 108q0 84 -121 112l13 49q86 -10 131 -54t45 -105q0 -70 -85 -143q-63 -52 -63 -83q0 -24 22 -43t68 -19h34l-16 -68h-35q-55 0 -85 -24
t-30 -59q0 -30 29 -83q34 -60 34 -108q0 -72 -66 -120.5t-192 -51.5z" />
    <glyph glyph-name="asciitilde" unicode="~" horiz-adv-x="466" 
d="M308 188q-42 0 -82 40q-29 29 -47 29q-35 0 -61 -64l-47 17q12 51 43.5 84t66.5 33q42 0 84 -42q29 -28 46 -28q34 0 60 64l48 -17q-15 -54 -45.5 -85t-65.5 -31z" />
    <glyph glyph-name="uni00A0" unicode="&#xa0;" horiz-adv-x="209" 
 />
    <glyph glyph-name="exclamdown" unicode="&#xa1;" horiz-adv-x="245" 
d="M201 548q-24 0 -40.5 17.5t-16.5 41.5t16.5 41t40.5 17t41 -17t17 -41t-17 -41.5t-41 -17.5zM28 0l132 482h34l-77 -482h-89z" />
    <glyph glyph-name="cent" unicode="&#xa2;" horiz-adv-x="474" 
d="M247 34q-21 0 -31 2l-42 -141l-51 13l43 140q-53 20 -84 64.5t-31 105.5q0 99 71.5 175.5t171.5 81.5l31 104l51 -14l-29 -94q52 -10 84 -41.5t32 -67.5q0 -24 -15 -41t-38 -17q-17 0 -30 11.5t-13 33.5q0 24 21 35q-20 25 -61 31l-96 -321q8 -1 24 -1q87 0 152 57
l-2 -67q-66 -49 -158 -49zM122 222q0 -80 64 -113l91 305q-64 -11 -109.5 -65.5t-45.5 -126.5z" />
    <glyph glyph-name="sterling" unicode="&#xa3;" horiz-adv-x="497" 
d="M486 404q0 -26 -14.5 -43t-35.5 -17q-18 0 -31 13t-13 32q0 23 17 37q-5 11 -29 20.5t-48 9.5q-64 0 -98 -44.5t-34 -120.5q0 -22 4 -62t5 -51h174l-14 -57h-161q-8 -94 -80 -152q23 0 77 -18q60 -20 92 -20q54 0 109 44l32 -39q-58 -65 -145 -65q-45 0 -116 27
q-62 24 -93 24q-43 -49 -91 -49q-19 0 -31.5 11t-12.5 28q0 28 35 45.5t85 14.5q64 60 75 149h-106l13 57h94q-1 10 -5.5 50t-4.5 64q0 98 53.5 161t143.5 63q66 0 110 -34.5t44 -77.5z" />
    <glyph glyph-name="yen" unicode="&#xa5;" horiz-adv-x="495" 
d="M79 230l13 55h104l-72 166h-58l13 57h185l-12 -56h-67l75 -180l157 180h-68l14 56h188l-12 -57h-55l-149 -166h99l-13 -55h-142l-12 -53h142l-13 -55h-141l-14 -66h80l-13 -56h-220l13 56h79l15 66h-140l12 55h140l13 53h-141z" />
    <glyph glyph-name="section" unicode="&#xa7;" horiz-adv-x="420" 
d="M267 465q-30 0 -51 -10.5t-21 -28.5q0 -19 20 -32t69 -34q51 -22 77 -44t26 -56q0 -72 -113 -95q42 -29 42 -72t-38 -72.5t-104 -29.5q-64 0 -100 26.5t-36 59.5q0 18 12 30.5t29 12.5t28 -11t11 -27q0 -14 -8 -22q22 -16 64 -16q30 0 50.5 10.5t20.5 28.5t-20 31t-66 34
q-52 22 -79 44.5t-27 57.5t31 59t84 33q-42 30 -42 73q0 42 38 71.5t103 29.5q62 0 98.5 -27t36.5 -59q0 -18 -11.5 -30t-28.5 -12t-28 11.5t-11 27.5q0 14 8 22q-21 16 -64 16zM207 199l20 -9q46 10 67.5 23.5t21.5 34.5q0 17 -20 30.5t-61 30.5l-22 9q-88 -19 -88 -59
q0 -28 82 -60z" />
    <glyph glyph-name="dieresis" unicode="&#xa8;" horiz-adv-x="500" 
d="M423 521q-23 0 -39.5 16.5t-16.5 40.5t16.5 41t40.5 17q23 0 39.5 -17t16.5 -41t-16.5 -40.5t-40.5 -16.5zM249 521q-24 0 -40 16.5t-16 40.5t16.5 41t40.5 17q23 0 39.5 -17t16.5 -41t-17 -40.5t-40 -16.5z" />
    <glyph glyph-name="copyright" unicode="&#xa9;" horiz-adv-x="605" 
d="M302 -8q-109 0 -182.5 76t-73.5 186t73.5 186t182.5 76q110 0 183.5 -76t73.5 -186t-74 -186t-183 -76zM302 28q92 0 154 66t62 160q0 95 -62 161t-154 66t-153.5 -66t-61.5 -161t61.5 -160.5t153.5 -65.5zM313 125q-59 0 -96.5 37.5t-37.5 94.5q0 58 39 96t92 38
q43 0 71 -19.5t28 -42.5q0 -12 -7.5 -20.5t-17.5 -8.5t-17.5 7t-7.5 18q0 8 4 14q-13 17 -53 17q-38 0 -64 -28t-26 -69t26 -69.5t68 -28.5q41 0 76 33l23 -26q-37 -43 -100 -43z" />
    <glyph glyph-name="ordfeminine" unicode="&#xaa;" horiz-adv-x="351" 
d="M155 404q-41 0 -67 28.5t-26 76.5q0 66 41.5 114t96.5 48q30 0 51 -16t29 -41l14 53h45l-45 -185q-3 -15 -3 -25q0 -16 14 -16q18 0 35 40l24 -11q-20 -65 -68 -65q-49 0 -51 49q-35 -50 -90 -50zM170 447q40 0 67 35.5t27 78.5q0 30 -16 48t-45 18q-38 0 -64.5 -34.5
t-26.5 -79.5q0 -30 15.5 -48t42.5 -18zM33 298l11 44h275l-11 -44h-275z" />
    <glyph glyph-name="guillemotleft" unicode="&#xab;" horiz-adv-x="483" 
d="M374 107l-140 169l213 168l35 -41l-158 -137l92 -125zM182 107l-141 169l214 168l35 -41l-158 -137l91 -125z" />
    <glyph glyph-name="registered" unicode="&#xae;" horiz-adv-x="392" 
d="M267 336q-75 0 -126.5 52t-51.5 126q0 75 51.5 127t126.5 52t127 -52t52 -127q0 -74 -52.5 -126t-126.5 -52zM267 661q-59 0 -100.5 -42.5t-41.5 -104.5q0 -61 41.5 -103.5t100.5 -42.5t101 42.5t42 103.5q0 62 -41.5 104.5t-101.5 42.5zM199 432v27h19v116h-19v27h68
q30 0 49 -13t19 -38q0 -32 -32 -46l24 -46h20v-27h-41l-34 64h-23v-37h21v-27h-71zM249 523h17q36 0 36 26t-37 26h-16v-52z" />
    <glyph glyph-name="macron" unicode="&#xaf;" horiz-adv-x="500" 
d="M175 535l15 63h300l-13 -63h-302z" />
    <glyph glyph-name="degree" unicode="&#xb0;" horiz-adv-x="324" 
d="M197 414q-50 0 -79 31.5t-29 77.5q0 58 40 103t99 45q50 0 79 -31.5t29 -77.5q0 -57 -40.5 -102.5t-98.5 -45.5zM199 460q35 0 60.5 30.5t25.5 69.5q0 29 -17 47t-43 18q-35 0 -60 -31t-25 -69q0 -29 17 -47t42 -18z" />
    <glyph glyph-name="plusminus" unicode="&#xb1;" horiz-adv-x="419" 
d="M312 490l-31 -135h135l-14 -62h-136l-31 -135h-63l31 135h-134l14 62h135l31 135h63zM6 16l14 62h331l-14 -62h-331z" />
    <glyph glyph-name="two.sup" unicode="&#xb2;" horiz-adv-x="353" 
d="M111 430l-10 24q23 55 65.5 93t106.5 72q44 23 64 42t20 43q0 22 -17.5 35t-46.5 13q-48 0 -66 -23q10 -13 10 -25q0 -14 -9.5 -24t-23.5 -10q-15 0 -24.5 10.5t-9.5 27.5q0 34 37 62.5t90 28.5q50 0 82 -25.5t32 -68.5q0 -39 -29.5 -66t-88.5 -59q-97 -52 -126 -106h153
l13 57h45l-23 -101h-244z" />
    <glyph glyph-name="three.sup" unicode="&#xb3;" horiz-adv-x="353" 
d="M243 425q-50 0 -87 23t-37 59q0 15 10 26.5t24 11.5t23 -9t9 -23q0 -15 -11 -22q16 -22 70 -22q38 0 60.5 17.5t22.5 46.5q0 23 -24 41.5t-63 18.5h-20l11 47h20q46 0 73.5 17.5t27.5 44.5q0 24 -20 37t-51 13q-32 0 -47 -13q7 -5 7 -16q0 -14 -9.5 -23t-22.5 -9
q-15 0 -24.5 10t-9.5 26q0 27 31 49t83 22t85 -27t33 -64q0 -40 -29 -64t-76 -29q78 -20 78 -84q0 -49 -40.5 -77t-96.5 -28z" />
    <glyph glyph-name="acute" unicode="&#xb4;" horiz-adv-x="500" 
d="M231 503l-17 24l152 126q22 19 43 19q16 0 27.5 -11.5t11.5 -27.5q0 -30 -37 -48z" />
    <glyph glyph-name="paragraph" unicode="&#xb6;" horiz-adv-x="576" 
d="M130 0l15 59h80q33 130 34 130q-100 0 -147 35q-66 21 -66 97q0 85 71 133t179 48l297 -1l-15 -61h-78l-98 -379h79l-15 -61h-336zM286 59h55l99 383h-56z" />
    <glyph glyph-name="periodcentered" unicode="&#xb7;" horiz-adv-x="206" 
d="M117 208q-26 0 -43.5 18t-17.5 44t17.5 44.5t43.5 18.5t43.5 -18.5t17.5 -44.5t-17.5 -44t-43.5 -18z" />
    <glyph glyph-name="cedilla" unicode="&#xb8;" horiz-adv-x="500" 
d="M174 -199q-67 0 -117 42l20 29q41 -28 94 -28q19 0 30.5 9t11.5 22q0 15 -16.5 24t-47.5 4l-15 18l58 101l30 -8l-22 -65q38 -4 58.5 -24.5t20.5 -46.5q0 -36 -30 -56.5t-75 -20.5z" />
    <glyph glyph-name="one.sup" unicode="&#xb9;" horiz-adv-x="353" 
d="M112 430l11 47h99l61 263l-98 -21l-2 47l137 31l25 -12l-71 -308h97l-10 -47h-249z" />
    <glyph glyph-name="ordmasculine" unicode="&#xba;" horiz-adv-x="337" 
d="M195 406q-52 0 -82 32t-30 80q0 62 41 107.5t103 45.5q52 0 82 -32t30 -80q0 -62 -41 -107.5t-103 -45.5zM44 298l12 44h237l-11 -44h-238zM197 448q40 0 67 32t27 77q0 32 -18.5 51.5t-48.5 19.5q-40 0 -66.5 -31.5t-26.5 -77.5q0 -32 18.5 -51.5t47.5 -19.5z" />
    <glyph glyph-name="guillemotright" unicode="&#xbb;" horiz-adv-x="483" 
d="M262 106l-35 41l158 137l-91 126l41 33l140 -169zM70 106l-35 41l158 137l-92 126l41 33l141 -169z" />
    <glyph glyph-name="onequarter" unicode="&#xbc;" horiz-adv-x="795" 
d="M598 41l16 65h-164l-7 24l238 244l32 -30l-197 -198h108l18 69l52 19l-20 -85h60l-11 -43h-59l-15 -65h47l-10 -41h-160l9 41h63zM67 280l11 47h99l61 263l-98 -21l-2 47l137 31l25 -12l-71 -308h97l-10 -47h-249zM183 -13l-31 26q11 14 114 134t156 184q150 178 263 320
l31 -26q-11 -14 -114 -134t-156 -184q-178 -213 -263 -320z" />
    <glyph glyph-name="onehalf" unicode="&#xbd;" horiz-adv-x="795" 
d="M451 0l-10 24q23 55 65.5 93t106.5 72q44 23 64 42t20 43q0 22 -17.5 35t-46.5 13q-48 0 -66 -23q10 -13 10 -25q0 -14 -9.5 -24t-23.5 -10q-15 0 -24.5 10.5t-9.5 27.5q0 34 37 62.5t90 28.5q50 0 82 -25.5t32 -68.5q0 -39 -29.5 -66t-88.5 -59q-97 -52 -126 -106h153
l13 57h45l-23 -101h-244zM56 280l11 47h99l61 263l-98 -21l-2 47l137 31l25 -12l-71 -308h97l-10 -47h-249zM167 -13l-31 26q11 14 114 134t156 184q150 178 263 320l31 -26q-11 -14 -114 -134t-156 -184q-178 -213 -263 -320z" />
    <glyph glyph-name="threequarters" unicode="&#xbe;" horiz-adv-x="795" 
d="M206 275q-50 0 -87 23t-37 59q0 15 10 26.5t24 11.5t23 -9t9 -23q0 -15 -11 -22q16 -22 70 -22q38 0 60.5 17.5t22.5 46.5q0 23 -24 41.5t-63 18.5h-20l11 47h20q46 0 73.5 17.5t27.5 44.5q0 24 -20 37t-51 13q-32 0 -47 -13q7 -5 7 -16q0 -14 -9.5 -23t-22.5 -9
q-15 0 -24.5 10t-9.5 26q0 27 31 49t83 22t85 -27t33 -64q0 -40 -29 -64t-76 -29q78 -20 78 -84q0 -49 -40.5 -77t-96.5 -28zM594 41l16 65h-164l-7 24l238 244l32 -30l-197 -198h108l18 69l52 19l-20 -85h60l-11 -43h-59l-15 -65h47l-10 -41h-160l9 41h63zM178 -13l-31 26
q11 14 114 134t156 184q150 178 263 320l31 -26q-11 -14 -114 -134t-156 -184q-178 -213 -263 -320z" />
    <glyph glyph-name="questiondown" unicode="&#xbf;" horiz-adv-x="452" 
d="M381 552q-24 0 -41 17.5t-17 41.5t17 41t41 17t40.5 -17t16.5 -41t-16.5 -41.5t-40.5 -17.5zM210 -9q-80 0 -132.5 44.5t-52.5 118.5q0 85 70.5 149t197.5 77l38 106h48l-29 -160q-124 -4 -187 -53t-63 -115q0 -49 33 -76t84 -27q39 0 68 13.5t36 30.5q-26 14 -26 40
q0 20 15 34.5t35 14.5q23 0 38 -16.5t15 -42.5q0 -57 -57.5 -97.5t-130.5 -40.5z" />
    <glyph glyph-name="Agrave" unicode="&#xc0;" horiz-adv-x="705" 
d="M-27 0l16 66h60l314 527h-78l15 65h302l-15 -65h-75l70 -527h70l-16 -66h-215l15 65h73l-20 162h-268l-96 -162h87l-16 -65h-223zM259 291h221l-39 307zM499 712l-117 87q-26 21 -26 45q0 17 12.5 29.5t29.5 12.5q25 0 46 -32l78 -123z" />
    <glyph glyph-name="Aacute" unicode="&#xc1;" horiz-adv-x="705" 
d="M-27 0l16 66h60l314 527h-78l15 65h302l-15 -65h-75l70 -527h70l-16 -66h-215l15 65h73l-20 162h-268l-96 -162h87l-16 -65h-223zM259 291h221l-39 307zM441 717l-17 24l152 126q22 19 43 19q16 0 27.5 -11.5t11.5 -27.5q0 -30 -37 -48z" />
    <glyph glyph-name="Acircumflex" unicode="&#xc2;" horiz-adv-x="705" 
d="M-27 0l16 66h60l314 527h-78l15 65h302l-15 -65h-75l70 -527h70l-16 -66h-215l15 65h73l-20 162h-268l-96 -162h87l-16 -65h-223zM259 291h221l-39 307zM349 715l-28 38l187 145l113 -152l-34 -30l-93 90z" />
    <glyph glyph-name="Atilde" unicode="&#xc3;" horiz-adv-x="705" 
d="M-27 0l16 66h60l314 527h-78l15 65h302l-15 -65h-75l70 -527h70l-16 -66h-215l15 65h73l-20 162h-268l-96 -162h87l-16 -65h-223zM259 291h221l-39 307zM545 717q-43 0 -83 40q-28 29 -49 29q-35 0 -61 -63l-45 16q13 51 44.5 84t66.5 33q41 0 82 -41q28 -28 49 -28
q36 0 62 63l44 -16q-12 -51 -44 -84t-66 -33z" />
    <glyph glyph-name="Adieresis" unicode="&#xc4;" horiz-adv-x="705" 
d="M-27 0l16 66h60l314 527h-78l15 65h302l-15 -65h-75l70 -527h70l-16 -66h-215l15 65h73l-20 162h-268l-96 -162h87l-16 -65h-223zM259 291h221l-39 307zM574 735q-23 0 -39.5 16.5t-16.5 40.5t16.5 41t40.5 17q23 0 39.5 -17t16.5 -41t-16.5 -40.5t-40.5 -16.5zM400 735
q-24 0 -40 16.5t-16 40.5t16.5 41t40.5 17q23 0 39.5 -17t16.5 -41t-17 -40.5t-40 -16.5z" />
    <glyph glyph-name="Aring" unicode="&#xc5;" horiz-adv-x="705" 
d="M-27 0l16 66h60l314 527h-78l15 65h92q-34 25 -34 72q0 43 34.5 79t84.5 36q43 0 67.5 -26.5t24.5 -64.5q0 -31 -16 -57.5t-41 -38.5h90l-15 -65h-75l70 -527h70l-16 -66h-215l15 65h73l-20 162h-268l-96 -162h87l-16 -65h-223zM453 672q27 0 45 22.5t18 52.5
q0 21 -12 35.5t-32 14.5q-27 0 -45 -22.5t-18 -52.5q0 -21 12.5 -35.5t31.5 -14.5zM259 291h221l-39 307z" />
    <glyph glyph-name="AE" unicode="&#xc6;" horiz-adv-x="913" 
d="M-32 0l16 66h79l393 526h-86l16 66h568l-38 -161h-71l22 96h-236l-52 -226h204l-15 -64h-204l-55 -238h236l23 96h71l-37 -161h-463l15 66h80l38 161h-213l-120 -162h90l-15 -65h-246zM305 290h181l71 306h-25z" />
    <glyph glyph-name="Ccedilla" unicode="&#xc7;" horiz-adv-x="686" 
d="M288 -199q-67 0 -117 42l20 29q41 -28 94 -28q19 0 30.5 9t11.5 22q0 15 -16.5 24t-47.5 4l-15 18l42 74q-97 20 -157.5 94t-60.5 189q0 158 110 275t262 117q106 0 171 -52.5t65 -108.5q0 -32 -17.5 -52.5t-42.5 -20.5q-24 0 -38.5 14.5t-14.5 35.5q0 30 29 47
q-9 27 -50.5 48.5t-104.5 21.5q-123 0 -207.5 -98t-84.5 -220q0 -107 58 -168t154 -61q112 0 206 92l44 -46q-111 -114 -257 -114q-9 0 -27 2l-13 -41q38 -4 58.5 -24.5t20.5 -46.5q0 -36 -30 -56.5t-75 -20.5z" />
    <glyph glyph-name="Egrave" unicode="&#xc8;" horiz-adv-x="583" 
d="M3 0l16 66h79l122 526h-89l15 66h479l-39 -161h-71l22 96h-243l-52 -226h211l-14 -64h-212l-55 -238h244l23 96h71l-37 -161h-470zM433 712l-117 87q-26 21 -26 45q0 17 12.5 29.5t29.5 12.5q25 0 46 -32l78 -123z" />
    <glyph glyph-name="Eacute" unicode="&#xc9;" horiz-adv-x="583" 
d="M375 717l-17 24l152 126q22 19 43 19q16 0 27.5 -11.5t11.5 -27.5q0 -30 -37 -48zM3 0l16 66h79l122 526h-89l15 66h479l-39 -161h-71l22 96h-243l-52 -226h211l-14 -64h-212l-55 -238h244l23 96h71l-37 -161h-470z" />
    <glyph glyph-name="Ecircumflex" unicode="&#xca;" horiz-adv-x="583" 
d="M283 715l-28 38l187 145l113 -152l-34 -30l-93 90zM3 0l16 66h79l122 526h-89l15 66h479l-39 -161h-71l22 96h-243l-52 -226h211l-14 -64h-212l-55 -238h244l23 96h71l-37 -161h-470z" />
    <glyph glyph-name="Edieresis" unicode="&#xcb;" horiz-adv-x="583" 
d="M508 735q-23 0 -39.5 16.5t-16.5 40.5t16.5 41t40.5 17q23 0 39.5 -17t16.5 -41t-16.5 -40.5t-40.5 -16.5zM334 735q-24 0 -40 16.5t-16 40.5t16.5 41t40.5 17q23 0 39.5 -17t16.5 -41t-17 -40.5t-40 -16.5zM3 0l16 66h79l122 526h-89l15 66h479l-39 -161h-71l22 96h-243
l-52 -226h211l-14 -64h-212l-55 -238h244l23 96h71l-37 -161h-470z" />
    <glyph glyph-name="Igrave" unicode="&#xcc;" horiz-adv-x="353" 
d="M3 0l16 66h88l121 526h-91l15 66h253l-15 -66h-88l-121 -526h91l-16 -66h-253zM323 712l-117 87q-26 21 -26 45q0 17 12.5 29.5t29.5 12.5q25 0 46 -32l78 -123z" />
    <glyph glyph-name="Iacute" unicode="&#xcd;" horiz-adv-x="353" 
d="M3 0l16 66h88l121 526h-91l15 66h253l-15 -66h-88l-121 -526h91l-16 -66h-253zM264 717l-17 24l152 126q22 19 43 19q16 0 27.5 -11.5t11.5 -27.5q0 -30 -37 -48z" />
    <glyph glyph-name="Icircumflex" unicode="&#xce;" horiz-adv-x="353" 
d="M3 0l16 66h88l121 526h-91l15 66h253l-15 -66h-88l-121 -526h91l-16 -66h-253zM173 715l-28 38l187 145l113 -152l-34 -30l-93 90z" />
    <glyph glyph-name="Idieresis" unicode="&#xcf;" horiz-adv-x="353" 
d="M3 0l16 66h88l121 526h-91l15 66h253l-15 -66h-88l-121 -526h91l-16 -66h-253zM398 735q-23 0 -39.5 16.5t-16.5 40.5t16.5 41t40.5 17q23 0 39.5 -17t16.5 -41t-16.5 -40.5t-40.5 -16.5zM224 735q-24 0 -40 16.5t-16 40.5t16.5 41t40.5 17q23 0 39.5 -17t16.5 -41
t-17 -40.5t-40 -16.5z" />
    <glyph glyph-name="Eth" unicode="&#xd0;" horiz-adv-x="708" 
d="M3 0l16 66h79l55 240h-85l15 62h85l52 224h-89l15 66h209q173 0 265 -92q69 -71 69 -182q0 -156 -103 -259q-124 -125 -347 -125h-236zM172 66h79q178 0 274 98q86 85 86 217q0 89 -53 140q-69 71 -210 71h-54l-52 -224h136l-15 -62h-136z" />
    <glyph glyph-name="Ntilde" unicode="&#xd1;" horiz-adv-x="752" 
d="M548 -3l-270 537l-108 -468h91l-15 -66h-243l16 66h79l122 526h-89l15 66h151l253 -503l101 437h-92l16 66h239l-15 -66h-77l-137 -595h-37zM567 717q-43 0 -83 40q-28 29 -49 29q-35 0 -61 -63l-45 16q13 51 44.5 84t66.5 33q41 0 82 -41q28 -28 49 -28q36 0 62 63
l44 -16q-12 -51 -44 -84t-66 -33z" />
    <glyph glyph-name="Ograve" unicode="&#xd2;" horiz-adv-x="732" 
d="M349 -12q-129 0 -203.5 79.5t-74.5 203.5q0 73 28 144.5t75.5 128t116.5 91.5t146 35q129 0 203.5 -79.5t74.5 -203.5q0 -73 -28 -144.5t-75.5 -128t-116.5 -91.5t-146 -35zM355 56q118 0 200.5 101.5t82.5 228.5q0 93 -53.5 154.5t-153.5 61.5q-118 0 -200.5 -101.5
t-82.5 -228.5q0 -93 53.5 -154.5t153.5 -61.5zM511 712l-117 87q-26 21 -26 45q0 17 12.5 29.5t29.5 12.5q25 0 46 -32l78 -123z" />
    <glyph glyph-name="Oacute" unicode="&#xd3;" horiz-adv-x="732" 
d="M453 717l-17 24l152 126q22 19 43 19q16 0 27.5 -11.5t11.5 -27.5q0 -30 -37 -48zM349 -12q-129 0 -203.5 79.5t-74.5 203.5q0 73 28 144.5t75.5 128t116.5 91.5t146 35q129 0 203.5 -79.5t74.5 -203.5q0 -73 -28 -144.5t-75.5 -128t-116.5 -91.5t-146 -35zM355 56
q118 0 200.5 101.5t82.5 228.5q0 93 -53.5 154.5t-153.5 61.5q-118 0 -200.5 -101.5t-82.5 -228.5q0 -93 53.5 -154.5t153.5 -61.5z" />
    <glyph glyph-name="Ocircumflex" unicode="&#xd4;" horiz-adv-x="732" 
d="M361 715l-28 38l187 145l113 -152l-34 -30l-93 90zM349 -12q-129 0 -203.5 79.5t-74.5 203.5q0 73 28 144.5t75.5 128t116.5 91.5t146 35q129 0 203.5 -79.5t74.5 -203.5q0 -73 -28 -144.5t-75.5 -128t-116.5 -91.5t-146 -35zM355 56q118 0 200.5 101.5t82.5 228.5
q0 93 -53.5 154.5t-153.5 61.5q-118 0 -200.5 -101.5t-82.5 -228.5q0 -93 53.5 -154.5t153.5 -61.5z" />
    <glyph glyph-name="Otilde" unicode="&#xd5;" horiz-adv-x="732" 
d="M349 -12q-129 0 -203.5 79.5t-74.5 203.5q0 73 28 144.5t75.5 128t116.5 91.5t146 35q129 0 203.5 -79.5t74.5 -203.5q0 -73 -28 -144.5t-75.5 -128t-116.5 -91.5t-146 -35zM355 56q118 0 200.5 101.5t82.5 228.5q0 93 -53.5 154.5t-153.5 61.5q-118 0 -200.5 -101.5
t-82.5 -228.5q0 -93 53.5 -154.5t153.5 -61.5zM556 717q-43 0 -83 40q-28 29 -49 29q-35 0 -61 -63l-45 16q13 51 44.5 84t66.5 33q41 0 82 -41q28 -28 49 -28q36 0 62 63l44 -16q-12 -51 -44 -84t-66 -33z" />
    <glyph glyph-name="Odieresis" unicode="&#xd6;" horiz-adv-x="732" 
d="M586 735q-23 0 -39.5 16.5t-16.5 40.5t16.5 41t40.5 17q23 0 39.5 -17t16.5 -41t-16.5 -40.5t-40.5 -16.5zM412 735q-24 0 -40 16.5t-16 40.5t16.5 41t40.5 17q23 0 39.5 -17t16.5 -41t-17 -40.5t-40 -16.5zM349 -12q-129 0 -203.5 79.5t-74.5 203.5q0 73 28 144.5
t75.5 128t116.5 91.5t146 35q129 0 203.5 -79.5t74.5 -203.5q0 -73 -28 -144.5t-75.5 -128t-116.5 -91.5t-146 -35zM355 56q118 0 200.5 101.5t82.5 228.5q0 93 -53.5 154.5t-153.5 61.5q-118 0 -200.5 -101.5t-82.5 -228.5q0 -93 53.5 -154.5t153.5 -61.5z" />
    <glyph glyph-name="multiply" unicode="&#xd7;" horiz-adv-x="419" 
d="M151 425l81 -108l125 103l39 -49l-126 -104l82 -109l-52 -42l-82 109l-125 -103l-39 49l126 104l-81 109z" />
    <glyph glyph-name="Oslash" unicode="&#xd8;" horiz-adv-x="732" 
d="M351 -12q-131 0 -206 83l-94 -82l-41 48l98 85q-35 65 -35 150q0 72 27.5 143.5t75 128t116.5 91.5t146 35q132 0 207 -85l98 85l41 -47l-103 -90q35 -67 35 -147q0 -98 -46.5 -189t-131.5 -150t-187 -59zM149 272q0 -59 20 -103l421 367q-56 67 -158 67
q-118 0 -200.5 -101.5t-82.5 -229.5zM357 55q118 0 200.5 101.5t82.5 229.5q0 53 -20 101l-421 -367q57 -65 158 -65z" />
    <glyph glyph-name="Ugrave" unicode="&#xd9;" horiz-adv-x="714" 
d="M334 -11q-101 0 -156.5 52.5t-55.5 140.5q0 32 10 79l77 331h-88l15 66h243l-15 -66h-81l-77 -335q-9 -45 -9 -70q0 -62 35.5 -97t109.5 -35q73 0 119 44.5t63 120.5l85 372h-91l15 66h243l-15 -66h-79l-87 -381q-51 -222 -261 -222zM496 712l-117 87q-26 21 -26 45
q0 17 12.5 29.5t29.5 12.5q25 0 46 -32l78 -123z" />
    <glyph glyph-name="Uacute" unicode="&#xda;" horiz-adv-x="714" 
d="M438 717l-17 24l152 126q22 19 43 19q16 0 27.5 -11.5t11.5 -27.5q0 -30 -37 -48zM334 -11q-101 0 -156.5 52.5t-55.5 140.5q0 32 10 79l77 331h-88l15 66h243l-15 -66h-81l-77 -335q-9 -45 -9 -70q0 -62 35.5 -97t109.5 -35q73 0 119 44.5t63 120.5l85 372h-91l15 66
h243l-15 -66h-79l-87 -381q-51 -222 -261 -222z" />
    <glyph glyph-name="Ucircumflex" unicode="&#xdb;" horiz-adv-x="714" 
d="M347 715l-28 38l187 145l113 -152l-34 -30l-93 90zM334 -11q-101 0 -156.5 52.5t-55.5 140.5q0 32 10 79l77 331h-88l15 66h243l-15 -66h-81l-77 -335q-9 -45 -9 -70q0 -62 35.5 -97t109.5 -35q73 0 119 44.5t63 120.5l85 372h-91l15 66h243l-15 -66h-79l-87 -381
q-51 -222 -261 -222z" />
    <glyph glyph-name="Udieresis" unicode="&#xdc;" horiz-adv-x="714" 
d="M571 735q-23 0 -39.5 16.5t-16.5 40.5t16.5 41t40.5 17q23 0 39.5 -17t16.5 -41t-16.5 -40.5t-40.5 -16.5zM397 735q-24 0 -40 16.5t-16 40.5t16.5 41t40.5 17q23 0 39.5 -17t16.5 -41t-17 -40.5t-40 -16.5zM334 -11q-101 0 -156.5 52.5t-55.5 140.5q0 32 10 79l77 331
h-88l15 66h243l-15 -66h-81l-77 -335q-9 -45 -9 -70q0 -62 35.5 -97t109.5 -35q73 0 119 44.5t63 120.5l85 372h-91l15 66h243l-15 -66h-79l-87 -381q-51 -222 -261 -222z" />
    <glyph glyph-name="Yacute" unicode="&#xdd;" horiz-adv-x="631" 
d="M124 0l16 66h89l49 199l-114 327h-69l16 66h220l-14 -66h-76l88 -271l220 271h-74l16 66h226l-15 -66h-66l-288 -341l-44 -185h93l-14 -66h-259zM390 717l-17 24l152 126q22 19 43 19q16 0 27.5 -11.5t11.5 -27.5q0 -30 -37 -48z" />
    <glyph glyph-name="Thorn" unicode="&#xde;" horiz-adv-x="572" 
d="M3 0l16 66h79l122 526h-89l15 66h245l-16 -65h-81l-16 -72h63q119 0 174 -55q43 -42 43 -112q0 -94 -70 -152t-191 -58q-71 0 -106 3l-19 -82h91l-15 -65h-245zM304 207q88 0 133.5 39.5t45.5 103.5q0 46 -27 72q-38 36 -125 36h-68l-57 -248q78 -3 98 -3z" />
    <glyph glyph-name="germandbls" unicode="&#xdf;" horiz-adv-x="548" 
d="M343 -7q-49 0 -88 27t-39 66q0 21 13.5 36t33.5 15q19 0 32 -13t13 -29q0 -17 -12 -31q4 -6 18.5 -11t30.5 -5q40 0 64 25t24 63q0 26 -16 49t-47 51q-36 35 -53.5 61.5t-17.5 61.5q0 39 19.5 64.5t56.5 51.5q27 19 40.5 31t27 35.5t13.5 52.5q0 33 -26.5 57t-61.5 24
q-46 0 -78 -34t-45 -95l-125 -546h-69l84 365h-76l15 61h75l29 128q19 87 68.5 135t124.5 48q67 0 110 -40.5t43 -103.5q0 -57 -26 -92t-73 -67q-30 -21 -44.5 -37.5t-14.5 -37.5q0 -28 60 -83q74 -70 74 -141q0 -61 -40.5 -101.5t-116.5 -40.5z" />
    <glyph glyph-name="agrave" unicode="&#xe0;" horiz-adv-x="560" 
d="M193 -8q-67 0 -109 47t-42 126q0 109 67 189t159 80q51 0 87 -29.5t46 -76.5l27 101h67l-77 -313q-7 -30 -7 -42q0 -31 28 -31q30 0 57 67l35 -12q-34 -105 -107 -105q-36 0 -57.5 21.5t-21.5 56.5v10q-66 -89 -152 -89zM216 53q70 0 118 63.5t48 139.5q0 53 -28 84.5
t-79 31.5q-68 0 -113.5 -61t-45.5 -141q0 -54 26 -85.5t74 -31.5zM361 498l-117 87q-26 21 -26 45q0 17 12.5 29.5t29.5 12.5q25 0 46 -32l78 -123z" />
    <glyph glyph-name="aacute" unicode="&#xe1;" horiz-adv-x="560" 
d="M193 -8q-67 0 -109 47t-42 126q0 109 67 189t159 80q51 0 87 -29.5t46 -76.5l27 101h67l-77 -313q-7 -30 -7 -42q0 -31 28 -31q30 0 57 67l35 -12q-34 -105 -107 -105q-36 0 -57.5 21.5t-21.5 56.5v10q-66 -89 -152 -89zM216 53q70 0 118 63.5t48 139.5q0 53 -28 84.5
t-79 31.5q-68 0 -113.5 -61t-45.5 -141q0 -54 26 -85.5t74 -31.5zM302 503l-17 24l152 126q22 19 43 19q16 0 27.5 -11.5t11.5 -27.5q0 -30 -37 -48z" />
    <glyph glyph-name="acircumflex" unicode="&#xe2;" horiz-adv-x="560" 
d="M193 -8q-67 0 -109 47t-42 126q0 109 67 189t159 80q51 0 87 -29.5t46 -76.5l27 101h67l-77 -313q-7 -30 -7 -42q0 -31 28 -31q30 0 57 67l35 -12q-34 -105 -107 -105q-36 0 -57.5 21.5t-21.5 56.5v10q-66 -89 -152 -89zM216 53q70 0 118 63.5t48 139.5q0 53 -28 84.5
t-79 31.5q-68 0 -113.5 -61t-45.5 -141q0 -54 26 -85.5t74 -31.5zM210 501l-28 38l187 145l113 -152l-34 -30l-93 90z" />
    <glyph glyph-name="atilde" unicode="&#xe3;" horiz-adv-x="560" 
d="M193 -8q-67 0 -109 47t-42 126q0 109 67 189t159 80q51 0 87 -29.5t46 -76.5l27 101h67l-77 -313q-7 -30 -7 -42q0 -31 28 -31q30 0 57 67l35 -12q-34 -105 -107 -105q-36 0 -57.5 21.5t-21.5 56.5v10q-66 -89 -152 -89zM216 53q70 0 118 63.5t48 139.5q0 53 -28 84.5
t-79 31.5q-68 0 -113.5 -61t-45.5 -141q0 -54 26 -85.5t74 -31.5zM405 503q-43 0 -83 40q-28 29 -49 29q-35 0 -61 -63l-45 16q13 51 44.5 84t66.5 33q41 0 82 -41q28 -28 49 -28q36 0 62 63l44 -16q-12 -51 -44 -84t-66 -33z" />
    <glyph glyph-name="adieresis" unicode="&#xe4;" horiz-adv-x="560" 
d="M193 -8q-67 0 -109 47t-42 126q0 109 67 189t159 80q51 0 87 -29.5t46 -76.5l27 101h67l-77 -313q-7 -30 -7 -42q0 -31 28 -31q30 0 57 67l35 -12q-34 -105 -107 -105q-36 0 -57.5 21.5t-21.5 56.5v10q-66 -89 -152 -89zM216 53q70 0 118 63.5t48 139.5q0 53 -28 84.5
t-79 31.5q-68 0 -113.5 -61t-45.5 -141q0 -54 26 -85.5t74 -31.5zM434 521q-23 0 -39.5 16.5t-16.5 40.5t16.5 41t40.5 17q23 0 39.5 -17t16.5 -41t-16.5 -40.5t-40.5 -16.5zM260 521q-24 0 -40 16.5t-16 40.5t16.5 41t40.5 17q23 0 39.5 -17t16.5 -41t-17 -40.5t-40 -16.5z
" />
    <glyph glyph-name="aring" unicode="&#xe5;" horiz-adv-x="560" 
d="M193 -8q-67 0 -109 47t-42 126q0 109 67 189t159 80q51 0 87 -29.5t46 -76.5l27 101h67l-77 -313q-7 -30 -7 -42q0 -31 28 -31q30 0 57 67l35 -12q-34 -105 -107 -105q-36 0 -57.5 21.5t-21.5 56.5v10q-66 -89 -152 -89zM216 53q70 0 118 63.5t48 139.5q0 53 -28 84.5
t-79 31.5q-68 0 -113.5 -61t-45.5 -141q0 -54 26 -85.5t74 -31.5zM342 499q-42 0 -67 26.5t-25 67.5q0 51 34.5 89t85.5 38q43 0 68 -26.5t25 -66.5q0 -52 -35 -90t-86 -38zM347 547q27 0 45 22.5t18 52.5q0 21 -12.5 35.5t-31.5 14.5q-27 0 -45.5 -22t-18.5 -53
q0 -21 12.5 -35.5t32.5 -14.5z" />
    <glyph glyph-name="ae" unicode="&#xe6;" horiz-adv-x="792" 
d="M739 192h-312q-1 -7 -1 -21q0 -55 39 -87t97 -32q67 0 140 39l-15 -68q-62 -31 -136 -31q-68 0 -113 35t-61 93q-29 -58 -86 -93t-123 -35q-64 0 -100 32t-36 74q0 71 61 109t167 38h105q-2 58 -35.5 95t-90.5 37q-23 0 -36 -4q-6 -3 -13 -7q7 -12 7 -23q0 -18 -13 -31.5
t-32 -13.5q-20 0 -33 14.5t-13 35.5q0 43 52 70q32 16 78 16q140 0 167 -127q30 58 82 92.5t109 34.5q74 0 118 -42t44 -114q0 -38 -17 -86zM172 52q62 0 117 40t70 102h-80q-179 0 -179 -90q0 -23 19.5 -37.5t52.5 -14.5zM590 373q-51 0 -92.5 -35.5t-59.5 -91.5h245
q7 23 7 42q0 37 -25.5 61t-74.5 24z" />
    <glyph glyph-name="ccedilla" unicode="&#xe7;" horiz-adv-x="464" 
d="M170 -199q-67 0 -117 42l20 29q41 -28 94 -28q19 0 30.5 9t11.5 22q0 15 -16.5 24t-47.5 4l-15 18l45 78q-61 15 -97.5 61.5t-36.5 115.5q0 102 72.5 180t171.5 78q70 0 112 -35t42 -79q0 -25 -15 -42.5t-38 -17.5q-17 0 -30 12t-13 33q0 24 20 36q-24 32 -80 32
q-67 0 -119 -56.5t-52 -136.5q0 -57 35 -92t94 -35q77 0 142 56l-2 -68q-66 -49 -148 -49q-4 0 -11.5 0.5t-10.5 0.5l-15 -44q38 -4 58.5 -24.5t20.5 -46.5q0 -36 -30 -56.5t-75 -20.5z" />
    <glyph glyph-name="egrave" unicode="&#xe8;" horiz-adv-x="476" 
d="M423 192h-313q-1 -7 -1 -21q0 -54 39 -86.5t97 -32.5q67 0 141 39l-15 -68q-63 -31 -140 -31q-79 0 -135 48.5t-56 131.5q0 107 70 184.5t166 77.5q74 0 118.5 -42t44.5 -114q0 -41 -16 -86zM273 373q-50 0 -91.5 -35.5t-60.5 -91.5h245q7 18 7 42q0 37 -25.5 61
t-74.5 24zM336 498l-117 87q-26 21 -26 45q0 17 12.5 29.5t29.5 12.5q25 0 46 -32l78 -123z" />
    <glyph glyph-name="eacute" unicode="&#xe9;" horiz-adv-x="476" 
d="M423 192h-313q-1 -7 -1 -21q0 -54 39 -86.5t97 -32.5q67 0 141 39l-15 -68q-63 -31 -140 -31q-79 0 -135 48.5t-56 131.5q0 107 70 184.5t166 77.5q74 0 118.5 -42t44.5 -114q0 -41 -16 -86zM273 373q-50 0 -91.5 -35.5t-60.5 -91.5h245q7 18 7 42q0 37 -25.5 61
t-74.5 24zM277 503l-17 24l152 126q22 19 43 19q16 0 27.5 -11.5t11.5 -27.5q0 -30 -37 -48z" />
    <glyph glyph-name="ecircumflex" unicode="&#xea;" horiz-adv-x="476" 
d="M423 192h-313q-1 -7 -1 -21q0 -54 39 -86.5t97 -32.5q67 0 141 39l-15 -68q-63 -31 -140 -31q-79 0 -135 48.5t-56 131.5q0 107 70 184.5t166 77.5q74 0 118.5 -42t44.5 -114q0 -41 -16 -86zM273 373q-50 0 -91.5 -35.5t-60.5 -91.5h245q7 18 7 42q0 37 -25.5 61
t-74.5 24zM186 501l-28 38l187 145l113 -152l-34 -30l-93 90z" />
    <glyph glyph-name="edieresis" unicode="&#xeb;" horiz-adv-x="476" 
d="M423 192h-313q-1 -7 -1 -21q0 -54 39 -86.5t97 -32.5q67 0 141 39l-15 -68q-63 -31 -140 -31q-79 0 -135 48.5t-56 131.5q0 107 70 184.5t166 77.5q74 0 118.5 -42t44.5 -114q0 -41 -16 -86zM273 373q-50 0 -91.5 -35.5t-60.5 -91.5h245q7 18 7 42q0 37 -25.5 61
t-74.5 24zM236 521q-24 0 -40 16.5t-16 40.5t16.5 41t40.5 17q23 0 39.5 -17t16.5 -41t-17 -40.5t-40 -16.5zM410 521q-23 0 -39.5 16.5t-16.5 40.5t16.5 41t40.5 17q23 0 39.5 -17t16.5 -41t-16.5 -40.5t-40.5 -16.5z" />
    <glyph glyph-name="igrave" unicode="&#xec;" horiz-adv-x="295" 
d="M149 -7q-39 0 -61.5 22t-22.5 58q0 16 8 46l67 246h-83l16 61h153l-84 -310q-7 -28 -7 -42q0 -31 29 -31q33 0 58 67l35 -12q-34 -105 -108 -105zM233 498l-117 87q-26 21 -26 45q0 17 12.5 29.5t29.5 12.5q25 0 46 -32l78 -123z" />
    <glyph glyph-name="iacute" unicode="&#xed;" horiz-adv-x="295" 
d="M175 503l-17 24l152 126q22 19 43 19q16 0 27.5 -11.5t11.5 -27.5q0 -30 -37 -48zM149 -7q-39 0 -61.5 22t-22.5 58q0 16 8 46l67 246h-83l16 61h153l-84 -310q-7 -28 -7 -42q0 -31 29 -31q33 0 58 67l35 -12q-34 -105 -108 -105z" />
    <glyph glyph-name="icircumflex" unicode="&#xee;" horiz-adv-x="295" 
d="M83 501l-28 38l187 145l113 -152l-34 -30l-93 90zM149 -7q-39 0 -61.5 22t-22.5 58q0 16 8 46l67 246h-83l16 61h153l-84 -310q-7 -28 -7 -42q0 -31 29 -31q33 0 58 67l35 -12q-34 -105 -108 -105z" />
    <glyph glyph-name="idieresis" unicode="&#xef;" horiz-adv-x="295" 
d="M307 521q-23 0 -39.5 16.5t-16.5 40.5t16.5 41t40.5 17q23 0 39.5 -17t16.5 -41t-16.5 -40.5t-40.5 -16.5zM133 521q-24 0 -40 16.5t-16 40.5t16.5 41t40.5 17q23 0 39.5 -17t16.5 -41t-17 -40.5t-40 -16.5zM149 -7q-39 0 -61.5 22t-22.5 58q0 16 8 46l67 246h-83l16 61
h153l-84 -310q-7 -28 -7 -42q0 -31 29 -31q33 0 58 67l35 -12q-34 -105 -108 -105z" />
    <glyph glyph-name="eth" unicode="&#xf0;" horiz-adv-x="511" 
d="M217 -7q-81 0 -130.5 51t-49.5 128q0 94 66.5 167.5t153.5 73.5q113 0 146 -100q4 28 4 70q0 109 -50 190l-116 -105l-37 40l120 109q-38 41 -89 56q-12 -37 -46 -37q-20 0 -34 13.5t-14 35.5q0 20 17 35.5t48 15.5q87 0 163 -79l89 81l37 -40l-92 -83q66 -101 66 -239
q0 -221 -98 -319q-64 -64 -154 -64zM221 54q63 0 108 47q52 54 52 131q0 54 -32 86.5t-84 32.5q-65 0 -111 -53.5t-46 -124.5q0 -54 31.5 -86.5t81.5 -32.5z" />
    <glyph glyph-name="ntilde" unicode="&#xf1;" horiz-adv-x="544" 
d="M413 -7q-38 0 -61 22t-23 57q0 24 8 48l40 139q7 27 7 50q0 29 -19 46.5t-50 17.5q-45 0 -86.5 -41.5t-59.5 -114.5l-55 -217h-70l92 365h-80l15 61h142l-24 -101q64 108 150 108q51 0 84 -32.5t33 -83.5q0 -31 -11 -67l-39 -138q-7 -23 -7 -37q0 -15 8 -23.5t21 -8.5
q30 0 57 67l35 -12q-33 -105 -107 -105zM412 503q-43 0 -83 40q-28 29 -49 29q-35 0 -61 -63l-45 16q13 51 44.5 84t66.5 33q41 0 82 -41q28 -28 49 -28q36 0 62 63l44 -16q-12 -51 -44 -84t-66 -33z" />
    <glyph glyph-name="ograve" unicode="&#xf2;" horiz-adv-x="508" 
d="M226 -8q-85 0 -135 53.5t-50 132.5q0 102 70 179t171 77q85 0 135 -54t50 -132q0 -102 -70 -179t-171 -77zM229 53q70 0 118.5 57.5t48.5 137.5q0 57 -33 91t-84 34q-69 0 -118 -57.5t-49 -138.5q0 -57 33 -90.5t84 -33.5zM351 498l-117 87q-26 21 -26 45q0 17 12.5 29.5
t29.5 12.5q25 0 46 -32l78 -123z" />
    <glyph glyph-name="oacute" unicode="&#xf3;" horiz-adv-x="508" 
d="M292 503l-17 24l152 126q22 19 43 19q16 0 27.5 -11.5t11.5 -27.5q0 -30 -37 -48zM226 -8q-85 0 -135 53.5t-50 132.5q0 102 70 179t171 77q85 0 135 -54t50 -132q0 -102 -70 -179t-171 -77zM229 53q70 0 118.5 57.5t48.5 137.5q0 57 -33 91t-84 34q-69 0 -118 -57.5
t-49 -138.5q0 -57 33 -90.5t84 -33.5z" />
    <glyph glyph-name="ocircumflex" unicode="&#xf4;" horiz-adv-x="508" 
d="M200 501l-28 38l187 145l113 -152l-34 -30l-93 90zM226 -8q-85 0 -135 53.5t-50 132.5q0 102 70 179t171 77q85 0 135 -54t50 -132q0 -102 -70 -179t-171 -77zM229 53q70 0 118.5 57.5t48.5 137.5q0 57 -33 91t-84 34q-69 0 -118 -57.5t-49 -138.5q0 -57 33 -90.5
t84 -33.5z" />
    <glyph glyph-name="otilde" unicode="&#xf5;" horiz-adv-x="508" 
d="M226 -8q-85 0 -135 53.5t-50 132.5q0 102 70 179t171 77q85 0 135 -54t50 -132q0 -102 -70 -179t-171 -77zM229 53q70 0 118.5 57.5t48.5 137.5q0 57 -33 91t-84 34q-69 0 -118 -57.5t-49 -138.5q0 -57 33 -90.5t84 -33.5zM396 503q-43 0 -83 40q-28 29 -49 29
q-35 0 -61 -63l-45 16q13 51 44.5 84t66.5 33q41 0 82 -41q28 -28 49 -28q36 0 62 63l44 -16q-12 -51 -44 -84t-66 -33z" />
    <glyph glyph-name="odieresis" unicode="&#xf6;" horiz-adv-x="508" 
d="M424 521q-23 0 -39.5 16.5t-16.5 40.5t16.5 41t40.5 17q23 0 39.5 -17t16.5 -41t-16.5 -40.5t-40.5 -16.5zM250 521q-24 0 -40 16.5t-16 40.5t16.5 41t40.5 17q23 0 39.5 -17t16.5 -41t-17 -40.5t-40 -16.5zM226 -8q-85 0 -135 53.5t-50 132.5q0 102 70 179t171 77
q85 0 135 -54t50 -132q0 -102 -70 -179t-171 -77zM229 53q70 0 118.5 57.5t48.5 137.5q0 57 -33 91t-84 34q-69 0 -118 -57.5t-49 -138.5q0 -57 33 -90.5t84 -33.5z" />
    <glyph glyph-name="divide" unicode="&#xf7;" horiz-adv-x="419" 
d="M51 240l15 61h332l-14 -61h-333zM257 358q-20 0 -35 15t-15 35t15 35t35 15t34.5 -15t14.5 -35t-14.5 -35t-34.5 -15zM193 84q-20 0 -34.5 14.5t-14.5 34.5t15 35t35 15q19 0 33.5 -15t14.5 -35t-14.5 -34.5t-34.5 -14.5z" />
    <glyph glyph-name="oslash" unicode="&#xf8;" horiz-adv-x="516" 
d="M235 -8q-78 0 -129 46l-64 -57l-36 42l66 57q-25 45 -25 99q0 102 69 178.5t172 76.5q79 0 131 -50l67 60l37 -41l-71 -63q23 -43 23 -93q0 -103 -69.5 -179t-170.5 -76zM118 178q0 -32 9 -56l245 218q-33 33 -86 33q-70 0 -119 -57t-49 -138zM237 53q70 0 118.5 57
t48.5 138q0 24 -7 48l-243 -213q33 -30 83 -30z" />
    <glyph glyph-name="ugrave" unicode="&#xf9;" horiz-adv-x="544" 
d="M68 426h150l-69 -267q-6 -21 -6 -46q0 -27 17.5 -44t47.5 -17q46 0 88 42t60 114l54 218h70l-77 -310q-8 -27 -8 -42q0 -31 29 -31q30 0 57 67l35 -12q-34 -105 -108 -105q-35 0 -56.5 22t-21.5 59q0 4 2 20q-63 -101 -148 -101q-49 0 -81 29.5t-32 78.5q0 28 9 64
l52 200h-80zM361 498l-117 87q-26 21 -26 45q0 17 12.5 29.5t29.5 12.5q25 0 46 -32l78 -123z" />
    <glyph glyph-name="uacute" unicode="&#xfa;" horiz-adv-x="544" 
d="M68 426h150l-69 -267q-6 -21 -6 -46q0 -27 17.5 -44t47.5 -17q46 0 88 42t60 114l54 218h70l-77 -310q-8 -27 -8 -42q0 -31 29 -31q30 0 57 67l35 -12q-34 -105 -108 -105q-35 0 -56.5 22t-21.5 59q0 4 2 20q-63 -101 -148 -101q-49 0 -81 29.5t-32 78.5q0 28 9 64
l52 200h-80zM302 503l-17 24l152 126q22 19 43 19q16 0 27.5 -11.5t11.5 -27.5q0 -30 -37 -48z" />
    <glyph glyph-name="ucircumflex" unicode="&#xfb;" horiz-adv-x="544" 
d="M68 426h150l-69 -267q-6 -21 -6 -46q0 -27 17.5 -44t47.5 -17q46 0 88 42t60 114l54 218h70l-77 -310q-8 -27 -8 -42q0 -31 29 -31q30 0 57 67l35 -12q-34 -105 -108 -105q-35 0 -56.5 22t-21.5 59q0 4 2 20q-63 -101 -148 -101q-49 0 -81 29.5t-32 78.5q0 28 9 64
l52 200h-80zM209 501l-28 38l187 145l113 -152l-34 -30l-93 90z" />
    <glyph glyph-name="udieresis" unicode="&#xfc;" horiz-adv-x="544" 
d="M68 426h150l-69 -267q-6 -21 -6 -46q0 -27 17.5 -44t47.5 -17q46 0 88 42t60 114l54 218h70l-77 -310q-8 -27 -8 -42q0 -31 29 -31q30 0 57 67l35 -12q-34 -105 -108 -105q-35 0 -56.5 22t-21.5 59q0 4 2 20q-63 -101 -148 -101q-49 0 -81 29.5t-32 78.5q0 28 9 64
l52 200h-80zM260 521q-24 0 -40 16.5t-16 40.5t16.5 41t40.5 17q23 0 39.5 -17t16.5 -41t-17 -40.5t-40 -16.5zM434 521q-23 0 -39.5 16.5t-16.5 40.5t16.5 41t40.5 17q23 0 39.5 -17t16.5 -41t-16.5 -40.5t-40.5 -16.5z" />
    <glyph glyph-name="yacute" unicode="&#xfd;" horiz-adv-x="482" 
d="M-15 -200q-28 0 -47.5 16.5t-19.5 40.5q0 20 14 35t34 15q19 0 32 -12t15 -32h2q42 0 163 146l-73 356h-76l15 61h123l62 -356q141 183 159 259q-41 14 -41 54q0 21 15 36t37 15q26 0 42 -18.5t16 -50.5q0 -51 -46 -131.5t-160 -224.5q-99 -123 -157 -166t-109 -43z
M273 503l-17 24l152 126q22 19 43 19q16 0 27.5 -11.5t11.5 -27.5q0 -30 -37 -48z" />
    <glyph glyph-name="thorn" unicode="&#xfe;" horiz-adv-x="528" 
d="M-83 -196l15 60h64l191 808h-81l15 60h150l-91 -385q61 87 147 87q71 0 114.5 -48.5t43.5 -127.5q0 -110 -67.5 -188.5t-159.5 -78.5q-49 0 -87.5 28t-51.5 72l-52 -227h87l-15 -60h-222zM252 54q67 0 113 59t46 136q0 56 -27.5 89.5t-77.5 33.5q-68 0 -118 -64t-50 -139
q0 -52 30.5 -83.5t83.5 -31.5z" />
    <glyph glyph-name="ydieresis" unicode="&#xff;" horiz-adv-x="482" 
d="M-15 -200q-28 0 -47.5 16.5t-19.5 40.5q0 20 14 35t34 15q19 0 32 -12t15 -32h2q42 0 163 146l-73 356h-76l15 61h123l62 -356q141 183 159 259q-41 14 -41 54q0 21 15 36t37 15q26 0 42 -18.5t16 -50.5q0 -51 -46 -131.5t-160 -224.5q-99 -123 -157 -166t-109 -43z
M232 521q-24 0 -40 16.5t-16 40.5t16.5 41t40.5 17q23 0 39.5 -17t16.5 -41t-17 -40.5t-40 -16.5zM406 521q-23 0 -39.5 16.5t-16.5 40.5t16.5 41t40.5 17q23 0 39.5 -17t16.5 -41t-16.5 -40.5t-40.5 -16.5z" />
    <glyph glyph-name="Amacron" unicode="&#x100;" horiz-adv-x="705" 
d="M-27 0l16 66h60l314 527h-78l15 65h302l-15 -65h-75l70 -527h70l-16 -66h-215l15 65h73l-20 162h-268l-96 -162h87l-16 -65h-223zM259 291h221l-39 307zM327 749l15 63h300l-13 -63h-302z" />
    <glyph glyph-name="amacron" unicode="&#x101;" horiz-adv-x="560" 
d="M193 -8q-67 0 -109 47t-42 126q0 109 67 189t159 80q51 0 87 -29.5t46 -76.5l27 101h67l-77 -313q-7 -30 -7 -42q0 -31 28 -31q30 0 57 67l35 -12q-34 -105 -107 -105q-36 0 -57.5 21.5t-21.5 56.5v10q-66 -89 -152 -89zM216 53q70 0 118 63.5t48 139.5q0 53 -28 84.5
t-79 31.5q-68 0 -113.5 -61t-45.5 -141q0 -54 26 -85.5t74 -31.5zM187 535l15 63h300l-13 -63h-302z" />
    <glyph glyph-name="Abreve" unicode="&#x102;" horiz-adv-x="705" 
d="M-27 0l16 66h60l314 527h-78l15 65h302l-15 -65h-75l70 -527h70l-16 -66h-215l15 65h73l-20 162h-268l-96 -162h87l-16 -65h-223zM259 291h221l-39 307zM477 721q-56 0 -90.5 38.5t-39.5 103.5l46 15q19 -89 95 -89q73 0 127 88l41 -22q-30 -62 -78.5 -98t-100.5 -36z
" />
    <glyph glyph-name="abreve" unicode="&#x103;" horiz-adv-x="560" 
d="M193 -8q-67 0 -109 47t-42 126q0 109 67 189t159 80q51 0 87 -29.5t46 -76.5l27 101h67l-77 -313q-7 -30 -7 -42q0 -31 28 -31q30 0 57 67l35 -12q-34 -105 -107 -105q-36 0 -57.5 21.5t-21.5 56.5v10q-66 -89 -152 -89zM216 53q70 0 118 63.5t48 139.5q0 53 -28 84.5
t-79 31.5q-68 0 -113.5 -61t-45.5 -141q0 -54 26 -85.5t74 -31.5zM337 507q-56 0 -90.5 38.5t-39.5 103.5l46 15q19 -89 95 -89q73 0 127 88l41 -22q-30 -62 -78.5 -98t-100.5 -36z" />
    <glyph glyph-name="Aogonek" unicode="&#x104;" horiz-adv-x="705" 
d="M-27 0l16 66h60l314 527h-78l15 65h302l-15 -65h-75l70 -527h70l-16 -66h-78q-77 -58 -77 -106q0 -37 44 -37q28 0 51 9l-12 -50q-26 -17 -64 -17t-60.5 20t-22.5 54q0 65 84 127h-80l15 65h73l-20 162h-268l-96 -162h87l-16 -65h-223zM259 291h221l-39 307z" />
    <glyph glyph-name="aogonek" unicode="&#x105;" horiz-adv-x="560" 
d="M345 74v7q-66 -89 -152 -89q-67 0 -109 47t-42 126q0 109 67 189t159 80q51 0 87 -29.5t46 -76.5l27 101h67l-77 -313q-7 -30 -7 -42q0 -30 26 -30q33 0 59 66l35 -12q-14 -47 -45 -78q-10 -10 -41 -36t-45.5 -46.5t-14.5 -43.5q0 -37 44 -37q28 0 51 9l-11 -50
q-25 -17 -65 -17q-38 0 -60.5 20t-22.5 54q0 65 82 123q-34 7 -49 37q-9 18 -9 41zM216 53q70 0 118 63.5t48 139.5q0 53 -28 84.5t-79 31.5q-68 0 -113.5 -61t-45.5 -141q0 -54 26 -85.5t74 -31.5z" />
    <glyph glyph-name="Cacute" unicode="&#x106;" horiz-adv-x="686" 
d="M436 717l-17 24l152 126q22 19 43 19q16 0 27.5 -11.5t11.5 -27.5q0 -30 -37 -48zM354 -12q-120 0 -201 78t-81 212q0 158 110 275t262 117q106 0 171 -52.5t65 -108.5q0 -32 -17.5 -52.5t-42.5 -20.5q-24 0 -38.5 14.5t-14.5 35.5q0 30 29 47q-9 27 -50.5 48.5
t-104.5 21.5q-123 0 -207.5 -98t-84.5 -220q0 -107 58 -168t154 -61q112 0 206 92l44 -46q-111 -114 -257 -114z" />
    <glyph glyph-name="cacute" unicode="&#x107;" horiz-adv-x="464" 
d="M287 503l-17 24l152 126q22 19 43 19q16 0 27.5 -11.5t11.5 -27.5q0 -30 -37 -48zM233 -8q-83 0 -137.5 50t-54.5 134q0 102 72.5 180t171.5 78q70 0 112 -35t42 -79q0 -25 -15 -42.5t-38 -17.5q-17 0 -30 12t-13 33q0 24 20 36q-24 32 -80 32q-67 0 -119 -56.5
t-52 -136.5q0 -57 35 -92t94 -35q77 0 142 56l-2 -68q-66 -49 -148 -49z" />
    <glyph glyph-name="Cdotaccent" unicode="&#x10a;" horiz-adv-x="686" 
d="M354 -12q-120 0 -201 78t-81 212q0 158 110 275t262 117q106 0 171 -52.5t65 -108.5q0 -32 -17.5 -52.5t-42.5 -20.5q-24 0 -38.5 14.5t-14.5 35.5q0 30 29 47q-9 27 -50.5 48.5t-104.5 21.5q-123 0 -207.5 -98t-84.5 -220q0 -107 58 -168t154 -61q112 0 206 92l44 -46
q-111 -114 -257 -114zM482 733q-24 0 -41 17.5t-17 41.5q0 25 17 42t41 17t41 -17t17 -42q0 -24 -17 -41.5t-41 -17.5z" />
    <glyph glyph-name="cdotaccent" unicode="&#x10b;" horiz-adv-x="464" 
d="M233 -8q-83 0 -137.5 50t-54.5 134q0 102 72.5 180t171.5 78q70 0 112 -35t42 -79q0 -25 -15 -42.5t-38 -17.5q-17 0 -30 12t-13 33q0 24 20 36q-24 32 -80 32q-67 0 -119 -56.5t-52 -136.5q0 -57 35 -92t94 -35q77 0 142 56l-2 -68q-66 -49 -148 -49zM333 519
q-24 0 -41 17.5t-17 41.5q0 25 17 42t41 17t41 -17t17 -42q0 -24 -17 -41.5t-41 -17.5z" />
    <glyph glyph-name="Ccaron" unicode="&#x10c;" horiz-adv-x="686" 
d="M466 715l-113 152l35 30l92 -90l145 91l28 -37zM354 -12q-120 0 -201 78t-81 212q0 158 110 275t262 117q106 0 171 -52.5t65 -108.5q0 -32 -17.5 -52.5t-42.5 -20.5q-24 0 -38.5 14.5t-14.5 35.5q0 30 29 47q-9 27 -50.5 48.5t-104.5 21.5q-123 0 -207.5 -98t-84.5 -220
q0 -107 58 -168t154 -61q112 0 206 92l44 -46q-111 -114 -257 -114z" />
    <glyph glyph-name="ccaron" unicode="&#x10d;" horiz-adv-x="464" 
d="M317 501l-113 152l35 30l92 -90l145 91l28 -37zM233 -8q-83 0 -137.5 50t-54.5 134q0 102 72.5 180t171.5 78q70 0 112 -35t42 -79q0 -25 -15 -42.5t-38 -17.5q-17 0 -30 12t-13 33q0 24 20 36q-24 32 -80 32q-67 0 -119 -56.5t-52 -136.5q0 -57 35 -92t94 -35
q77 0 142 56l-2 -68q-66 -49 -148 -49z" />
    <glyph glyph-name="Dcaron" unicode="&#x10e;" horiz-adv-x="708" 
d="M436 715l-113 152l35 30l92 -90l145 91l28 -37zM3 0l16 66h79l122 526h-89l15 66h209q173 0 265 -92q69 -71 69 -182q0 -156 -103 -259q-124 -125 -347 -125h-236zM172 66h79q178 0 274 98q86 85 86 217q0 89 -53 140q-69 71 -210 71h-54z" />
    <glyph glyph-name="dcaron" unicode="&#x10f;" horiz-adv-x="562" 
d="M43 165q0 111 66.5 190t156.5 79q50 0 87 -29t48 -74l80 341h-81l15 60h150l-144 -616q-8 -29 -8 -42q0 -31 28 -31q31 0 58 67l35 -12q-34 -105 -108 -105q-36 0 -57 22t-21 58v5q-1 4 0 4q-65 -90 -152 -90q-67 0 -110 47.5t-43 125.5zM220 53q69 0 116.5 62.5
t47.5 139.5q0 54 -29 85.5t-81 31.5q-67 0 -112 -60.5t-45 -140.5q0 -54 27 -86t76 -32zM571 505l-20 19q47 51 60 100q3 13 4 39t4 39q9 40 45 40q18 0 29 -11.5t11 -30.5q0 -43 -40 -99q-30 -43 -93 -96z" />
    <glyph glyph-name="Dcroat" unicode="&#x110;" horiz-adv-x="708" 
d="M3 0l16 66h79l55 240h-85l15 62h85l52 224h-89l15 66h209q173 0 265 -92q69 -71 69 -182q0 -156 -103 -259q-124 -125 -347 -125h-236zM172 66h79q178 0 274 98q86 85 86 217q0 89 -53 140q-69 71 -210 71h-54l-52 -224h136l-15 -62h-136z" />
    <glyph glyph-name="dcroat" unicode="&#x111;" horiz-adv-x="562" 
d="M291 519l13 61h155l22 92h-81l15 60h150l-36 -152h77l-13 -61h-78l-94 -403q-8 -29 -8 -42q0 -31 28 -31q31 0 58 67l35 -12q-34 -105 -108 -105q-36 0 -57 22t-21 58v5q-1 4 0 4q-65 -90 -152 -90q-67 0 -110 47.5t-43 125.5q0 111 66.5 190t156.5 79q50 0 87 -29
t48 -74l44 188h-154zM220 53q69 0 116.5 62.5t47.5 139.5q0 54 -29 85.5t-81 31.5q-67 0 -112 -60.5t-45 -140.5q0 -54 27 -86t76 -32z" />
    <glyph glyph-name="Emacron" unicode="&#x112;" horiz-adv-x="583" 
d="M3 0l16 66h79l122 526h-89l15 66h479l-39 -161h-71l22 96h-243l-52 -226h211l-14 -64h-212l-55 -238h244l23 96h71l-37 -161h-470zM260 749l15 63h300l-13 -63h-302z" />
    <glyph glyph-name="emacron" unicode="&#x113;" horiz-adv-x="476" 
d="M423 192h-313q-1 -7 -1 -21q0 -54 39 -86.5t97 -32.5q67 0 141 39l-15 -68q-63 -31 -140 -31q-79 0 -135 48.5t-56 131.5q0 107 70 184.5t166 77.5q74 0 118.5 -42t44.5 -114q0 -41 -16 -86zM273 373q-50 0 -91.5 -35.5t-60.5 -91.5h245q7 18 7 42q0 37 -25.5 61
t-74.5 24zM164 535l15 63h300l-13 -63h-302z" />
    <glyph glyph-name="Ebreve" unicode="&#x114;" horiz-adv-x="583" 
d="M3 0l16 66h79l122 526h-89l15 66h479l-39 -161h-71l22 96h-243l-52 -226h211l-14 -64h-212l-55 -238h244l23 96h71l-37 -161h-470zM410 721q-56 0 -90.5 38.5t-39.5 103.5l46 15q19 -89 95 -89q73 0 127 88l41 -22q-30 -62 -78.5 -98t-100.5 -36z" />
    <glyph glyph-name="ebreve" unicode="&#x115;" horiz-adv-x="476" 
d="M423 192h-313q-1 -7 -1 -21q0 -54 39 -86.5t97 -32.5q67 0 141 39l-15 -68q-63 -31 -140 -31q-79 0 -135 48.5t-56 131.5q0 107 70 184.5t166 77.5q74 0 118.5 -42t44.5 -114q0 -41 -16 -86zM273 373q-50 0 -91.5 -35.5t-60.5 -91.5h245q7 18 7 42q0 37 -25.5 61
t-74.5 24zM314 507q-56 0 -90.5 38.5t-39.5 103.5l46 15q19 -89 95 -89q73 0 127 88l41 -22q-30 -62 -78.5 -98t-100.5 -36z" />
    <glyph glyph-name="Edotaccent" unicode="&#x116;" horiz-adv-x="583" 
d="M3 0l16 66h79l122 526h-89l15 66h479l-39 -161h-71l22 96h-243l-52 -226h211l-14 -64h-212l-55 -238h244l23 96h71l-37 -161h-470zM421 733q-24 0 -41 17.5t-17 41.5q0 25 17 42t41 17t41 -17t17 -42q0 -24 -17 -41.5t-41 -17.5z" />
    <glyph glyph-name="edotaccent" unicode="&#x117;" horiz-adv-x="476" 
d="M423 192h-313q-1 -7 -1 -21q0 -54 39 -86.5t97 -32.5q67 0 141 39l-15 -68q-63 -31 -140 -31q-79 0 -135 48.5t-56 131.5q0 107 70 184.5t166 77.5q74 0 118.5 -42t44.5 -114q0 -41 -16 -86zM273 373q-50 0 -91.5 -35.5t-60.5 -91.5h245q7 18 7 42q0 37 -25.5 61
t-74.5 24zM324 519q-24 0 -41 17.5t-17 41.5q0 25 17 42t41 17t41 -17t17 -42q0 -24 -17 -41.5t-41 -17.5z" />
    <glyph glyph-name="Eogonek" unicode="&#x118;" horiz-adv-x="583" 
d="M3 0l16 66h79l122 526h-89l15 66h479l-39 -161h-71l22 96h-243l-52 -226h211l-14 -64h-212l-55 -238h244l23 96h71l-37 -161h-48q-77 -58 -77 -106q0 -37 44 -37q28 0 51 9l-12 -50q-25 -17 -64 -17q-38 0 -60.5 20t-22.5 54q0 65 84 127h-365z" />
    <glyph glyph-name="eogonek" unicode="&#x119;" horiz-adv-x="476" 
d="M261 -201q-38 0 -60.5 20t-22.5 54q0 66 79 120q-4 0 -12.5 -0.5t-13.5 -0.5q-79 0 -135 48.5t-56 131.5q0 107 70 184.5t166 77.5q74 0 118.5 -42t44.5 -114q0 -41 -16 -86h-313q-1 -7 -1 -21q0 -54 39 -86.5t97 -32.5q67 0 141 39l-15 -68q-51 -24 -90 -59t-39 -70
q0 -37 44 -37q28 0 51 9l-11 -50q-26 -17 -65 -17zM273 373q-50 0 -91.5 -35.5t-60.5 -91.5h245q7 18 7 42q0 37 -25.5 61t-74.5 24z" />
    <glyph glyph-name="Ecaron" unicode="&#x11a;" horiz-adv-x="583" 
d="M405 715l-113 152l35 30l92 -90l145 91l28 -37zM3 0l16 66h79l122 526h-89l15 66h479l-39 -161h-71l22 96h-243l-52 -226h211l-14 -64h-212l-55 -238h244l23 96h71l-37 -161h-470z" />
    <glyph glyph-name="ecaron" unicode="&#x11b;" horiz-adv-x="476" 
d="M423 192h-313q-1 -7 -1 -21q0 -54 39 -86.5t97 -32.5q67 0 141 39l-15 -68q-63 -31 -140 -31q-79 0 -135 48.5t-56 131.5q0 107 70 184.5t166 77.5q74 0 118.5 -42t44.5 -114q0 -41 -16 -86zM273 373q-50 0 -91.5 -35.5t-60.5 -91.5h245q7 18 7 42q0 37 -25.5 61
t-74.5 24zM308 501l-113 152l35 30l92 -90l145 91l28 -37z" />
    <glyph glyph-name="Gbreve" unicode="&#x11e;" horiz-adv-x="718" 
d="M519 0l11 64q-92 -74 -205 -74q-109 0 -181.5 74t-72.5 195q0 165 114 287.5t277 122.5q126 0 197 -67q38 -38 38 -80q0 -30 -17.5 -48.5t-41.5 -18.5t-38.5 14t-14.5 36q0 26 26 44q-3 5 -13 15q-49 38 -139 38q-89 0 -161 -49t-110.5 -126.5t-38.5 -164.5
q0 -93 52.5 -149.5t140.5 -56.5q110 0 197 67l33 134h-184l15 63h257l-76 -320h-65zM480 721q-56 0 -90.5 38.5t-39.5 103.5l46 15q19 -89 95 -89q73 0 127 88l41 -22q-30 -62 -78.5 -98t-100.5 -36z" />
    <glyph glyph-name="gbreve" unicode="&#x11f;" horiz-adv-x="528" 
d="M181 -200q-42 0 -84 14.5t-62 33.5q-23 24 -23 50q0 23 13.5 38t35.5 15t35 -14.5t13 -34.5q0 -15 -8 -26q29 -19 80 -19q63 0 101 38q33 33 51 108l20 86q-56 -86 -149 -86q-72 0 -116.5 47t-44.5 126q0 107 66.5 182.5t161.5 75.5q54 0 89.5 -29.5t46.5 -73.5l26 98h67
l-102 -439q-22 -93 -65 -135q-54 -55 -152 -55zM227 64q69 0 115 59t46 135q0 53 -30 83.5t-82 30.5q-68 0 -113.5 -56.5t-45.5 -135.5q0 -53 30 -84.5t80 -31.5zM338 507q-56 0 -90.5 38.5t-39.5 103.5l46 15q19 -89 95 -89q73 0 127 88l41 -22q-30 -62 -78.5 -98
t-100.5 -36z" />
    <glyph glyph-name="Gdotaccent" unicode="&#x120;" horiz-adv-x="718" 
d="M519 0l11 64q-92 -74 -205 -74q-109 0 -181.5 74t-72.5 195q0 165 114 287.5t277 122.5q126 0 197 -67q38 -38 38 -80q0 -30 -17.5 -48.5t-41.5 -18.5t-38.5 14t-14.5 36q0 26 26 44q-3 5 -13 15q-49 38 -139 38q-89 0 -161 -49t-110.5 -126.5t-38.5 -164.5
q0 -93 52.5 -149.5t140.5 -56.5q110 0 197 67l33 134h-184l15 63h257l-76 -320h-65zM491 733q-24 0 -41 17.5t-17 41.5q0 25 17 42t41 17t41 -17t17 -42q0 -24 -17 -41.5t-41 -17.5z" />
    <glyph glyph-name="gdotaccent" unicode="&#x121;" horiz-adv-x="528" 
d="M181 -200q-42 0 -84 14.5t-62 33.5q-23 24 -23 50q0 23 13.5 38t35.5 15t35 -14.5t13 -34.5q0 -15 -8 -26q29 -19 80 -19q63 0 101 38q33 33 51 108l20 86q-56 -86 -149 -86q-72 0 -116.5 47t-44.5 126q0 107 66.5 182.5t161.5 75.5q54 0 89.5 -29.5t46.5 -73.5l26 98h67
l-102 -439q-22 -93 -65 -135q-54 -55 -152 -55zM227 64q69 0 115 59t46 135q0 53 -30 83.5t-82 30.5q-68 0 -113.5 -56.5t-45.5 -135.5q0 -53 30 -84.5t80 -31.5zM348 519q-24 0 -41 17.5t-17 41.5q0 25 17 42t41 17t41 -17t17 -42q0 -24 -17 -41.5t-41 -17.5z" />
    <glyph glyph-name="Gcommaaccent" unicode="&#x122;" horiz-adv-x="718" 
d="M519 0l11 64q-92 -74 -205 -74q-109 0 -181.5 74t-72.5 195q0 165 114 287.5t277 122.5q126 0 197 -67q38 -38 38 -80q0 -30 -17.5 -48.5t-41.5 -18.5t-38.5 14t-14.5 36q0 26 26 44q-3 5 -13 15q-49 38 -139 38q-89 0 -161 -49t-110.5 -126.5t-38.5 -164.5
q0 -93 52.5 -149.5t140.5 -56.5q110 0 197 67l33 134h-184l15 63h257l-76 -320h-65zM187 -278l-13 25q49 24 76.5 53t29.5 47q-17 6 -27 20t-10 28q0 22 15 37t37 15q23 0 39 -16.5t16 -43.5q0 -46 -43 -92t-120 -73z" />
    <glyph glyph-name="gcommaaccent" unicode="&#x123;" horiz-adv-x="528" 
d="M181 -200q-42 0 -84 14.5t-62 33.5q-23 24 -23 50q0 23 13.5 38t35.5 15t35 -14.5t13 -34.5q0 -15 -8 -26q29 -19 80 -19q63 0 101 38q33 33 51 108l20 86q-56 -86 -149 -86q-72 0 -116.5 47t-44.5 126q0 107 66.5 182.5t161.5 75.5q54 0 89.5 -29.5t46.5 -73.5l26 98h67
l-102 -439q-22 -93 -65 -135q-54 -55 -152 -55zM227 64q69 0 115 59t46 135q0 53 -30 83.5t-82 30.5q-68 0 -113.5 -56.5t-45.5 -135.5q0 -53 30 -84.5t80 -31.5zM455 747l13 -25q-49 -24 -76.5 -53t-29.5 -47q17 -6 27 -20t10 -28q0 -22 -15 -37t-37 -15q-23 0 -39 16.5
t-16 43.5q0 46 43 92t120 73z" />
    <glyph glyph-name="Hbar" unicode="&#x126;" horiz-adv-x="767" 
d="M773 512l-13 -59h-68l-89 -387h89l-16 -66h-244l15 66h81l55 232h-357l-54 -232h91l-15 -66h-245l16 66h79l89 387h-65l13 59h66l19 82h-89l15 64h244l-15 -64h-81l-19 -82h357l19 82h-92l16 64h244l-15 -64h-79l-19 -82h67zM241 363h357l20 90h-357z" />
    <glyph glyph-name="hbar" unicode="&#x127;" horiz-adv-x="527" 
d="M29 0l120 519h-78l13 61h79l22 92h-81l15 60h149l-36 -152h156l-14 -61h-156l-42 -181q62 95 142 95q52 0 86 -32.5t35 -83.5q0 -31 -11 -67l-37 -138q-6 -21 -6 -37q0 -15 8 -23.5t21 -8.5q31 0 56 67l35 -12q-32 -105 -105 -105q-39 0 -62 22t-23 57q0 19 7 47l38 140
q7 27 7 50q-1 28 -20.5 46t-50.5 18q-46 0 -88 -41.5t-59 -114.5l-50 -217h-70z" />
    <glyph glyph-name="Imacron" unicode="&#x12a;" horiz-adv-x="353" 
d="M3 0l16 66h88l121 526h-91l15 66h253l-15 -66h-88l-121 -526h91l-16 -66h-253zM151 749l15 63h300l-13 -63h-302z" />
    <glyph glyph-name="imacron" unicode="&#x12b;" horiz-adv-x="295" 
d="M149 -7q-39 0 -61.5 22t-22.5 58q0 16 8 46l67 246h-83l16 61h153l-84 -310q-7 -28 -7 -42q0 -31 29 -31q33 0 58 67l35 -12q-34 -105 -108 -105zM61 535l15 63h300l-13 -63h-302z" />
    <glyph glyph-name="Ibreve" unicode="&#x12c;" horiz-adv-x="353" 
d="M3 0l16 66h88l121 526h-91l15 66h253l-15 -66h-88l-121 -526h91l-16 -66h-253zM301 721q-56 0 -90.5 38.5t-39.5 103.5l46 15q19 -89 95 -89q73 0 127 88l41 -22q-30 -62 -78.5 -98t-100.5 -36z" />
    <glyph glyph-name="ibreve" unicode="&#x12d;" horiz-adv-x="295" 
d="M149 -7q-39 0 -61.5 22t-22.5 58q0 16 8 46l67 246h-83l16 61h153l-84 -310q-7 -28 -7 -42q0 -31 29 -31q33 0 58 67l35 -12q-34 -105 -108 -105zM211 507q-56 0 -90.5 38.5t-39.5 103.5l46 15q19 -89 95 -89q73 0 127 88l41 -22q-30 -62 -78.5 -98t-100.5 -36z" />
    <glyph glyph-name="Iogonek" unicode="&#x12e;" horiz-adv-x="353" 
d="M3 0l16 66h88l121 526h-91l15 66h253l-15 -66h-88l-121 -526h91l-16 -66h-99q-77 -58 -77 -106q0 -37 44 -37q28 0 51 9l-12 -50q-25 -17 -64 -17q-38 0 -60.5 20t-22.5 54q0 65 84 127h-97z" />
    <glyph glyph-name="iogonek" unicode="&#x12f;" horiz-adv-x="295" 
d="M222 110l35 -12q-15 -49 -45 -78q-10 -10 -41 -36t-45.5 -46.5t-14.5 -43.5q0 -37 44 -37q28 0 51 9l-11 -50q-25 -17 -65 -17q-38 0 -60.5 20t-22.5 54q0 63 80 122q-29 5 -45.5 26t-16.5 52q0 16 8 46l67 246h-83l16 61h153l-84 -310q-7 -28 -7 -42q0 -31 28 -31
q34 0 59 67zM204 508q-21 0 -36 15t-15 36t15 36t36 15q20 0 35 -15t15 -36t-15 -36t-35 -15z" />
    <glyph glyph-name="Idotaccent" unicode="&#x130;" horiz-adv-x="353" 
d="M3 0l16 66h88l121 526h-91l15 66h253l-15 -66h-88l-121 -526h91l-16 -66h-253zM312 733q-24 0 -41 17.5t-17 41.5q0 25 17 42t41 17t41 -17t17 -42q0 -24 -17 -41.5t-41 -17.5z" />
    <glyph glyph-name="dotlessi" unicode="&#x131;" horiz-adv-x="295" 
d="M149 -7q-39 0 -61.5 22t-22.5 58q0 16 8 46l67 246h-83l16 61h153l-84 -310q-7 -28 -7 -42q0 -31 29 -31q33 0 58 67l35 -12q-34 -105 -108 -105z" />
    <glyph glyph-name="Kcommaaccent" unicode="&#x136;" horiz-adv-x="657" 
d="M641 592l-263 -222l145 -304h90l-15 -66h-128l-150 325l-109 -92l-39 -167h91l-16 -66h-244l16 66h79l122 526h-89l15 66h240l-15 -65h-77l-64 -277l320 277h-85l14 65h249l-15 -66h-72zM163 -278l-13 25q49 24 76.5 53t29.5 47q-17 6 -27 20t-10 28q0 22 15 37t37 15
q23 0 39 -16.5t16 -43.5q0 -46 -43 -92t-120 -73z" />
    <glyph glyph-name="kcommaaccent" unicode="&#x137;" horiz-adv-x="471" 
d="M99 0h-70l156 672h-81l15 60h149l-120 -515q176 72 208 123q-25 13 -25 41q0 23 15 38t37 15t36.5 -15.5t14.5 -41.5q0 -44 -48 -88t-128 -82l45 -107q13 -34 23 -46q9 -10 23 -10q28 0 47 78l37 -11q-26 -118 -96 -118q-33 0 -56 20q-21 18 -37 57l-48 116
q-34 -15 -59 -25zM46 -278l-13 25q49 24 76.5 53t29.5 47q-17 6 -27 20t-10 28q0 22 15 37t37 15q23 0 39 -16.5t16 -43.5q0 -46 -43 -92t-120 -73z" />
    <glyph glyph-name="Lacute" unicode="&#x139;" horiz-adv-x="549" 
d="M273 728l-17 24l152 126q22 19 43 19q16 0 27.5 -11.5t11.5 -27.5q0 -30 -37 -48zM3 0l16 66h79l122 526h-89l15 66h250l-15 -66h-87l-122 -527h224l24 101h71l-38 -166h-450z" />
    <glyph glyph-name="lacute" unicode="&#x13a;" horiz-adv-x="278" 
d="M231 774l-17 24l152 126q22 19 43 19q16 0 27.5 -11.5t11.5 -27.5q0 -30 -37 -48zM135 -7q-38 0 -60.5 22t-22.5 58q0 16 7 44l129 555h-80l15 60h149l-143 -615q-7 -37 -7 -42q0 -32 28 -32q32 0 59 67l35 -12q-34 -105 -109 -105z" />
    <glyph glyph-name="Lcommaaccent" unicode="&#x13b;" horiz-adv-x="549" 
d="M96 -278l-13 25q49 24 76.5 53t29.5 47q-17 6 -27 20t-10 28q0 22 15 37t37 15q23 0 39 -16.5t16 -43.5q0 -46 -43 -92t-120 -73zM3 0l16 66h79l122 526h-89l15 66h250l-15 -66h-87l-122 -527h224l24 101h71l-38 -166h-450z" />
    <glyph glyph-name="lcommaaccent" unicode="&#x13c;" horiz-adv-x="278" 
d="M-10 -278l-13 25q49 24 76.5 53t29.5 47q-17 6 -27 20t-10 28q0 22 15 37t37 15q23 0 39 -16.5t16 -43.5q0 -46 -43 -92t-120 -73zM135 -7q-38 0 -60.5 22t-22.5 58q0 16 7 44l129 555h-80l15 60h149l-143 -615q-7 -37 -7 -42q0 -32 28 -32q32 0 59 67l35 -12
q-34 -105 -109 -105z" />
    <glyph glyph-name="Lcaron" unicode="&#x13d;" horiz-adv-x="549" 
d="M410 421l-20 19q47 51 60 100q3 13 4 39t4 39q9 40 45 40q18 0 29 -11.5t11 -30.5q0 -43 -40 -99q-30 -43 -93 -96zM3 0l16 66h79l122 526h-89l15 66h250l-15 -66h-87l-122 -527h224l24 101h71l-38 -166h-450z" />
    <glyph glyph-name="lcaron" unicode="&#x13e;" horiz-adv-x="278" 
d="M278 505l-20 19q47 51 60 100q3 13 4 39t4 39q9 40 45 40q18 0 29 -11.5t11 -30.5q0 -43 -40 -99q-30 -43 -93 -96zM135 -7q-38 0 -60.5 22t-22.5 58q0 16 7 44l129 555h-80l15 60h149l-143 -615q-7 -37 -7 -42q0 -32 28 -32q32 0 59 67l35 -12q-34 -105 -109 -105z" />
    <glyph glyph-name="Ldot" unicode="&#x13f;" horiz-adv-x="549" 
d="M3 0l16 66h79l122 526h-89l15 66h250l-15 -66h-87l-122 -527h224l24 101h71l-38 -166h-450zM483 296q-24 0 -41 17.5t-17 41.5q0 25 17 42t41 17t41 -17t17 -42q0 -24 -17 -41.5t-41 -17.5z" />
    <glyph glyph-name="ldot" unicode="&#x140;" horiz-adv-x="326" 
d="M135 -7q-38 0 -60.5 22t-22.5 58q0 16 7 44l129 555h-80l15 60h149l-143 -615q-7 -37 -7 -42q0 -32 28 -32q32 0 59 67l35 -12q-34 -105 -109 -105zM310 280q-24 0 -41 17.5t-17 41.5q0 25 17 42t41 17t41 -17t17 -42q0 -24 -17 -41.5t-41 -17.5z" />
    <glyph glyph-name="Lslash" unicode="&#x141;" horiz-adv-x="558" 
d="M12 0l16 66h79l48 209l-93 -37l-22 53l131 52l58 249h-89l15 66h250l-15 -66h-87l-51 -218l125 49l21 -53l-162 -65l-55 -240h224l24 101h71l-38 -166h-450z" />
    <glyph glyph-name="lslash" unicode="&#x142;" horiz-adv-x="313" 
d="M152 -7q-38 0 -60.5 22t-22.5 58q0 16 7 44l56 244l-89 -38l-22 51l127 54l57 244h-80l15 60h149l-63 -271l107 47l22 -51l-145 -64l-64 -276q-7 -37 -7 -42q0 -32 28 -32q32 0 59 67l35 -12q-34 -105 -109 -105z" />
    <glyph glyph-name="Nacute" unicode="&#x143;" horiz-adv-x="752" 
d="M464 717l-17 24l152 126q22 19 43 19q16 0 27.5 -11.5t11.5 -27.5q0 -30 -37 -48zM548 -3l-270 537l-108 -468h91l-15 -66h-243l16 66h79l122 526h-89l15 66h151l253 -503l101 437h-92l16 66h239l-15 -66h-77l-137 -595h-37z" />
    <glyph glyph-name="nacute" unicode="&#x144;" horiz-adv-x="544" 
d="M309 503l-17 24l152 126q22 19 43 19q16 0 27.5 -11.5t11.5 -27.5q0 -30 -37 -48zM413 -7q-38 0 -61 22t-23 57q0 24 8 48l40 139q7 27 7 50q0 29 -19 46.5t-50 17.5q-45 0 -86.5 -41.5t-59.5 -114.5l-55 -217h-70l92 365h-80l15 61h142l-24 -101q64 108 150 108
q51 0 84 -32.5t33 -83.5q0 -31 -11 -67l-39 -138q-7 -23 -7 -37q0 -15 8 -23.5t21 -8.5q30 0 57 67l35 -12q-33 -105 -107 -105z" />
    <glyph glyph-name="Ncommaaccent" unicode="&#x145;" horiz-adv-x="752" 
d="M208 -278l-13 25q49 24 76.5 53t29.5 47q-17 6 -27 20t-10 28q0 22 15 37t37 15q23 0 39 -16.5t16 -43.5q0 -46 -43 -92t-120 -73zM548 -3l-270 537l-108 -468h91l-15 -66h-243l16 66h79l122 526h-89l15 66h151l253 -503l101 437h-92l16 66h239l-15 -66h-77l-137 -595
h-37z" />
    <glyph glyph-name="ncommaaccent" unicode="&#x146;" horiz-adv-x="544" 
d="M96 -278l-13 25q49 24 76.5 53t29.5 47q-17 6 -27 20t-10 28q0 22 15 37t37 15q23 0 39 -16.5t16 -43.5q0 -46 -43 -92t-120 -73zM413 -7q-38 0 -61 22t-23 57q0 24 8 48l40 139q7 27 7 50q0 29 -19 46.5t-50 17.5q-45 0 -86.5 -41.5t-59.5 -114.5l-55 -217h-70l92 365
h-80l15 61h142l-24 -101q64 108 150 108q51 0 84 -32.5t33 -83.5q0 -31 -11 -67l-39 -138q-7 -23 -7 -37q0 -15 8 -23.5t21 -8.5q30 0 57 67l35 -12q-33 -105 -107 -105z" />
    <glyph glyph-name="Ncaron" unicode="&#x147;" horiz-adv-x="752" 
d="M495 715l-113 152l35 30l92 -90l145 91l28 -37zM548 -3l-270 537l-108 -468h91l-15 -66h-243l16 66h79l122 526h-89l15 66h151l253 -503l101 437h-92l16 66h239l-15 -66h-77l-137 -595h-37z" />
    <glyph glyph-name="ncaron" unicode="&#x148;" horiz-adv-x="544" 
d="M339 501l-113 152l35 30l92 -90l145 91l28 -37zM413 -7q-38 0 -61 22t-23 57q0 24 8 48l40 139q7 27 7 50q0 29 -19 46.5t-50 17.5q-45 0 -86.5 -41.5t-59.5 -114.5l-55 -217h-70l92 365h-80l15 61h142l-24 -101q64 108 150 108q51 0 84 -32.5t33 -83.5q0 -31 -11 -67
l-39 -138q-7 -23 -7 -37q0 -15 8 -23.5t21 -8.5q30 0 57 67l35 -12q-33 -105 -107 -105z" />
    <glyph glyph-name="Omacron" unicode="&#x14c;" horiz-adv-x="732" 
d="M339 749l15 63h300l-13 -63h-302zM349 -12q-129 0 -203.5 79.5t-74.5 203.5q0 73 28 144.5t75.5 128t116.5 91.5t146 35q129 0 203.5 -79.5t74.5 -203.5q0 -73 -28 -144.5t-75.5 -128t-116.5 -91.5t-146 -35zM355 56q118 0 200.5 101.5t82.5 228.5q0 93 -53.5 154.5
t-153.5 61.5q-118 0 -200.5 -101.5t-82.5 -228.5q0 -93 53.5 -154.5t153.5 -61.5z" />
    <glyph glyph-name="omacron" unicode="&#x14d;" horiz-adv-x="508" 
d="M177 535l15 63h300l-13 -63h-302zM226 -8q-85 0 -135 53.5t-50 132.5q0 102 70 179t171 77q85 0 135 -54t50 -132q0 -102 -70 -179t-171 -77zM229 53q70 0 118.5 57.5t48.5 137.5q0 57 -33 91t-84 34q-69 0 -118 -57.5t-49 -138.5q0 -57 33 -90.5t84 -33.5z" />
    <glyph glyph-name="Obreve" unicode="&#x14e;" horiz-adv-x="732" 
d="M349 -12q-129 0 -203.5 79.5t-74.5 203.5q0 73 28 144.5t75.5 128t116.5 91.5t146 35q129 0 203.5 -79.5t74.5 -203.5q0 -73 -28 -144.5t-75.5 -128t-116.5 -91.5t-146 -35zM355 56q118 0 200.5 101.5t82.5 228.5q0 93 -53.5 154.5t-153.5 61.5q-118 0 -200.5 -101.5
t-82.5 -228.5q0 -93 53.5 -154.5t153.5 -61.5zM488 721q-56 0 -90.5 38.5t-39.5 103.5l46 15q19 -89 95 -89q73 0 127 88l41 -22q-30 -62 -78.5 -98t-100.5 -36z" />
    <glyph glyph-name="obreve" unicode="&#x14f;" horiz-adv-x="508" 
d="M226 -8q-85 0 -135 53.5t-50 132.5q0 102 70 179t171 77q85 0 135 -54t50 -132q0 -102 -70 -179t-171 -77zM229 53q70 0 118.5 57.5t48.5 137.5q0 57 -33 91t-84 34q-69 0 -118 -57.5t-49 -138.5q0 -57 33 -90.5t84 -33.5zM327 507q-56 0 -90.5 38.5t-39.5 103.5l46 15
q19 -89 95 -89q73 0 127 88l41 -22q-30 -62 -78.5 -98t-100.5 -36z" />
    <glyph glyph-name="Ohungarumlaut" unicode="&#x150;" horiz-adv-x="732" 
d="M368 718l-18 24l125 123q24 22 43 22q16 0 27.5 -11t11.5 -29q0 -25 -36 -45zM557 722l-17 25l131 116q22 20 42 20q17 0 27.5 -11.5t10.5 -28.5q0 -28 -38 -45zM349 -12q-129 0 -203.5 79.5t-74.5 203.5q0 73 28 144.5t75.5 128t116.5 91.5t146 35q129 0 203.5 -79.5
t74.5 -203.5q0 -73 -28 -144.5t-75.5 -128t-116.5 -91.5t-146 -35zM355 56q118 0 200.5 101.5t82.5 228.5q0 93 -53.5 154.5t-153.5 61.5q-118 0 -200.5 -101.5t-82.5 -228.5q0 -93 53.5 -154.5t153.5 -61.5z" />
    <glyph glyph-name="ohungarumlaut" unicode="&#x151;" horiz-adv-x="508" 
d="M207 504l-18 24l125 123q24 22 43 22q16 0 27.5 -11t11.5 -29q0 -25 -36 -45zM396 508l-17 25l131 116q22 20 42 20q17 0 27.5 -11.5t10.5 -28.5q0 -28 -38 -45zM226 -8q-85 0 -135 53.5t-50 132.5q0 102 70 179t171 77q85 0 135 -54t50 -132q0 -102 -70 -179t-171 -77z
M229 53q70 0 118.5 57.5t48.5 137.5q0 57 -33 91t-84 34q-69 0 -118 -57.5t-49 -138.5q0 -57 33 -90.5t84 -33.5z" />
    <glyph glyph-name="OE" unicode="&#x152;" horiz-adv-x="932" 
d="M401 0q-173 0 -265 92q-69 69 -69 182q0 156 103 259q124 125 347 125h456l-38 -161h-71l22 96h-243l-52 -226h211l-15 -64h-211l-55 -238h243l23 96h71l-37 -161h-420zM408 66h39l121 526h-63q-178 0 -274 -98q-86 -85 -86 -217q0 -88 52 -140q71 -71 211 -71z" />
    <glyph glyph-name="oe" unicode="&#x153;" horiz-adv-x="823" 
d="M734 91l-15 -68q-63 -31 -136 -31q-61 0 -106.5 30.5t-62.5 80.5q-71 -111 -189 -111q-85 0 -134.5 53.5t-49.5 132.5q0 101 69.5 178.5t169.5 77.5q63 0 104.5 -30.5t58.5 -83.5q66 114 184 114q73 0 116.5 -42t43.5 -114q0 -41 -16 -86h-313q-1 -7 -1 -21
q0 -54 39 -86.5t97 -32.5q67 0 141 39zM230 53q70 0 119 57.5t49 137.5q0 57 -33.5 91t-85.5 34q-69 0 -118 -57.5t-49 -138.5q0 -57 33.5 -90.5t84.5 -33.5zM622 373q-50 0 -92 -35.5t-61 -91.5h245q7 18 7 42q0 37 -25 61t-74 24z" />
    <glyph glyph-name="Racute" unicode="&#x154;" horiz-adv-x="603" 
d="M373 717l-17 24l152 126q22 19 43 19q16 0 27.5 -11.5t11.5 -27.5q0 -30 -37 -48zM3 0l16 66h79l122 526h-89l15 66h202q130 0 192 -60q45 -45 45 -116q0 -75 -50 -130t-138 -75l100 -211h77l-15 -66h-115l-120 268q-11 -1 -33 -1q-29 0 -71 2l-48 -203h90l-16 -66h-243z
M317 331q89 0 141 41t52 106q0 45 -30 75q-39 39 -134 39h-52l-60 -258q35 -3 83 -3z" />
    <glyph glyph-name="racute" unicode="&#x155;" horiz-adv-x="382" 
d="M44 0l92 365h-80l15 61h142l-28 -118q85 125 146 125q25 0 41.5 -15t16.5 -38q0 -22 -16 -38.5t-38 -16.5q-20 0 -33.5 11.5t-17.5 28.5q-31 -15 -69 -63.5t-53 -112.5l-48 -189h-70zM250 503l-17 24l152 126q22 19 43 19q16 0 27.5 -11.5t11.5 -27.5q0 -30 -37 -48z" />
    <glyph glyph-name="Rcommaaccent" unicode="&#x156;" horiz-adv-x="603" 
d="M143 -278l-13 25q49 24 76.5 53t29.5 47q-17 6 -27 20t-10 28q0 22 15 37t37 15q23 0 39 -16.5t16 -43.5q0 -46 -43 -92t-120 -73zM3 0l16 66h79l122 526h-89l15 66h202q130 0 192 -60q45 -45 45 -116q0 -75 -50 -130t-138 -75l100 -211h77l-15 -66h-115l-120 268
q-11 -1 -33 -1q-29 0 -71 2l-48 -203h90l-16 -66h-243zM317 331q89 0 141 41t52 106q0 45 -30 75q-39 39 -134 39h-52l-60 -258q35 -3 83 -3z" />
    <glyph glyph-name="rcommaaccent" unicode="&#x157;" horiz-adv-x="382" 
d="M44 0l92 365h-80l15 61h142l-28 -118q85 125 146 125q25 0 41.5 -15t16.5 -38q0 -22 -16 -38.5t-38 -16.5q-20 0 -33.5 11.5t-17.5 28.5q-31 -15 -69 -63.5t-53 -112.5l-48 -189h-70zM-47 -278l-13 25q49 24 76.5 53t29.5 47q-17 6 -27 20t-10 28q0 22 15 37t37 15
q23 0 39 -16.5t16 -43.5q0 -46 -43 -92t-120 -73z" />
    <glyph glyph-name="Rcaron" unicode="&#x158;" horiz-adv-x="603" 
d="M404 715l-113 152l35 30l92 -90l145 91l28 -37zM3 0l16 66h79l122 526h-89l15 66h202q130 0 192 -60q45 -45 45 -116q0 -75 -50 -130t-138 -75l100 -211h77l-15 -66h-115l-120 268q-11 -1 -33 -1q-29 0 -71 2l-48 -203h90l-16 -66h-243zM317 331q89 0 141 41t52 106
q0 45 -30 75q-39 39 -134 39h-52l-60 -258q35 -3 83 -3z" />
    <glyph glyph-name="rcaron" unicode="&#x159;" horiz-adv-x="382" 
d="M44 0l92 365h-80l15 61h142l-28 -118q85 125 146 125q25 0 41.5 -15t16.5 -38q0 -22 -16 -38.5t-38 -16.5q-20 0 -33.5 11.5t-17.5 28.5q-31 -15 -69 -63.5t-53 -112.5l-48 -189h-70zM281 501l-113 152l35 30l92 -90l145 91l28 -37z" />
    <glyph glyph-name="Sacute" unicode="&#x15a;" horiz-adv-x="551" 
d="M372 717l-17 24l152 126q22 19 43 19q16 0 27.5 -11.5t11.5 -27.5q0 -30 -37 -48zM268 -11q-95 0 -161.5 47.5t-66.5 102.5q0 30 17 49.5t43 19.5q22 0 36.5 -15t14.5 -34q0 -31 -28 -50q17 -23 56 -39t94 -16q58 0 99 32t41 83q0 39 -28 67.5t-85 61.5
q-76 44 -115.5 86.5t-39.5 106.5q0 73 60 125.5t153 52.5q83 0 142 -40.5t59 -92.5q0 -31 -17 -49.5t-41 -18.5q-22 0 -36.5 15t-14.5 36q0 26 25 44q-35 41 -119 41q-60 0 -97 -31t-37 -77q0 -41 28.5 -69t93.5 -66q70 -42 108 -83.5t38 -103.5q0 -80 -63 -132.5
t-159 -52.5z" />
    <glyph glyph-name="sacute" unicode="&#x15b;" horiz-adv-x="422" 
d="M257 503l-17 24l152 126q22 19 43 19q16 0 27.5 -11.5t11.5 -27.5q0 -30 -37 -48zM201 -7q-96 0 -151 55q-25 25 -25 53q0 22 13.5 37t33.5 15q19 0 31 -12.5t12 -29.5q0 -16 -13 -32q6 -6 17 -12q35 -19 85 -19q37 0 61.5 15.5t24.5 43.5q0 18 -14 34t-29 24.5t-45 22.5
q-29 14 -45.5 23t-36 24t-28 33t-8.5 41q0 53 41.5 87.5t112.5 34.5q87 0 131 -46q24 -24 24 -52q0 -23 -13 -37t-32 -14q-18 0 -31 12t-13 30q0 13 11 32q-9 6 -15 9q-26 12 -64 12q-37 0 -60 -15.5t-23 -40.5q0 -16 14.5 -30.5t29 -22.5t47.5 -24q56 -26 86 -53.5
t30 -71.5q0 -60 -45 -93t-114 -33z" />
    <glyph glyph-name="Scedilla" unicode="&#x15e;" horiz-adv-x="551" 
d="M235 -199q-67 0 -117 42l20 29q41 -28 94 -28q19 0 30.5 9t11.5 22q0 15 -16.5 24t-47.5 4l-15 18l40 70q-83 9 -139 53.5t-56 94.5q0 30 17 49.5t43 19.5q22 0 36.5 -15t14.5 -34q0 -31 -28 -50q17 -23 56 -39t94 -16q58 0 99 32t41 83q0 39 -28 67.5t-85 61.5
q-76 44 -115.5 86.5t-39.5 106.5q0 73 60 125.5t153 52.5q83 0 142 -40.5t59 -92.5q0 -31 -17 -49.5t-41 -18.5q-22 0 -36.5 15t-14.5 36q0 26 25 44q-35 41 -119 41q-60 0 -97 -31t-37 -77q0 -41 28.5 -69t93.5 -66q70 -42 108 -83.5t38 -103.5q0 -78 -61 -130.5
t-155 -54.5l-13 -40q38 -4 58.5 -24.5t20.5 -46.5q0 -36 -30 -56.5t-75 -20.5z" />
    <glyph glyph-name="scedilla" unicode="&#x15f;" horiz-adv-x="422" 
d="M158 -199q-67 0 -117 42l20 29q41 -28 94 -28q19 0 30.5 9t11.5 22q0 15 -16.5 24t-47.5 4l-15 18l43 75q-70 11 -111 52q-25 25 -25 53q0 22 13.5 37t33.5 15q19 0 31 -12.5t12 -29.5q0 -16 -13 -32q6 -6 17 -12q35 -19 85 -19q37 0 61.5 15.5t24.5 43.5q0 18 -14 34
t-29 24.5t-45 22.5q-29 14 -45.5 23t-36 24t-28 33t-8.5 41q0 53 41.5 87.5t112.5 34.5q87 0 131 -46q24 -24 24 -52q0 -23 -13 -37t-32 -14q-18 0 -31 12t-13 30q0 13 11 32q-9 6 -15 9q-26 12 -64 12q-37 0 -60 -15.5t-23 -40.5q0 -16 14.5 -30.5t29 -22.5t47.5 -24
q56 -26 86 -53.5t30 -71.5q0 -60 -45 -93t-114 -33h-2l-15 -44q38 -4 58.5 -24.5t20.5 -46.5q0 -36 -30 -56.5t-75 -20.5z" />
    <glyph glyph-name="Scaron" unicode="&#x160;" horiz-adv-x="551" 
d="M402 715l-113 152l35 30l92 -90l145 91l28 -37zM268 -11q-95 0 -161.5 47.5t-66.5 102.5q0 30 17 49.5t43 19.5q22 0 36.5 -15t14.5 -34q0 -31 -28 -50q17 -23 56 -39t94 -16q58 0 99 32t41 83q0 39 -28 67.5t-85 61.5q-76 44 -115.5 86.5t-39.5 106.5q0 73 60 125.5
t153 52.5q83 0 142 -40.5t59 -92.5q0 -31 -17 -49.5t-41 -18.5q-22 0 -36.5 15t-14.5 36q0 26 25 44q-35 41 -119 41q-60 0 -97 -31t-37 -77q0 -41 28.5 -69t93.5 -66q70 -42 108 -83.5t38 -103.5q0 -80 -63 -132.5t-159 -52.5z" />
    <glyph glyph-name="scaron" unicode="&#x161;" horiz-adv-x="422" 
d="M288 501l-113 152l35 30l92 -90l145 91l28 -37zM201 -7q-96 0 -151 55q-25 25 -25 53q0 22 13.5 37t33.5 15q19 0 31 -12.5t12 -29.5q0 -16 -13 -32q6 -6 17 -12q35 -19 85 -19q37 0 61.5 15.5t24.5 43.5q0 18 -14 34t-29 24.5t-45 22.5q-29 14 -45.5 23t-36 24t-28 33
t-8.5 41q0 53 41.5 87.5t112.5 34.5q87 0 131 -46q24 -24 24 -52q0 -23 -13 -37t-32 -14q-18 0 -31 12t-13 30q0 13 11 32q-9 6 -15 9q-26 12 -64 12q-37 0 -60 -15.5t-23 -40.5q0 -16 14.5 -30.5t29 -22.5t47.5 -24q56 -26 86 -53.5t30 -71.5q0 -60 -45 -93t-114 -33z" />
    <glyph glyph-name="Tcommaaccent" unicode="&#x162;" horiz-adv-x="627" 
d="M139 -278l-13 25q49 24 76.5 53t29.5 47q-17 6 -27 20t-10 28q0 22 15 37t37 15q23 0 39 -16.5t16 -43.5q0 -46 -43 -92t-120 -73zM144 0l15 66h85l121 527h-163l-24 -104h-71l39 169h543l-39 -169h-71l24 104h-163l-122 -527h95l-16 -66h-253z" />
    <glyph glyph-name="tcommaaccent" unicode="&#x163;" horiz-adv-x="338" 
d="M335 365h-130l-60 -244q-6 -21 -6 -37q0 -15 9.5 -24.5t24.5 -9.5q29 0 89 40l26 -37q-76 -61 -134 -61q-38 0 -63 22t-25 59q0 19 8 48l60 244h-76l15 61h76l25 100l77 25l-31 -125h130zM16 -278l-13 25q49 24 76.5 53t29.5 47q-17 6 -27 20t-10 28q0 22 15 37t37 15
q23 0 39 -16.5t16 -43.5q0 -46 -43 -92t-120 -73z" />
    <glyph glyph-name="Tcaron" unicode="&#x164;" horiz-adv-x="627" 
d="M432 715l-113 152l35 30l92 -90l145 91l28 -37zM144 0l15 66h85l121 527h-163l-24 -104h-71l39 169h543l-39 -169h-71l24 104h-163l-122 -527h95l-16 -66h-253z" />
    <glyph glyph-name="tcaron" unicode="&#x165;" horiz-adv-x="338" 
d="M335 365h-130l-60 -244q-6 -21 -6 -37q0 -15 9.5 -24.5t24.5 -9.5q29 0 89 40l26 -37q-76 -61 -134 -61q-38 0 -63 22t-25 59q0 19 8 48l60 244h-76l15 61h76l25 100l77 25l-31 -125h130zM292 470l-20 19q47 51 60 100q3 13 4 39t4 39q9 40 45 40q18 0 29 -11.5t11 -30.5
q0 -43 -40 -99q-30 -43 -93 -96z" />
    <glyph glyph-name="Umacron" unicode="&#x16a;" horiz-adv-x="714" 
d="M334 -11q-101 0 -156.5 52.5t-55.5 140.5q0 32 10 79l77 331h-88l15 66h243l-15 -66h-81l-77 -335q-9 -45 -9 -70q0 -62 35.5 -97t109.5 -35q73 0 119 44.5t63 120.5l85 372h-91l15 66h243l-15 -66h-79l-87 -381q-51 -222 -261 -222zM324 749l15 63h300l-13 -63h-302z
" />
    <glyph glyph-name="umacron" unicode="&#x16b;" horiz-adv-x="544" 
d="M68 426h150l-69 -267q-6 -21 -6 -46q0 -27 17.5 -44t47.5 -17q46 0 88 42t60 114l54 218h70l-77 -310q-8 -27 -8 -42q0 -31 29 -31q30 0 57 67l35 -12q-34 -105 -108 -105q-35 0 -56.5 22t-21.5 59q0 4 2 20q-63 -101 -148 -101q-49 0 -81 29.5t-32 78.5q0 28 9 64
l52 200h-80zM187 535l15 63h300l-13 -63h-302z" />
    <glyph glyph-name="Ubreve" unicode="&#x16c;" horiz-adv-x="714" 
d="M334 -11q-101 0 -156.5 52.5t-55.5 140.5q0 32 10 79l77 331h-88l15 66h243l-15 -66h-81l-77 -335q-9 -45 -9 -70q0 -62 35.5 -97t109.5 -35q73 0 119 44.5t63 120.5l85 372h-91l15 66h243l-15 -66h-79l-87 -381q-51 -222 -261 -222zM474 721q-56 0 -90.5 38.5
t-39.5 103.5l46 15q19 -89 95 -89q73 0 127 88l41 -22q-30 -62 -78.5 -98t-100.5 -36z" />
    <glyph glyph-name="ubreve" unicode="&#x16d;" horiz-adv-x="544" 
d="M68 426h150l-69 -267q-6 -21 -6 -46q0 -27 17.5 -44t47.5 -17q46 0 88 42t60 114l54 218h70l-77 -310q-8 -27 -8 -42q0 -31 29 -31q30 0 57 67l35 -12q-34 -105 -108 -105q-35 0 -56.5 22t-21.5 59q0 4 2 20q-63 -101 -148 -101q-49 0 -81 29.5t-32 78.5q0 28 9 64
l52 200h-80zM337 507q-56 0 -90.5 38.5t-39.5 103.5l46 15q19 -89 95 -89q73 0 127 88l41 -22q-30 -62 -78.5 -98t-100.5 -36z" />
    <glyph glyph-name="Uring" unicode="&#x16e;" horiz-adv-x="714" 
d="M478 713q-42 0 -67 26.5t-25 67.5q0 51 34.5 89t85.5 38q43 0 68 -26.5t25 -66.5q0 -52 -35 -90t-86 -38zM483 761q27 0 45 22.5t18 52.5q0 21 -12.5 35.5t-31.5 14.5q-27 0 -45.5 -22t-18.5 -53q0 -21 12.5 -35.5t32.5 -14.5zM334 -11q-101 0 -156.5 52.5t-55.5 140.5
q0 32 10 79l77 331h-88l15 66h243l-15 -66h-81l-77 -335q-9 -45 -9 -70q0 -62 35.5 -97t109.5 -35q73 0 119 44.5t63 120.5l85 372h-91l15 66h243l-15 -66h-79l-87 -381q-51 -222 -261 -222z" />
    <glyph glyph-name="uring" unicode="&#x16f;" horiz-adv-x="544" 
d="M68 426h150l-69 -267q-6 -21 -6 -46q0 -27 17.5 -44t47.5 -17q46 0 88 42t60 114l54 218h70l-77 -310q-8 -27 -8 -42q0 -31 29 -31q30 0 57 67l35 -12q-34 -105 -108 -105q-35 0 -56.5 22t-21.5 59q0 4 2 20q-63 -101 -148 -101q-49 0 -81 29.5t-32 78.5q0 28 9 64
l52 200h-80zM341 499q-42 0 -67 26.5t-25 67.5q0 51 34.5 89t85.5 38q43 0 68 -26.5t25 -66.5q0 -52 -35 -90t-86 -38zM346 547q27 0 45 22.5t18 52.5q0 21 -12.5 35.5t-31.5 14.5q-27 0 -45.5 -22t-18.5 -53q0 -21 12.5 -35.5t32.5 -14.5z" />
    <glyph glyph-name="Uhungarumlaut" unicode="&#x170;" horiz-adv-x="714" 
d="M334 -11q-101 0 -156.5 52.5t-55.5 140.5q0 32 10 79l77 331h-88l15 66h243l-15 -66h-81l-77 -335q-9 -45 -9 -70q0 -62 35.5 -97t109.5 -35q73 0 119 44.5t63 120.5l85 372h-91l15 66h243l-15 -66h-79l-87 -381q-51 -222 -261 -222zM354 718l-18 24l125 123q24 22 43 22
q16 0 27.5 -11t11.5 -29q0 -25 -36 -45zM543 722l-17 25l131 116q22 20 42 20q17 0 27.5 -11.5t10.5 -28.5q0 -28 -38 -45z" />
    <glyph glyph-name="uhungarumlaut" unicode="&#x171;" horiz-adv-x="544" 
d="M68 426h150l-69 -267q-6 -21 -6 -46q0 -27 17.5 -44t47.5 -17q46 0 88 42t60 114l54 218h70l-77 -310q-8 -27 -8 -42q0 -31 29 -31q30 0 57 67l35 -12q-34 -105 -108 -105q-35 0 -56.5 22t-21.5 59q0 4 2 20q-63 -101 -148 -101q-49 0 -81 29.5t-32 78.5q0 28 9 64
l52 200h-80zM217 504l-18 24l125 123q24 22 43 22q16 0 27.5 -11t11.5 -29q0 -25 -36 -45zM406 508l-17 25l131 116q22 20 42 20q17 0 27.5 -11.5t10.5 -28.5q0 -28 -38 -45z" />
    <glyph glyph-name="Uogonek" unicode="&#x172;" horiz-adv-x="714" 
d="M238 -127q0 59 70 117q-89 7 -137.5 58.5t-48.5 133.5q0 32 10 79l77 331h-88l15 66h243l-15 -66h-81l-77 -335q-9 -45 -9 -70q0 -62 35.5 -97t109.5 -35q73 0 119 44.5t63 120.5l85 372h-91l15 66h243l-15 -66h-79l-87 -381q-48 -205 -228 -220q-65 -53 -65 -97
q0 -37 44 -37q28 0 51 9l-12 -50q-25 -17 -64 -17q-38 0 -60.5 20t-22.5 54z" />
    <glyph glyph-name="uogonek" unicode="&#x173;" horiz-adv-x="544" 
d="M481 110l35 -12q-14 -47 -45 -78q-9 -9 -41 -36t-46 -47t-14 -43q0 -37 44 -37q28 0 51 9l-12 -50q-25 -17 -65 -17q-38 0 -60 20t-22 54q0 64 80 123q-26 6 -41 27t-15 51q0 4 2 20q-63 -101 -148 -101q-49 0 -81 29.5t-32 78.5q0 28 9 64l52 200h-80l16 61h150
l-69 -267q-6 -21 -6 -46q0 -27 17.5 -44t47.5 -17q46 0 88 42t60 114l54 218h70l-77 -310q-8 -27 -8 -42q0 -31 28 -31q31 0 58 67z" />
    <glyph glyph-name="Wcircumflex" unicode="&#x174;" horiz-adv-x="946" 
d="M461 715l-28 38l187 145l113 -152l-34 -30l-93 90zM214 -9l-33 601h-70l15 66h223l-15 -66h-82l16 -463l258 450h34l65 -452l235 465h-80l16 66h222l-15 -66h-65l-314 -601h-40l-69 442l-261 -442h-40z" />
    <glyph glyph-name="wcircumflex" unicode="&#x175;" horiz-adv-x="668" 
d="M140 -14l-36 379h-78l16 61h123l22 -334l161 282h34l62 -292q113 166 123 248q-17 4 -29.5 17.5t-12.5 33.5q0 22 15 37.5t37 15.5q25 0 41.5 -18t16.5 -48q0 -114 -193 -382h-35l-60 277l-168 -277h-39zM280 501l-28 38l187 145l113 -152l-34 -30l-93 90z" />
    <glyph glyph-name="Ycircumflex" unicode="&#x176;" horiz-adv-x="631" 
d="M124 0l16 66h89l49 199l-114 327h-69l16 66h220l-14 -66h-76l88 -271l220 271h-74l16 66h226l-15 -66h-66l-288 -341l-44 -185h93l-14 -66h-259zM298 715l-28 38l187 145l113 -152l-34 -30l-93 90z" />
    <glyph glyph-name="ycircumflex" unicode="&#x177;" horiz-adv-x="482" 
d="M-15 -200q-28 0 -47.5 16.5t-19.5 40.5q0 20 14 35t34 15q19 0 32 -12t15 -32h2q42 0 163 146l-73 356h-76l15 61h123l62 -356q141 183 159 259q-41 14 -41 54q0 21 15 36t37 15q26 0 42 -18.5t16 -50.5q0 -51 -46 -131.5t-160 -224.5q-99 -123 -157 -166t-109 -43z
M181 501l-28 38l187 145l113 -152l-34 -30l-93 90z" />
    <glyph glyph-name="Ydieresis" unicode="&#x178;" horiz-adv-x="631" 
d="M124 0l16 66h89l49 199l-114 327h-69l16 66h220l-14 -66h-76l88 -271l220 271h-74l16 66h226l-15 -66h-66l-288 -341l-44 -185h93l-14 -66h-259zM523 735q-23 0 -39.5 16.5t-16.5 40.5t16.5 41t40.5 17q23 0 39.5 -17t16.5 -41t-16.5 -40.5t-40.5 -16.5zM349 735
q-24 0 -40 16.5t-16 40.5t16.5 41t40.5 17q23 0 39.5 -17t16.5 -41t-17 -40.5t-40 -16.5z" />
    <glyph glyph-name="Zacute" unicode="&#x179;" horiz-adv-x="613" 
d="M392 717l-17 24l152 126q22 19 43 19q16 0 27.5 -11.5t11.5 -27.5q0 -30 -37 -48zM14 0l-4 36l529 560h-317l-24 -104h-70l38 166h485l4 -36l-529 -560h333l24 104h70l-39 -166h-500z" />
    <glyph glyph-name="zacute" unicode="&#x17a;" horiz-adv-x="472" 
d="M271 503l-17 24l152 126q22 19 43 19q16 0 27.5 -11.5t11.5 -27.5q0 -30 -37 -48zM32 -7l-26 35l352 341h-203l-20 -82h-62l34 139h332l20 -37l-340 -329q29 11 63 11q23 0 64.5 -9.5t59.5 -9.5q31 0 46 17t32 67l34 -8q-16 -70 -40 -103t-76 -33q-24 0 -81 13.5
t-83 13.5q-56 0 -106 -26z" />
    <glyph glyph-name="Zdotaccent" unicode="&#x17b;" horiz-adv-x="613" 
d="M14 0l-4 36l529 560h-317l-24 -104h-70l38 166h485l4 -36l-529 -560h333l24 104h70l-39 -166h-500zM439 733q-24 0 -41 17.5t-17 41.5q0 25 17 42t41 17t41 -17t17 -42q0 -24 -17 -41.5t-41 -17.5z" />
    <glyph glyph-name="zdotaccent" unicode="&#x17c;" horiz-adv-x="472" 
d="M32 -7l-26 35l352 341h-203l-20 -82h-62l34 139h332l20 -37l-340 -329q29 11 63 11q23 0 64.5 -9.5t59.5 -9.5q31 0 46 17t32 67l34 -8q-16 -70 -40 -103t-76 -33q-24 0 -81 13.5t-83 13.5q-56 0 -106 -26zM318 519q-24 0 -41 17.5t-17 41.5q0 25 17 42t41 17t41 -17
t17 -42q0 -24 -17 -41.5t-41 -17.5z" />
    <glyph glyph-name="Zcaron" unicode="&#x17d;" horiz-adv-x="613" 
d="M423 715l-113 152l35 30l92 -90l145 91l28 -37zM14 0l-4 36l529 560h-317l-24 -104h-70l38 166h485l4 -36l-529 -560h333l24 104h70l-39 -166h-500z" />
    <glyph glyph-name="zcaron" unicode="&#x17e;" horiz-adv-x="472" 
d="M302 501l-113 152l35 30l92 -90l145 91l28 -37zM32 -7l-26 35l352 341h-203l-20 -82h-62l34 139h332l20 -37l-340 -329q29 11 63 11q23 0 64.5 -9.5t59.5 -9.5q31 0 46 17t32 67l34 -8q-16 -70 -40 -103t-76 -33q-24 0 -81 13.5t-83 13.5q-56 0 -106 -26z" />
    <glyph glyph-name="Aringacute" unicode="&#x1fa;" horiz-adv-x="705" 
d="M487 900l-17 24l152 126q22 19 43 19q16 0 27.5 -11.5t11.5 -27.5q0 -30 -37 -48zM-27 0l16 66h60l314 527h-78l15 65h92q-34 25 -34 72q0 43 34.5 79t84.5 36q43 0 67.5 -26.5t24.5 -64.5q0 -31 -16 -57.5t-41 -38.5h90l-15 -65h-75l70 -527h70l-16 -66h-215l15 65h73
l-20 162h-268l-96 -162h87l-16 -65h-223zM453 672q27 0 45 22.5t18 52.5q0 21 -12 35.5t-32 14.5q-27 0 -45 -22.5t-18 -52.5q0 -21 12.5 -35.5t31.5 -14.5zM259 291h221l-39 307z" />
    <glyph glyph-name="aringacute" unicode="&#x1fb;" horiz-adv-x="560" 
d="M193 -8q-67 0 -109 47t-42 126q0 109 67 189t159 80q51 0 87 -29.5t46 -76.5l27 101h67l-77 -313q-7 -30 -7 -42q0 -31 28 -31q30 0 57 67l35 -12q-34 -105 -107 -105q-36 0 -57.5 21.5t-21.5 56.5v10q-66 -89 -152 -89zM216 53q70 0 118 63.5t48 139.5q0 53 -28 84.5
t-79 31.5q-68 0 -113.5 -61t-45.5 -141q0 -54 26 -85.5t74 -31.5zM342 499q-42 0 -67 26.5t-25 67.5q0 51 34.5 89t85.5 38q43 0 68 -26.5t25 -66.5q0 -52 -35 -90t-86 -38zM380 782l-17 24l152 126q22 19 43 19q16 0 27.5 -11.5t11.5 -27.5q0 -30 -37 -48zM347 547
q27 0 45 22.5t18 52.5q0 21 -12.5 35.5t-31.5 14.5q-27 0 -45.5 -22t-18.5 -53q0 -21 12.5 -35.5t32.5 -14.5z" />
    <glyph glyph-name="AEacute" unicode="&#x1fc;" horiz-adv-x="913" 
d="M617 717l-17 24l152 126q22 19 43 19q16 0 27.5 -11.5t11.5 -27.5q0 -30 -37 -48zM-32 0l16 66h79l393 526h-86l16 66h568l-38 -161h-71l22 96h-236l-52 -226h204l-15 -64h-204l-55 -238h236l23 96h71l-37 -161h-463l15 66h80l38 161h-213l-120 -162h90l-15 -65h-246z
M305 290h181l71 306h-25z" />
    <glyph glyph-name="aeacute" unicode="&#x1fd;" horiz-adv-x="792" 
d="M739 192h-312q-1 -7 -1 -21q0 -55 39 -87t97 -32q67 0 140 39l-15 -68q-62 -31 -136 -31q-68 0 -113 35t-61 93q-29 -58 -86 -93t-123 -35q-64 0 -100 32t-36 74q0 71 61 109t167 38h105q-2 58 -35.5 95t-90.5 37q-23 0 -36 -4q-6 -3 -13 -7q7 -12 7 -23q0 -18 -13 -31.5
t-32 -13.5q-20 0 -33 14.5t-13 35.5q0 43 52 70q32 16 78 16q140 0 167 -127q30 58 82 92.5t109 34.5q74 0 118 -42t44 -114q0 -38 -17 -86zM172 52q62 0 117 40t70 102h-80q-179 0 -179 -90q0 -23 19.5 -37.5t52.5 -14.5zM590 373q-51 0 -92.5 -35.5t-59.5 -91.5h245
q7 23 7 42q0 37 -25.5 61t-74.5 24zM434 503l-17 24l152 126q22 19 43 19q16 0 27.5 -11.5t11.5 -27.5q0 -30 -37 -48z" />
    <glyph glyph-name="Oslashacute" unicode="&#x1fe;" horiz-adv-x="732" 
d="M351 -12q-131 0 -206 83l-94 -82l-41 48l98 85q-35 65 -35 150q0 72 27.5 143.5t75 128t116.5 91.5t146 35q132 0 207 -85l98 85l41 -47l-103 -90q35 -67 35 -147q0 -98 -46.5 -189t-131.5 -150t-187 -59zM149 272q0 -59 20 -103l421 367q-56 67 -158 67
q-118 0 -200.5 -101.5t-82.5 -229.5zM357 55q118 0 200.5 101.5t82.5 229.5q0 53 -20 101l-421 -367q57 -65 158 -65zM458 717l-17 24l152 126q22 19 43 19q16 0 27.5 -11.5t11.5 -27.5q0 -30 -37 -48z" />
    <glyph glyph-name="oslashacute" unicode="&#x1ff;" horiz-adv-x="516" 
d="M235 -8q-78 0 -129 46l-64 -57l-36 42l66 57q-25 45 -25 99q0 102 69 178.5t172 76.5q79 0 131 -50l67 60l37 -41l-71 -63q23 -43 23 -93q0 -103 -69.5 -179t-170.5 -76zM118 178q0 -32 9 -56l245 218q-33 33 -86 33q-70 0 -119 -57t-49 -138zM237 53q70 0 118.5 57
t48.5 138q0 24 -7 48l-243 -213q33 -30 83 -30zM302 503l-17 24l152 126q22 19 43 19q16 0 27.5 -11.5t11.5 -27.5q0 -30 -37 -48z" />
    <glyph glyph-name="Scommaaccent" unicode="&#x218;" horiz-adv-x="551" 
d="M106 -278l-13 25q49 24 76.5 53t29.5 47q-17 6 -27 20t-10 28q0 22 15 37t37 15q23 0 39 -16.5t16 -43.5q0 -46 -43 -92t-120 -73zM268 -11q-95 0 -161.5 47.5t-66.5 102.5q0 30 17 49.5t43 19.5q22 0 36.5 -15t14.5 -34q0 -31 -28 -50q17 -23 56 -39t94 -16q58 0 99 32
t41 83q0 39 -28 67.5t-85 61.5q-76 44 -115.5 86.5t-39.5 106.5q0 73 60 125.5t153 52.5q83 0 142 -40.5t59 -92.5q0 -31 -17 -49.5t-41 -18.5q-22 0 -36.5 15t-14.5 36q0 26 25 44q-35 41 -119 41q-60 0 -97 -31t-37 -77q0 -41 28.5 -69t93.5 -66q70 -42 108 -83.5
t38 -103.5q0 -80 -63 -132.5t-159 -52.5z" />
    <glyph glyph-name="scommaaccent" unicode="&#x219;" horiz-adv-x="422" 
d="M44 -278l-13 25q49 24 76.5 53t29.5 47q-17 6 -27 20t-10 28q0 22 15 37t37 15q23 0 39 -16.5t16 -43.5q0 -46 -43 -92t-120 -73zM201 -7q-96 0 -151 55q-25 25 -25 53q0 22 13.5 37t33.5 15q19 0 31 -12.5t12 -29.5q0 -16 -13 -32q6 -6 17 -12q35 -19 85 -19
q37 0 61.5 15.5t24.5 43.5q0 18 -14 34t-29 24.5t-45 22.5q-29 14 -45.5 23t-36 24t-28 33t-8.5 41q0 53 41.5 87.5t112.5 34.5q87 0 131 -46q24 -24 24 -52q0 -23 -13 -37t-32 -14q-18 0 -31 12t-13 30q0 13 11 32q-9 6 -15 9q-26 12 -64 12q-37 0 -60 -15.5t-23 -40.5
q0 -16 14.5 -30.5t29 -22.5t47.5 -24q56 -26 86 -53.5t30 -71.5q0 -60 -45 -93t-114 -33z" />
    <glyph glyph-name="schwa" unicode="&#x259;" horiz-adv-x="476" 
d="M37 147q0 38 17 87h312q0 4 0.5 11t0.5 10q0 55 -39 87t-97 32q-67 0 -140 -39l14 68q63 31 140 31q79 0 135 -48.5t56 -131.5q0 -107 -70 -184.5t-165 -77.5q-75 0 -119.5 42t-44.5 113zM203 52q50 0 92 35.5t60 92.5h-245q-7 -24 -7 -42q0 -37 25.5 -61.5t74.5 -24.5z
" />
    <glyph glyph-name="circumflex" unicode="&#x2c6;" horiz-adv-x="500" 
d="M200 501l-28 38l187 145l113 -152l-34 -30l-93 90z" />
    <glyph glyph-name="caron" unicode="&#x2c7;" horiz-adv-x="500" 
d="M316 501l-113 152l35 30l92 -90l145 91l28 -37z" />
    <glyph glyph-name="breve" unicode="&#x2d8;" horiz-adv-x="500" 
d="M319 507q-56 0 -90.5 38.5t-39.5 103.5l46 15q19 -89 95 -89q73 0 127 88l41 -22q-30 -62 -78.5 -98t-100.5 -36z" />
    <glyph glyph-name="dotaccent" unicode="&#x2d9;" horiz-adv-x="500" 
d="M333 519q-24 0 -41 17.5t-17 41.5q0 25 17 42t41 17t41 -17t17 -42q0 -24 -17 -41.5t-41 -17.5z" />
    <glyph glyph-name="ring" unicode="&#x2da;" horiz-adv-x="500" 
d="M327 499q-42 0 -67 26.5t-25 67.5q0 51 34.5 89t85.5 38q43 0 68 -26.5t25 -66.5q0 -52 -35 -90t-86 -38zM332 547q27 0 45 22.5t18 52.5q0 21 -12.5 35.5t-31.5 14.5q-27 0 -45.5 -22t-18.5 -53q0 -21 12.5 -35.5t32.5 -14.5z" />
    <glyph glyph-name="ogonek" unicode="&#x2db;" horiz-adv-x="501" 
d="M272 48l28 -15q-126 -78 -126 -139q0 -37 44 -37q28 0 51 9l-12 -50q-25 -17 -64 -17q-38 0 -60.5 20t-22.5 54q0 93 162 175z" />
    <glyph glyph-name="tilde" unicode="&#x2dc;" horiz-adv-x="500" 
d="M400 503q-43 0 -83 40q-28 29 -49 29q-35 0 -61 -63l-45 16q13 51 44.5 84t66.5 33q41 0 82 -41q28 -28 49 -28q36 0 62 63l44 -16q-12 -51 -44 -84t-66 -33z" />
    <glyph glyph-name="hungarumlaut" unicode="&#x2dd;" horiz-adv-x="500" 
d="M148 504l-18 24l125 123q24 22 43 22q16 0 27.5 -11t11.5 -29q0 -25 -36 -45zM337 508l-17 25l131 116q22 20 42 20q17 0 27.5 -11.5t10.5 -28.5q0 -28 -38 -45z" />
    <glyph glyph-name="commaaccent" unicode="&#x326;" horiz-adv-x="209" 
d="M22 -278l-13 25q49 24 76.5 53t29.5 47q-17 6 -27 20t-10 28q0 22 15 37t37 15q23 0 39 -16.5t16 -43.5q0 -46 -43 -92t-120 -73z" />
    <glyph glyph-name="Wgrave" unicode="&#x1e80;" horiz-adv-x="946" 
d="M214 -9l-33 601h-70l15 66h223l-15 -66h-82l16 -463l258 450h34l65 -452l235 465h-80l16 66h222l-15 -66h-65l-314 -601h-40l-69 442l-261 -442h-40zM610 712l-117 87q-26 21 -26 45q0 17 12.5 29.5t29.5 12.5q25 0 46 -32l78 -123z" />
    <glyph glyph-name="wgrave" unicode="&#x1e81;" horiz-adv-x="668" 
d="M140 -14l-36 379h-78l16 61h123l22 -334l161 282h34l62 -292q113 166 123 248q-17 4 -29.5 17.5t-12.5 33.5q0 22 15 37.5t37 15.5q25 0 41.5 -18t16.5 -48q0 -114 -193 -382h-35l-60 277l-168 -277h-39zM430 498l-117 87q-26 21 -26 45q0 17 12.5 29.5t29.5 12.5
q25 0 46 -32l78 -123z" />
    <glyph glyph-name="Wacute" unicode="&#x1e82;" horiz-adv-x="946" 
d="M552 717l-17 24l152 126q22 19 43 19q16 0 27.5 -11.5t11.5 -27.5q0 -30 -37 -48zM214 -9l-33 601h-70l15 66h223l-15 -66h-82l16 -463l258 450h34l65 -452l235 465h-80l16 66h222l-15 -66h-65l-314 -601h-40l-69 442l-261 -442h-40z" />
    <glyph glyph-name="wacute" unicode="&#x1e83;" horiz-adv-x="668" 
d="M140 -14l-36 379h-78l16 61h123l22 -334l161 282h34l62 -292q113 166 123 248q-17 4 -29.5 17.5t-12.5 33.5q0 22 15 37.5t37 15.5q25 0 41.5 -18t16.5 -48q0 -114 -193 -382h-35l-60 277l-168 -277h-39zM372 503l-17 24l152 126q22 19 43 19q16 0 27.5 -11.5t11.5 -27.5
q0 -30 -37 -48z" />
    <glyph glyph-name="Wdieresis" unicode="&#x1e84;" horiz-adv-x="946" 
d="M685 735q-23 0 -39.5 16.5t-16.5 40.5t16.5 41t40.5 17q23 0 39.5 -17t16.5 -41t-16.5 -40.5t-40.5 -16.5zM511 735q-24 0 -40 16.5t-16 40.5t16.5 41t40.5 17q23 0 39.5 -17t16.5 -41t-17 -40.5t-40 -16.5zM214 -9l-33 601h-70l15 66h223l-15 -66h-82l16 -463l258 450
h34l65 -452l235 465h-80l16 66h222l-15 -66h-65l-314 -601h-40l-69 442l-261 -442h-40z" />
    <glyph glyph-name="wdieresis" unicode="&#x1e85;" horiz-adv-x="668" 
d="M140 -14l-36 379h-78l16 61h123l22 -334l161 282h34l62 -292q113 166 123 248q-17 4 -29.5 17.5t-12.5 33.5q0 22 15 37.5t37 15.5q25 0 41.5 -18t16.5 -48q0 -114 -193 -382h-35l-60 277l-168 -277h-39zM331 521q-24 0 -40 16.5t-16 40.5t16.5 41t40.5 17q23 0 39.5 -17
t16.5 -41t-17 -40.5t-40 -16.5zM505 521q-23 0 -39.5 16.5t-16.5 40.5t16.5 41t40.5 17q23 0 39.5 -17t16.5 -41t-16.5 -40.5t-40.5 -16.5z" />
    <glyph glyph-name="Ygrave" unicode="&#x1ef2;" horiz-adv-x="631" 
d="M124 0l16 66h89l49 199l-114 327h-69l16 66h220l-14 -66h-76l88 -271l220 271h-74l16 66h226l-15 -66h-66l-288 -341l-44 -185h93l-14 -66h-259zM448 712l-117 87q-26 21 -26 45q0 17 12.5 29.5t29.5 12.5q25 0 46 -32l78 -123z" />
    <glyph glyph-name="ygrave" unicode="&#x1ef3;" horiz-adv-x="482" 
d="M-15 -200q-28 0 -47.5 16.5t-19.5 40.5q0 20 14 35t34 15q19 0 32 -12t15 -32h2q42 0 163 146l-73 356h-76l15 61h123l62 -356q141 183 159 259q-41 14 -41 54q0 21 15 36t37 15q26 0 42 -18.5t16 -50.5q0 -51 -46 -131.5t-160 -224.5q-99 -123 -157 -166t-109 -43z
M332 498l-117 87q-26 21 -26 45q0 17 12.5 29.5t29.5 12.5q25 0 46 -32l78 -123z" />
    <glyph glyph-name="enspace" unicode="&#x2002;" horiz-adv-x="500" 
 />
    <glyph glyph-name="emspace" unicode="&#x2003;" horiz-adv-x="1000" 
 />
    <glyph glyph-name="threeperemspace" unicode="&#x2004;" horiz-adv-x="333" 
 />
    <glyph glyph-name="fourperemspace" unicode="&#x2005;" horiz-adv-x="250" 
 />
    <glyph glyph-name="figurespace" unicode="&#x2007;" horiz-adv-x="530" 
 />
    <glyph glyph-name="thinspace" unicode="&#x2009;" horiz-adv-x="133" 
 />
    <glyph glyph-name="hairspace" unicode="&#x200a;" horiz-adv-x="75" 
 />
    <glyph glyph-name="endash" unicode="&#x2013;" horiz-adv-x="462" 
d="M31 244l16 68h404l-15 -68h-405z" />
    <glyph glyph-name="emdash" unicode="&#x2014;" horiz-adv-x="704" 
d="M31 244l16 68h646l-15 -68h-647z" />
    <glyph glyph-name="quoteleft" unicode="&#x2018;" horiz-adv-x="221" 
d="M159 404q-27 0 -45 19.5t-18 50.5q0 53 54 110.5t138 90.5l15 -29q-57 -33 -86.5 -67t-34.5 -57q18 -7 29 -22.5t11 -32.5q0 -26 -18 -44.5t-45 -18.5z" />
    <glyph glyph-name="quoteright" unicode="&#x2019;" horiz-adv-x="221" 
d="M78 401l-15 30q56 32 85.5 66t35.5 57q-41 18 -41 56q0 26 18 44.5t45 18.5t45 -19.5t18 -51.5q0 -53 -53.5 -110t-137.5 -91z" />
    <glyph glyph-name="quotesinglbase" unicode="&#x201a;" horiz-adv-x="216" 
d="M-38 -143l-15 29q56 28 87 61t34 55q-20 6 -31.5 22.5t-11.5 32.5q0 25 17.5 43t43.5 18q27 0 45 -19.5t18 -50.5q0 -53 -49.5 -106.5t-137.5 -84.5z" />
    <glyph glyph-name="quotedblleft" unicode="&#x201c;" horiz-adv-x="418" 
d="M358 406q-27 0 -45 19.5t-18 49.5q0 53 53 109.5t137 89.5l15 -29q-56 -32 -85 -65.5t-35 -56.5q40 -16 40 -55q0 -26 -18 -44t-44 -18zM159 406q-27 0 -45 19.5t-18 49.5q0 53 53 109.5t137 89.5l15 -29q-57 -32 -86 -65.5t-34 -56.5q39 -16 39 -55q0 -26 -17.5 -44
t-43.5 -18z" />
    <glyph glyph-name="quotedblright" unicode="&#x201d;" horiz-adv-x="418" 
d="M277 405l-15 29q56 32 85 65.5t35 56.5q-40 16 -40 55q0 26 17.5 44t44.5 18t44.5 -19.5t17.5 -50.5q0 -53 -53 -109.5t-136 -88.5zM78 405l-15 29q56 32 85 65.5t35 56.5q-40 16 -40 55q0 26 17.5 44t44.5 18t44.5 -19.5t17.5 -50.5q0 -53 -53 -109.5t-136 -88.5z" />
    <glyph glyph-name="quotedblbase" unicode="&#x201e;" horiz-adv-x="409" 
d="M158 -141l-15 29q56 27 86.5 60t33.5 54q-20 6 -31.5 22t-11.5 32q0 24 17.5 41.5t42.5 17.5q26 0 44 -19t18 -49q0 -52 -48.5 -104.5t-135.5 -83.5zM-39 -141l-14 29q55 27 85.5 60t33.5 54q-20 6 -31 22t-11 32q0 24 17 41.5t42 17.5q26 0 44 -19t18 -49
q0 -52 -48.5 -104.5t-135.5 -83.5z" />
    <glyph glyph-name="dagger" unicode="&#x2020;" horiz-adv-x="466" 
d="M147 -2l79 392l-80 8q1 -25 -13.5 -41.5t-35.5 -16.5q-22 0 -36 14.5t-14 35.5q0 25 18 42t48 17q15 0 35 -5l104 -20l9 155q3 61 48 61q30 0 39 -24t-4 -50l-59 -146l104 23q22 4 30 4q27 0 43 -15.5t16 -40.5q0 -21 -13.5 -36t-35.5 -15q-21 0 -35.5 16.5t-13.5 40.5
l-85 -12l-112 -387h-36z" />
    <glyph glyph-name="daggerdbl" unicode="&#x2021;" horiz-adv-x="486" 
d="M220 65l-8 -131q-3 -58 -46 -58q-28 0 -37 22.5t3 49.5l49 118l-80 -19q-20 -4 -30 -4q-28 0 -45.5 15t-17.5 38q0 20 13.5 34t35.5 14q20 0 34 -15t13 -38l71 9l53 160l16 157l-68 9q1 -24 -13 -39t-35 -15t-34.5 14t-13.5 33q0 24 17.5 39.5t46.5 15.5q10 0 34 -4
l87 -19l8 131q3 58 46 58q28 0 37 -22.5t-3 -49.5l-49 -119l80 19q13 4 30 4q27 0 45 -15t18 -37q0 -20 -14 -34t-35 -14q-20 0 -34.5 15t-13.5 38l-71 -9l-52 -160l-17 -157l69 -9q-1 24 13 39t34 15q21 0 35 -14t14 -33q0 -24 -18 -39.5t-47 -15.5q-9 0 -33 4z" />
    <glyph glyph-name="bullet" unicode="&#x2022;" horiz-adv-x="292" 
d="M163 172q-42 0 -69.5 28.5t-27.5 70.5t27.5 71.5t69.5 29.5q41 0 68.5 -29.5t27.5 -71.5t-27.5 -70.5t-68.5 -28.5z" />
    <glyph glyph-name="ellipsis" unicode="&#x2026;" horiz-adv-x="609" 
d="M473 -8q-25 0 -42.5 17.5t-17.5 43.5t17.5 43.5t42.5 17.5t42 -17.5t17 -43.5t-17 -43.5t-42 -17.5zM270 -8q-25 0 -42.5 17.5t-17.5 43.5t17.5 43.5t42.5 17.5t42 -17.5t17 -43.5t-17 -43.5t-42 -17.5zM67 -8q-25 0 -42.5 17.5t-17.5 43.5t17.5 43.5t42.5 17.5t42 -17.5
t17 -43.5t-17 -43.5t-42 -17.5z" />
    <glyph glyph-name="perthousand" unicode="&#x2030;" horiz-adv-x="874" 
d="M70 -6l-31 36q115 100 271 241q47 42 106.5 96.5t107.5 99t58 53.5l31 -36q-65 -55 -274 -244q-160 -143 -269 -246zM171 315q31 0 55.5 29.5t24.5 68.5q0 26 -14.5 42.5t-38.5 16.5q-30 0 -54.5 -29t-24.5 -69q0 -26 14 -42.5t38 -16.5zM169 270q-46 0 -74 30t-28 75
q0 56 38.5 99t94.5 43q47 0 75 -29.5t28 -75.5q0 -56 -39 -99t-95 -43zM448 37q30 0 54.5 29.5t24.5 68.5q0 26 -14.5 42.5t-38.5 16.5q-30 0 -54.5 -29.5t-24.5 -68.5q0 -26 14.5 -42.5t38.5 -16.5zM446 -8q-47 0 -75 29.5t-28 75.5q0 56 38.5 99t94.5 43q47 0 75 -29.5
t28 -75.5q0 -56 -38.5 -99t-94.5 -43zM715 37q30 0 54.5 29.5t24.5 68.5q0 26 -14 42.5t-38 16.5q-30 0 -54.5 -29.5t-24.5 -68.5q0 -26 14 -42.5t38 -16.5zM713 -8q-47 0 -75 29.5t-28 75.5q0 56 39 99t95 43q46 0 74 -29.5t28 -75.5q0 -56 -38.5 -99t-94.5 -43z" />
    <glyph glyph-name="guilsinglleft" unicode="&#x2039;" horiz-adv-x="291" 
d="M182 107l-141 169l214 168l35 -41l-158 -137l91 -125z" />
    <glyph glyph-name="guilsinglright" unicode="&#x203a;" horiz-adv-x="291" 
d="M70 106l-35 41l158 137l-92 126l41 33l141 -169z" />
    <glyph glyph-name="fraction" unicode="&#x2044;" horiz-adv-x="500" 
d="M-4 -13l-31 26q11 14 114 134t156 184q150 178 263 320l31 -26q-11 -14 -114 -134t-156 -184q-178 -213 -263 -320z" />
    <glyph glyph-name="zero.sup" unicode="&#x2070;" horiz-adv-x="353" 
d="M242 423q-54 0 -84.5 38t-30.5 104q0 94 47.5 163.5t118.5 69.5q54 0 84.5 -38t30.5 -104q0 -94 -47.5 -163.5t-118.5 -69.5zM245 470q46 0 78 57.5t32 128.5q0 44 -16.5 69.5t-48.5 25.5q-47 0 -78.5 -57.5t-31.5 -128.5q0 -95 65 -95z" />
    <glyph glyph-name="four.sup" unicode="&#x2074;" horiz-adv-x="353" 
d="M265 471l16 65h-164l-7 24l238 244l32 -30l-197 -198h108l18 69l52 19l-20 -85h60l-11 -43h-59l-15 -65h47l-10 -41h-160l9 41h63z" />
    <glyph glyph-name="five.sup" unicode="&#x2075;" horiz-adv-x="353" 
d="M226 423q-46 0 -79 21.5t-33 48.5q0 16 9.5 26.5t24.5 10.5q14 0 23.5 -9t9.5 -23q0 -8 -6 -16q21 -14 55 -14q42 0 72 25.5t30 60.5q0 29 -18.5 45.5t-51.5 16.5q-39 0 -76 -16l-27 19l56 173h199l-11 -49h-157l-32 -97q32 13 67 13q43 0 72.5 -27.5t29.5 -72.5
q0 -56 -46.5 -96t-110.5 -40z" />
    <glyph glyph-name="six.sup" unicode="&#x2076;" horiz-adv-x="353" 
d="M165 456q-34 36 -34 100q0 55 21.5 108t59.5 88q50 47 111 47q39 0 66.5 -19.5t27.5 -46.5q0 -15 -10 -25.5t-24 -10.5q-13 0 -22.5 9.5t-9.5 22.5q0 10 7 17q-12 10 -34 10q-44 0 -81 -36q-45 -43 -59 -112q39 51 99 51q48 0 79 -29t31 -72q0 -55 -42 -95t-100 -40
q-53 0 -86 33zM251 469q38 0 63.5 25t25.5 60q0 27 -18.5 44.5t-48.5 17.5q-37 0 -63.5 -25.5t-26.5 -57.5q0 -27 18 -45q19 -19 50 -19z" />
    <glyph glyph-name="seven.sup" unicode="&#x2077;" horiz-adv-x="353" 
d="M160 430l218 318h-153l-15 -64h-48l26 108h243l13 -26l-225 -336h-59z" />
    <glyph glyph-name="eight.sup" unicode="&#x2078;" horiz-adv-x="353" 
d="M252 424q-56 0 -93 29t-37 70q0 39 26.5 66t68.5 35q-51 24 -51 75q0 38 35.5 68t93.5 30q52 0 86 -27t34 -69q0 -34 -22.5 -57t-60.5 -32q56 -25 56 -79q0 -45 -37 -77t-99 -32zM287 637q32 0 53.5 17.5t21.5 43.5q0 24 -19.5 39.5t-49.5 15.5q-32 0 -53 -17t-21 -42
t19.5 -41t48.5 -16zM252 469q35 0 59 19t24 47q0 26 -20.5 43t-54.5 17q-38 0 -61 -18.5t-23 -47.5q0 -25 21 -42.5t55 -17.5z" />
    <glyph glyph-name="nine.sup" unicode="&#x2079;" horiz-adv-x="353" 
d="M151 664q0 55 41.5 95t99.5 40q53 0 86 -33q34 -36 34 -100q0 -55 -21.5 -108t-59.5 -88q-50 -47 -111 -47q-39 0 -66.5 19.5t-27.5 46.5q0 15 10 25.5t24 10.5q13 0 22.5 -9.5t9.5 -22.5q0 -11 -7 -17q12 -10 35 -10q44 0 80 36q42 39 59 112q-39 -51 -99 -51
q-48 0 -78.5 29t-30.5 72zM293 753q-38 0 -63.5 -25t-25.5 -60q0 -27 18 -44.5t48 -17.5q37 0 63.5 25.5t26.5 57.5q0 27 -18 45q-17 19 -49 19z" />
    <glyph glyph-name="zero.inf" unicode="&#x2080;" horiz-adv-x="353" 
d="M111 -147q-54 0 -84.5 38t-30.5 104q0 94 47.5 163.5t118.5 69.5q54 0 84.5 -38t30.5 -104q0 -94 -47.5 -163.5t-118.5 -69.5zM114 -100q46 0 78 57.5t32 128.5q0 44 -16.5 69.5t-48.5 25.5q-47 0 -78.5 -57.5t-31.5 -128.5q0 -95 65 -95z" />
    <glyph glyph-name="one.inf" unicode="&#x2081;" horiz-adv-x="353" 
d="M-19 -140l11 47h99l61 263l-98 -21l-2 47l137 31l25 -12l-71 -308h97l-10 -47h-249z" />
    <glyph glyph-name="two.inf" unicode="&#x2082;" horiz-adv-x="353" 
d="M-20 -140l-10 24q23 55 65.5 93t106.5 72q44 23 64 42t20 43q0 22 -17.5 35t-46.5 13q-48 0 -66 -23q10 -13 10 -25q0 -14 -9.5 -24t-23.5 -10q-15 0 -24.5 10.5t-9.5 27.5q0 34 37 62.5t90 28.5q50 0 82 -25.5t32 -68.5q0 -39 -29.5 -66t-88.5 -59q-97 -52 -126 -106
h153l13 57h45l-23 -101h-244z" />
    <glyph glyph-name="three.inf" unicode="&#x2083;" horiz-adv-x="353" 
d="M112 -145q-50 0 -87 23t-37 59q0 15 10 26.5t24 11.5t23 -9t9 -23q0 -15 -11 -22q16 -22 70 -22q38 0 60.5 17.5t22.5 46.5q0 23 -24 41.5t-63 18.5h-20l11 47h20q46 0 73.5 17.5t27.5 44.5q0 24 -20 37t-51 13q-32 0 -47 -13q7 -5 7 -16q0 -14 -9.5 -23t-22.5 -9
q-15 0 -24.5 10t-9.5 26q0 27 31 49t83 22t85 -27t33 -64q0 -40 -29 -64t-76 -29q78 -20 78 -84q0 -49 -40.5 -77t-96.5 -28z" />
    <glyph glyph-name="four.inf" unicode="&#x2084;" horiz-adv-x="353" 
d="M134 -99l16 65h-164l-7 24l238 244l32 -30l-197 -198h108l18 69l52 19l-20 -85h60l-11 -43h-59l-15 -65h47l-10 -41h-160l9 41h63z" />
    <glyph glyph-name="five.inf" unicode="&#x2085;" horiz-adv-x="353" 
d="M95 -147q-46 0 -79 21.5t-33 48.5q0 16 9.5 26.5t24.5 10.5q14 0 23.5 -9t9.5 -23q0 -8 -6 -16q21 -14 55 -14q42 0 72 25.5t30 60.5q0 29 -18.5 45.5t-51.5 16.5q-39 0 -76 -16l-27 19l56 173h199l-11 -49h-157l-32 -97q32 13 67 13q43 0 72.5 -27.5t29.5 -72.5
q0 -56 -46.5 -96t-110.5 -40z" />
    <glyph glyph-name="six.inf" unicode="&#x2086;" horiz-adv-x="353" 
d="M34 -114q-34 36 -34 100q0 55 21.5 108t59.5 88q50 47 111 47q39 0 66.5 -19.5t27.5 -46.5q0 -15 -10 -25.5t-24 -10.5q-13 0 -22.5 9.5t-9.5 22.5q0 10 7 17q-12 10 -34 10q-44 0 -81 -36q-45 -43 -59 -112q39 51 99 51q48 0 79 -29t31 -72q0 -55 -42 -95t-100 -40
q-53 0 -86 33zM120 -101q38 0 63.5 25t25.5 60q0 27 -18.5 44.5t-48.5 17.5q-37 0 -63.5 -25.5t-26.5 -57.5q0 -27 18 -45q19 -19 50 -19z" />
    <glyph glyph-name="seven.inf" unicode="&#x2087;" horiz-adv-x="353" 
d="M29 -140l218 318h-153l-15 -64h-48l26 108h243l13 -26l-225 -336h-59z" />
    <glyph glyph-name="eight.inf" unicode="&#x2088;" horiz-adv-x="353" 
d="M121 -146q-56 0 -93 29t-37 70q0 39 26.5 66t68.5 35q-51 24 -51 75q0 38 35.5 68t93.5 30q52 0 86 -27t34 -69q0 -34 -22.5 -57t-60.5 -32q56 -25 56 -79q0 -45 -37 -77t-99 -32zM156 67q32 0 53.5 17.5t21.5 43.5q0 24 -19.5 39.5t-49.5 15.5q-32 0 -53 -17t-21 -42
t19.5 -41t48.5 -16zM121 -101q35 0 59 19t24 47q0 26 -20.5 43t-54.5 17q-38 0 -61 -18.5t-23 -47.5q0 -25 21 -42.5t55 -17.5z" />
    <glyph glyph-name="nine.inf" unicode="&#x2089;" horiz-adv-x="353" 
d="M20 94q0 55 41.5 95t99.5 40q53 0 86 -33q34 -36 34 -100q0 -55 -21.5 -108t-59.5 -88q-50 -47 -111 -47q-39 0 -66.5 19.5t-27.5 46.5q0 15 10 25.5t24 10.5q13 0 22.5 -9.5t9.5 -22.5q0 -11 -7 -17q12 -10 35 -10q44 0 80 36q43 41 59 112q-39 -51 -99 -51
q-48 0 -78.5 29t-30.5 72zM162 183q-38 0 -63.5 -25t-25.5 -60q0 -27 18 -44.5t48 -17.5q37 0 63.5 25.5t26.5 57.5q0 27 -18 45q-17 19 -49 19z" />
    <glyph glyph-name="Euro" unicode="&#x20ac;" horiz-adv-x="588" 
d="M36 219h61q0 33 10 71h-64l13 55h70q37 76 108 123t156 47q84 0 133.5 -42.5t49.5 -92.5q0 -28 -16 -47t-41 -19q-19 0 -32.5 13t-13.5 35q0 11 7.5 23t17.5 18q-25 49 -108 49q-59 0 -108.5 -29t-79.5 -79h182l-13 -54h-192q-11 -36 -11 -71h196l-13 -54h-179
q14 -55 57 -83t102 -28q85 0 159 58l35 -49q-92 -72 -202 -72q-81 0 -142.5 44.5t-77.5 128.5h-77z" />
    <glyph glyph-name="published" unicode="&#x2117;" horiz-adv-x="605" 
d="M302 -8q-109 0 -182.5 76t-73.5 186t73.5 186t182.5 76q110 0 183.5 -76t73.5 -186t-74 -186t-183 -76zM302 28q92 0 154 66t62 160q0 95 -62 161t-154 66t-153.5 -66t-61.5 -161t61.5 -160.5t153.5 -65.5zM216 120v33h32v197h-32v33h104q43 0 70.5 -23t27.5 -61
q0 -43 -27 -65.5t-74 -22.5h-31v-58h34v-33h-104zM320 244q28 0 44 15t16 40q0 23 -17.5 37t-44.5 14h-32v-105q2 0 13 -0.5t21 -0.5z" />
    <glyph glyph-name="servicemark" unicode="&#x2120;" horiz-adv-x="639" 
d="M199 405q-36 0 -62.5 18.5t-26.5 43.5q0 15 8.5 24.5t21.5 9.5q26 0 26 -24q0 -14 -9 -21q12 -15 46 -15q21 0 34 9t13 24q0 11 -7.5 20t-14.5 13t-27 14q-54 30 -54 70q0 30 25 51t65 21q36 0 59.5 -17.5t23.5 -38.5q0 -15 -8 -24.5t-21 -9.5q-26 0 -26 24q0 11 8 19
q-9 11 -39 11q-19 0 -31 -9t-12 -22q0 -4 1 -8t2.5 -6.5t5 -6t6 -5.5t7.5 -5l7.5 -4.5t9.5 -5.5t9 -5q55 -30 55 -71q0 -32 -26 -53t-69 -21zM314 411l7 35h36l50 177h-37l8 35h83l33 -153l104 153h89l-8 -35h-37l-34 -177h36l-8 -35h-104l7 35h31l30 155l-109 -157h-19
l-36 157l-42 -155h32l-8 -35h-104z" />
    <glyph glyph-name="trademark" unicode="&#x2122;" horiz-adv-x="645" 
d="M320 411l8 35h35l50 177h-37l8 35h83l33 -153l104 153h89l-8 -35h-37l-34 -177h37l-8 -35h-105l7 35h31l31 155l-109 -157h-19l-36 157l-43 -155h32l-8 -35h-104zM119 411l7 35h37l43 179h-58l-10 -41h-37l17 74h231l-17 -74h-39l11 41h-57l-43 -179h36l-8 -35h-113z" />
    <glyph glyph-name="onethird" unicode="&#x2153;" horiz-adv-x="795" 
d="M67 280l11 47h99l61 263l-98 -21l-2 47l137 31l25 -12l-71 -308h97l-10 -47h-249zM178 -13l-31 26q11 14 114 134t156 184q150 178 263 320l31 -26q-11 -14 -114 -134t-156 -184q-178 -213 -263 -320zM587 -5q-50 0 -87 23t-37 59q0 15 10 26.5t24 11.5t23 -9t9 -23
q0 -15 -11 -22q16 -22 70 -22q38 0 60.5 17.5t22.5 46.5q0 23 -24 41.5t-63 18.5h-20l11 47h20q46 0 73.5 17.5t27.5 44.5q0 24 -20 37t-51 13q-32 0 -47 -13q7 -5 7 -16q0 -14 -9.5 -23t-22.5 -9q-15 0 -24.5 10t-9.5 26q0 27 31 49t83 22t85 -27t33 -64q0 -40 -29 -64
t-76 -29q78 -20 78 -84q0 -49 -40.5 -77t-96.5 -28z" />
    <glyph glyph-name="twothirds" unicode="&#x2154;" horiz-adv-x="795" 
d="M72 280l-10 24q23 55 65.5 93t106.5 72q44 23 64 42t20 43q0 22 -17.5 35t-46.5 13q-48 0 -66 -23q10 -13 10 -25q0 -14 -9.5 -24t-23.5 -10q-15 0 -24.5 10.5t-9.5 27.5q0 34 37 62.5t90 28.5q50 0 82 -25.5t32 -68.5q0 -39 -29.5 -66t-88.5 -59q-97 -52 -126 -106h153
l13 57h45l-23 -101h-244zM588 -5q-50 0 -87 23t-37 59q0 15 10 26.5t24 11.5t23 -9t9 -23q0 -15 -11 -22q16 -22 70 -22q38 0 60.5 17.5t22.5 46.5q0 23 -24 41.5t-63 18.5h-20l11 47h20q46 0 73.5 17.5t27.5 44.5q0 24 -20 37t-51 13q-32 0 -47 -13q7 -5 7 -16
q0 -14 -9.5 -23t-22.5 -9q-15 0 -24.5 10t-9.5 26q0 27 31 49t83 22t85 -27t33 -64q0 -40 -29 -64t-76 -29q78 -20 78 -84q0 -49 -40.5 -77t-96.5 -28zM180 -13l-31 26q11 14 114 134t156 184q150 178 263 320l31 -26q-11 -14 -114 -134t-156 -184q-178 -213 -263 -320z" />
    <glyph glyph-name="onefifth" unicode="&#x2155;" horiz-adv-x="795" 
d="M567 -7q-46 0 -79 21.5t-33 48.5q0 16 9.5 26.5t24.5 10.5q14 0 23.5 -9t9.5 -23q0 -8 -6 -16q21 -14 55 -14q42 0 72 25.5t30 60.5q0 29 -18.5 45.5t-51.5 16.5q-39 0 -76 -16l-27 19l56 173h199l-11 -49h-157l-32 -97q32 13 67 13q43 0 72.5 -27.5t29.5 -72.5
q0 -56 -46.5 -96t-110.5 -40zM66 280l11 47h99l61 263l-98 -21l-2 47l137 31l25 -12l-71 -308h97l-10 -47h-249zM174 -13l-31 26q11 14 114 134t156 184q150 178 263 320l31 -26q-11 -14 -114 -134t-156 -184q-178 -213 -263 -320z" />
    <glyph glyph-name="twofifths" unicode="&#x2156;" horiz-adv-x="795" 
d="M88 280l-10 24q23 55 65.5 93t106.5 72q44 23 64 42t20 43q0 22 -17.5 35t-46.5 13q-48 0 -66 -23q10 -13 10 -25q0 -14 -9.5 -24t-23.5 -10q-15 0 -24.5 10.5t-9.5 27.5q0 34 37 62.5t90 28.5q50 0 82 -25.5t32 -68.5q0 -39 -29.5 -66t-88.5 -59q-97 -52 -126 -106h153
l13 57h45l-23 -101h-244zM573 -7q-46 0 -79 21.5t-33 48.5q0 16 9.5 26.5t24.5 10.5q14 0 23.5 -9t9.5 -23q0 -8 -6 -16q21 -14 55 -14q42 0 72 25.5t30 60.5q0 29 -18.5 45.5t-51.5 16.5q-39 0 -76 -16l-27 19l56 173h199l-11 -49h-157l-32 -97q32 13 67 13
q43 0 72.5 -27.5t29.5 -72.5q0 -56 -46.5 -96t-110.5 -40zM190 -13l-31 26q11 14 114 134t156 184q150 178 263 320l31 -26q-11 -14 -114 -134t-156 -184q-178 -213 -263 -320z" />
    <glyph glyph-name="threefifths" unicode="&#x2157;" horiz-adv-x="795" 
d="M566 -7q-46 0 -79 21.5t-33 48.5q0 16 9.5 26.5t24.5 10.5q14 0 23.5 -9t9.5 -23q0 -8 -6 -16q21 -14 55 -14q42 0 72 25.5t30 60.5q0 29 -18.5 45.5t-51.5 16.5q-39 0 -76 -16l-27 19l56 173h199l-11 -49h-157l-32 -97q32 13 67 13q43 0 72.5 -27.5t29.5 -72.5
q0 -56 -46.5 -96t-110.5 -40zM170 -13l-31 26q11 14 114 134t156 184q150 178 263 320l31 -26q-11 -14 -114 -134t-156 -184q-178 -213 -263 -320zM209 275q-50 0 -87 23t-37 59q0 15 10 26.5t24 11.5t23 -9t9 -23q0 -15 -11 -22q16 -22 70 -22q38 0 60.5 17.5t22.5 46.5
q0 23 -24 41.5t-63 18.5h-20l11 47h20q46 0 73.5 17.5t27.5 44.5q0 24 -20 37t-51 13q-32 0 -47 -13q7 -5 7 -16q0 -14 -9.5 -23t-22.5 -9q-15 0 -24.5 10t-9.5 26q0 27 31 49t83 22t85 -27t33 -64q0 -40 -29 -64t-76 -29q78 -20 78 -84q0 -49 -40.5 -77t-96.5 -28z" />
    <glyph glyph-name="fourfifths" unicode="&#x2158;" horiz-adv-x="795" 
d="M573 -7q-46 0 -79 21.5t-33 48.5q0 16 9.5 26.5t24.5 10.5q14 0 23.5 -9t9.5 -23q0 -8 -6 -16q21 -14 55 -14q42 0 72 25.5t30 60.5q0 29 -18.5 45.5t-51.5 16.5q-39 0 -76 -16l-27 19l56 173h199l-11 -49h-157l-32 -97q32 13 67 13q43 0 72.5 -27.5t29.5 -72.5
q0 -56 -46.5 -96t-110.5 -40zM232 321l16 65h-164l-7 24l238 244l32 -30l-197 -198h108l18 69l52 19l-20 -85h60l-11 -43h-59l-15 -65h47l-10 -41h-160l9 41h63zM179 -13l-31 26q11 14 114 134t156 184q150 178 263 320l31 -26q-11 -14 -114 -134t-156 -184
q-178 -213 -263 -320z" />
    <glyph glyph-name="onesixth" unicode="&#x2159;" horiz-adv-x="795" 
d="M495 26q-34 36 -34 100q0 55 21.5 108t59.5 88q50 47 111 47q39 0 66.5 -19.5t27.5 -46.5q0 -15 -10 -25.5t-24 -10.5q-13 0 -22.5 9.5t-9.5 22.5q0 10 7 17q-12 10 -34 10q-43 0 -81 -36q-45 -43 -59 -112q39 51 99 51q48 0 79 -29t31 -72q0 -55 -42 -95t-100 -40
q-53 0 -86 33zM60 280l11 47h99l61 263l-98 -21l-2 47l137 31l25 -12l-71 -308h97l-10 -47h-249zM169 -13l-31 26q11 14 114 134t156 184q150 178 263 320l31 -26q-11 -14 -114 -134t-156 -184q-178 -213 -263 -320zM581 39q38 0 63.5 25t25.5 60q0 27 -18.5 44.5
t-48.5 17.5q-37 0 -63.5 -25.5t-26.5 -57.5q0 -27 18 -45q19 -19 50 -19z" />
    <glyph glyph-name="fivesixths" unicode="&#x215a;" horiz-adv-x="795" 
d="M492 26q-34 36 -34 100q0 55 21.5 108t59.5 88q50 47 111 47q39 0 66.5 -19.5t27.5 -46.5q0 -15 -10 -25.5t-24 -10.5q-13 0 -22.5 9.5t-9.5 22.5q0 10 7 17q-12 10 -34 10q-43 0 -81 -36q-45 -43 -59 -112q39 51 99 51q48 0 79 -29t31 -72q0 -55 -42 -95t-100 -40
q-53 0 -86 33zM189 273q-46 0 -79 21.5t-33 48.5q0 16 9.5 26.5t24.5 10.5q14 0 23.5 -9t9.5 -23q0 -8 -6 -16q21 -14 55 -14q42 0 72 25.5t30 60.5q0 29 -18.5 45.5t-51.5 16.5q-39 0 -76 -16l-27 19l56 173h199l-11 -49h-157l-32 -97q32 13 67 13q43 0 72.5 -27.5
t29.5 -72.5q0 -56 -46.5 -96t-110.5 -40zM163 -13l-31 26q11 14 114 134t156 184q150 178 263 320l31 -26q-11 -14 -114 -134t-156 -184q-178 -213 -263 -320zM578 39q38 0 63.5 25t25.5 60q0 27 -18.5 44.5t-48.5 17.5q-37 0 -63.5 -25.5t-26.5 -57.5q0 -27 18 -45
q19 -19 50 -19z" />
    <glyph glyph-name="oneeighth" unicode="&#x215b;" horiz-adv-x="795" 
d="M63 280l11 47h99l61 263l-98 -21l-2 47l137 31l25 -12l-71 -308h97l-10 -47h-249zM164 -13l-31 26q11 14 114 134t156 184q150 178 263 320l31 -26q-11 -14 -114 -134t-156 -184q-178 -213 -263 -320zM585 -6q-56 0 -93 29t-37 70q0 39 26.5 66t68.5 35q-51 24 -51 75
q0 38 35.5 68t93.5 30q52 0 86 -27t34 -69q0 -34 -22.5 -57t-60.5 -32q56 -25 56 -79q0 -45 -37 -77t-99 -32zM620 207q32 0 53.5 17.5t21.5 43.5q0 24 -19.5 39.5t-49.5 15.5q-32 0 -53 -17t-21 -42t19.5 -41t48.5 -16zM585 39q35 0 59 19t24 47q0 26 -20.5 43t-54.5 17
q-38 0 -61 -18.5t-23 -47.5q0 -25 21 -42.5t55 -17.5z" />
    <glyph glyph-name="threeeighths" unicode="&#x215c;" horiz-adv-x="795" 
d="M591 -6q-56 0 -93 29t-37 70q0 39 26.5 66t68.5 35q-51 24 -51 75q0 38 35.5 68t93.5 30q52 0 86 -27t34 -69q0 -34 -22.5 -57t-60.5 -32q56 -25 56 -79q0 -45 -37 -77t-99 -32zM626 207q32 0 53.5 17.5t21.5 43.5q0 24 -19.5 39.5t-49.5 15.5q-32 0 -53 -17t-21 -42
t19.5 -41t48.5 -16zM591 39q35 0 59 19t24 47q0 26 -20.5 43t-54.5 17q-38 0 -61 -18.5t-23 -47.5q0 -25 21 -42.5t55 -17.5zM166 -13l-31 26q11 14 114 134t156 184q150 178 263 320l31 -26q-11 -14 -114 -134t-156 -184q-178 -213 -263 -320zM208 275q-50 0 -87 23t-37 59
q0 15 10 26.5t24 11.5t23 -9t9 -23q0 -15 -11 -22q16 -22 70 -22q38 0 60.5 17.5t22.5 46.5q0 23 -24 41.5t-63 18.5h-20l11 47h20q46 0 73.5 17.5t27.5 44.5q0 24 -20 37t-51 13q-32 0 -47 -13q7 -5 7 -16q0 -14 -9.5 -23t-22.5 -9q-15 0 -24.5 10t-9.5 26q0 27 31 49
t83 22t85 -27t33 -64q0 -40 -29 -64t-76 -29q78 -20 78 -84q0 -49 -40.5 -77t-96.5 -28z" />
    <glyph glyph-name="fiveeighths" unicode="&#x215d;" horiz-adv-x="795" 
d="M190 273q-46 0 -79 21.5t-33 48.5q0 16 9.5 26.5t24.5 10.5q14 0 23.5 -9t9.5 -23q0 -8 -6 -16q21 -14 55 -14q42 0 72 25.5t30 60.5q0 29 -18.5 45.5t-51.5 16.5q-39 0 -76 -16l-27 19l56 173h199l-11 -49h-157l-32 -97q32 13 67 13q43 0 72.5 -27.5t29.5 -72.5
q0 -56 -46.5 -96t-110.5 -40zM156 -13l-31 26q11 14 114 134t156 184q150 178 263 320l31 -26q-11 -14 -114 -134t-156 -184q-178 -213 -263 -320zM579 -6q-56 0 -93 29t-37 70q0 39 26.5 66t68.5 35q-51 24 -51 75q0 38 35.5 68t93.5 30q52 0 86 -27t34 -69
q0 -34 -22.5 -57t-60.5 -32q56 -25 56 -79q0 -45 -37 -77t-99 -32zM614 207q32 0 53.5 17.5t21.5 43.5q0 24 -19.5 39.5t-49.5 15.5q-32 0 -53 -17t-21 -42t19.5 -41t48.5 -16zM579 39q35 0 59 19t24 47q0 26 -20.5 43t-54.5 17q-38 0 -61 -18.5t-23 -47.5q0 -25 21 -42.5
t55 -17.5z" />
    <glyph glyph-name="seveneighths" unicode="&#x215e;" horiz-adv-x="795" 
d="M136 280l218 318h-153l-15 -64h-48l26 108h243l13 -26l-225 -336h-59zM576 -6q-56 0 -93 29t-37 70q0 39 26.5 66t68.5 35q-51 24 -51 75q0 38 35.5 68t93.5 30q52 0 86 -27t34 -69q0 -34 -22.5 -57t-60.5 -32q56 -25 56 -79q0 -45 -37 -77t-99 -32zM611 207
q32 0 53.5 17.5t21.5 43.5q0 24 -19.5 39.5t-49.5 15.5q-32 0 -53 -17t-21 -42t19.5 -41t48.5 -16zM576 39q35 0 59 19t24 47q0 26 -20.5 43t-54.5 17q-38 0 -61 -18.5t-23 -47.5q0 -25 21 -42.5t55 -17.5zM131 -13l-31 26q11 14 114 134t156 184q150 178 263 320l31 -26
q-11 -14 -114 -134t-156 -184q-178 -213 -263 -320z" />
    <glyph glyph-name="minus" unicode="&#x2212;" horiz-adv-x="419" 
d="M51 240l15 61h332l-14 -61h-333z" />
    <glyph glyph-name="Q.alt" horiz-adv-x="732" 
d="M349 -12q-129 0 -203.5 79.5t-74.5 203.5q0 73 28 144.5t75.5 128t116.5 91.5t146 35q129 0 203.5 -79.5t74.5 -203.5q0 -102 -52 -197.5t-138 -149.5l48 -131l-62 -21l-44 122q-58 -22 -118 -22zM355 56q43 0 86 16l-46 130l62 21l42 -119q63 46 101 123t38 159
q0 93 -53.5 154.5t-153.5 61.5q-118 0 -200.5 -101.5t-82.5 -228.5q0 -93 53.5 -154.5t153.5 -61.5z" />
    <glyph glyph-name="zero.lin" horiz-adv-x="631" 
d="M294 -12q-99 0 -161.5 68.5t-62.5 182.5q0 113 43 212.5t117 159t161 59.5q99 0 161.5 -68.5t62.5 -182.5q0 -113 -43 -212.5t-117 -159t-161 -59.5zM299 56q66 0 121.5 53.5t86 135.5t30.5 169q0 84 -39.5 136t-111.5 52q-66 0 -121.5 -53.5t-86 -135.5t-30.5 -169
q0 -84 39.5 -136t111.5 -52z" />
    <glyph glyph-name="one.lin" horiz-adv-x="432" 
d="M6 0l15 66h133l119 518l-130 -32l-3 68l189 47l34 -17l-135 -584h130l-15 -66h-337z" />
    <glyph glyph-name="two.lin" horiz-adv-x="556" 
d="M19 0l-13 33q40 98 109.5 165t192.5 134q88 48 127 86.5t39 85.5q0 44 -35 71.5t-90 27.5q-54 0 -89 -16.5t-49 -37.5q23 -23 23 -45t-15.5 -37t-37.5 -15q-24 0 -39 17t-15 44q0 56 64 106.5t164 50.5q87 0 142 -46t55 -118q0 -71 -51.5 -120.5t-162.5 -109.5
q-97 -53 -152 -102t-85 -110h293l23 102h68l-38 -166h-428z" />
    <glyph glyph-name="three.lin" horiz-adv-x="528" 
d="M235 -9q-90 0 -152.5 41t-62.5 94q0 26 15.5 45.5t40.5 19.5q22 0 36 -14t14 -33q0 -30 -29 -42q15 -18 51.5 -32t90.5 -14q73 0 117 36t44 92q0 55 -49 89.5t-126 34.5h-25l15 66h26q93 0 147.5 36t54.5 91q0 48 -38.5 75t-97.5 27q-71 0 -102 -33q21 -12 21 -35
q0 -20 -15.5 -33.5t-35.5 -13.5q-22 0 -37.5 16t-15.5 41q0 49 55.5 86.5t144.5 37.5q86 0 142.5 -46.5t56.5 -115.5q0 -71 -51.5 -114.5t-129.5 -55.5q61 -16 99 -57t38 -99q0 -85 -71.5 -137.5t-170.5 -52.5z" />
    <glyph glyph-name="four.lin" horiz-adv-x="556" 
d="M464 425l-39 -169h112l-14 -63h-113l-29 -129h90l-14 -64h-282l15 63h118l30 131h-302l-7 31l439 450l48 -44l-370 -376h206l32 138z" />
    <glyph glyph-name="five.lin" horiz-adv-x="516" 
d="M209 -12q-73 0 -130 35.5t-57 81.5q0 25 15 42t38 17q21 0 35 -13.5t14 -34.5q0 -20 -14 -31q30 -32 106 -32q84 0 136 50t52 121q0 58 -36.5 91t-97.5 33q-64 0 -128 -26l-35 26l102 310h329l-16 -69h-268l-67 -198q47 20 102 20q83 0 136 -50t53 -133q0 -98 -75 -169
t-194 -71z" />
    <glyph glyph-name="six.lin" horiz-adv-x="562" 
d="M128 46q-63 62 -63 187q0 97 41 197t114 165q85 75 188 75q67 0 114 -33t47 -78q0 -26 -15.5 -42t-37.5 -16q-20 0 -35 13.5t-15 35.5q0 21 17 35q-25 23 -76 23q-78 0 -145 -62q-43 -39 -76 -102.5t-44 -131.5q29 41 77.5 71.5t110.5 30.5q87 0 141.5 -52.5t54.5 -129.5
q0 -96 -74.5 -170t-175.5 -74q-90 0 -148 58zM277 54q71 0 122 51.5t51 122.5q0 55 -35 88.5t-96 33.5q-71 0 -124 -52t-53 -116q0 -55 37 -92q38 -36 98 -36z" />
    <glyph glyph-name="seven.lin" horiz-adv-x="497" 
d="M61 0l402 594h-278l-25 -107h-69l40 171h415l18 -32l-417 -626h-86z" />
    <glyph glyph-name="eight.lin" horiz-adv-x="556" 
d="M276 -10q-96 0 -161 52.5t-65 128.5q0 72 47.5 119.5t121.5 62.5q-44 21 -69 59t-25 80q0 70 60.5 123t160.5 53q89 0 150.5 -49t61.5 -122q0 -64 -41 -105t-111 -59q45 -18 75.5 -58.5t30.5 -91.5q0 -81 -66 -137t-170 -56zM333 371q64 0 106.5 35t42.5 88
q0 46 -37.5 77.5t-97.5 31.5q-64 0 -106 -33.5t-42 -85.5q0 -48 39.5 -80.5t94.5 -32.5zM275 56q68 0 115 37.5t47 92.5q0 53 -41.5 88.5t-107.5 35.5q-72 0 -117 -38t-45 -96q0 -50 41.5 -85t107.5 -35z" />
    <glyph glyph-name="nine.lin" horiz-adv-x="562" 
d="M89 426q0 96 74.5 170t175.5 74q90 0 148 -58q63 -62 63 -187q0 -97 -41 -197t-114 -165q-85 -75 -188 -75q-67 0 -114 33t-47 78q0 26 15.5 42t37.5 16q20 0 35 -13.5t15 -35.5q0 -21 -17 -35q25 -23 76 -23q78 0 145 62q43 38 76 102t44 132q-29 -41 -78 -71.5
t-110 -30.5q-87 0 -141.5 52.5t-54.5 129.5zM473 476q0 56 -38 92q-36 36 -97 36q-71 0 -122 -51.5t-51 -122.5q0 -55 35 -88.5t96 -33.5q71 0 124 52t53 116z" />
    <glyph glyph-name="bullet.alt" horiz-adv-x="631" 
d="M316 -48q-117 0 -189.5 77t-72.5 189q0 111 73 188t189 77q117 0 190.5 -76.5t73.5 -188.5q0 -111 -73.5 -188.5t-190.5 -77.5z" />
    <glyph glyph-name="hyphen.lin" horiz-adv-x="270" 
d="M60 305l17 67h199l-14 -67h-202z" />
    <glyph glyph-name="endash.lin" horiz-adv-x="431" 
d="M48 307l16 64h386l-14 -64h-388z" />
    <glyph glyph-name="emdash.lin" horiz-adv-x="658" 
d="M48 307l16 64h613l-14 -64h-615z" />
    <glyph glyph-name="parenleft.lin" horiz-adv-x="365" 
d="M284 -161q-93 75 -148 178.5t-55 228.5q0 185 102 335t268 230l28 -52q-151 -79 -237.5 -216t-86.5 -298q0 -106 44.5 -198.5t123.5 -162.5z" />
    <glyph glyph-name="parenright.lin" horiz-adv-x="365" 
d="M-28 -160l-29 51q152 79 238 216t86 298q0 212 -167 361l38 46q93 -75 148.5 -179t55.5 -229q0 -185 -102 -334.5t-268 -229.5z" />
    <glyph glyph-name="bracketleft.lin" horiz-adv-x="341" 
d="M32 -140l217 932h226l-14 -58h-159l-190 -816h158l-13 -58h-225z" />
    <glyph glyph-name="bracketright.lin" horiz-adv-x="341" 
d="M-72 -140l13 58h159l191 816h-159l14 58h225l-217 -932h-226z" />
    <glyph glyph-name="braceleft.lin" horiz-adv-x="333" 
d="M230 -154q-86 11 -131 54.5t-45 104.5q0 73 85 143q63 53 63 83q0 24 -22 43t-68 19h-34l16 68h35q55 0 85 24t30 59q0 30 -29 83q-34 62 -34 108q0 72 66 120.5t192 51.5l-8 -51q-92 -6 -137.5 -40t-45.5 -78q0 -34 32 -94q32 -62 32 -98q0 -49 -32.5 -81t-91.5 -40
q42 -9 63 -35t21 -59q0 -52 -77 -115q-73 -61 -73 -108q0 -85 121 -113z" />
    <glyph glyph-name="braceright.lin" horiz-adv-x="333" 
d="M-46 -153l8 51q92 6 137.5 40t45.5 78q0 35 -32 95t-32 98q0 49 32.5 80.5t91.5 39.5q-42 9 -63 35t-21 59q0 51 77 116q73 61 73 108q0 84 -121 112l13 49q86 -10 131 -54t45 -105q0 -70 -85 -143q-63 -52 -63 -83q0 -24 22 -43t68 -19h34l-16 -68h-35q-55 0 -85 -24
t-30 -59q0 -30 29 -83q34 -60 34 -108q0 -72 -66 -120.5t-192 -51.5z" />
    <glyph glyph-name="registered.alt" horiz-adv-x="605" 
d="M302 -8q-109 0 -182.5 76t-73.5 186t73.5 186t182.5 76q110 0 183.5 -76t73.5 -186t-74 -186t-183 -76zM302 28q92 0 154 66t62 160q0 95 -62 161t-154 66t-153.5 -66t-61.5 -161t61.5 -160.5t153.5 -65.5zM200 127v34h32v196h-32v33h100q47 0 74 -20t27 -57
q0 -53 -54 -72l48 -80h31v-34h-56l-59 104h-42v-70h34v-34h-103zM269 263h29q29 0 46.5 13t17.5 35q0 46 -63 46h-30v-94z" />
    <glyph glyph-name="copyright.lin" horiz-adv-x="782" 
d="M400 -12q-140 0 -237 99.5t-97 241.5t97 241.5t237 99.5t237 -99.5t97 -241.5t-97 -241.5t-237 -99.5zM400 26q123 0 207 88.5t84 214.5t-84 214.5t-207 88.5q-122 0 -206.5 -88.5t-84.5 -214.5t84.5 -214.5t206.5 -88.5zM411 164q-74 0 -122.5 48.5t-48.5 121.5
t50.5 122t120.5 49q54 0 90.5 -25.5t36.5 -55.5q0 -16 -10.5 -27t-24.5 -11t-23.5 9t-9.5 23q0 13 8 17q-20 24 -68 24q-50 0 -84 -36t-34 -88q0 -51 33.5 -87.5t85.5 -36.5q57 0 98 43l32 -35q-50 -55 -130 -55z" />
    <glyph glyph-name="published.lin" horiz-adv-x="782" 
d="M400 -12q-140 0 -237 99.5t-97 241.5t97 241.5t237 99.5t237 -99.5t97 -241.5t-97 -241.5t-237 -99.5zM400 26q123 0 207 88.5t84 214.5t-84 214.5t-207 88.5q-122 0 -206.5 -88.5t-84.5 -214.5t84.5 -214.5t206.5 -88.5zM286 164v45h39v240h-39v44h131q53 0 88 -29
t35 -77q0 -53 -34.5 -81.5t-93.5 -28.5h-37v-68h42v-45h-131zM416 319q34 0 53.5 18t19.5 50q0 28 -21 45t-53 17h-40v-129q1 0 14.5 -0.5t26.5 -0.5z" />
    <glyph glyph-name="registered.lin" horiz-adv-x="782" 
d="M400 -12q-140 0 -237 99.5t-97 241.5t97 241.5t237 99.5t237 -99.5t97 -241.5t-97 -241.5t-237 -99.5zM400 26q123 0 207 88.5t84 214.5t-84 214.5t-207 88.5q-122 0 -206.5 -88.5t-84.5 -214.5t84.5 -214.5t206.5 -88.5zM273 171v44h40v241h-40v44h127q57 0 91.5 -25
t34.5 -72q0 -68 -65 -90l57 -98h38v-44h-70l-70 128h-54v-84h42v-44h-131zM362 341h37q34 0 55 15.5t21 43.5q0 56 -75 56h-38v-115z" />
    <glyph glyph-name="dollar.lin" horiz-adv-x="550" 
d="M149 -87l29 100q-65 19 -106 57t-41 78q0 31 17 50t43 19q22 0 36.5 -15t14.5 -34q0 -31 -28 -51q24 -31 88 -46l75 240q-65 32 -102.5 71.5t-37.5 101.5q0 73 61.5 123.5t160.5 50.5q4 0 12.5 -0.5t12.5 -0.5l28 93l56 -17l-26 -87q55 -17 91 -50t36 -69
q0 -31 -16.5 -49.5t-41.5 -18.5q-22 0 -36.5 15t-14.5 36q0 27 27 45q-25 22 -69 32l-71 -230q36 -17 58 -30.5t46.5 -35t36 -49t11.5 -62.5q0 -80 -63 -130t-167 -50q-21 0 -32 1l-31 -105zM424 175q0 38 -25 63.5t-75 50.5l-69 -226h19q66 0 108 30t42 82zM211 488
q0 -35 23 -60t66 -48l67 214q-5 1 -15 1q-61 0 -101 -29.5t-40 -77.5z" />
    <glyph glyph-name="sterling.lin" horiz-adv-x="561" 
d="M424 251h-161q-7 -103 -85 -157q39 -3 77 -16q4 -1 19 -6.5t20 -7t17.5 -4.5t25 -4t27.5 -1q51 0 104 41l35 -42q-58 -66 -149 -66q-20 0 -41 3.5t-29 5.5t-34 12t-27 10q-46 18 -95 19q-16 -23 -42 -37t-46 -14q-22 0 -35.5 11.5t-13.5 29.5q0 27 30.5 45.5t87.5 19.5
q80 67 85 158h-113l14 58h98q-1 8 -7 51.5t-6 68.5q0 105 60 173t158 68q64 0 112 -35t48 -82q0 -29 -15.5 -46t-38.5 -17q-22 0 -36.5 14.5t-14.5 35.5q0 25 17 38q-4 10 -25 18.5t-48 8.5q-69 0 -108 -50.5t-39 -125.5q0 -23 5.5 -63.5t6.5 -56.5h175z" />
    <glyph glyph-name="Euro.lin" horiz-adv-x="728" 
d="M485 373h-254q-11 -44 -13 -98h245l-15 -59h-227q12 -73 59.5 -116.5t123.5 -43.5q108 0 199 91l46 -45q-107 -114 -251 -114q-100 0 -169 62.5t-83 163.5h-113l15 62h95q2 50 13 96h-86l14 62h93q43 105 129.5 170t192.5 65q100 0 158 -51.5t58 -109.5q0 -32 -17.5 -52
t-42.5 -20q-24 0 -38.5 14t-14.5 35q0 29 29 47q-10 28 -43.5 49t-92.5 21q-77 0 -141.5 -46.5t-100.5 -123.5h246z" />
    <glyph glyph-name="yen.lin" horiz-adv-x="631" 
d="M112 269l13 58h136l-99 268h-70l15 63h222l-15 -63h-76l93 -265l212 265h-75l15 63h226l-15 -63h-65l-227 -268h129l-13 -58h-167l-16 -68h168l-13 -58h-168l-19 -83h95l-14 -60h-259l14 60h92l19 83h-166l13 58h166l16 68h-167z" />
    <glyph glyph-name="cent.lin" horiz-adv-x="475" 
d="M252 120q-21 0 -31 2l-43 -141l-50 13l42 140q-53 21 -83.5 65.5t-30.5 105.5q0 99 72 176t172 81l32 110l51 -14l-30 -100q51 -10 83 -41.5t32 -67.5q0 -24 -15 -41.5t-38 -17.5q-17 0 -30 12t-13 33q0 24 21 36q-19 24 -61 30l-96 -321q8 -1 24 -1q87 0 152 57l-2 -67
q-66 -49 -158 -49zM127 308q0 -78 63 -113l92 305q-65 -12 -110 -65.5t-45 -126.5z" />
    <glyph glyph-name="numbersign.lin" horiz-adv-x="590" 
d="M539 657l-52 -185h123l-18 -62h-123l-47 -171h125l-17 -63h-126l-49 -176h-67l50 176h-125l-48 -176h-67l49 176h-122l17 63h123l48 171h-125l17 62h125l52 185h67l-53 -185h124l52 185h67zM278 411l-49 -174h127l48 174h-126z" />
    <glyph glyph-name="paragraph.lin" horiz-adv-x="686" 
d="M197 0l15 66h89l40 170h-30q-113 0 -172.5 50t-59.5 138q0 101 79.5 167.5t205.5 66.5h377l-15 -66h-85l-122 -526h85l-15 -66h-392zM374 62h72l123 534h-71z" />
    <glyph glyph-name="section.lin" horiz-adv-x="509" 
d="M72 331q0 44 41 74t109 44q-57 37 -57 94q0 55 50.5 91t129.5 36q98 0 146 -52q25 -26 25 -57q0 -22 -13.5 -37t-34.5 -15q-20 0 -33 13.5t-13 31.5t13 34q-4 7 -18 12q-33 13 -74 13q-45 0 -75 -17.5t-30 -43.5q0 -20 16.5 -36.5t36.5 -26.5t62 -27q34 -14 55 -24
t43.5 -26t33.5 -37t11 -47q0 -45 -41 -75t-111 -44q59 -38 59 -94q0 -54 -50.5 -90.5t-129.5 -36.5q-99 0 -148 54q-24 27 -24 55q0 21 13.5 36.5t34.5 15.5t34 -13.5t13 -31.5q0 -19 -13 -33q2 -5 15 -11q32 -14 77 -14t74.5 17t29.5 43q0 29 -27 47.5t-87 42.5
q-34 14 -55 24t-43.5 26.5t-33.5 37t-11 47.5zM313 407q-16 5 -36 14q-62 -11 -97 -34t-35 -53q0 -26 26.5 -43t83.5 -40q11 -5 33 -13q63 11 99 33t36 53q0 26 -28 44.5t-82 38.5z" />
    <glyph glyph-name="ordfeminine.lin" horiz-adv-x="351" 
d="M169 471q-41 0 -67 28.5t-26 76.5q0 66 41.5 114t96.5 48q30 0 51 -16t29 -41l14 53h45l-45 -185q-3 -15 -3 -25q0 -16 14 -16q18 0 35 40l24 -11q-20 -65 -68 -65q-49 0 -51 49q-35 -50 -90 -50zM184 514q40 0 67 35.5t27 78.5q0 30 -16 48t-45 18q-38 0 -64.5 -34.5
t-26.5 -79.5q0 -30 15.5 -48t42.5 -18zM47 365l11 44h275l-11 -44h-275z" />
    <glyph glyph-name="ordmasculine.lin" horiz-adv-x="337" 
d="M209 473q-52 0 -82 32t-30 80q0 62 41 107.5t103 45.5q52 0 82 -32t30 -80q0 -62 -41 -107.5t-103 -45.5zM58 365l12 44h237l-11 -44h-238zM211 515q40 0 67 32t27 77q0 32 -18.5 51.5t-48.5 19.5q-40 0 -66.5 -31.5t-26.5 -77.5q0 -32 18.5 -51.5t47.5 -19.5z" />
    <glyph glyph-name="degree.lin" horiz-adv-x="324" 
d="M211 481q-50 0 -79 31.5t-29 77.5q0 58 40 103t99 45q50 0 79 -31.5t29 -77.5q0 -57 -40.5 -102.5t-98.5 -45.5zM213 527q35 0 60.5 30.5t25.5 69.5q0 29 -17 47t-43 18q-35 0 -60 -31t-25 -69q0 -29 17 -47t42 -18z" />
    <glyph glyph-name="percent.lin" horiz-adv-x="693" 
d="M223 374q-54 0 -87 35.5t-33 88.5q0 66 45.5 117t109.5 51q55 0 88 -35t33 -89q0 -66 -45.5 -117t-110.5 -51zM72 -7l-36 34q29 28 151 149t172 170t116 114.5t130 130.5t75 76l36 -34q-24 -23 -78 -76t-129 -127t-116 -115q-50 -49 -116.5 -115.5t-128.5 -129.5t-76 -77
zM487 -8q-54 0 -87 35.5t-33 88.5q0 66 45.5 117t109.5 51q55 0 88 -35t33 -89q0 -66 -45.5 -117t-110.5 -51zM227 425q40 0 68 34.5t28 78.5q0 34 -19 55.5t-49 21.5q-41 0 -69 -34.5t-28 -77.5q0 -35 19 -56.5t50 -21.5zM491 43q40 0 68 34.5t28 78.5q0 34 -19 55.5
t-49 21.5q-41 0 -69 -34.5t-28 -77.5q0 -35 19 -56.5t50 -21.5z" />
    <glyph glyph-name="perthousand.lin" horiz-adv-x="1029" 
d="M72 -7l-36 34q29 28 151 149t172 170t116 114.5t130 130.5t75 76l36 -34q-24 -23 -78 -76t-129 -127t-116 -115q-50 -49 -116.5 -115.5t-128.5 -129.5t-76 -77zM227 425q40 0 68 34.5t28 76.5q0 34 -19 55t-49 21q-41 0 -69 -34.5t-28 -76.5q0 -34 19 -55t50 -21z
M223 374q-54 0 -87 35t-33 88q0 64 45.5 115t109.5 51q54 0 87.5 -35t33.5 -88q0 -65 -45.5 -115.5t-110.5 -50.5zM491 43q41 0 69 34.5t28 76.5q0 34 -19.5 55t-49.5 21q-41 0 -69 -34t-28 -77q0 -34 19 -55t50 -21zM487 -8q-54 0 -87 35t-33 88q0 65 45.5 116t110.5 51
q54 0 87 -35.5t33 -87.5q0 -65 -45.5 -116t-110.5 -51zM827 43q40 0 68.5 34.5t28.5 76.5q0 34 -19.5 55t-50.5 21q-40 0 -68 -34t-28 -77q0 -34 19 -55t50 -21zM823 -8q-54 0 -87 35t-33 88q0 65 45 116t110 51q54 0 87 -35.5t33 -87.5q0 -65 -45 -116t-110 -51z" />
    <glyph glyph-name="quotedbl.lin" horiz-adv-x="329" 
d="M262 487l21 194q3 27 17.5 41.5t33.5 14.5q21 0 34.5 -13.5t13.5 -33.5q0 -12 -7 -28l-85 -175h-28zM107 487l21 194q3 27 17.5 41.5t33.5 14.5q21 0 34.5 -13.5t13.5 -33.5q0 -12 -7 -28l-85 -175h-28z" />
    <glyph glyph-name="quotesingle.lin" horiz-adv-x="175" 
d="M107 487l21 194q3 27 17.5 41.5t33.5 14.5q21 0 34.5 -13.5t13.5 -33.5q0 -12 -7 -28l-85 -175h-28z" />
    <glyph glyph-name="plus.lin" horiz-adv-x="415" 
d="M308 500l-31 -132h135l-14 -61h-135l-34 -146h-63l34 146h-135l15 61h134l31 132h63z" />
    <glyph glyph-name="minus.lin" horiz-adv-x="419" 
d="M65 307l15 61h332l-14 -61h-333z" />
    <glyph glyph-name="divide.lin" horiz-adv-x="419" 
d="M65 307l15 61h332l-14 -61h-333zM271 425q-20 0 -35 15t-15 35t15 35t35 15t34.5 -15t14.5 -35t-14.5 -35t-34.5 -15zM207 151q-20 0 -34.5 14.5t-14.5 34.5t15 35t35 15q19 0 33.5 -15t14.5 -35t-14.5 -34.5t-34.5 -14.5z" />
    <glyph glyph-name="equal.lin" horiz-adv-x="415" 
d="M94 380l14 62h299l-14 -62h-299zM56 220l14 62h299l-14 -62h-299z" />
    <glyph glyph-name="multiply.lin" horiz-adv-x="419" 
d="M151 492l81 -108l125 103l39 -49l-126 -104l82 -109l-52 -42l-82 109l-125 -103l-39 49l126 104l-81 109z" />
    <glyph glyph-name="less.lin" horiz-adv-x="409" 
d="M280 146l-213 170l8 33l286 167l30 -48l-241 -141l169 -135z" />
    <glyph glyph-name="greater.lin" horiz-adv-x="409" 
d="M98 149l-31 47l241 141l-169 136l39 46l213 -170l-8 -33z" />
    <glyph glyph-name="plusminus.lin" horiz-adv-x="419" 
d="M320 557l-31 -135h135l-14 -62h-136l-31 -135h-63l31 135h-134l14 62h135l31 135h63zM14 83l14 62h331l-14 -62h-331z" />
    <glyph glyph-name="zero.tab" horiz-adv-x="530" 
d="M526 432q0 -179 -85.5 -312t-203.5 -133q-84 0 -131 64t-47 175q0 117 38.5 219.5t105.5 163.5t144 61q84 0 131.5 -64t47.5 -174zM136 229q0 -79 28 -126t82 -47q55 0 102.5 56t74 141.5t26.5 174.5q0 79 -28 126t-82 47q-55 0 -102.5 -56t-74 -141.5t-26.5 -174.5z" />
    <glyph glyph-name="one.tab" horiz-adv-x="530" 
d="M25 0l16 66h162l122 518l-160 -39l-3 67l218 55l34 -17l-137 -584h160l-15 -66h-397z" />
    <glyph glyph-name="two.tab" horiz-adv-x="530" 
d="M106 64h271l24 102h68l-39 -166h-406l-13 33q39 99 105 166t181 132q83 47 119 86.5t36 87.5q0 43 -32 71t-84 28q-49 0 -81.5 -17t-46.5 -39q23 -21 23 -45q0 -22 -15.5 -37t-37.5 -15q-24 0 -39 17t-15 44q0 56 61 107t156 51q84 0 136 -45.5t52 -117.5
q0 -49 -26.5 -91t-65.5 -71.5t-108 -69.5q-91 -53 -143 -101.5t-80 -109.5z" />
    <glyph glyph-name="three.tab" horiz-adv-x="530" 
d="M339 337q62 -18 99 -58t37 -98q0 -85 -70.5 -137.5t-167.5 -52.5q-89 0 -149.5 41.5t-60.5 95.5q0 27 15.5 46.5t40.5 19.5q22 0 35.5 -14t13.5 -33q0 -31 -29 -42q40 -49 138 -49q71 0 114 36t43 92t-46 90t-124 34h-27l15 66h29q92 0 143.5 36t51.5 91q0 48 -38 75
t-93 27q-70 0 -102 -36q21 -12 21 -35q0 -20 -15 -33.5t-35 -13.5q-23 0 -38 16t-15 41q0 50 55 88.5t142 38.5q84 0 140 -46t56 -115q0 -71 -50.5 -114t-128.5 -57z" />
    <glyph glyph-name="four.tab" horiz-adv-x="530" 
d="M445 425l-39 -169h107l-15 -63h-106l-30 -130h87l-14 -63h-277l15 62h117l30 132h-285l-7 31l415 450l49 -44l-351 -376h193l32 138z" />
    <glyph glyph-name="five.tab" horiz-adv-x="530" 
d="M216 -12q-75 0 -132 36.5t-57 83.5q0 25 15.5 42t38.5 17q21 0 35 -13.5t14 -34.5q0 -20 -15 -32q35 -35 108 -35q85 0 138 51t53 123q0 57 -36.5 89.5t-98.5 32.5q-66 0 -133 -26l-35 26l102 310h334l-15 -69h-274l-66 -198q47 20 103 20q85 0 139 -49t54 -131
q0 -100 -76 -171.5t-196 -71.5z" />
    <glyph glyph-name="six.tab" horiz-adv-x="530" 
d="M458 585q-21 23 -70 23q-72 0 -134 -62q-39 -38 -69 -100.5t-41 -129.5q28 40 72.5 69t101.5 29q82 0 133.5 -52.5t51.5 -129.5q0 -96 -70.5 -170t-166.5 -74q-87 0 -140 58q-59 62 -59 187q0 97 39 197t108 165q80 75 178 75q64 0 108.5 -33t44.5 -78q0 -25 -16 -41.5
t-38 -16.5q-19 0 -34.5 13.5t-15.5 35.5q0 21 17 35zM267 54q65 0 111.5 51.5t46.5 122.5q0 55 -32 88.5t-85 33.5q-67 0 -116 -52t-49 -116q0 -54 35 -92q33 -36 89 -36z" />
    <glyph glyph-name="seven.tab" horiz-adv-x="530" 
d="M80 0l405 594h-292l-25 -107h-69l40 171h430l17 -32l-420 -626h-86z" />
    <glyph glyph-name="eight.tab" horiz-adv-x="530" 
d="M457 494q0 46 -34 77.5t-90 31.5q-58 0 -96.5 -33.5t-38.5 -85.5q0 -48 36 -80.5t87 -32.5q58 0 97 35.5t39 87.5zM487 183q0 -81 -63 -137t-161 -56q-94 0 -154 51t-60 129q0 72 47 120t119 63q-42 21 -66.5 59.5t-24.5 80.5q0 70 57.5 122.5t151.5 52.5
q85 0 142.5 -48.5t57.5 -121.5q0 -64 -40 -105.5t-107 -59.5q43 -18 72 -58.5t29 -91.5zM412 186q0 53 -38.5 88.5t-98.5 35.5q-67 0 -108.5 -38t-41.5 -96q0 -50 38 -85t101 -35q62 0 105 37.5t43 92.5z" />
    <glyph glyph-name="nine.tab" horiz-adv-x="530" 
d="M134 73q23 -23 71 -23q73 0 133 62q39 38 69.5 101t41.5 130q-28 -41 -73 -70t-102 -29q-82 0 -133 52.5t-51 129.5q0 96 70 170t166 74q87 0 140 -58q60 -61 60 -187q0 -97 -39 -197t-108 -165q-82 -75 -179 -75q-63 0 -107.5 33t-44.5 78q0 26 16 42t38 16
q19 0 34 -13.5t15 -35.5q0 -21 -17 -35zM325 604q-65 0 -111.5 -51.5t-46.5 -122.5q0 -55 32 -88.5t88 -33.5q65 0 113.5 52t48.5 116q0 55 -34 92q-33 36 -90 36z" />
    <glyph glyph-name="period.tab" horiz-adv-x="265" 
d="M111 -9q-27 0 -45 18.5t-18 45.5q0 28 18 46.5t45 18.5t45.5 -18.5t18.5 -46.5q0 -27 -18.5 -45.5t-45.5 -18.5z" />
    <glyph glyph-name="comma.tab" horiz-adv-x="265" 
d="M-13 -145l-15 29q56 28 87 61.5t34 55.5q-20 6 -32 23t-12 33q0 26 17.5 44t44.5 18q28 0 46.5 -19.5t18.5 -51.5q0 -53 -50.5 -107.5t-138.5 -85.5z" />
    <glyph glyph-name="colon.tab" horiz-adv-x="265" 
d="M111 -9q-26 0 -44 18.5t-18 45.5q0 26 18 45t44 19q27 0 45 -18.5t18 -45.5t-18 -45.5t-45 -18.5zM171 253q-26 0 -44 19t-18 45q0 27 18 45.5t44 18.5q27 0 45 -18.5t18 -45.5t-18 -45.5t-45 -18.5z" />
    <glyph glyph-name="semicolon.tab" horiz-adv-x="265" 
d="M-12 -144l-15 29q56 28 86.5 61t33.5 55q-20 6 -32 22.5t-12 33.5q0 25 17.5 42.5t43.5 17.5q28 0 46.5 -19t18.5 -51q0 -52 -50 -106t-137 -85zM171 253q-26 0 -44 19t-18 45q0 27 18 45.5t44 18.5q27 0 45 -18.5t18 -45.5t-18 -45.5t-45 -18.5z" />
    <glyph glyph-name="twodotleader.tab" horiz-adv-x="530" 
d="M111 -9q-27 0 -45 18.5t-18 45.5q0 28 18 46.5t45 18.5t45.5 -18.5t18.5 -46.5q0 -27 -18.5 -45.5t-45.5 -18.5zM376 -9q-27 0 -45 18.5t-18 45.5q0 28 18 46.5t45 18.5t45.5 -18.5t18.5 -46.5q0 -27 -18.5 -45.5t-45.5 -18.5z" />
    <glyph glyph-name="periodcentered.tab" horiz-adv-x="265" 
d="M147 206q-27 0 -45 18.5t-18 45.5q0 28 18 46.5t45 18.5t45 -18.5t18 -46.5q0 -27 -18 -45.5t-45 -18.5z" />
    <glyph glyph-name="slash.tab" horiz-adv-x="530" 
d="M-25 -211l-54 36l638 919l54 -37z" />
    <glyph glyph-name="bar.tab" horiz-adv-x="265" 
d="M102 -200v932h62v-932h-62z" />
    <glyph glyph-name="underscore.tab" horiz-adv-x="530" 
d="M-56 -148l17 67h555l-15 -67h-557z" />
    <glyph glyph-name="dollar.tab" horiz-adv-x="530" 
d="M29 148q0 31 17 50t43 19q22 0 37 -15t15 -34q0 -30 -29 -51q22 -31 82 -47l74 241q-60 33 -96 73.5t-36 102.5q0 72 59 121.5t154 49.5q3 0 11 -0.5t12 -0.5l27 93l57 -16l-26 -89q53 -17 87 -49.5t34 -68.5q0 -31 -16.5 -49.5t-40.5 -18.5q-22 0 -37 15t-15 36
q0 27 27 45q-22 22 -62 32l-70 -231q34 -18 54.5 -31.5t43.5 -35t34 -49.5t11 -63q0 -79 -60.5 -128t-160.5 -49q-20 0 -29 1l-31 -105l-57 16l28 101q-62 19 -101.5 57t-39.5 78zM406 171q0 39 -23.5 65t-68.5 51l-67 -225h17q63 0 102.5 29t39.5 80zM209 491
q0 -62 82 -110l64 215h-13q-58 -1 -95.5 -29.5t-37.5 -75.5z" />
    <glyph glyph-name="sterling.tab" horiz-adv-x="530" 
d="M242 439q0 -24 6.5 -69.5t7.5 -60.5h160l-13 -58h-146q-7 -103 -82 -157q32 -3 69 -16q65 -23 103 -23q46 0 97 41l36 -42q-57 -66 -142 -66q-12 0 -24.5 1.5t-21 3t-22 6t-18.5 6t-20.5 7.5t-18.5 7q-47 18 -87 19q-16 -23 -42 -37t-45 -14q-22 0 -35.5 11.5t-13.5 29.5
q0 27 30.5 45.5t86.5 19.5q76 63 81 158h-110l14 58h95q-2 15 -6 41t-6.5 47.5t-2.5 41.5q0 102 57 166.5t152 64.5q62 0 107.5 -35t45.5 -82q0 -29 -15.5 -46t-38.5 -17q-21 0 -36 14.5t-15 35.5q0 25 17 38q-3 10 -22.5 18.5t-44.5 8.5q-64 0 -100.5 -47t-36.5 -119z" />
    <glyph glyph-name="Euro.tab" horiz-adv-x="530" 
d="M341 370h-141q-12 -45 -15 -91h134l-14 -59h-122q2 -77 31 -121t80 -44q70 0 129 90l49 -44q-81 -114 -187 -114q-80 0 -128 60.5t-50 170.5h-75l14 62h63q3 39 13 89h-56l15 62h59q37 107 105 173t148 66q68 0 107.5 -43t39.5 -102q0 -35 -17 -55.5t-42 -20.5
q-23 0 -37 14t-14 36q0 35 33 50q-19 54 -77 54q-51 0 -95.5 -48t-72.5 -126h137z" />
    <glyph glyph-name="yen.tab" horiz-adv-x="530" 
d="M81 269l13 58h123l-73 268h-63l15 63h215l-15 -63h-78l65 -261l186 261h-80l15 63h219l-15 -63h-57l-203 -268h117l-13 -58h-150l-15 -68h150l-13 -58h-150l-19 -83h95l-14 -60h-260l15 60h92l19 83h-149l13 58h149l16 68h-150z" />
    <glyph glyph-name="cent.tab" horiz-adv-x="530" 
d="M453 236l-3 -67q-70 -49 -168 -49q-21 0 -31 1l-42 -140l-51 13l42 139q-57 20 -90.5 65t-33.5 107q0 99 75 175.5t179 81.5l33 110l50 -14l-30 -99q55 -9 90 -41.5t35 -68.5q0 -24 -15 -41.5t-38 -17.5q-17 0 -30 12t-13 33q0 23 21 36q-22 25 -71 31l-96 -322
q8 -1 23 -1q93 0 164 57zM147 308q0 -83 73 -116l92 308q-68 -12 -116.5 -66t-48.5 -126z" />
    <glyph glyph-name="numbersign.tab" horiz-adv-x="530" 
d="M501 657l-52 -185h105l-17 -62h-106l-47 -171h108l-17 -63h-109l-49 -176h-66l49 176h-110l-48 -176h-66l49 176h-104l17 63h105l48 171h-108l17 62h108l52 185h66l-52 -185h109l52 185h66zM255 411l-48 -174h112l48 174h-112z" />
    <glyph glyph-name="paragraph.tab" horiz-adv-x="530" 
d="M221 66l40 171h-6q-84 0 -136.5 49.5t-52.5 133.5q0 106 77.5 172t198.5 66h259l-15 -66h-71l-122 -526h71l-14 -66h-326l15 66h82zM281 62h48l124 534h-48z" />
    <glyph glyph-name="section.tab" horiz-adv-x="530" 
d="M73 331q0 44 42.5 73.5t112.5 43.5q-61 38 -61 95q0 55 53 91t135 36q103 0 155 -52q26 -28 26 -57q0 -22 -13.5 -37t-34.5 -15q-20 0 -33.5 13.5t-13.5 31.5q0 19 15 34q-14 9 -22 12q-35 13 -80 13q-49 0 -81.5 -17.5t-32.5 -43.5q0 -29 28.5 -47t94.5 -43
q37 -14 58.5 -24t46.5 -26t36.5 -37t11.5 -47q0 -86 -157 -119q63 -38 63 -94q0 -54 -52.5 -90.5t-135.5 -36.5q-105 0 -156 53q-25 26 -25 56q0 22 13.5 37t34.5 15q20 0 33.5 -13.5t13.5 -31.5q0 -19 -14 -33q3 -5 18 -11q33 -14 84 -14q49 0 81 17t32 43q0 29 -29 47.5
t-94 42.5q-37 14 -59 24t-46.5 26.5t-36 37t-11.5 47.5zM324 407q-8 2 -21.5 7t-16.5 6q-65 -11 -102 -33.5t-37 -52.5q0 -26 28.5 -43.5t89.5 -39.5q5 -2 35 -13q142 23 142 86q0 26 -30 44.5t-88 38.5z" />
    <glyph glyph-name="degree.tab" horiz-adv-x="530" 
d="M302 384q-69 0 -110 43.5t-41 107.5q0 81 59 145t144 64q69 0 110 -43.5t41 -107.5q0 -81 -59 -145t-144 -64zM306 432q60 0 103 48t43 110q0 48 -28.5 77t-73.5 29q-60 0 -103 -48t-43 -110q0 -48 28.5 -77t73.5 -29z" />
    <glyph glyph-name="percent.tab" horiz-adv-x="530" 
d="M57 -8l-37 31l258 322l255 324l35 -31l-256 -321zM182 373q-42 0 -67 29t-25 77q0 76 39.5 131.5t95.5 55.5q40 0 65 -28.5t25 -76.5q0 -77 -38.5 -132.5t-94.5 -55.5zM187 424q30 0 51.5 43.5t21.5 90.5q0 58 -42 58q-30 0 -52 -44t-22 -90q0 -58 43 -58zM366 -8
q-41 0 -66 29t-25 77q0 76 39 131.5t95 55.5q40 0 65 -28.5t25 -76.5q0 -77 -38.5 -132.5t-94.5 -55.5zM371 43q30 0 52 44t22 90q0 58 -43 58q-30 0 -51.5 -44t-21.5 -90q0 -58 42 -58z" />
    <glyph glyph-name="quotedbl.tab" horiz-adv-x="530" 
d="M184 442l27 236q3 28 19 43.5t36 15.5q22 0 35 -13.5t13 -34.5q0 -14 -8 -32l-94 -215h-28zM379 442l27 236q3 28 19 43.5t36 15.5q22 0 35 -13.5t13 -34.5q0 -14 -8 -32l-94 -215h-28z" />
    <glyph glyph-name="quotesingle.tab" horiz-adv-x="265" 
d="M148 442l27 236q3 28 19 43.5t36 15.5q22 0 35 -13.5t13 -34.5q0 -14 -8 -32l-94 -215h-28z" />
    <glyph glyph-name="plus.tab" horiz-adv-x="530" 
d="M372 521l-36 -152h155l-15 -62h-154l-39 -166h-63l39 166h-155l15 62h154l36 152h63z" />
    <glyph glyph-name="minus.tab" horiz-adv-x="530" 
d="M102 307l14 62h373l-15 -62h-372z" />
    <glyph glyph-name="divide.tab" horiz-adv-x="530" 
d="M102 307l14 62h373l-15 -62h-372zM332 445q-20 0 -34.5 15t-14.5 35t15 35t35 15q19 0 33.5 -15t14.5 -35t-14.5 -35t-34.5 -15zM258 131q-20 0 -34.5 15t-14.5 35t15 34.5t35 14.5t34 -14.5t14 -34.5t-14.5 -35t-34.5 -15z" />
    <glyph glyph-name="equal.tab" horiz-adv-x="530" 
d="M133 390l14 63h340l-14 -63h-340zM92 210l14 62h339l-14 -62h-339z" />
    <glyph glyph-name="multiply.tab" horiz-adv-x="530" 
d="M187 517l100 -133l146 122l39 -49l-147 -122l100 -131l-52 -42l-100 130l-147 -122l-38 49l148 123l-101 133z" />
    <glyph glyph-name="less.tab" horiz-adv-x="530" 
d="M352 124l-248 195l5 24l333 194l30 -46l-277 -164l196 -158z" />
    <glyph glyph-name="greater.tab" horiz-adv-x="530" 
d="M235 542l248 -196l-5 -24l-334 -193l-29 45l277 164l-196 158z" />
    <glyph glyph-name="plusminus.tab" horiz-adv-x="530" 
d="M382 587l-36 -155h156l-15 -62h-155l-36 -155h-63l36 155h-154l14 62h154l36 155h63zM45 70l13 62h372l-14 -62h-371z" />
    <glyph glyph-name="zero.idx_P2D" horiz-adv-x="1100" 
d="M550 795q135 0 248.5 -66.5t178.5 -180.5t65 -248t-65 -248t-178.5 -180.5t-248.5 -66.5t-248.5 66.5t-178.5 180.5t-65 248t65 248t178.5 180.5t248.5 66.5zM550 749q-186 0 -313 -131.5t-127 -317.5t127 -317.5t313 -131.5t313 131.5t127 317.5t-127 317.5t-313 131.5z
M549 64q-79 0 -134.5 68.5t-55.5 173.5q0 107 55.5 175t136.5 68q80 0 135 -68t55 -174q0 -107 -55.5 -175t-136.5 -68zM550 124q56 0 90 51t34 131q0 81 -34 132t-90 51q-57 0 -91 -50.5t-34 -131.5t34.5 -132t90.5 -51z" />
    <glyph glyph-name="one.idx_P2D" horiz-adv-x="1100" 
d="M550 795q135 0 248.5 -66.5t178.5 -180.5t65 -248t-65 -248t-178.5 -180.5t-248.5 -66.5t-248.5 66.5t-178.5 180.5t-65 248t65 248t178.5 180.5t248.5 66.5zM550 749q-186 0 -313 -131.5t-127 -317.5t127 -317.5t313 -131.5t313 131.5t127 317.5t-127 317.5t-313 131.5z
M690 73h-275v58h106v342l-100 -21l-13 57l146 33h32v-411h104v-58z" />
    <glyph glyph-name="two.idx_P2D" horiz-adv-x="1100" 
d="M550 795q135 0 248.5 -66.5t178.5 -180.5t65 -248t-65 -248t-178.5 -180.5t-248.5 -66.5t-248.5 66.5t-178.5 180.5t-65 248t65 248t178.5 180.5t248.5 66.5zM550 749q-186 0 -313 -131.5t-127 -317.5t127 -317.5t313 -131.5t313 131.5t127 317.5t-127 317.5t-313 131.5z
M394 433q0 27 15 49q19 30 56.5 48.5t87.5 18.5q64 0 109 -37.5t45 -95.5q0 -51 -28.5 -83.5t-86.5 -70.5q-102 -67 -132 -134h200v75h56v-130h-317l-18 29q24 69 67.5 115t103.5 87q47 32 67.5 55.5t20.5 57.5q0 32 -26.5 53t-65.5 21q-56 0 -82 -26l-6 -7q23 -12 23 -38
q0 -18 -12.5 -30t-29.5 -12q-22 0 -34.5 15.5t-12.5 39.5z" />
    <glyph glyph-name="three.idx_P2D" horiz-adv-x="1100" 
d="M550 795q135 0 248.5 -66.5t178.5 -180.5t65 -248t-65 -248t-178.5 -180.5t-248.5 -66.5t-248.5 66.5t-178.5 180.5t-65 248t65 248t178.5 180.5t248.5 66.5zM550 749q-186 0 -313 -131.5t-127 -317.5t127 -317.5t313 -131.5t313 131.5t127 317.5t-127 317.5t-313 131.5z
M385 171q0 21 13 35.5t32 14.5q17 0 29 -12.5t12 -29.5q0 -20 -14 -29q25 -28 91 -28q44 0 73.5 22.5t29.5 56.5q0 49 -51 72q-33 14 -83 14h-21v55h24q51 0 84 22q35 24 35 62q0 32 -25.5 48.5t-65.5 16.5q-51 0 -75 -22q14 -10 14 -29q0 -17 -12.5 -29t-29.5 -12
t-30.5 14.5t-13.5 36.5q0 23 17 43q41 54 133 54q66 0 110 -33.5t44 -86.5q0 -57 -51 -90q-24 -16 -48 -20q26 -6 46 -18q64 -36 64 -101q0 -58 -48.5 -95t-120.5 -37q-91 0 -139 53q-23 25 -23 52z" />
    <glyph glyph-name="four.idx_P2D" horiz-adv-x="1100" 
d="M550 795q135 0 248.5 -66.5t178.5 -180.5t65 -248t-65 -248t-178.5 -180.5t-248.5 -66.5t-248.5 66.5t-178.5 180.5t-65 248t65 248t178.5 180.5t248.5 66.5zM550 749q-186 0 -313 -131.5t-127 -317.5t127 -317.5t313 -131.5t313 131.5t127 317.5t-127 317.5t-313 131.5z
M491 73v53h83v84h-216l-15 28l249 316l48 -36l-206 -258h140v90l62 25v-114h77v-53h-77v-81h60v-54h-205z" />
    <glyph glyph-name="five.idx_P2D" horiz-adv-x="1100" 
d="M550 795q135 0 248.5 -66.5t178.5 -180.5t65 -248t-65 -248t-178.5 -180.5t-248.5 -66.5t-248.5 66.5t-178.5 180.5t-65 248t65 248t178.5 180.5t248.5 66.5zM550 749q-186 0 -313 -131.5t-127 -317.5t127 -317.5t313 -131.5t313 131.5t127 317.5t-127 317.5t-313 131.5z
M546 64q-66 0 -111.5 27.5t-45.5 61.5q0 19 12 32t32 13q18 0 30 -12.5t12 -28.5q0 -14 -7 -21q19 -15 75 -15q48 0 75 29t27 74q0 40 -26 65.5t-75 25.5q-65 0 -107 -22l-28 16l22 231h249v-61h-196l-12 -116q32 10 81 10q67 0 111.5 -40.5t44.5 -108.5q0 -72 -46.5 -116
t-116.5 -44z" />
    <glyph glyph-name="six.idx_P2D" horiz-adv-x="1100" 
d="M550 795q135 0 248.5 -66.5t178.5 -180.5t65 -248t-65 -248t-178.5 -180.5t-248.5 -66.5t-248.5 66.5t-178.5 180.5t-65 248t65 248t178.5 180.5t248.5 66.5zM550 749q-186 0 -313 -131.5t-127 -317.5t127 -317.5t313 -131.5t313 131.5t127 317.5t-127 317.5t-313 131.5z
M654 421q-19 0 -30.5 12t-11.5 28q0 12 5 21q-22 10 -47 10q-55 0 -92.5 -51.5t-39.5 -133.5q19 25 51 41t68 16q70 0 116 -42.5t46 -105.5q0 -64 -47.5 -108t-118.5 -44q-74 0 -123 49q-55 54 -55 169q0 128 57 197.5t139 69.5q49 0 86 -22q39 -26 39 -62q0 -21 -12 -32.5
t-30 -11.5zM445 217q0 -39 32 -68q33 -28 77 -28q42 0 70.5 27t28.5 67t-29 66t-74 26q-44 0 -74.5 -26t-30.5 -64z" />
    <glyph glyph-name="seven.idx_P2D" horiz-adv-x="1100" 
d="M550 795q135 0 248.5 -66.5t178.5 -180.5t65 -248t-65 -248t-178.5 -180.5t-248.5 -66.5t-248.5 66.5t-178.5 180.5t-65 248t65 248t178.5 180.5t248.5 66.5zM550 749q-186 0 -313 -131.5t-127 -317.5t127 -317.5t313 -131.5t313 131.5t127 317.5t-127 317.5t-313 131.5z
M526 73h-69l196 412h-191v-82h-59v137h312l14 -31z" />
    <glyph glyph-name="eight.idx_P2D" horiz-adv-x="1100" 
d="M550 795q135 0 248.5 -66.5t178.5 -180.5t65 -248t-65 -248t-178.5 -180.5t-248.5 -66.5t-248.5 66.5t-178.5 180.5t-65 248t65 248t178.5 180.5t248.5 66.5zM550 749q-186 0 -313 -131.5t-127 -317.5t127 -317.5t313 -131.5t313 131.5t127 317.5t-127 317.5t-313 131.5z
M550 66q-77 0 -123.5 38t-46.5 95q0 41 28 73.5t68 42.5q-40 12 -63 40.5t-23 62.5q0 58 45.5 93.5t114.5 35.5q68 0 113.5 -36t45.5 -93q0 -34 -23.5 -62.5t-62.5 -40.5q41 -10 68.5 -42.5t27.5 -73.5q0 -57 -47 -95t-122 -38zM550 338q38 0 65 22.5t27 54.5q0 33 -26.5 55
t-65.5 22q-41 0 -67 -21.5t-26 -55.5q0 -32 27.5 -54.5t65.5 -22.5zM550 122q45 0 74 23.5t29 58.5q0 34 -30 59t-73 25q-44 0 -74 -25t-30 -59q0 -35 29 -58.5t75 -23.5z" />
    <glyph glyph-name="nine.idx_P2D" horiz-adv-x="1100" 
d="M550 795q135 0 248.5 -66.5t178.5 -180.5t65 -248t-65 -248t-178.5 -180.5t-248.5 -66.5t-248.5 66.5t-178.5 180.5t-65 248t65 248t178.5 180.5t248.5 66.5zM550 749q-186 0 -313 -131.5t-127 -317.5t127 -317.5t313 -131.5t313 131.5t127 317.5t-127 317.5t-313 131.5z
M404 148q0 21 12 32.5t29 11.5q19 0 30.5 -12t11.5 -28q0 -12 -6 -20q17 -11 51 -11q55 0 92.5 50t38.5 132q-19 -24 -51.5 -39.5t-67.5 -15.5q-70 0 -115.5 41.5t-45.5 106.5t47 109t119 44q73 0 121 -48q56 -55 56 -171q0 -129 -55.5 -197.5t-139.5 -68.5q-70 0 -107 39
q-20 20 -20 45zM656 394q0 41 -31 70q-32 29 -77 29q-43 0 -71.5 -27.5t-28.5 -67.5q0 -42 29 -68t75 -26q44 0 74 26t30 64z" />
    <glyph glyph-name="space.tab" horiz-adv-x="265" 
 />
    <glyph glyph-name="NUL" 
 />
    <glyph glyph-name="hfjslug" horiz-adv-x="694" 
d="M644 -200h-208l-8 14h-163l-8 -14h-207v303q14 0 23 9.5t9 22.5t-9.5 22.5t-22.5 9.5v554h100l30 79h334l29 -79h101v-921zM400 563v-172h15v78h38v14h-38v66h43v14h-58zM184 563v-172h15v79h47v-79h15v172h-15v-79h-47v79h-15zM460 394q10 -4 21 -4q31 0 31 36v137h-16
v-137q0 -22 -16 -22q-8 0 -20 5v-15zM371 465l-13 3q-4 -18 -8 -30h-1l-16 31q23 21 23 42q0 12 -7 21.5t-20 9.5q-12 0 -20 -9.5t-8 -21.5q0 -13 14 -39q-23 -18 -23 -47q0 -16 8 -26.5t21 -10.5q19 0 29 24h1l12 -24l12 6l-17 32q6 14 13 39zM523 323v-46h8v12l8 8l15 -20
h10l-20 26l18 20h-10l-20 -24h-1v24h-8zM488 292l10 -15h9l-12 17q10 4 10 14q0 15 -17 15h-20v-46h8v15h12zM426 276q10 0 17 7t7 17q0 9 -7 16.5t-17 7.5t-17 -7.5t-7 -16.5q0 -10 7 -17t17 -7zM370 301l-13 22h-9l18 -29v-17h8v17l18 29h-9zM193 323v-46h34v7h-26v13h23
v7h-23v12h26v7h-34zM132 323v-46h8v32l25 -32h7v46h-8v-32l-25 32h-7zM241 323l14 -47h8l11 34h1l11 -34h8l14 47h-8l-10 -35h-1l-11 35h-7l-11 -35h-1l-10 35h-8zM327 479q-12 22 -12 32q0 19 14 19q13 0 13 -19q0 -15 -15 -32zM342 423q-8 -21 -20 -21q-16 0 -16 25
q0 19 16 35zM487 299h-11v17h11q10 0 10 -8q0 -9 -10 -9zM426 283q-16 0 -16 17q0 6 4.5 11.5t11.5 5.5t11.5 -5.5t4.5 -11.5q0 -17 -16 -17z" />
    <glyph glyph-name="i.dot" horiz-adv-x="295" 
d="M204 508q-21 0 -36 15t-15 36t15 36t36 15q20 0 35 -15t15 -36t-15 -36t-35 -15zM149 -7q-39 0 -61.5 22t-22.5 58q0 16 8 46l67 246h-83l16 61h153l-84 -310q-7 -28 -7 -42q0 -31 29 -31q33 0 58 67l35 -12q-34 -105 -108 -105z" />
    <glyph glyph-name="zero.num" horiz-adv-x="353" 
d="M181 273q-54 0 -84.5 38t-30.5 104q0 94 47.5 163.5t118.5 69.5q54 0 84.5 -38t30.5 -104q0 -94 -47.5 -163.5t-118.5 -69.5zM184 320q46 0 78 57.5t32 128.5q0 44 -16.5 69.5t-48.5 25.5q-47 0 -78.5 -57.5t-31.5 -128.5q0 -95 65 -95z" />
    <glyph glyph-name="one.num" horiz-adv-x="353" 
d="M51 280l11 47h99l61 263l-98 -21l-2 47l137 31l25 -12l-71 -308h97l-10 -47h-249z" />
    <glyph glyph-name="two.num" horiz-adv-x="353" 
d="M50 280l-10 24q23 55 65.5 93t106.5 72q44 23 64 42t20 43q0 22 -17.5 35t-46.5 13q-48 0 -66 -23q10 -13 10 -25q0 -14 -9.5 -24t-23.5 -10q-15 0 -24.5 10.5t-9.5 27.5q0 34 37 62.5t90 28.5q50 0 82 -25.5t32 -68.5q0 -39 -29.5 -66t-88.5 -59q-97 -52 -126 -106h153
l13 57h45l-23 -101h-244z" />
    <glyph glyph-name="three.num" horiz-adv-x="353" 
d="M182 275q-50 0 -87 23t-37 59q0 15 10 26.5t24 11.5t23 -9t9 -23q0 -15 -11 -22q16 -22 70 -22q38 0 60.5 17.5t22.5 46.5q0 23 -24 41.5t-63 18.5h-20l11 47h20q46 0 73.5 17.5t27.5 44.5q0 24 -20 37t-51 13q-32 0 -47 -13q7 -5 7 -16q0 -14 -9.5 -23t-22.5 -9
q-15 0 -24.5 10t-9.5 26q0 27 31 49t83 22t85 -27t33 -64q0 -40 -29 -64t-76 -29q78 -20 78 -84q0 -49 -40.5 -77t-96.5 -28z" />
    <glyph glyph-name="four.num" horiz-adv-x="353" 
d="M204 321l16 65h-164l-7 24l238 244l32 -30l-197 -198h108l18 69l52 19l-20 -85h60l-11 -43h-59l-15 -65h47l-10 -41h-160l9 41h63z" />
    <glyph glyph-name="five.num" horiz-adv-x="353" 
d="M165 273q-46 0 -79 21.5t-33 48.5q0 16 9.5 26.5t24.5 10.5q14 0 23.5 -9t9.5 -23q0 -8 -6 -16q21 -14 55 -14q42 0 72 25.5t30 60.5q0 29 -18.5 45.5t-51.5 16.5q-39 0 -76 -16l-27 19l56 173h199l-11 -49h-157l-32 -97q32 13 67 13q43 0 72.5 -27.5t29.5 -72.5
q0 -56 -46.5 -96t-110.5 -40z" />
    <glyph glyph-name="six.num" horiz-adv-x="353" 
d="M104 306q-34 36 -34 100q0 55 21.5 108t59.5 88q50 47 111 47q39 0 66.5 -19.5t27.5 -46.5q0 -15 -10 -25.5t-24 -10.5q-13 0 -22.5 9.5t-9.5 22.5q0 10 7 17q-12 10 -34 10q-43 0 -81 -36q-45 -43 -59 -112q39 51 99 51q48 0 79 -29t31 -72q0 -55 -42 -95t-100 -40
q-53 0 -86 33zM190 319q38 0 63.5 25t25.5 60q0 27 -18.5 44.5t-48.5 17.5q-37 0 -63.5 -25.5t-26.5 -57.5q0 -27 18 -45q19 -19 50 -19z" />
    <glyph glyph-name="seven.num" horiz-adv-x="353" 
d="M99 280l218 318h-153l-15 -64h-48l26 108h243l13 -26l-225 -336h-59z" />
    <glyph glyph-name="eight.num" horiz-adv-x="353" 
d="M191 274q-56 0 -93 29t-37 70q0 39 26.5 66t68.5 35q-51 24 -51 75q0 38 35.5 68t93.5 30q52 0 86 -27t34 -69q0 -34 -22.5 -57t-60.5 -32q56 -25 56 -79q0 -45 -37 -77t-99 -32zM226 487q32 0 53.5 17.5t21.5 43.5q0 24 -19.5 39.5t-49.5 15.5q-32 0 -53 -17t-21 -42
t19.5 -41t48.5 -16zM191 319q35 0 59 19t24 47q0 26 -20.5 43t-54.5 17q-38 0 -61 -18.5t-23 -47.5q0 -25 21 -42.5t55 -17.5z" />
    <glyph glyph-name="nine.num" horiz-adv-x="353" 
d="M90 514q0 55 41.5 95t99.5 40q53 0 86 -33q34 -36 34 -100q0 -55 -21.5 -108t-59.5 -88q-50 -47 -111 -47q-39 0 -66.5 19.5t-27.5 46.5q0 15 10 25.5t24 10.5q13 0 22.5 -9.5t9.5 -22.5q0 -11 -7 -17q12 -10 35 -10q44 0 80 36q42 39 59 112q-39 -51 -99 -51
q-48 0 -78.5 29t-30.5 72zM232 603q-38 0 -63.5 -25t-25.5 -60q0 -27 18 -44.5t48 -17.5q37 0 63.5 25.5t26.5 57.5q0 27 -18 45q-17 19 -49 19z" />
    <glyph glyph-name="zero.den" horiz-adv-x="353" 
d="M116 -7q-54 0 -84.5 38t-30.5 104q0 94 47.5 163.5t118.5 69.5q54 0 84.5 -38t30.5 -104q0 -94 -47.5 -163.5t-118.5 -69.5zM119 40q46 0 78 57.5t32 128.5q0 44 -16.5 69.5t-48.5 25.5q-47 0 -78.5 -57.5t-31.5 -128.5q0 -95 65 -95z" />
    <glyph glyph-name="one.den" horiz-adv-x="353" 
d="M-14 0l11 47h99l61 263l-98 -21l-2 47l137 31l25 -12l-71 -308h97l-10 -47h-249z" />
    <glyph glyph-name="two.den" horiz-adv-x="353" 
d="M-15 0l-10 24q23 55 65.5 93t106.5 72q44 23 64 42t20 43q0 22 -17.5 35t-46.5 13q-48 0 -66 -23q10 -13 10 -25q0 -14 -9.5 -24t-23.5 -10q-15 0 -24.5 10.5t-9.5 27.5q0 34 37 62.5t90 28.5q50 0 82 -25.5t32 -68.5q0 -39 -29.5 -66t-88.5 -59q-97 -52 -126 -106h153
l13 57h45l-23 -101h-244z" />
    <glyph glyph-name="three.den" horiz-adv-x="353" 
d="M117 -5q-50 0 -87 23t-37 59q0 15 10 26.5t24 11.5t23 -9t9 -23q0 -15 -11 -22q16 -22 70 -22q38 0 60.5 17.5t22.5 46.5q0 23 -24 41.5t-63 18.5h-20l11 47h20q46 0 73.5 17.5t27.5 44.5q0 24 -20 37t-51 13q-32 0 -47 -13q7 -5 7 -16q0 -14 -9.5 -23t-22.5 -9
q-15 0 -24.5 10t-9.5 26q0 27 31 49t83 22t85 -27t33 -64q0 -40 -29 -64t-76 -29q78 -20 78 -84q0 -49 -40.5 -77t-96.5 -28z" />
    <glyph glyph-name="four.den" horiz-adv-x="353" 
d="M139 41l16 65h-164l-7 24l238 244l32 -30l-197 -198h108l18 69l52 19l-20 -85h60l-11 -43h-59l-15 -65h47l-10 -41h-160l9 41h63z" />
    <glyph glyph-name="five.den" horiz-adv-x="353" 
d="M100 -7q-46 0 -79 21.5t-33 48.5q0 16 9.5 26.5t24.5 10.5q14 0 23.5 -9t9.5 -23q0 -8 -6 -16q21 -14 55 -14q42 0 72 25.5t30 60.5q0 29 -18.5 45.5t-51.5 16.5q-39 0 -76 -16l-27 19l56 173h199l-11 -49h-157l-32 -97q32 13 67 13q43 0 72.5 -27.5t29.5 -72.5
q0 -56 -46.5 -96t-110.5 -40z" />
    <glyph glyph-name="six.den" horiz-adv-x="353" 
d="M39 26q-34 36 -34 100q0 55 21.5 108t59.5 88q50 47 111 47q39 0 66.5 -19.5t27.5 -46.5q0 -15 -10 -25.5t-24 -10.5q-13 0 -22.5 9.5t-9.5 22.5q0 10 7 17q-12 10 -34 10q-43 0 -81 -36q-45 -43 -59 -112q39 51 99 51q48 0 79 -29t31 -72q0 -55 -42 -95t-100 -40
q-53 0 -86 33zM125 39q38 0 63.5 25t25.5 60q0 27 -18.5 44.5t-48.5 17.5q-37 0 -63.5 -25.5t-26.5 -57.5q0 -27 18 -45q19 -19 50 -19z" />
    <glyph glyph-name="seven.den" horiz-adv-x="353" 
d="M34 0l218 318h-153l-15 -64h-48l26 108h243l13 -26l-225 -336h-59z" />
    <glyph glyph-name="eight.den" horiz-adv-x="353" 
d="M126 -6q-56 0 -93 29t-37 70q0 39 26.5 66t68.5 35q-51 24 -51 75q0 38 35.5 68t93.5 30q52 0 86 -27t34 -69q0 -34 -22.5 -57t-60.5 -32q56 -25 56 -79q0 -45 -37 -77t-99 -32zM161 207q32 0 53.5 17.5t21.5 43.5q0 24 -19.5 39.5t-49.5 15.5q-32 0 -53 -17t-21 -42
t19.5 -41t48.5 -16zM126 39q35 0 59 19t24 47q0 26 -20.5 43t-54.5 17q-38 0 -61 -18.5t-23 -47.5q0 -25 21 -42.5t55 -17.5z" />
    <glyph glyph-name="nine.den" horiz-adv-x="353" 
d="M25 234q0 55 41.5 95t99.5 40q53 0 86 -33q34 -36 34 -100q0 -55 -21.5 -108t-59.5 -88q-50 -47 -111 -47q-39 0 -66.5 19.5t-27.5 46.5q0 15 10 25.5t24 10.5q13 0 22.5 -9.5t9.5 -22.5q0 -11 -7 -17q12 -10 35 -10q44 0 80 36q42 39 59 112q-39 -51 -99 -51
q-48 0 -78.5 29t-30.5 72zM167 323q-38 0 -63.5 -25t-25.5 -60q0 -27 18 -44.5t48 -17.5q37 0 63.5 25.5t26.5 57.5q0 27 -18 45q-17 19 -49 19z" />
    <glyph glyph-name="caron.alt" horiz-adv-x="500" 
d="M180 491l-20 19q47 51 60 100q3 13 4 39t4 39q9 40 45 40q18 0 29 -11.5t11 -30.5q0 -43 -40 -99q-30 -43 -93 -96z" />
    <glyph glyph-name="g.sc" 
 />
    <glyph glyph-name="gbreve.sc" 
 />
    <glyph glyph-name="i.sc" 
 />
    <glyph glyph-name="iacute.sc" 
 />
    <glyph glyph-name="ibreve.sc" 
 />
    <glyph glyph-name="icircumflex.sc" 
 />
    <glyph glyph-name="idieresis.sc" 
 />
    <glyph glyph-name="igrave.sc" 
 />
    <glyph glyph-name="imacron.sc" 
 />
    <glyph glyph-name="iogonek.sc" 
 />
    <glyph glyph-name="S.sc" 
 />
    <glyph glyph-name="Sacute.sc" 
 />
    <glyph glyph-name="Aring.sc" 
 />
    <glyph glyph-name="Aringacute.sc" 
 />
    <glyph glyph-name="E.sc" 
 />
    <glyph glyph-name="Eacute.sc" 
 />
    <glyph glyph-name="Ebreve.sc" 
 />
    <glyph glyph-name="Ecircumflex.sc" 
 />
    <glyph glyph-name="Edieresis.sc" 
 />
    <glyph glyph-name="Egrave.sc" 
 />
    <glyph glyph-name="Emacron.sc" 
 />
    <glyph glyph-name="Eogonek.sc" 
 />
    <glyph glyph-name="N.sc" 
 />
    <glyph glyph-name="Nacute.sc" 
 />
    <glyph glyph-name="Ntilde.sc" 
 />
    <glyph glyph-name="a.sc" 
 />
    <glyph glyph-name="aogonek.sc" 
 />
    <glyph glyph-name="L.sc" 
 />
    <glyph glyph-name="Lacute.sc" 
 />
    <glyph glyph-name="s.sc" 
 />
    <glyph glyph-name="sacute.sc" 
 />
    <glyph glyph-name="aring.sc" 
 />
    <glyph glyph-name="aringacute.sc" 
 />
    <glyph glyph-name="C.sc" 
 />
    <glyph glyph-name="Cacute.sc" 
 />
    <glyph glyph-name="e.sc" 
 />
    <glyph glyph-name="eacute.sc" 
 />
    <glyph glyph-name="ebreve.sc" 
 />
    <glyph glyph-name="ecircumflex.sc" 
 />
    <glyph glyph-name="edieresis.sc" 
 />
    <glyph glyph-name="egrave.sc" 
 />
    <glyph glyph-name="emacron.sc" 
 />
    <glyph glyph-name="eogonek.sc" 
 />
    <glyph glyph-name="n.sc" 
 />
    <glyph glyph-name="nacute.sc" 
 />
    <glyph glyph-name="ntilde.sc" 
 />
    <glyph glyph-name="l.sc" 
 />
    <glyph glyph-name="lacute.sc" 
 />
    <glyph glyph-name="c.sc" 
 />
    <glyph glyph-name="cacute.sc" 
 />
    <glyph glyph-name="R.sc" 
 />
    <glyph glyph-name="Racute.sc" 
 />
    <glyph glyph-name="G.sc" 
 />
    <glyph glyph-name="Gbreve.sc" 
 />
    <glyph glyph-name="I.sc" 
 />
    <glyph glyph-name="Iacute.sc" 
 />
    <glyph glyph-name="Ibreve.sc" 
 />
    <glyph glyph-name="Icircumflex.sc" 
 />
    <glyph glyph-name="Idieresis.sc" 
 />
    <glyph glyph-name="Igrave.sc" 
 />
    <glyph glyph-name="Imacron.sc" 
 />
    <glyph glyph-name="Iogonek.sc" 
 />
    <glyph glyph-name="r.sc" 
 />
    <glyph glyph-name="racute.sc" 
 />
    <glyph glyph-name="A.sc" 
 />
    <glyph glyph-name="Aogonek.sc" 
 />
    </font>
</defs>
</svg>
