<?xml version="1.0" standalone="no"?>
<!DOCTYPE svg PUBLIC "-//W3C//DTD SVG 1.1//EN" "http://www.w3.org/Graphics/SVG/1.1/DTD/svg11.dtd" >
<svg>
<metadata>
Created by FontForge 20110222 at Fri May  9 17:03:48 2014
 By Orthosie Webhosting
Copyright (C) 2000, 2007 Hoefler &#38; Frere-Jones. http://www.typography.com
</metadata>
<defs>
<font id="ArcherLightItalic" horiz-adv-x="0" >
  <font-face 
    font-family="ArcherLightItalic"
    font-weight="300"
    font-style="italic"
    font-stretch="normal"
    units-per-em="1000"
    panose-1="0 0 0 0 0 0 0 0 0 0"
    ascent="800"
    descent="-200"
    x-height="416"
    cap-height="658"
    bbox="-108 -244 1030 1012"
    underline-thickness="50"
    underline-position="-50"
    slope="-12"
    unicode-range="U+0020-FB04"
  />
<missing-glyph horiz-adv-x="503" 
d="M2 -200v1000h500v-1000h-500zM73 750l179 -390l179 390h-358zM52 -76l172 376l-172 376v-752zM452 676l-172 -376l172 -376v752zM252 240l-179 -390h358z" />
    <glyph glyph-name="f_f" unicode="ff" horiz-adv-x="541" 
d="M361 640q-35 0 -35 40v1q-31 -2 -55 -26q-31 -30 -50 -107l-31 -132h213l37 160q21 84 61 123q35 37 91 37q28 0 44.5 -12t16.5 -31q0 -13 -9.5 -22.5t-21.5 -9.5q-17 0 -26.5 10.5t-9.5 29.5v2q-36 -2 -60 -27q-34 -32 -50 -107l-35 -153h111l-8 -33h-111l-88 -383h-38
l88 383h-212l-88 -383h-37l88 383h-77l7 33h78l32 138q19 84 60 124q37 37 88 37q26 0 42 -12.5t16 -31.5q0 -13 -9 -22t-22 -9z" />
    <glyph glyph-name="fi" unicode="fi" horiz-adv-x="515" 
d="M396 383h-213l-88 -383h-37l89 383h-78l7 33h78l34 145q14 57 33 92q46 83 137 83q42 0 66.5 -18t24.5 -42q0 -16 -9 -26t-24 -10t-24 10t-9 27q0 8 3 17q-16 8 -32 8q-64 0 -100 -64q-19 -34 -31 -83l-32 -139h252l-87 -306q-9 -31 -9 -52q0 -16 9.5 -25.5t25.5 -9.5
q34 0 61 68l24 -7q-17 -47 -38 -68.5t-51 -21.5q-31 0 -49.5 17.5t-18.5 47.5q0 19 10 56z" />
    <glyph glyph-name="fl" unicode="fl" horiz-adv-x="512" 
d="M76 416h78l43 183q9 42 34 77q45 60 122 60t105 -66l28 61h21l-144 -620q-9 -39 -9 -53q0 -16 9.5 -25.5t25.5 -9.5q34 0 61 68l24 -7q-17 -47 -38 -68.5t-51 -21.5t-49 17t-19 47q0 16 9 55l63 270h-205l-89 -383h-37l89 383h-78zM233 594l-42 -178h206l37 157l3 15
q-24 5 -24 31q0 21 18 31q-21 52 -80 52q-53 0 -87 -40q-22 -26 -31 -68z" />
    <glyph glyph-name="f_f_i" unicode="ffi" horiz-adv-x="765" 
d="M307 0l89 383h-212l-89 -383h-37l89 383h-78l7 33h78l37 157q14 60 48 94q42 47 110 47q31 0 55 -11.5t24 -37.5q0 -14 -9 -23t-22 -9q-16 0 -26 11t-10 30v5q-2 0 -7 0.5t-8 0.5q-48 0 -80 -34q-29 -30 -39 -78l-36 -152h213l34 145q14 58 35 96q46 79 134 79
q42 0 67 -18.5t25 -41.5q0 -16 -9 -26t-24 -10q-16 0 -25 10t-9 27q0 9 4 17q-18 8 -33 8q-62 0 -99 -62q-21 -38 -31 -85l-32 -139h252l-87 -306q-10 -35 -10 -52q0 -16 9.5 -25.5t25.5 -9.5q35 0 62 68l23 -7q-30 -90 -89 -90q-30 0 -49 17.5t-19 47.5q0 21 11 56l76 268
h-213l-88 -383h-38z" />
    <glyph glyph-name="f_f_l" unicode="ffl" horiz-adv-x="761" 
d="M69 383l7 33h78l38 163q11 45 34 75q45 60 122 60q31 0 56.5 -12.5t25.5 -38.5q0 -14 -9 -23t-22 -9q-16 0 -25.5 11t-9.5 30v6q-10 2 -19 2q-51 0 -85 -40q-23 -26 -32 -66l-37 -158h212l43 183q11 48 37 80q46 57 120 57q75 0 105 -65l27 60h22l-144 -620
q-9 -39 -9 -53q0 -16 9.5 -25.5t24.5 -9.5q18 0 32.5 15.5t29.5 52.5l23 -7q-30 -90 -89 -90q-30 0 -49 17t-19 47q0 8 9 55l64 270h-206l-88 -383h-38l89 383h-212l-89 -383h-37l88 383h-77zM482 594l-41 -178h206l37 157q2 10 2 15q-24 7 -24 31q0 21 18 31q-21 52 -80 52
q-53 0 -86 -39q-23 -27 -32 -69z" />
    <glyph glyph-name="f_b" unicode="fb" horiz-adv-x="776" 
d="M58 0l89 383h-78l7 33h78l43 183q9 42 34 77q45 60 122 60t105 -66l28 61h23l-95 -403q64 95 158 95q70 0 114 -47.5t44 -127.5q0 -104 -63.5 -179.5t-155.5 -75.5q-58 0 -97.5 32t-49.5 85l-25 -110h-38l89 383h-206l-89 -383h-37zM510 26q78 0 129 66.5t51 152.5
q0 68 -33 106.5t-91 38.5q-77 0 -132 -73t-55 -154q0 -61 35.5 -99t95.5 -38zM413 619q0 21 18 31q-21 52 -80 52q-53 0 -87 -40q-22 -26 -31 -68l-42 -178h206l37 157l3 15q-24 5 -24 31z" />
    <glyph glyph-name="f_h" unicode="fh" horiz-adv-x="773" 
d="M301 0l89 383h-206l-89 -383h-37l89 383h-78l7 33h78l43 183q9 42 34 77q45 60 122 60t105 -66l28 61h23l-99 -422q65 113 158 113q51 0 83 -28.5t32 -74.5q0 -34 -13 -78l-36 -131q-10 -31 -10 -52q0 -16 9.5 -25.5t25.5 -9.5q34 0 61 68l23 -7q-16 -47 -37 -68.5
t-51 -21.5q-31 0 -50 17.5t-19 46.5q0 15 11 57l36 132q12 40 12 70q0 34 -22 53.5t-59 19.5q-57 0 -109 -56t-73 -146l-43 -188h-38zM413 619q0 21 18 31q-21 52 -80 52q-53 0 -87 -40q-22 -26 -31 -68l-42 -178h206l37 157l3 15q-24 5 -24 31z" />
    <glyph glyph-name="f_j" unicode="fj" horiz-adv-x="477" 
d="M441 416l-100 -437q-21 -94 -63 -140q-37 -39 -90 -39q-23 0 -38.5 11t-15.5 28q0 14 9 22.5t22 8.5q14 0 23.5 -10.5t9.5 -24.5v-2q28 3 54 27q35 41 53 126l91 397h-213l-88 -383h-37l89 383h-78l7 33h78l34 145q14 57 33 92q46 83 137 83q42 0 66.5 -18t24.5 -42
q0 -16 -9 -26t-24 -10t-24 10t-9 27q0 8 3 17q-16 8 -32 8q-64 0 -100 -64q-19 -34 -31 -83l-32 -139h250z" />
    <glyph glyph-name="f_k" unicode="fk" horiz-adv-x="711" 
d="M301 0l89 383h-206l-89 -383h-37l89 383h-78l7 33h78l43 183q9 42 34 77q45 60 122 60t105 -66l28 61h23l-125 -532q96 43 162 86t78 69q-21 10 -21 33q0 15 10.5 25.5t24.5 10.5q15 0 25 -11t10 -29q0 -70 -186 -166l50 -121q19 -45 30 -59q12 -13 29 -13q33 0 52 80
l25 -8q-23 -102 -81 -102q-31 0 -52 22q-17 20 -36 64l-50 122q-44 -22 -77 -37l-38 -165h-38zM413 619q0 21 18 31q-21 52 -80 52q-53 0 -87 -40q-22 -26 -31 -68l-42 -178h206l37 157l3 15q-24 5 -24 31z" />
    <glyph glyph-name="f_f_b" unicode="ffb" horiz-adv-x="1026" 
d="M76 416h78l38 163q11 45 34 75q45 60 122 60q31 0 56.5 -12.5t25.5 -38.5q0 -14 -9 -23t-22 -9q-16 0 -25.5 11t-9.5 30v6q-10 2 -19 2q-51 0 -85 -40q-23 -26 -32 -66l-37 -158h212l43 183q11 48 37 80q46 57 120 57q75 0 105 -65l27 60h23l-94 -403q64 95 157 95
q70 0 114.5 -47.5t44.5 -127.5q0 -104 -64 -179.5t-155 -75.5q-57 0 -97 31t-51 84l-25 -108h-37l89 383h-207l-88 -383h-38l89 383h-212l-89 -383h-37l88 383h-77zM759 26q79 0 130 66.5t51 152.5q0 68 -33 106.5t-91 38.5q-77 0 -132.5 -73t-55.5 -154q0 -61 35.5 -99
t95.5 -38zM662 619q0 21 18 31q-21 52 -80 52q-53 0 -86 -39q-23 -27 -32 -69l-41 -178h206l37 157q2 10 2 15q-24 7 -24 31z" />
    <glyph glyph-name="f_f_h" unicode="ffh" horiz-adv-x="1023" 
d="M551 0l89 383h-207l-88 -383h-38l89 383h-212l-89 -383h-37l88 383h-77l7 33h78l38 163q11 45 34 75q45 60 122 60q31 0 56.5 -12.5t25.5 -38.5q0 -14 -9 -23t-22 -9q-16 0 -25.5 11t-9.5 30v6q-10 2 -19 2q-51 0 -85 -40q-23 -26 -32 -66l-37 -158h212l43 183
q11 48 37 80q46 57 120 57q75 0 105 -65l27 60h23l-99 -422q65 113 159 113q50 0 82 -28.5t33 -74.5q0 -34 -13 -78l-37 -131q-10 -37 -10 -52q0 -16 10 -25.5t25 -9.5q18 0 32 15.5t29 52.5l24 -7q-17 -47 -37.5 -68.5t-50.5 -21.5q-31 0 -50 17.5t-19 46.5q0 19 10 57
l37 132q12 40 12 70q-1 34 -23 53.5t-59 19.5q-56 0 -108.5 -56t-73.5 -146l-43 -188h-37zM662 619q0 21 18 31q-21 52 -80 52q-53 0 -86 -39q-23 -27 -32 -69l-41 -178h206l37 157q2 10 2 15q-24 7 -24 31z" />
    <glyph glyph-name="f_f_j" unicode="ffj" horiz-adv-x="727" 
d="M58 0l89 383h-78l7 33h78l37 157q14 60 48 94q42 47 110 47q31 0 55 -11.5t24 -37.5q0 -14 -9 -23t-22 -9q-16 0 -26 11t-10 30v5q-2 0 -7 0.5t-8 0.5q-48 0 -80 -34q-29 -30 -39 -78l-36 -152h213l34 145q14 58 35 96q46 79 134 79q42 0 67 -18.5t25 -41.5q0 -16 -9 -26
t-24 -10q-16 0 -25 10t-9 27q0 9 4 17q-18 8 -33 8q-62 0 -99 -62q-21 -38 -31 -85l-32 -139h249l-100 -437q-22 -96 -63 -140q-37 -39 -89 -39q-23 0 -38.5 11t-15.5 28q0 14 9 22.5t22 8.5q14 0 23.5 -10.5t9.5 -24.5v-2q29 3 53 27q33 38 54 126l91 397h-213l-88 -383
h-38l89 383h-212l-89 -383h-37z" />
    <glyph glyph-name="f_f_k" unicode="ffk" horiz-adv-x="960" 
d="M551 0l89 383h-207l-88 -383h-38l89 383h-212l-89 -383h-37l88 383h-77l7 33h78l38 163q11 45 34 75q45 60 122 60q31 0 56.5 -12.5t25.5 -38.5q0 -14 -9 -23t-22 -9q-16 0 -25.5 11t-9.5 30v6q-10 2 -19 2q-51 0 -85 -40q-23 -26 -32 -66l-37 -158h212l43 183
q11 48 37 80q46 57 120 57q75 0 105 -65l27 60h23l-124 -532q95 43 161 86t79 69q-21 10 -21 33q0 16 10 26t25 10t25 -11t10 -29q0 -68 -186 -166l50 -121q17 -45 30 -59q11 -13 28 -13q32 0 53 80l25 -8q-23 -102 -81 -102q-33 0 -52 22q-18 20 -36 64l-50 122l-77 -36
l-39 -166h-37zM662 619q0 21 18 31q-21 52 -80 52q-53 0 -86 -39q-23 -27 -32 -69l-41 -178h206l37 157q2 10 2 15q-24 7 -24 31z" />
    <glyph glyph-name=".notdef" horiz-adv-x="503" 
d="M2 -200v1000h500v-1000h-500zM73 750l179 -390l179 390h-358zM52 -76l172 376l-172 376v-752zM452 676l-172 -376l172 -376v752zM252 240l-179 -390h358z" />
    <glyph glyph-name=".null" 
 />
    <glyph glyph-name="nonmarkingreturn" horiz-adv-x="333" 
 />
    <glyph glyph-name="space" unicode=" " horiz-adv-x="201" 
 />
    <glyph glyph-name="exclam" unicode="!" horiz-adv-x="222" 
d="M98 158l94 500h50l-123 -500h-21zM81 -8q-16 0 -27.5 11.5t-11.5 28.5t11.5 29t27.5 12t27.5 -12t11.5 -29t-11.5 -28.5t-27.5 -11.5z" />
    <glyph glyph-name="quotedbl" unicode="&#x22;" horiz-adv-x="259" 
d="M206 466l28 163q6 39 31 39q13 0 21.5 -7.5t8.5 -19.5q0 -11 -6 -24l-68 -151h-15zM86 466l28 163q6 39 31 39q13 0 21 -7.5t8 -19.5q0 -11 -6 -24l-68 -151h-14z" />
    <glyph glyph-name="numbersign" unicode="#" horiz-adv-x="513" 
d="M69 334l8 33h108l37 132h33l-36 -132h147l37 132h33l-36 -132h96l-8 -33h-97l-45 -163h106l-8 -33h-107l-38 -138h-34l38 138h-148l-37 -138h-34l38 138h-96l8 33h97l45 163h-107zM209 334l-45 -163h148l45 163h-148z" />
    <glyph glyph-name="dollar" unicode="$" horiz-adv-x="439" 
d="M143 -104l-30 8l30 102q-51 13 -84 43t-33 60q0 17 10 29.5t25 12.5q14 0 22.5 -9.5t8.5 -21.5q0 -22 -20 -34q18 -33 81 -49l62 208q-55 28 -84 57t-29 71q0 55 46.5 91t114.5 36q8 0 26 -2l21 73l30 -8l-21 -70q46 -12 75.5 -38t29.5 -54q0 -18 -9.5 -29.5t-23.5 -11.5
t-23 9t-9 23q0 18 17 32q-17 26 -67 38l-58 -194q60 -31 92 -61.5t32 -75.5q0 -60 -48.5 -96.5t-118.5 -36.5q-13 0 -35 2zM338 127q0 32 -24 55.5t-72 49.5l-60 -201q9 -1 27 -1q53 0 91 27t38 70zM140 377q0 -52 84 -96l56 186q-4 0 -10 0.5t-10 0.5q-49 0 -84.5 -25
t-35.5 -66z" />
    <glyph glyph-name="percent" unicode="%" horiz-adv-x="593" 
d="M416 21q36 0 63 33t27 78q0 30 -17 49t-44 19q-37 0 -64 -33t-27 -79q0 -29 17 -48t45 -19zM59 -15l-21 22q6 6 115 113.5t136 133.5q72 69 254 251l21 -22q-6 -6 -116 -115t-137 -135q-28 -26 -138 -135t-114 -113zM168 300q36 0 63 33t27 78q0 29 -17 48.5t-45 19.5
q-35 0 -62.5 -33.5t-27.5 -77.5q0 -30 17 -49t45 -19zM167 273q-43 0 -68.5 27.5t-25.5 68.5q0 53 36.5 95t87.5 42q43 0 68.5 -27.5t25.5 -68.5q0 -54 -36.5 -95.5t-87.5 -41.5zM415 -6q-43 0 -68.5 27.5t-25.5 68.5q0 53 36.5 95t88.5 42q43 0 68 -27.5t25 -68.5
q0 -54 -36.5 -95.5t-87.5 -41.5z" />
    <glyph glyph-name="ampersand" unicode="&#x26;" horiz-adv-x="582" 
d="M15 130q0 76 48.5 122.5t135.5 83.5q-35 63 -35 120q0 69 43.5 115t106.5 46q51 0 85.5 -31.5t34.5 -78.5q0 -36 -14 -64t-45.5 -51t-56.5 -36t-72 -34q22 -32 48 -62l80 -97q46 65 78 93.5t71 28.5q22 0 34.5 -11t12.5 -26q0 -14 -9 -23t-22 -9q-28 0 -35 31
q-23 -4 -43 -26t-66 -84l104 -125l-25 -21l-100 121q-45 -55 -94 -88t-114 -33q-67 0 -109 40t-42 99zM169 24q58 0 99.5 29.5t84.5 83.5l-85 105q-32 36 -53 68q-78 -36 -119 -75t-41 -103q0 -46 31 -77t83 -31zM201 458q0 -59 29 -109q84 35 125 69t41 86q0 35 -23.5 57.5
t-61.5 22.5q-47 0 -78.5 -37t-31.5 -89z" />
    <glyph glyph-name="quotesingle" unicode="'" horiz-adv-x="139" 
d="M86 466l28 163q6 39 31 39q13 0 21 -7.5t8 -19.5q0 -11 -6 -24l-68 -151h-14z" />
    <glyph glyph-name="parenleft" unicode="(" horiz-adv-x="321" 
d="M265 -220q-191 160 -191 402q0 179 97 331.5t255 236.5l18 -28q-151 -82 -240.5 -227.5t-89.5 -312.5q0 -225 172 -376z" />
    <glyph glyph-name="parenright" unicode=")" horiz-adv-x="321" 
d="M-73 -219l-18 28q151 83 240.5 228.5t89.5 311.5q0 227 -171 376l21 26q191 -160 191 -402q0 -179 -97 -331.5t-256 -236.5z" />
    <glyph glyph-name="asterisk" unicode="*" horiz-adv-x="364" 
d="M308 422q-20 0 -28 27l-27 95l-59 -79q-13 -17 -28 -17q-9 0 -15.5 6.5t-6.5 15.5q0 15 18 28l81 56l-92 32q-27 9 -27 28q0 10 7 16t17 6q11 0 24 -10l78 -60l3 98q0 35 24 35q14 0 20 -12.5t0 -30.5l-34 -92l95 27q8 4 18 4q23 0 23 -24q0 -26 -36 -24l-97 3l55 -81
q10 -13 10 -25q0 -9 -7 -15.5t-16 -6.5z" />
    <glyph glyph-name="plus" unicode="+" horiz-adv-x="392" 
d="M262 415l-32 -134h136l-8 -35h-136l-34 -149h-36l34 149h-134l8 35h134l32 134h36z" />
    <glyph glyph-name="comma" unicode="," horiz-adv-x="166" 
d="M-36 -122l-8 17q42 21 67 49t30 54q-15 2 -25 13.5t-10 25.5q0 16 11 27t27 11q18 0 30 -13.5t12 -34.5q0 -42 -36 -84t-98 -65z" />
    <glyph glyph-name="hyphen" unicode="-" horiz-adv-x="234" 
d="M38 254l9 38h163l-7 -38h-165z" />
    <glyph glyph-name="period" unicode="." horiz-adv-x="166" 
d="M58 -8q-17 0 -28.5 12t-11.5 30q0 17 11.5 29t28.5 12t29 -12t12 -29q0 -18 -12 -30t-29 -12z" />
    <glyph glyph-name="slash" unicode="/" horiz-adv-x="357" 
d="M-62 -204l-33 18l510 922l32 -17z" />
    <glyph glyph-name="zero" unicode="0" horiz-adv-x="536" 
d="M248 -8q-87 0 -140.5 61t-53.5 157q0 117 72 206t181 89q86 0 140 -61t54 -157q0 -117 -72 -206t-181 -89zM248 26q92 0 152.5 79t60.5 182q0 82 -43.5 133t-110.5 51q-93 0 -153 -79t-60 -182q0 -82 43.5 -133t110.5 -51z" />
    <glyph glyph-name="one" unicode="1" horiz-adv-x="357" 
d="M1 0l8 33h120l98 425l-120 -31v36l155 41l12 -7l-107 -464h118l-8 -33h-276z" />
    <glyph glyph-name="two" unicode="2" horiz-adv-x="459" 
d="M5 0l-5 22q14 38 37.5 69t60.5 58.5t66 45t79 43.5q77 40 111 70.5t34 72.5q0 39 -33 65t-91 26q-96 0 -128 -63q22 -7 22 -31q0 -14 -9 -23.5t-23 -9.5q-15 0 -25 10.5t-10 27.5q0 47 50.5 85t123.5 38t117.5 -35t44.5 -87q0 -56 -41 -94t-127 -82q-96 -49 -143 -85
t-71 -90h283l22 97h35l-30 -130h-350z" />
    <glyph glyph-name="three" unicode="3" horiz-adv-x="467" 
d="M177 -125q-71 0 -127.5 35.5t-56.5 87.5q0 20 10.5 32t26.5 12q14 0 22 -8.5t8 -20.5q0 -11 -8 -20.5t-21 -11.5q7 -28 49 -50t100 -22q73 0 119 40.5t46 100.5t-48 98t-122 38h-19l9 34h19q97 0 154 40t57 101q0 48 -35.5 79.5t-97.5 31.5q-90 0 -123 -53q24 -7 24 -31
q0 -13 -9 -21.5t-22 -8.5q-14 0 -24 11t-10 27q0 44 51 77t114 33q78 0 124.5 -40.5t46.5 -102.5q0 -67 -50 -108.5t-130 -53.5q61 -16 95 -55.5t34 -93.5q0 -74 -57.5 -125.5t-148.5 -51.5z" />
    <glyph glyph-name="four" unicode="4" horiz-adv-x="498" 
d="M374 292l-45 -190h119l-8 -33h-118l-44 -189h-37l43 189h-283l-2 13l397 423l25 -22l-358 -381h229l40 175z" />
    <glyph glyph-name="five" unicode="5" horiz-adv-x="461" 
d="M160 -124q-66 0 -114.5 31.5t-48.5 71.5q0 16 9.5 27.5t24.5 11.5q14 0 23 -8.5t9 -21.5q0 -22 -19 -30q11 -20 43 -34t75 -14q75 0 129.5 52.5t54.5 128.5q0 62 -38.5 95t-105.5 33q-59 0 -119 -27l-15 10l98 297h279l-7 -36h-249l-75 -226q46 17 97 17q78 0 126.5 -44
t48.5 -116q0 -90 -67 -154t-159 -64z" />
    <glyph glyph-name="six" unicode="6" horiz-adv-x="512" 
d="M111 43q-53 54 -53 156q0 91 38.5 192.5t105.5 166.5q76 74 172 74q57 0 95 -28.5t38 -64.5q0 -18 -9.5 -29t-25.5 -11q-13 0 -22 8t-9 22q0 19 19 31q-7 16 -31.5 28t-59.5 12q-77 0 -145 -66q-46 -46 -79.5 -120t-45.5 -148q24 49 73 83.5t117 34.5q77 0 124 -48
t47 -121q0 -89 -64 -156t-155 -67q-77 0 -130 51zM98 170q0 -59 38 -100q42 -44 109 -44q73 0 124.5 57t51.5 132q0 60 -37 97.5t-100 37.5q-80 0 -133 -55t-53 -125z" />
    <glyph glyph-name="seven" unicode="7" horiz-adv-x="450" 
d="M59 -122l-30 18l384 571h-288l-26 -106h-36l33 138h359l9 -17z" />
    <glyph glyph-name="eight" unicode="8" horiz-adv-x="474" 
d="M211 -7q-73 0 -124 44.5t-51 111.5q0 69 46.5 118.5t117.5 62.5q-39 20 -60 54.5t-21 75.5q0 69 55 120.5t136 51.5q69 0 115 -43t46 -106t-41.5 -107.5t-108.5 -59.5q46 -18 73 -55t27 -86q0 -75 -61 -128.5t-149 -53.5zM275 338q65 0 111.5 40.5t46.5 101.5
q0 51 -35 85t-90 34q-65 0 -108 -41.5t-43 -102.5q0 -48 34 -82.5t84 -34.5zM212 26q73 0 121 44t48 107q0 57 -40 93.5t-101 36.5q-72 0 -119 -45.5t-47 -108.5q0 -56 40.5 -91.5t97.5 -35.5z" />
    <glyph glyph-name="nine" unicode="9" horiz-adv-x="512" 
d="M158 -125q-57 0 -95.5 28.5t-38.5 63.5q0 18 9 30t26 12q13 0 22 -8.5t9 -21.5q0 -21 -19 -31q7 -17 31.5 -29t59.5 -12q78 0 144 64q47 44 80 116.5t44 143.5q-24 -48 -73.5 -82t-116.5 -34q-77 0 -124.5 47.5t-47.5 120.5q0 89 64.5 156t154.5 67q77 0 130 -51
q54 -54 54 -156q0 -90 -37 -187.5t-98 -158.5q-78 -78 -178 -78zM430 328q0 63 -40 103q-41 41 -106 41q-73 0 -124.5 -56.5t-51.5 -131.5q0 -60 36.5 -98t99.5 -38q80 0 133 55t53 125z" />
    <glyph glyph-name="colon" unicode=":" horiz-adv-x="185" 
d="M131 270q-17 0 -28.5 12t-11.5 29t12 29.5t28 12.5q18 0 29.5 -12t11.5 -30q0 -17 -11.5 -29t-29.5 -12zM68 -8q-17 0 -28.5 12t-11.5 30q0 17 11.5 29t28.5 12t28.5 -12t11.5 -29q0 -18 -11.5 -30t-28.5 -12z" />
    <glyph glyph-name="semicolon" unicode=";" horiz-adv-x="185" 
d="M131 270q-17 0 -28.5 12t-11.5 29t12 29.5t28 12.5q18 0 29.5 -12t11.5 -30q0 -17 -11.5 -29t-29.5 -12zM-26 -122l-7 17q41 21 66 49t30 54q-15 2 -25 13.5t-10 25.5q0 16 11 27t27 11q18 0 30.5 -13.5t12.5 -34.5q0 -42 -36.5 -84t-98.5 -65z" />
    <glyph glyph-name="less" unicode="&#x3c;" horiz-adv-x="382" 
d="M257 89l-203 158l3 14l272 155l18 -29l-241 -136l173 -135z" />
    <glyph glyph-name="equal" unicode="=" horiz-adv-x="392" 
d="M77 307l8 35h286l-8 -35h-286zM43 164l8 35h286l-8 -35h-286z" />
    <glyph glyph-name="greater" unicode="&#x3e;" horiz-adv-x="382" 
d="M74 91l-18 28l240 136l-173 135l23 28l203 -158l-3 -15z" />
    <glyph glyph-name="question" unicode="?" horiz-adv-x="429" 
d="M122 159l35 166q132 7 198 61t66 126q0 56 -36.5 88t-93.5 32q-50 0 -86.5 -21.5t-45.5 -51.5q29 -7 29 -35q0 -14 -10.5 -24t-24.5 -10q-17 0 -28 12.5t-11 31.5q0 51 54 92.5t126 41.5t119.5 -43t47.5 -110q0 -84 -71 -145.5t-201 -74.5l-41 -136h-26zM108 -8
q-16 0 -27.5 11.5t-11.5 28.5t11.5 29t27.5 12t27.5 -12t11.5 -29q0 -16 -11.5 -28t-27.5 -12z" />
    <glyph glyph-name="at" unicode="@" horiz-adv-x="787" 
d="M322 -173q-124 0 -199.5 82t-75.5 210q0 199 125.5 340.5t296.5 141.5q127 0 201 -76t74 -202q0 -115 -53 -199t-125 -84q-44 0 -64 24.5t-14 61.5q-18 -38 -55 -63.5t-80 -25.5q-56 0 -91 37t-35 102q0 87 54.5 148.5t127.5 61.5q49 0 77.5 -27.5t34.5 -69.5l23 94h35
l-55 -222q-12 -43 -1 -67.5t44 -24.5q60 0 103.5 77.5t43.5 176.5q0 112 -65.5 181.5t-179.5 69.5q-105 0 -195 -60.5t-143.5 -166t-53.5 -229.5q0 -114 67 -189t178 -75q90 0 166 41l13 -24q-80 -44 -179 -44zM359 69q64 0 105.5 57t41.5 125q0 48 -26 75.5t-70 27.5
q-61 0 -103 -52t-42 -125q0 -50 24.5 -79t69.5 -29z" />
    <glyph glyph-name="A" unicode="A" horiz-adv-x="697" 
d="M-22 0l9 35h59l354 588h-86l9 35h251l-8 -35h-83l83 -588h70l-8 -35h-195l8 35h84l-28 208h-283l-124 -208h94l-9 -35h-197zM236 279h256l-48 347z" />
    <glyph glyph-name="B" unicode="B" horiz-adv-x="590" 
d="M4 0l9 35h86l136 588h-97l9 35h231q75 0 124 -28q71 -40 71 -123q0 -67 -49 -114t-131 -56q61 -13 97 -51t36 -94q0 -77 -56 -127q-43 -40 -112 -56q-42 -9 -91 -9h-263zM215 357h104q99 0 156 40.5t57 108.5q0 65 -57 95q-40 22 -105 22h-94zM140 35h132q40 0 82 10
q55 14 91 49q40 38 40 98q0 56 -47 93.5t-136 37.5h-95z" />
    <glyph glyph-name="C" unicode="C" horiz-adv-x="672" 
d="M350 -11q-123 0 -198.5 78t-75.5 208q0 98 47.5 188.5t132.5 147.5t186 57q102 0 161.5 -50t59.5 -104q0 -24 -11.5 -38t-28.5 -14q-16 0 -26 9t-10 24q0 28 30 40q-7 36 -54.5 66.5t-123.5 30.5q-93 0 -168.5 -55t-114 -135t-38.5 -164q0 -114 63.5 -183.5t172.5 -69.5
q119 0 220 96l23 -26q-109 -106 -247 -106z" />
    <glyph glyph-name="D" unicode="D" horiz-adv-x="697" 
d="M4 0l9 35h86l136 588h-97l9 35h201q169 0 257 -89q69 -67 69 -181q0 -158 -105 -265q-123 -123 -346 -123h-219zM140 35h89q197 0 306 109q97 99 97 242q0 100 -59 159q-78 78 -229 78h-68z" />
    <glyph glyph-name="E" unicode="E" horiz-adv-x="573" 
d="M4 0l9 35h86l136 588h-97l9 35h461l-34 -144h-39l25 109h-284l-62 -269h227l-8 -36h-227l-66 -283h284l25 109h40l-33 -144h-452z" />
    <glyph glyph-name="F" unicode="F" horiz-adv-x="549" 
d="M4 0l9 35h86l136 588h-97l9 35h452l-34 -144h-39l25 109h-275l-65 -281h224l-8 -36h-224l-63 -271h101l-8 -35h-229z" />
    <glyph glyph-name="G" unicode="G" horiz-adv-x="702" 
d="M529 0l15 61q-95 -72 -211 -72q-117 0 -187.5 73.5t-70.5 192.5q0 103 48 197t137 155t196 61q58 0 107 -19t78 -47q36 -36 36 -78q0 -22 -12.5 -35.5t-28.5 -13.5t-26 9.5t-10 24.5q0 27 32 40q-4 14 -24 34q-58 49 -155 49q-75 0 -139.5 -34t-106.5 -88t-66 -120.5
t-24 -133.5q0 -101 58.5 -166t162.5 -65q117 0 216 79l40 163h-202l8 35h241l-73 -302h-39z" />
    <glyph glyph-name="H" unicode="H" horiz-adv-x="756" 
d="M4 0l9 35h86l136 588h-97l9 35h225l-8 -35h-88l-61 -266h396l60 266h-98l9 35h225l-8 -35h-87l-135 -588h96l-9 -35h-224l9 35h87l66 286h-396l-66 -286h97l-8 -35h-225z" />
    <glyph glyph-name="I" unicode="I" horiz-adv-x="330" 
d="M1 0l9 35h95l135 588h-96l9 35h232l-8 -35h-96l-135 -588h96l-9 -35h-232z" />
    <glyph glyph-name="J" unicode="J" horiz-adv-x="538" 
d="M194 -10q-69 0 -117 40.5t-48 107.5q0 30 15 49t37 19q15 0 24.5 -9t9.5 -23q0 -17 -13.5 -28t-35.5 -10q-2 -47 35 -79t97 -32q79 0 124 62q38 54 58 147l89 389h-113l8 35h239l-7 -35h-86l-91 -395q-24 -108 -66 -163q-56 -75 -159 -75z" />
    <glyph glyph-name="K" unicode="K" horiz-adv-x="639" 
d="M630 623l-292 -249l164 -339h90l-8 -35h-110l-168 348l-117 -101l-49 -212h97l-8 -35h-225l9 35h86l136 588h-97l9 35h225l-8 -35h-88l-76 -327l380 327h-99l8 35h225l-8 -35h-76z" />
    <glyph glyph-name="L" unicode="L" horiz-adv-x="531" 
d="M4 0l9 35h86l136 588h-97l9 35h227l-8 -35h-90l-136 -588h260l26 115h40l-35 -150h-427z" />
    <glyph glyph-name="M" unicode="M" horiz-adv-x="848" 
d="M-3 0l8 35h90l159 588h-99l8 35h141l106 -505l339 505h134l-8 -35h-89l-112 -588h99l-8 -35h-221l8 35h83l108 554l-342 -507h-11l-109 508l-147 -555h92l-9 -35h-220z" />
    <glyph glyph-name="N" unicode="N" horiz-adv-x="744" 
d="M550 -3l-284 593l-127 -555h97l-8 -35h-224l9 35h86l136 588h-96l8 35h128l278 -579l124 544h-98l8 35h223l-9 -35h-85l-144 -626h-22z" />
    <glyph glyph-name="O" unicode="O" horiz-adv-x="726" 
d="M344 -10q-124 0 -196 78.5t-72 197.5q0 98 45.5 190t130 152t186.5 60q124 0 196 -78.5t72 -197.5q0 -98 -45.5 -190t-130.5 -152t-186 -60zM347 26q132 0 224.5 111.5t92.5 253.5q0 103 -59.5 172t-170.5 69q-87 0 -160.5 -53t-115 -136.5t-41.5 -175.5q0 -103 60 -172
t170 -69z" />
    <glyph glyph-name="P" unicode="P" horiz-adv-x="546" 
d="M4 0l9 35h86l136 588h-99l8 35h209q47 0 81 -10q64 -16 98 -60.5t34 -105.5q0 -100 -73.5 -164.5t-196.5 -64.5q-71 0 -104 3l-52 -221h97l-8 -35h-225zM301 289q107 0 165.5 54.5t58.5 134.5q0 49 -26 84.5t-77 50.5q-37 10 -75 10h-71l-76 -332q48 -2 101 -2z" />
    <glyph glyph-name="Q" unicode="Q" horiz-adv-x="727" 
d="M706 392q0 -92 -40.5 -179.5t-116.5 -148.5t-169 -72q28 -44 72.5 -71.5t99.5 -27.5q36 0 73 19l13 -35q-44 -21 -87 -21q-69 0 -126 38.5t-91 95.5q-120 4 -189 82t-69 194q0 98 45.5 190t130 152t186.5 60q124 0 196 -78.5t72 -197.5zM347 26q132 0 224.5 111.5
t92.5 253.5q0 103 -59.5 172t-170.5 69q-87 0 -160.5 -53t-115 -136.5t-41.5 -175.5q0 -103 60 -172t170 -69z" />
    <glyph glyph-name="R" unicode="R" horiz-adv-x="590" 
d="M4 0l9 35h86l136 588h-97l9 35h194q126 0 187 -59q42 -42 42 -111q0 -76 -55 -130t-151 -69l118 -254h77l-8 -35h-98l-130 284h-32q-68 0 -93 2l-58 -251h97l-8 -35h-225zM302 319q105 0 166 46.5t61 121.5q0 55 -33 88q-48 48 -158 48h-62l-70 -302q48 -2 96 -2z" />
    <glyph glyph-name="S" unicode="S" horiz-adv-x="523" 
d="M251 -10q-89 0 -151.5 44.5t-62.5 91.5q0 20 11 33t29 13q15 0 25 -9.5t10 -22.5q0 -27 -26 -40q16 -30 61 -52.5t107 -22.5q68 0 115 38.5t47 97.5q0 47 -30 80t-95 76q-73 47 -108.5 87t-35.5 98q0 71 56.5 118.5t138.5 47.5q74 0 129 -37.5t55 -84.5q0 -21 -11 -33
t-27 -12q-15 0 -25 10t-10 24q0 24 25 36q-14 26 -51 44t-88 18q-65 0 -108 -36t-43 -92q0 -47 29.5 -79.5t98.5 -76.5q71 -46 105.5 -85.5t34.5 -99.5q0 -76 -58 -125t-147 -49z" />
    <glyph glyph-name="T" unicode="T" horiz-adv-x="614" 
d="M147 0l9 35h91l135 588h-201l-27 -115h-39l35 150h522l-36 -150h-39l27 115h-201l-135 -588h101l-8 -35h-234z" />
    <glyph glyph-name="U" unicode="U" horiz-adv-x="701" 
d="M327 -10q-93 0 -147 48t-54 133q0 36 12 87l84 365h-96l8 35h225l-8 -35h-89l-84 -368q-10 -41 -10 -82q0 -70 42 -109t121 -39q164 0 208 202l91 396h-98l8 35h225l-8 -35h-87l-92 -401q-53 -232 -251 -232z" />
    <glyph glyph-name="V" unicode="V" horiz-adv-x="680" 
d="M271 -13l-94 636h-72l8 35h196l-8 -35h-83l80 -572l341 572h-89l9 35h195l-8 -35h-64l-386 -636h-25z" />
    <glyph glyph-name="W" unicode="W" horiz-adv-x="937" 
d="M214 -13l-26 636h-76l8 35h201l-9 -35h-86l19 -562l278 506h20l54 -506l293 562h-86l8 35h200l-8 -35h-73l-337 -636h-24l-54 498l-277 -498h-25z" />
    <glyph glyph-name="X" unicode="X" horiz-adv-x="701" 
d="M-14 0l9 35h79l287 306l-132 282h-86l8 35h218l-8 -35h-89l116 -259l240 259h-88l9 35h218l-9 -35h-83l-270 -288l142 -300h85l-9 -35h-218l9 35h89l-125 277l-257 -277h92l-9 -35h-218z" />
    <glyph glyph-name="Y" unicode="Y" horiz-adv-x="625" 
d="M131 0l9 35h99l59 240l-123 348h-70l9 35h198l-8 -35h-86l108 -315l262 315h-83l8 35h198l-8 -35h-67l-300 -355l-55 -233h100l-8 -35h-242z" />
    <glyph glyph-name="Z" unicode="Z" horiz-adv-x="592" 
d="M5 0v18l568 606h-373l-26 -111h-39l33 145h470v-18l-568 -606h392l26 111h39l-33 -145h-489z" />
    <glyph glyph-name="bracketleft" unicode="[" horiz-adv-x="322" 
d="M16 -200l217 932h203l-8 -34h-163l-200 -864h162l-8 -34h-203z" />
    <glyph glyph-name="backslash" unicode="\" horiz-adv-x="356" 
d="M214 -197l-64 926l37 3l64 -926z" />
    <glyph glyph-name="bracketright" unicode="]" horiz-adv-x="322" 
d="M-88 -200l8 34h163l200 864h-162l8 34h202l-216 -932h-203z" />
    <glyph glyph-name="asciicircum" unicode="^" horiz-adv-x="425" 
d="M129 384l-15 20l166 125l100 -128l-17 -16l-91 86z" />
    <glyph glyph-name="underscore" unicode="_" horiz-adv-x="499" 
d="M-58 -133l9 38h510l-8 -38h-511z" />
    <glyph glyph-name="grave" unicode="`" horiz-adv-x="503" 
d="M408 500l-116 75q-23 15 -23 34q0 11 8 19t19 8q17 0 34 -21l90 -102z" />
    <glyph glyph-name="a" unicode="a" horiz-adv-x="542" 
d="M196 -7q-66 0 -108 45t-42 123q0 105 63.5 183.5t155.5 78.5q56 0 94 -31.5t47 -86.5l28 113h37l-76 -310q-9 -40 -9 -50q0 -16 9.5 -25.5t24.5 -9.5q18 0 32 15.5t30 52.5l23 -7q-17 -47 -37.5 -68.5t-51.5 -21.5q-29 0 -47 17.5t-18 44.5q0 17 4 32q-65 -95 -159 -95z
M203 26q80 0 133.5 73.5t53.5 155.5q0 60 -33.5 97.5t-90.5 37.5q-77 0 -129 -69t-52 -158q0 -64 31.5 -100.5t86.5 -36.5z" />
    <glyph glyph-name="b" unicode="b" horiz-adv-x="515" 
d="M39 0l163 699h-82l7 33h120l-93 -402q64 93 156 93q70 0 114 -47.5t44 -127.5q0 -104 -63.5 -179.5t-154.5 -75.5q-58 0 -98 32t-50 85l-25 -110h-38zM248 26q78 0 129 66.5t51 152.5q0 68 -32.5 106.5t-90.5 38.5q-77 0 -132.5 -73t-55.5 -154q0 -61 35.5 -99t95.5 -38z
" />
    <glyph glyph-name="c" unicode="c" horiz-adv-x="446" 
d="M218 -7q-74 0 -123.5 47.5t-49.5 128.5q0 101 67.5 177.5t160.5 76.5q68 0 107 -33.5t39 -72.5q0 -18 -10 -30t-25 -12q-12 0 -20 7.5t-8 21.5q0 23 22 31q-22 55 -106 55q-77 0 -133.5 -66t-56.5 -154q0 -66 39 -105t103 -39q73 0 138 56l-3 -40q-66 -49 -141 -49z" />
    <glyph glyph-name="d" unicode="d" horiz-adv-x="548" 
d="M47 166q0 105 62.5 181t153.5 76q57 0 97 -31.5t50 -85.5l91 393h-82l7 33h121l-145 -621q-9 -41 -9 -53q0 -16 9 -25.5t25 -9.5q18 0 32 15.5t29 52.5l24 -7q-16 -47 -37 -68.5t-52 -21.5q-29 0 -47 18t-18 46q0 14 3 30q-65 -95 -158 -95q-70 0 -113 46.5t-43 126.5z
M209 26q79 0 132.5 71.5t53.5 153.5q0 63 -35 101t-94 38q-79 0 -129.5 -67.5t-50.5 -155.5q0 -65 32.5 -103t90.5 -38z" />
    <glyph glyph-name="e" unicode="e" horiz-adv-x="462" 
d="M407 203h-323q-3 -18 -3 -37q0 -66 42 -103t104 -37q70 0 137 37l-9 -38q-60 -32 -133 -32q-76 0 -127.5 46.5t-51.5 126.5q0 104 68.5 180.5t163.5 76.5q67 0 106.5 -39.5t39.5 -108.5q0 -32 -14 -72zM272 390q-62 0 -112 -44t-69 -111h287q7 26 7 46q0 49 -29.5 79
t-83.5 30z" />
    <glyph glyph-name="f" unicode="f" horiz-adv-x="291" 
d="M58 0l88 383h-77l7 33h78l37 160q19 84 61 123q35 37 91 37q28 0 44.5 -12t16.5 -31q0 -13 -9.5 -22.5t-22.5 -9.5q-35 0 -35 40v2q-34 0 -61 -27q-32 -32 -50 -107l-35 -153h111l-7 -33h-112l-88 -383h-37z" />
    <glyph glyph-name="g" unicode="g" horiz-adv-x="511" 
d="M167 -200q-38 0 -75 13t-55 32q-18 18 -18 39q0 17 9 27.5t24 10.5q14 0 23.5 -10.5t9.5 -24.5q0 -15 -12 -26q29 -29 97 -29q73 0 117 44q36 36 55 120l24 100q-28 -45 -69.5 -71t-90.5 -26q-70 0 -114.5 47t-44.5 126q0 101 63.5 176t155.5 75q60 0 99 -33t48 -87
q23 103 27 114h37l-99 -426q-21 -93 -65 -139q-52 -52 -146 -52zM212 32q79 0 132 71.5t53 152.5q0 60 -35.5 97t-94.5 37q-78 0 -129.5 -66t-51.5 -151q0 -64 34 -102.5t92 -38.5z" />
    <glyph glyph-name="h" unicode="h" horiz-adv-x="512" 
d="M39 0l163 699h-82l7 33h121l-100 -423q65 113 158 113q51 0 83 -28.5t33 -74.5q0 -34 -13 -78l-37 -131q-10 -37 -10 -52q0 -16 9.5 -25.5t25.5 -9.5q18 0 32 15.5t29 52.5l24 -7q-17 -47 -37.5 -68.5t-51.5 -21.5t-49.5 17.5t-18.5 46.5q0 19 10 57l37 132q11 37 11 70
q0 34 -22 53.5t-58 19.5q-58 0 -109.5 -56t-72.5 -146l-44 -188h-38z" />
    <glyph glyph-name="i" unicode="i" horiz-adv-x="275" 
d="M197 519q-13 0 -23 10t-10 24t10 24t23 10t23 -10t10 -24t-10 -24t-23 -10zM136 -6q-31 0 -49.5 17.5t-18.5 47.5q0 19 10 56l77 268h-87l7 33h126l-86 -306q-10 -35 -10 -52q0 -16 9.5 -25.5t25.5 -9.5q18 0 32 15.5t29 52.5l24 -7q-17 -47 -38 -68.5t-51 -21.5z" />
    <glyph glyph-name="j" unicode="j" horiz-adv-x="235" 
d="M-54 -200q-23 0 -38.5 11t-15.5 28q0 14 9 22.5t22 8.5q14 0 23.5 -10.5t9.5 -24.5v-2q30 3 54 27q34 38 53 126l92 397h-90l8 33h126l-100 -437q-21 -94 -63 -140q-37 -39 -90 -39zM191 519q-13 0 -23 10t-10 24t10 24t23 10t23 -10t10 -24t-10 -24t-23 -10z" />
    <glyph glyph-name="k" unicode="k" horiz-adv-x="449" 
d="M77 0h-38l163 699h-82l7 33h120l-124 -533q96 42 161.5 85.5t78.5 69.5q-21 10 -21 33q0 16 10 26t25 10q14 0 24 -11t10 -29q0 -68 -185 -166l49 -121q19 -46 31 -59q11 -13 28 -13q32 0 53 80l25 -8q-13 -54 -33 -78t-49 -24q-30 0 -51 22q-18 20 -36 64l-50 122
q-22 -11 -77 -36z" />
    <glyph glyph-name="l" unicode="l" horiz-adv-x="253" 
d="M125 -6q-29 0 -48 18t-19 47q0 15 9 56l136 584h-81l7 33h119l-144 -620q-9 -39 -9 -53q0 -16 9.5 -26t24.5 -10q35 0 62 68l23 -7q-30 -90 -89 -90z" />
    <glyph glyph-name="m" unicode="m" horiz-adv-x="772" 
d="M50 0l96 383h-82l7 33h119l-30 -115q69 121 157 121q48 0 75.5 -27t27.5 -75q0 -9 -1 -13q68 115 161 115q47 0 76.5 -28t29.5 -73q0 -29 -15 -80l-39 -130q-10 -31 -10 -53q0 -16 9.5 -25.5t24.5 -9.5q35 0 62 68l24 -7q-18 -47 -38.5 -68.5t-51.5 -21.5t-49.5 17.5
t-18.5 46.5q0 22 11 57l39 132q13 38 13 73q0 32 -18.5 51t-53.5 19q-55 0 -105 -54t-74 -146l-49 -190h-38l64 247q11 41 11 69q0 36 -18.5 55t-52.5 19q-53 0 -104.5 -55.5t-74.5 -144.5l-47 -190h-37z" />
    <glyph glyph-name="n" unicode="n" horiz-adv-x="521" 
d="M401 -6q-31 0 -49 17.5t-18 46.5q0 20 10 57l40 132q12 39 12 71q0 33 -21 52.5t-58 19.5q-56 0 -107.5 -55t-75.5 -145l-47 -190h-37l96 383h-82l7 33h119l-30 -115q69 121 163 121q50 0 80.5 -28t30.5 -75q0 -31 -14 -78l-39 -130q-10 -37 -10 -53t9.5 -25.5t24.5 -9.5
q35 0 62 68l24 -7q-17 -47 -38 -68.5t-52 -21.5z" />
    <glyph glyph-name="o" unicode="o" horiz-adv-x="494" 
d="M220 -7q-78 0 -126.5 50t-48.5 130q0 99 66 174.5t162 75.5q78 0 126.5 -50t48.5 -130q0 -99 -66 -174.5t-162 -75.5zM222 26q79 0 133.5 65t54.5 152q0 67 -39 107t-100 40q-78 0 -133 -65.5t-55 -151.5q0 -67 39 -107t100 -40z" />
    <glyph glyph-name="p" unicode="p" horiz-adv-x="530" 
d="M-54 -196l8 33h62l129 546h-82l7 33h118l-21 -91q64 98 158 98q70 0 114 -47.5t44 -127.5q0 -104 -63.5 -179.5t-154.5 -75.5q-56 0 -96.5 30.5t-52.5 81.5l-62 -268h89l-7 -33h-190zM264 26q77 0 128 66.5t51 152.5q0 68 -32.5 106.5t-90.5 38.5q-77 0 -132.5 -73
t-55.5 -154q0 -61 36 -99t96 -38z" />
    <glyph glyph-name="q" unicode="q" horiz-adv-x="515" 
d="M203 -7q-70 0 -113.5 46.5t-43.5 126.5q0 104 63.5 180.5t156.5 76.5q57 0 96.5 -32t49.5 -87l26 112h37l-135 -579h88l-8 -33h-125l65 282q-64 -93 -157 -93zM209 26q79 0 133.5 72.5t54.5 152.5q0 63 -34.5 101t-93.5 38q-79 0 -131 -67.5t-52 -154.5q0 -66 32.5 -104
t90.5 -38z" />
    <glyph glyph-name="r" unicode="r" horiz-adv-x="334" 
d="M51 0l95 383h-82l8 33h118l-31 -125q37 64 73.5 97.5t65.5 33.5q20 0 31.5 -10.5t11.5 -26.5q0 -15 -10.5 -25.5t-24.5 -10.5t-24 9t-12 23q-33 -12 -76.5 -71t-60.5 -132l-45 -178h-37zM290 381h-1h1z" />
    <glyph glyph-name="s" unicode="s" horiz-adv-x="397" 
d="M186 -7q-41 0 -78 14.5t-59 37.5q-22 24 -22 49q0 16 9 27t24 11q13 0 20.5 -8.5t7.5 -20.5q0 -18 -16 -31q4 -8 16 -18q38 -29 100 -29q45 0 73.5 22t28.5 57q0 31 -22.5 50.5t-70.5 43.5q-56 27 -83.5 51t-27.5 62q0 49 39 80.5t98 31.5q79 0 123 -44q20 -20 20 -46
q0 -16 -9 -26t-21 -10q-13 0 -21.5 8t-8.5 21q0 16 13 31q-5 7 -16 14q-33 20 -82 20q-43 0 -70.5 -21.5t-27.5 -53.5q0 -27 21.5 -44.5t71.5 -42.5q54 -26 82.5 -52.5t28.5 -67.5q0 -54 -40.5 -85t-100.5 -31z" />
    <glyph glyph-name="t" unicode="t" horiz-adv-x="309" 
d="M305 383h-131l-68 -276q-6 -24 -6 -42q0 -17 11 -28t30 -11q30 0 93 44l15 -23q-69 -54 -114 -54q-33 0 -53.5 18.5t-20.5 49.5q0 18 7 48l68 274h-75l8 33h75l27 105l40 11l-29 -116h131z" />
    <glyph glyph-name="u" unicode="u" horiz-adv-x="522" 
d="M65 416h119l-64 -253q-10 -40 -10 -69q0 -30 20 -49t55 -19q56 0 108 55.5t74 144.5l47 190h38l-77 -308q-9 -33 -9 -50q0 -16 9.5 -25.5t24.5 -9.5q18 0 32 15.5t30 52.5l24 -7q-18 -47 -38.5 -68.5t-51.5 -21.5q-29 0 -46.5 17t-17.5 47q0 16 9 56q-68 -120 -161 -120
q-48 0 -78 27t-30 72q0 24 12 74l55 216h-82z" />
    <glyph glyph-name="v" unicode="v" horiz-adv-x="449" 
d="M170 -17l-65 400h-80l7 33h107l56 -380q73 83 124.5 168.5t64.5 145.5q-15 2 -26 12t-11 26q0 15 9.5 25t24.5 10q18 0 29 -13t11 -36q0 -60 -70 -174.5t-166 -216.5h-15z" />
    <glyph glyph-name="w" unicode="w" horiz-adv-x="642" 
d="M138 -17l-29 400h-79l8 33h103l24 -362l177 305h14l68 -317q132 194 141 307q-15 2 -26.5 12.5t-11.5 26.5q0 14 10 24.5t24 10.5q18 0 29.5 -14t11.5 -36q0 -129 -183 -390h-15l-66 313l-184 -313h-16z" />
    <glyph glyph-name="x" unicode="x" horiz-adv-x="488" 
d="M51 -6q-21 0 -34 11.5t-13 27.5q0 14 9.5 23.5t22.5 9.5q29 0 36 -35q30 6 91 91q1 1 17.5 23.5t33 46t17.5 24.5l-65 167h-82l8 33h99l62 -173l26 39t26 38q36 53 64.5 78t58.5 25q23 0 36.5 -11.5t13.5 -27.5q0 -14 -9.5 -24t-22.5 -10q-30 0 -36 35q-27 -5 -84 -86
q0 -1 -14.5 -21.5t-28.5 -40.5t-15 -22l48 -120q17 -44 28 -58t24 -14q28 0 48 68l23 -7q-13 -49 -31.5 -69.5t-44.5 -20.5t-42.5 17.5t-34.5 65.5l-41 111q-1 -2 -32 -46.5t-32 -46.5q-71 -101 -130 -101z" />
    <glyph glyph-name="y" unicode="y" horiz-adv-x="467" 
d="M-23 -199q-21 0 -35.5 11.5t-14.5 29.5q0 14 9 23.5t23 9.5q16 0 25.5 -11t9.5 -29q59 5 189 163l-75 385h-80l8 33h106l69 -383q171 217 187 316q-15 3 -26 14t-11 27q0 13 10 23t24 10q18 0 29.5 -13t11.5 -36q0 -109 -215 -376q-89 -110 -145.5 -153.5t-98.5 -43.5z
" />
    <glyph glyph-name="z" unicode="z" horiz-adv-x="441" 
d="M18 -7l-14 18l369 373h-242l-21 -84h-34l28 116h317l10 -17l-359 -362q26 10 67 10q27 0 74 -11t66 -11q30 0 47.5 20.5t34.5 71.5l24 -6q-17 -63 -40 -91t-68 -28q-23 0 -75 12.5t-80 12.5q-60 0 -104 -24z" />
    <glyph glyph-name="braceleft" unicode="{" horiz-adv-x="299" 
d="M174 -212q-66 12 -102.5 53.5t-36.5 98.5q0 69 79 140q22 21 33.5 33t22 30.5t10.5 35.5q0 27 -22 48t-69 21h-36l11 41h37q56 0 86.5 25t30.5 64q0 38 -27 94q-30 64 -30 109q0 69 60 116t169 49l-7 -30q-89 -4 -136.5 -42.5t-47.5 -91.5q0 -41 28 -104q28 -60 28 -100
q0 -47 -31 -76.5t-82 -34.5q36 -9 55.5 -32.5t19.5 -54.5q0 -53 -73 -120q-71 -63 -71 -119q0 -94 109 -123z" />
    <glyph glyph-name="bar" unicode="|" horiz-adv-x="250" 
d="M107 -200v932h36v-932h-36z" />
    <glyph glyph-name="braceright" unicode="}" horiz-adv-x="299" 
d="M-65 -211l7 30q89 4 137 43t48 92q0 39 -29 103q-28 60 -28 101q0 46 31 75.5t82 35.5q-35 8 -54.5 31.5t-19.5 54.5q0 54 72 120t72 119q0 93 -110 124l8 29q66 -12 102.5 -53t36.5 -98q0 -68 -79 -141q-65 -61 -65 -98q0 -28 22 -49t68 -21h36l-10 -41h-37
q-56 0 -87 -25t-31 -64q0 -35 27 -93q30 -64 30 -110q0 -69 -60 -116t-169 -49z" />
    <glyph glyph-name="asciitilde" unicode="~" horiz-adv-x="463" 
d="M307 198q-37 0 -77 38q-33 30 -53 30q-36 0 -61 -62l-28 9q11 40 35.5 66t54.5 26q37 0 78 -39q32 -29 52 -29q36 0 61 63l28 -10q-12 -42 -36 -67t-54 -25z" />
    <glyph glyph-name="uni00A0" unicode="&#xa0;" horiz-adv-x="201" 
 />
    <glyph glyph-name="exclamdown" unicode="&#xa1;" horiz-adv-x="222" 
d="M197 585q-16 0 -27.5 11.5t-11.5 28.5t11.5 29t27.5 12t27.5 -12t11.5 -29t-11.5 -28.5t-27.5 -11.5zM37 0l122 500h21l-94 -500h-49z" />
    <glyph glyph-name="cent" unicode="&#xa2;" horiz-adv-x="457" 
d="M227 36q-17 0 -34 3l-42 -143l-30 8l42 142q-50 18 -79.5 60.5t-29.5 104.5q0 102 69 177.5t163 75.5l33 107l30 -8l-31 -101q52 -7 83.5 -38t31.5 -65q0 -19 -10 -30.5t-25 -11.5q-27 0 -27 29q0 23 22 31q-17 44 -85 54l-106 -360q14 -3 30 -3q78 0 143 57l-2 -39
q-65 -50 -146 -50zM92 212q0 -48 21.5 -83t58.5 -50l105 353q-75 -5 -130 -69.5t-55 -150.5z" />
    <glyph glyph-name="sterling" unicode="&#xa3;" horiz-adv-x="469" 
d="M453 407q0 -19 -10 -31t-24 -12q-12 0 -21 8.5t-9 21.5q0 22 19 32q-5 19 -30.5 32.5t-61.5 13.5q-71 0 -109.5 -52t-38.5 -131q0 -23 4 -65t5 -59h171l-8 -32h-162q-5 -109 -93 -183q33 -3 87 -22q62 -22 101 -22q56 0 111 42l17 -25q-56 -49 -129 -49q-45 0 -114 25
q-62 24 -99 24q-37 -43 -73 -43q-12 0 -19.5 7t-7.5 18q0 20 26.5 34t65.5 13q87 77 92 181h-101l8 32h92q-1 16 -5.5 58t-4.5 66q0 92 49 154.5t137 62.5q58 0 96.5 -31.5t38.5 -67.5z" />
    <glyph glyph-name="yen" unicode="&#xa5;" horiz-adv-x="482" 
d="M82 222l7 31h122l-83 213h-60l8 33h170l-6 -33h-75l81 -220l184 220h-73l8 33h172l-8 -33h-59l-180 -213h118l-7 -31h-144l-15 -68h143l-7 -31h-143l-21 -90h83l-8 -33h-197l7 33h82l21 90h-143l7 31h143l15 68h-142z" />
    <glyph glyph-name="section" unicode="&#xa7;" horiz-adv-x="409" 
d="M256 476q-39 0 -64 -15.5t-25 -38.5q0 -25 22 -41t71 -36q52 -21 79.5 -42.5t27.5 -54.5q0 -34 -32.5 -57.5t-87.5 -33.5q52 -31 52 -74q0 -38 -35.5 -64.5t-92.5 -26.5q-58 0 -93.5 24.5t-35.5 54.5q0 14 8 24t21 10q12 0 20 -8t8 -19q0 -16 -11 -24q6 -11 29.5 -20
t54.5 -9q38 0 62.5 15.5t24.5 37.5q0 25 -21.5 40.5t-70.5 35.5q-53 22 -80 43t-27 55q0 33 32.5 56.5t86.5 33.5q-52 30 -52 76q0 38 36 63.5t94 25.5q56 0 91.5 -25t35.5 -54q0 -15 -8.5 -24t-20.5 -9t-20 8t-8 20q0 15 11 23q-6 11 -29.5 20.5t-52.5 9.5zM189 184
q8 -4 24 -10q114 17 114 70q0 22 -22.5 38t-68.5 34l-23 9q-53 -8 -83 -27t-30 -43q0 -22 22.5 -37.5t66.5 -33.5z" />
    <glyph glyph-name="dieresis" unicode="&#xa8;" horiz-adv-x="503" 
d="M399 519q-15 0 -26 11.5t-11 26.5q0 17 10.5 28t26.5 11t26.5 -11t10.5 -28q0 -15 -10.5 -26.5t-26.5 -11.5zM263 519q-15 0 -26 11.5t-11 26.5q0 17 10.5 28t26.5 11t26.5 -11t10.5 -28q0 -15 -10.5 -26.5t-26.5 -11.5z" />
    <glyph glyph-name="copyright" unicode="&#xa9;" horiz-adv-x="596" 
d="M303 -9q-108 0 -179.5 75t-71.5 184t71.5 184.5t179.5 75.5q109 0 180.5 -75t71.5 -184t-71.5 -184.5t-180.5 -75.5zM303 15q96 0 161 69t65 167t-65 166.5t-161 68.5t-160.5 -69t-64.5 -167q0 -97 64.5 -166t160.5 -69zM315 122q-58 0 -95.5 38.5t-37.5 92.5q0 59 39 97
t91 38q40 0 68.5 -20t28.5 -43q0 -10 -6 -17t-15 -7q-8 0 -14 5.5t-6 13.5q0 13 9 15q-15 29 -65 29q-43 0 -72.5 -32.5t-29.5 -77.5q0 -43 29.5 -75t75.5 -32q44 0 80 33l16 -19q-39 -39 -96 -39z" />
    <glyph glyph-name="ordfeminine" unicode="&#xaa;" horiz-adv-x="332" 
d="M159 409q-41 0 -67.5 27.5t-26.5 75.5q0 64 40 111t95 47q34 0 56 -17t29 -46l15 60h28l-46 -187q-3 -16 -3 -28q0 -19 18 -19q20 0 38 41l17 -8q-20 -56 -58 -56q-43 0 -43 43v8q-38 -52 -92 -52zM165 436q45 0 76 42t31 89q0 34 -19.5 55t-52.5 21q-44 0 -74.5 -39
t-30.5 -90q0 -36 19 -57t51 -21zM41 315l7 27h256l-7 -27h-256z" />
    <glyph glyph-name="guillemotleft" unicode="&#xab;" horiz-adv-x="423" 
d="M327 113l-131 158l203 156l21 -23l-174 -139l105 -133zM173 113l-130 158l203 156l20 -23l-173 -139l105 -133z" />
    <glyph glyph-name="registered" unicode="&#xae;" horiz-adv-x="382" 
d="M262 336q-74 0 -124 52t-50 126q0 75 50 127t124 52t124.5 -52t50.5 -127q0 -74 -50.5 -126t-124.5 -52zM262 670q-63 0 -106 -45t-43 -110q0 -66 43 -111t106 -45t106 45t43 111q0 65 -42.5 110t-106.5 45zM192 429v21h24v136h-24v21h69q31 0 49 -14t18 -39
q0 -34 -36 -48l32 -56h22v-21h-38l-40 71h-29v-50h24v-21h-71zM239 519h20q21 0 33.5 9t12.5 25q0 33 -45 33h-21v-67z" />
    <glyph glyph-name="macron" unicode="&#xaf;" horiz-adv-x="503" 
d="M185 534l8 37h280l-8 -37h-280z" />
    <glyph glyph-name="degree" unicode="&#xb0;" horiz-adv-x="317" 
d="M189 423q-46 0 -73.5 29.5t-27.5 74.5q0 56 39 99.5t95 43.5q46 0 73.5 -29.5t27.5 -74.5q0 -56 -39 -99.5t-95 -43.5zM191 452q43 0 72 33.5t29 78.5q0 35 -20 56t-52 21q-42 0 -71 -33.5t-29 -78.5q0 -35 20 -56t51 -21z" />
    <glyph glyph-name="plusminus" unicode="&#xb1;" horiz-adv-x="392" 
d="M275 459l-32 -136h135l-7 -35h-136l-31 -138h-36l31 138h-133l7 35h134l32 136h36zM10 45l7 35h305l-8 -35h-304z" />
    <glyph glyph-name="two.sup" unicode="&#xb2;" horiz-adv-x="353" 
d="M115 430l-6 15q22 55 63 92t107 73q48 26 72 48.5t24 51.5q0 26 -20.5 42.5t-54.5 16.5q-35 0 -58 -13t-29 -29q13 -8 13 -20q0 -11 -7 -18t-17 -7q-11 0 -18 8.5t-7 21.5q0 31 35.5 58.5t89.5 27.5q47 0 76.5 -24t29.5 -64q0 -38 -29 -65t-87 -59q-55 -30 -90 -59.5
t-52 -69.5h178l15 66h29l-21 -93h-236z" />
    <glyph glyph-name="three.sup" unicode="&#xb3;" horiz-adv-x="353" 
d="M243 426q-48 0 -82 23.5t-34 54.5q0 12 7 21t18 9q10 0 16.5 -6.5t6.5 -15.5q0 -16 -16 -21q6 -15 29.5 -26.5t54.5 -11.5q45 0 72.5 22.5t27.5 56.5q0 30 -27 51t-68 21h-17l7 28h16q51 0 83 22t32 54q0 29 -23 45t-59 16q-55 0 -68 -29q13 -5 13 -18q0 -9 -7.5 -15.5
t-16.5 -6.5q-11 0 -17.5 8.5t-6.5 21.5q0 26 30 47t79 21q48 0 79 -25t31 -62q0 -38 -29.5 -63.5t-75.5 -31.5q35 -8 56.5 -31t21.5 -54q0 -47 -38.5 -76t-94.5 -29z" />
    <glyph glyph-name="acute" unicode="&#xb4;" horiz-adv-x="503" 
d="M242 501l-8 14l144 106q19 14 33 14q10 0 18 -8t8 -19q0 -21 -30 -33z" />
    <glyph glyph-name="paragraph" unicode="&#xb6;" horiz-adv-x="529" 
d="M138 0l9 32h77q41 155 42 155q-132 0 -181 48q-34 34 -34 86q0 82 65 130.5t168 48.5l268 -1l-9 -33h-73l-117 -433h74l-9 -33h-280zM261 32h56l116 435h-56z" />
    <glyph glyph-name="periodcentered" unicode="&#xb7;" horiz-adv-x="208" 
d="M114 216q-17 0 -28.5 12t-11.5 29q0 18 11.5 30t28.5 12q18 0 29.5 -12t11.5 -30q0 -17 -11.5 -29t-29.5 -12z" />
    <glyph glyph-name="cedilla" unicode="&#xb8;" horiz-adv-x="503" 
d="M179 -200q-57 0 -108 37l16 22q43 -28 92 -28q26 0 40 12t14 30q0 19 -18.5 30.5t-52.5 7.5l-10 9l50 97l21 -6l-27 -71q38 -4 56.5 -22t18.5 -43q0 -33 -25.5 -54t-66.5 -21z" />
    <glyph glyph-name="one.sup" unicode="&#xb9;" horiz-adv-x="353" 
d="M122 430l7 29h102l71 302l-107 -26v29l130 33l15 -7l-77 -331h100l-6 -29h-235z" />
    <glyph glyph-name="ordmasculine" unicode="&#xba;" horiz-adv-x="328" 
d="M196 408q-48 0 -77.5 31t-29.5 80q0 60 40.5 106t99.5 46q48 0 77.5 -30.5t29.5 -79.5q0 -61 -40.5 -107t-99.5 -46zM55 315l7 27h227l-7 -27h-227zM198 436q45 0 76.5 37t31.5 87q0 37 -22 60.5t-57 23.5q-45 0 -76.5 -37.5t-31.5 -87.5q0 -37 22 -60t57 -23z" />
    <glyph glyph-name="guillemotright" unicode="&#xbb;" horiz-adv-x="423" 
d="M207 113l-21 23l174 139l-105 133l24 19l131 -158zM53 113l-20 23l174 139l-105 133l24 19l131 -158z" />
    <glyph glyph-name="onequarter" unicode="&#xbc;" horiz-adv-x="795" 
d="M600 26l20 84h-171l-4 14l243 246l20 -18l-217 -217h135l22 89l33 13l-24 -101h65l-6 -26h-65l-19 -84h52l-6 -26h-149l6 26h65zM78 280l7 29h102l71 302l-107 -26v29l130 33l15 -7l-77 -331h100l-6 -29h-235zM171 -9l-20 16q16 19 115.5 136.5t153.5 182.5
q67 79 265 319l20 -16l-268 -319q-73 -86 -266 -319z" />
    <glyph glyph-name="onehalf" unicode="&#xbd;" horiz-adv-x="795" 
d="M449 0l-6 15q22 55 63 92t107 73q48 26 72 48.5t24 51.5q0 26 -20.5 42.5t-54.5 16.5q-35 0 -58 -13t-29 -29q13 -8 13 -20q0 -11 -7 -18t-17 -7q-11 0 -18 8.5t-7 21.5q0 31 35.5 58.5t89.5 27.5q47 0 76.5 -24t29.5 -64q0 -38 -29 -65t-87 -59q-55 -30 -90 -59.5
t-52 -69.5h178l15 66h29l-21 -93h-236zM67 280l7 29h102l71 302l-107 -26v29l130 33l15 -7l-77 -331h100l-6 -29h-235zM157 -9l-20 16q16 19 115.5 136.5t153.5 182.5q67 79 265 319l20 -16l-268 -319q-73 -86 -266 -319z" />
    <glyph glyph-name="threequarters" unicode="&#xbe;" horiz-adv-x="795" 
d="M211 276q-48 0 -82 23.5t-34 54.5q0 12 7 21t18 9q10 0 16.5 -6.5t6.5 -15.5q0 -16 -16 -21q6 -15 29.5 -26.5t54.5 -11.5q45 0 72.5 22.5t27.5 56.5q0 30 -27 51t-68 21h-17l7 28h16q51 0 83 22t32 54q0 29 -23 45t-59 16q-55 0 -68 -29q13 -5 13 -18q0 -9 -7.5 -15.5
t-16.5 -6.5q-11 0 -17.5 8.5t-6.5 21.5q0 26 30 47t79 21q48 0 79 -25t31 -62q0 -38 -29.5 -63.5t-75.5 -31.5q35 -8 56.5 -31t21.5 -54q0 -47 -38.5 -76t-94.5 -29zM595 26l20 84h-171l-4 14l243 246l20 -18l-217 -217h135l22 89l33 13l-24 -101h65l-6 -26h-65l-19 -84h52
l-6 -26h-149l6 26h65zM171 -9l-20 16q16 19 115.5 136.5t153.5 182.5q67 79 265 319l20 -16l-268 -319q-73 -86 -266 -319z" />
    <glyph glyph-name="questiondown" unicode="&#xbf;" horiz-adv-x="429" 
d="M379 588q-16 0 -27.5 11.5t-11.5 28.5t11 28.5t28 11.5t28 -11.5t11 -28.5t-11.5 -28.5t-27.5 -11.5zM193 -7q-73 0 -120.5 42.5t-47.5 110.5q0 83 71 144.5t202 75.5l41 136h26l-36 -166q-131 -8 -197.5 -62t-66.5 -126q0 -56 37 -88t93 -32q50 0 86.5 22t45.5 51
q-28 7 -28 35q0 14 10.5 24t24.5 10q16 0 27 -12.5t11 -30.5q0 -51 -53.5 -92.5t-125.5 -41.5z" />
    <glyph glyph-name="Agrave" unicode="&#xc0;" horiz-adv-x="697" 
d="M-22 0l9 35h59l354 588h-86l9 35h251l-8 -35h-83l83 -588h70l-8 -35h-195l8 35h84l-28 208h-283l-124 -208h94l-9 -35h-197zM236 279h256l-48 347zM503 716l-116 75q-23 15 -23 34q0 11 8 19t19 8q17 0 34 -21l90 -102z" />
    <glyph glyph-name="Aacute" unicode="&#xc1;" horiz-adv-x="697" 
d="M-22 0l9 35h59l354 588h-86l9 35h251l-8 -35h-83l83 -588h70l-8 -35h-195l8 35h84l-28 208h-283l-124 -208h94l-9 -35h-197zM236 279h256l-48 347zM422 717l-8 14l144 106q19 14 33 14q10 0 18 -8t8 -19q0 -21 -30 -33z" />
    <glyph glyph-name="Acircumflex" unicode="&#xc2;" horiz-adv-x="697" 
d="M-22 0l9 35h59l354 588h-86l9 35h251l-8 -35h-83l83 -588h70l-8 -35h-195l8 35h84l-28 208h-283l-124 -208h94l-9 -35h-197zM236 279h256l-48 347zM343 713l-15 20l165 126l101 -129l-18 -16l-91 86z" />
    <glyph glyph-name="Atilde" unicode="&#xc3;" horiz-adv-x="697" 
d="M-22 0l9 35h59l354 588h-86l9 35h251l-8 -35h-83l83 -588h70l-8 -35h-195l8 35h84l-28 208h-283l-124 -208h94l-9 -35h-197zM236 279h256l-48 347zM535 717q-34 0 -76 38q-33 29 -55 29q-20 0 -34.5 -14.5t-26.5 -46.5l-26 9q10 40 35 66t55 26q34 0 77 -38
q32 -29 54 -29q38 0 62 61l26 -8q-10 -40 -35.5 -66.5t-55.5 -26.5z" />
    <glyph glyph-name="Adieresis" unicode="&#xc4;" horiz-adv-x="697" 
d="M-22 0l9 35h59l354 588h-86l9 35h251l-8 -35h-83l83 -588h70l-8 -35h-195l8 35h84l-28 208h-283l-124 -208h94l-9 -35h-197zM236 279h256l-48 347zM543 735q-15 0 -26 11.5t-11 26.5q0 17 10.5 28t26.5 11t26.5 -11t10.5 -28q0 -15 -10.5 -26.5t-26.5 -11.5zM407 735
q-15 0 -26 11.5t-11 26.5q0 17 10.5 28t26.5 11t26.5 -11t10.5 -28q0 -15 -10.5 -26.5t-26.5 -11.5z" />
    <glyph glyph-name="Aring" unicode="&#xc5;" horiz-adv-x="697" 
d="M-22 0l9 35h59l354 588h-86l9 35h81q-30 20 -30 60t29 71.5t71 31.5q35 0 55.5 -22.5t20.5 -55.5q0 -28 -14.5 -51t-36.5 -34h75l-8 -35h-83l83 -588h70l-8 -35h-195l8 35h84l-28 208h-283l-124 -208h94l-9 -35h-197zM452 663q28 0 47 23.5t19 54.5q0 22 -13 36.5
t-34 14.5q-28 0 -47 -23.5t-19 -55.5q0 -21 13 -35.5t34 -14.5zM236 279h256l-48 347z" />
    <glyph glyph-name="AE" unicode="&#xc6;" horiz-adv-x="882" 
d="M-45 0l8 35h76l454 588h-99l8 35h514l-34 -144h-39l25 109h-275l-61 -269h217l-7 -36h-219l-65 -283h275l25 109h39l-33 -144h-442l8 35h87l48 209h-221l-162 -209h95l-9 -35h-213zM270 279h203l80 346h-15z" />
    <glyph glyph-name="Ccedilla" unicode="&#xc7;" horiz-adv-x="672" 
d="M283 -200q-57 0 -108 37l16 22q43 -28 92 -28q26 0 40 12t14 30q0 19 -18.5 30.5t-52.5 7.5l-10 9l38 74q-100 17 -159 92t-59 189q0 98 47.5 188.5t132.5 147.5t186 57q102 0 161.5 -50t59.5 -104q0 -24 -11.5 -38t-28.5 -14q-16 0 -26 9t-10 24q0 28 30 40
q-7 36 -54.5 66.5t-123.5 30.5q-93 0 -168.5 -55t-114 -135t-38.5 -164q0 -114 63.5 -183.5t172.5 -69.5q119 0 220 96l23 -26q-109 -106 -247 -106q-11 0 -31 2l-19 -51q38 -4 56.5 -22t18.5 -43q0 -33 -25.5 -54t-66.5 -21z" />
    <glyph glyph-name="Egrave" unicode="&#xc8;" horiz-adv-x="573" 
d="M4 0l9 35h86l136 588h-97l9 35h461l-34 -144h-39l25 109h-284l-62 -269h227l-8 -36h-227l-66 -283h284l25 109h40l-33 -144h-452zM437 716l-116 75q-23 15 -23 34q0 11 8 19t19 8q17 0 34 -21l90 -102z" />
    <glyph glyph-name="Eacute" unicode="&#xc9;" horiz-adv-x="573" 
d="M356 717l-8 14l144 106q19 14 33 14q10 0 18 -8t8 -19q0 -21 -30 -33zM4 0l9 35h86l136 588h-97l9 35h461l-34 -144h-39l25 109h-284l-62 -269h227l-8 -36h-227l-66 -283h284l25 109h40l-33 -144h-452z" />
    <glyph glyph-name="Ecircumflex" unicode="&#xca;" horiz-adv-x="573" 
d="M276 713l-15 20l165 126l101 -129l-18 -16l-91 86zM4 0l9 35h86l136 588h-97l9 35h461l-34 -144h-39l25 109h-284l-62 -269h227l-8 -36h-227l-66 -283h284l25 109h40l-33 -144h-452z" />
    <glyph glyph-name="Edieresis" unicode="&#xcb;" horiz-adv-x="573" 
d="M477 735q-15 0 -26 11.5t-11 26.5q0 17 10.5 28t26.5 11t26.5 -11t10.5 -28q0 -15 -10.5 -26.5t-26.5 -11.5zM341 735q-15 0 -26 11.5t-11 26.5q0 17 10.5 28t26.5 11t26.5 -11t10.5 -28q0 -15 -10.5 -26.5t-26.5 -11.5zM4 0l9 35h86l136 588h-97l9 35h461l-34 -144h-39
l25 109h-284l-62 -269h227l-8 -36h-227l-66 -283h284l25 109h40l-33 -144h-452z" />
    <glyph glyph-name="Igrave" unicode="&#xcc;" horiz-adv-x="330" 
d="M1 0l9 35h95l135 588h-96l9 35h232l-8 -35h-96l-135 -588h96l-9 -35h-232zM324 716l-116 75q-23 15 -23 34q0 11 8 19t19 8q17 0 34 -21l90 -102z" />
    <glyph glyph-name="Iacute" unicode="&#xcd;" horiz-adv-x="330" 
d="M1 0l9 35h95l135 588h-96l9 35h232l-8 -35h-96l-135 -588h96l-9 -35h-232zM242 717l-8 14l144 106q19 14 33 14q10 0 18 -8t8 -19q0 -21 -30 -33z" />
    <glyph glyph-name="Icircumflex" unicode="&#xce;" horiz-adv-x="330" 
d="M1 0l9 35h95l135 588h-96l9 35h232l-8 -35h-96l-135 -588h96l-9 -35h-232zM164 713l-15 20l165 126l101 -129l-18 -16l-91 86z" />
    <glyph glyph-name="Idieresis" unicode="&#xcf;" horiz-adv-x="330" 
d="M1 0l9 35h95l135 588h-96l9 35h232l-8 -35h-96l-135 -588h96l-9 -35h-232zM364 735q-15 0 -26 11.5t-11 26.5q0 17 10.5 28t26.5 11t26.5 -11t10.5 -28q0 -15 -10.5 -26.5t-26.5 -11.5zM228 735q-15 0 -26 11.5t-11 26.5q0 17 10.5 28t26.5 11t26.5 -11t10.5 -28
q0 -15 -10.5 -26.5t-26.5 -11.5z" />
    <glyph glyph-name="Eth" unicode="&#xd0;" horiz-adv-x="698" 
d="M4 0l9 35h86l65 284h-82l9 36h82l62 268h-97l9 35h201q169 0 257 -89q69 -67 69 -181q0 -158 -105 -265q-123 -123 -346 -123h-219zM140 35h89q197 0 306 109q97 99 97 242q0 100 -59 159q-78 78 -229 78h-68l-62 -268h146l-8 -36h-147z" />
    <glyph glyph-name="Ntilde" unicode="&#xd1;" horiz-adv-x="744" 
d="M550 -3l-284 593l-127 -555h97l-8 -35h-224l9 35h86l136 588h-96l8 35h128l278 -579l124 544h-98l8 35h223l-9 -35h-85l-144 -626h-22zM562 717q-34 0 -76 38q-33 29 -55 29q-20 0 -34.5 -14.5t-26.5 -46.5l-26 9q10 40 35 66t55 26q34 0 77 -38q32 -29 54 -29
q38 0 62 61l26 -8q-10 -40 -35.5 -66.5t-55.5 -26.5z" />
    <glyph glyph-name="Ograve" unicode="&#xd2;" horiz-adv-x="726" 
d="M344 -10q-124 0 -196 78.5t-72 197.5q0 98 45.5 190t130 152t186.5 60q124 0 196 -78.5t72 -197.5q0 -98 -45.5 -190t-130.5 -152t-186 -60zM347 26q132 0 224.5 111.5t92.5 253.5q0 103 -59.5 172t-170.5 69q-87 0 -160.5 -53t-115 -136.5t-41.5 -175.5q0 -103 60 -172
t170 -69zM520 716l-116 75q-23 15 -23 34q0 11 8 19t19 8q17 0 34 -21l90 -102z" />
    <glyph glyph-name="Oacute" unicode="&#xd3;" horiz-adv-x="726" 
d="M439 717l-8 14l144 106q19 14 33 14q10 0 18 -8t8 -19q0 -21 -30 -33zM344 -10q-124 0 -196 78.5t-72 197.5q0 98 45.5 190t130 152t186.5 60q124 0 196 -78.5t72 -197.5q0 -98 -45.5 -190t-130.5 -152t-186 -60zM347 26q132 0 224.5 111.5t92.5 253.5q0 103 -59.5 172
t-170.5 69q-87 0 -160.5 -53t-115 -136.5t-41.5 -175.5q0 -103 60 -172t170 -69z" />
    <glyph glyph-name="Ocircumflex" unicode="&#xd4;" horiz-adv-x="726" 
d="M360 713l-15 20l165 126l101 -129l-18 -16l-91 86zM344 -10q-124 0 -196 78.5t-72 197.5q0 98 45.5 190t130 152t186.5 60q124 0 196 -78.5t72 -197.5q0 -98 -45.5 -190t-130.5 -152t-186 -60zM347 26q132 0 224.5 111.5t92.5 253.5q0 103 -59.5 172t-170.5 69
q-87 0 -160.5 -53t-115 -136.5t-41.5 -175.5q0 -103 60 -172t170 -69z" />
    <glyph glyph-name="Otilde" unicode="&#xd5;" horiz-adv-x="726" 
d="M344 -10q-124 0 -196 78.5t-72 197.5q0 98 45.5 190t130 152t186.5 60q124 0 196 -78.5t72 -197.5q0 -98 -45.5 -190t-130.5 -152t-186 -60zM347 26q132 0 224.5 111.5t92.5 253.5q0 103 -59.5 172t-170.5 69q-87 0 -160.5 -53t-115 -136.5t-41.5 -175.5q0 -103 60 -172
t170 -69zM552 717q-34 0 -76 38q-33 29 -55 29q-20 0 -34.5 -14.5t-26.5 -46.5l-26 9q10 40 35 66t55 26q34 0 77 -38q32 -29 54 -29q38 0 62 61l26 -8q-10 -40 -35.5 -66.5t-55.5 -26.5z" />
    <glyph glyph-name="Odieresis" unicode="&#xd6;" horiz-adv-x="726" 
d="M560 735q-15 0 -26 11.5t-11 26.5q0 17 10.5 28t26.5 11t26.5 -11t10.5 -28q0 -15 -10.5 -26.5t-26.5 -11.5zM424 735q-15 0 -26 11.5t-11 26.5q0 17 10.5 28t26.5 11t26.5 -11t10.5 -28q0 -15 -10.5 -26.5t-26.5 -11.5zM344 -10q-124 0 -196 78.5t-72 197.5
q0 98 45.5 190t130 152t186.5 60q124 0 196 -78.5t72 -197.5q0 -98 -45.5 -190t-130.5 -152t-186 -60zM347 26q132 0 224.5 111.5t92.5 253.5q0 103 -59.5 172t-170.5 69q-87 0 -160.5 -53t-115 -136.5t-41.5 -175.5q0 -103 60 -172t170 -69z" />
    <glyph glyph-name="multiply" unicode="&#xd7;" horiz-adv-x="392" 
d="M123 405l88 -115l136 109l23 -28l-136 -110l89 -115l-29 -24l-90 115l-135 -109l-23 29l136 109l-89 115z" />
    <glyph glyph-name="Oslash" unicode="&#xd8;" horiz-adv-x="726" 
d="M344 -10q-138 0 -213 98l-112 -96l-23 27l116 99q-36 64 -36 148q0 98 45.5 190t130 152t186.5 60q134 0 209 -94l110 95l24 -27l-114 -98q39 -67 39 -152q0 -98 -45.5 -190t-130.5 -152t-186 -60zM347 26q132 0 225 111.5t93 253.5q0 73 -30 128l-474 -406
q62 -87 186 -87zM117 267q0 -68 26 -123l474 404q-63 84 -183 84q-87 0 -161 -53t-115 -136.5t-41 -175.5z" />
    <glyph glyph-name="Ugrave" unicode="&#xd9;" horiz-adv-x="701" 
d="M327 -10q-93 0 -147 48t-54 133q0 36 12 87l84 365h-96l8 35h225l-8 -35h-89l-84 -368q-10 -41 -10 -82q0 -70 42 -109t121 -39q164 0 208 202l91 396h-98l8 35h225l-8 -35h-87l-92 -401q-53 -232 -251 -232zM501 716l-116 75q-23 15 -23 34q0 11 8 19t19 8q17 0 34 -21
l90 -102z" />
    <glyph glyph-name="Uacute" unicode="&#xda;" horiz-adv-x="701" 
d="M420 717l-8 14l144 106q19 14 33 14q10 0 18 -8t8 -19q0 -21 -30 -33zM327 -10q-93 0 -147 48t-54 133q0 36 12 87l84 365h-96l8 35h225l-8 -35h-89l-84 -368q-10 -41 -10 -82q0 -70 42 -109t121 -39q164 0 208 202l91 396h-98l8 35h225l-8 -35h-87l-92 -401
q-53 -232 -251 -232z" />
    <glyph glyph-name="Ucircumflex" unicode="&#xdb;" horiz-adv-x="701" 
d="M341 713l-15 20l165 126l101 -129l-18 -16l-91 86zM327 -10q-93 0 -147 48t-54 133q0 36 12 87l84 365h-96l8 35h225l-8 -35h-89l-84 -368q-10 -41 -10 -82q0 -70 42 -109t121 -39q164 0 208 202l91 396h-98l8 35h225l-8 -35h-87l-92 -401q-53 -232 -251 -232z" />
    <glyph glyph-name="Udieresis" unicode="&#xdc;" horiz-adv-x="701" 
d="M541 735q-15 0 -26 11.5t-11 26.5q0 17 10.5 28t26.5 11t26.5 -11t10.5 -28q0 -15 -10.5 -26.5t-26.5 -11.5zM405 735q-15 0 -26 11.5t-11 26.5q0 17 10.5 28t26.5 11t26.5 -11t10.5 -28q0 -15 -10.5 -26.5t-26.5 -11.5zM327 -10q-93 0 -147 48t-54 133q0 36 12 87
l84 365h-96l8 35h225l-8 -35h-89l-84 -368q-10 -41 -10 -82q0 -70 42 -109t121 -39q164 0 208 202l91 396h-98l8 35h225l-8 -35h-87l-92 -401q-53 -232 -251 -232z" />
    <glyph glyph-name="Yacute" unicode="&#xdd;" horiz-adv-x="625" 
d="M131 0l9 35h99l59 240l-123 348h-70l9 35h198l-8 -35h-86l108 -315l262 315h-83l8 35h198l-8 -35h-67l-300 -355l-55 -233h100l-8 -35h-242zM379 717l-8 14l144 106q19 14 33 14q10 0 18 -8t8 -19q0 -21 -30 -33z" />
    <glyph glyph-name="Thorn" unicode="&#xde;" horiz-adv-x="554" 
d="M4 0l9 35h86l136 588h-95l8 35h224l-8 -35h-88l-22 -96h65q118 0 175 -57q44 -44 44 -114q0 -95 -72.5 -155.5t-195.5 -60.5q-38 0 -104 3l-26 -108h97l-8 -35h-225zM275 176q107 0 164.5 50t57.5 129q0 55 -34 89q-47 47 -147 47h-70l-72 -312q36 -3 101 -3z" />
    <glyph glyph-name="germandbls" unicode="&#xdf;" horiz-adv-x="507" 
d="M317 -5q-45 0 -82.5 26t-37.5 63q0 15 9.5 26.5t23.5 11.5t22.5 -9t8.5 -21q0 -20 -16 -30q6 -14 27 -25t47 -11q44 0 72 28.5t28 72.5q0 52 -68 118q-23 24 -34.5 37t-22 34t-10.5 42q0 35 20 61.5t57 55.5q27 22 42.5 37.5t29.5 42.5t14 57q0 37 -26.5 64t-64.5 27
q-101 0 -135 -152l-127 -551h-37l89 383h-77l7 33h77l32 140q42 181 173 181q54 0 90 -36.5t36 -88.5q0 -36 -15.5 -68t-33 -49.5t-47.5 -42.5q-23 -19 -35.5 -30.5t-22.5 -29t-10 -34.5q0 -32 61 -91q74 -74 74 -140q0 -59 -38 -95.5t-100 -36.5z" />
    <glyph glyph-name="agrave" unicode="&#xe0;" horiz-adv-x="542" 
d="M196 -7q-66 0 -108 45t-42 123q0 105 63.5 183.5t155.5 78.5q56 0 94 -31.5t47 -86.5l28 113h37l-76 -310q-9 -40 -9 -50q0 -16 9.5 -25.5t24.5 -9.5q18 0 32 15.5t30 52.5l23 -7q-17 -47 -37.5 -68.5t-51.5 -21.5q-29 0 -47 17.5t-18 44.5q0 17 4 32q-65 -95 -159 -95z
M203 26q80 0 133.5 73.5t53.5 155.5q0 60 -33.5 97.5t-90.5 37.5q-77 0 -129 -69t-52 -158q0 -64 31.5 -100.5t86.5 -36.5zM359 500l-116 75q-23 15 -23 34q0 11 8 19t19 8q17 0 34 -21l90 -102z" />
    <glyph glyph-name="aacute" unicode="&#xe1;" horiz-adv-x="542" 
d="M196 -7q-66 0 -108 45t-42 123q0 105 63.5 183.5t155.5 78.5q56 0 94 -31.5t47 -86.5l28 113h37l-76 -310q-9 -40 -9 -50q0 -16 9.5 -25.5t24.5 -9.5q18 0 32 15.5t30 52.5l23 -7q-17 -47 -37.5 -68.5t-51.5 -21.5q-29 0 -47 17.5t-18 44.5q0 17 4 32q-65 -95 -159 -95z
M203 26q80 0 133.5 73.5t53.5 155.5q0 60 -33.5 97.5t-90.5 37.5q-77 0 -129 -69t-52 -158q0 -64 31.5 -100.5t86.5 -36.5zM276 501l-8 14l144 106q19 14 33 14q10 0 18 -8t8 -19q0 -21 -30 -33z" />
    <glyph glyph-name="acircumflex" unicode="&#xe2;" horiz-adv-x="542" 
d="M196 -7q-66 0 -108 45t-42 123q0 105 63.5 183.5t155.5 78.5q56 0 94 -31.5t47 -86.5l28 113h37l-76 -310q-9 -40 -9 -50q0 -16 9.5 -25.5t24.5 -9.5q18 0 32 15.5t30 52.5l23 -7q-17 -47 -37.5 -68.5t-51.5 -21.5q-29 0 -47 17.5t-18 44.5q0 17 4 32q-65 -95 -159 -95z
M203 26q80 0 133.5 73.5t53.5 155.5q0 60 -33.5 97.5t-90.5 37.5q-77 0 -129 -69t-52 -158q0 -64 31.5 -100.5t86.5 -36.5zM198 497l-15 20l165 126l101 -129l-18 -16l-91 86z" />
    <glyph glyph-name="atilde" unicode="&#xe3;" horiz-adv-x="542" 
d="M196 -7q-66 0 -108 45t-42 123q0 105 63.5 183.5t155.5 78.5q56 0 94 -31.5t47 -86.5l28 113h37l-76 -310q-9 -40 -9 -50q0 -16 9.5 -25.5t24.5 -9.5q18 0 32 15.5t30 52.5l23 -7q-17 -47 -37.5 -68.5t-51.5 -21.5q-29 0 -47 17.5t-18 44.5q0 17 4 32q-65 -95 -159 -95z
M203 26q80 0 133.5 73.5t53.5 155.5q0 60 -33.5 97.5t-90.5 37.5q-77 0 -129 -69t-52 -158q0 -64 31.5 -100.5t86.5 -36.5zM391 501q-34 0 -76 38q-33 29 -55 29q-20 0 -34.5 -14.5t-26.5 -46.5l-26 9q10 40 35 66t55 26q34 0 77 -38q32 -29 54 -29q38 0 62 61l26 -8
q-10 -40 -35.5 -66.5t-55.5 -26.5z" />
    <glyph glyph-name="adieresis" unicode="&#xe4;" horiz-adv-x="542" 
d="M196 -7q-66 0 -108 45t-42 123q0 105 63.5 183.5t155.5 78.5q56 0 94 -31.5t47 -86.5l28 113h37l-76 -310q-9 -40 -9 -50q0 -16 9.5 -25.5t24.5 -9.5q18 0 32 15.5t30 52.5l23 -7q-17 -47 -37.5 -68.5t-51.5 -21.5q-29 0 -47 17.5t-18 44.5q0 17 4 32q-65 -95 -159 -95z
M203 26q80 0 133.5 73.5t53.5 155.5q0 60 -33.5 97.5t-90.5 37.5q-77 0 -129 -69t-52 -158q0 -64 31.5 -100.5t86.5 -36.5zM399 519q-15 0 -26 11.5t-11 26.5q0 17 10.5 28t26.5 11t26.5 -11t10.5 -28q0 -15 -10.5 -26.5t-26.5 -11.5zM263 519q-15 0 -26 11.5t-11 26.5
q0 17 10.5 28t26.5 11t26.5 -11t10.5 -28q0 -15 -10.5 -26.5t-26.5 -11.5z" />
    <glyph glyph-name="aring" unicode="&#xe5;" horiz-adv-x="542" 
d="M196 -7q-66 0 -108 45t-42 123q0 105 63.5 183.5t155.5 78.5q56 0 94 -31.5t47 -86.5l28 113h37l-76 -310q-9 -40 -9 -50q0 -16 9.5 -25.5t24.5 -9.5q18 0 32 15.5t30 52.5l23 -7q-17 -47 -37.5 -68.5t-51.5 -21.5q-29 0 -47 17.5t-18 44.5q0 17 4 32q-65 -95 -159 -95z
M203 26q80 0 133.5 73.5t53.5 155.5q0 60 -33.5 97.5t-90.5 37.5q-77 0 -129 -69t-52 -158q0 -64 31.5 -100.5t86.5 -36.5zM327 492q-35 0 -55.5 22.5t-20.5 55.5q0 44 28.5 76.5t70.5 32.5q35 0 56 -22.5t21 -55.5q0 -43 -29 -76t-71 -33zM330 521q28 0 46.5 23.5
t18.5 55.5q0 22 -13 36t-34 14q-28 0 -47 -23.5t-19 -54.5q0 -22 13.5 -36.5t34.5 -14.5z" />
    <glyph glyph-name="ae" unicode="&#xe6;" horiz-adv-x="764" 
d="M709 203h-323q-3 -18 -3 -37q0 -66 42 -103t104 -37q70 0 136 37l-9 -38q-58 -32 -133 -32q-67 0 -112 37.5t-56 99.5q-26 -62 -81.5 -99.5t-118.5 -37.5q-64 0 -95.5 31t-31.5 73q0 65 58 101t158 36h111q-1 68 -33.5 112t-98.5 44q-29 0 -51 -9q-11 -5 -16 -11
q10 -12 10 -24q0 -13 -9.5 -23.5t-22.5 -10.5q-14 0 -23 10t-9 25q0 37 46 60q32 16 72 16q133 0 158 -141q29 65 82 103t116 38q67 0 106.5 -39.5t39.5 -108.5q0 -30 -13 -72zM155 26q66 0 126.5 51t71.5 127h-100q-186 0 -186 -107q0 -31 23 -51t65 -20zM574 390
q-63 0 -113 -44t-69 -111h288q7 26 7 46q0 49 -29.5 79t-83.5 30z" />
    <glyph glyph-name="ccedilla" unicode="&#xe7;" horiz-adv-x="446" 
d="M161 -200q-57 0 -108 37l16 22q43 -28 92 -28q26 0 40 12t14 30q0 19 -18.5 30.5t-52.5 7.5l-10 9l40 78q-58 13 -93.5 58t-35.5 113q0 101 67.5 177.5t160.5 76.5q68 0 107 -33.5t39 -72.5q0 -18 -10 -30t-25 -12q-12 0 -20 7.5t-8 21.5q0 23 22 31q-22 55 -106 55
q-77 0 -133.5 -66t-56.5 -154q0 -66 39 -105t103 -39q73 0 138 56l-3 -40q-66 -49 -141 -49q-4 0 -10 0.5t-10 0.5l-20 -54q38 -4 56.5 -22t18.5 -43q0 -33 -25.5 -54t-66.5 -21z" />
    <glyph glyph-name="egrave" unicode="&#xe8;" horiz-adv-x="462" 
d="M407 203h-323q-3 -18 -3 -37q0 -66 42 -103t104 -37q70 0 137 37l-9 -38q-60 -32 -133 -32q-76 0 -127.5 46.5t-51.5 126.5q0 104 68.5 180.5t163.5 76.5q67 0 106.5 -39.5t39.5 -108.5q0 -32 -14 -72zM272 390q-62 0 -112 -44t-69 -111h287q7 26 7 46q0 49 -29.5 79
t-83.5 30zM341 500l-116 75q-23 15 -23 34q0 11 8 19t19 8q17 0 34 -21l90 -102z" />
    <glyph glyph-name="eacute" unicode="&#xe9;" horiz-adv-x="462" 
d="M407 203h-323q-3 -18 -3 -37q0 -66 42 -103t104 -37q70 0 137 37l-9 -38q-60 -32 -133 -32q-76 0 -127.5 46.5t-51.5 126.5q0 104 68.5 180.5t163.5 76.5q67 0 106.5 -39.5t39.5 -108.5q0 -32 -14 -72zM272 390q-62 0 -112 -44t-69 -111h287q7 26 7 46q0 49 -29.5 79
t-83.5 30zM258 501l-8 14l144 106q19 14 33 14q10 0 18 -8t8 -19q0 -21 -30 -33z" />
    <glyph glyph-name="ecircumflex" unicode="&#xea;" horiz-adv-x="462" 
d="M407 203h-323q-3 -18 -3 -37q0 -66 42 -103t104 -37q70 0 137 37l-9 -38q-60 -32 -133 -32q-76 0 -127.5 46.5t-51.5 126.5q0 104 68.5 180.5t163.5 76.5q67 0 106.5 -39.5t39.5 -108.5q0 -32 -14 -72zM272 390q-62 0 -112 -44t-69 -111h287q7 26 7 46q0 49 -29.5 79
t-83.5 30zM180 497l-15 20l165 126l101 -129l-18 -16l-91 86z" />
    <glyph glyph-name="edieresis" unicode="&#xeb;" horiz-adv-x="462" 
d="M407 203h-323q-3 -18 -3 -37q0 -66 42 -103t104 -37q70 0 137 37l-9 -38q-60 -32 -133 -32q-76 0 -127.5 46.5t-51.5 126.5q0 104 68.5 180.5t163.5 76.5q67 0 106.5 -39.5t39.5 -108.5q0 -32 -14 -72zM272 390q-62 0 -112 -44t-69 -111h287q7 26 7 46q0 49 -29.5 79
t-83.5 30zM244 519q-15 0 -26 11.5t-11 26.5q0 17 10.5 28t26.5 11t26.5 -11t10.5 -28q0 -15 -10.5 -26.5t-26.5 -11.5zM380 519q-15 0 -26 11.5t-11 26.5q0 17 10.5 28t26.5 11t26.5 -11t10.5 -28q0 -15 -10.5 -26.5t-26.5 -11.5z" />
    <glyph glyph-name="igrave" unicode="&#xec;" horiz-adv-x="275" 
d="M136 -6q-31 0 -49.5 17.5t-18.5 47.5q0 19 10 56l77 268h-87l7 33h126l-86 -306q-10 -35 -10 -52q0 -16 9.5 -25.5t25.5 -9.5q18 0 32 15.5t29 52.5l24 -7q-17 -47 -38 -68.5t-51 -21.5zM233 500l-116 75q-23 15 -23 34q0 11 8 19t19 8q17 0 34 -21l90 -102z" />
    <glyph glyph-name="iacute" unicode="&#xed;" horiz-adv-x="275" 
d="M160 501l-8 14l144 106q19 14 33 14q10 0 18 -8t8 -19q0 -21 -30 -33zM136 -6q-31 0 -49.5 17.5t-18.5 47.5q0 19 10 56l77 268h-87l7 33h126l-86 -306q-10 -35 -10 -52q0 -16 9.5 -25.5t25.5 -9.5q18 0 32 15.5t29 52.5l24 -7q-17 -47 -38 -68.5t-51 -21.5z" />
    <glyph glyph-name="icircumflex" unicode="&#xee;" horiz-adv-x="275" 
d="M81 497l-15 20l165 126l101 -129l-18 -16l-91 86zM136 -6q-31 0 -49.5 17.5t-18.5 47.5q0 19 10 56l77 268h-87l7 33h126l-86 -306q-10 -35 -10 -52q0 -16 9.5 -25.5t25.5 -9.5q18 0 32 15.5t29 52.5l24 -7q-17 -47 -38 -68.5t-51 -21.5z" />
    <glyph glyph-name="idieresis" unicode="&#xef;" horiz-adv-x="275" 
d="M281 519q-15 0 -26 11.5t-11 26.5q0 17 10.5 28t26.5 11t26.5 -11t10.5 -28q0 -15 -10.5 -26.5t-26.5 -11.5zM145 519q-15 0 -26 11.5t-11 26.5q0 17 10.5 28t26.5 11t26.5 -11t10.5 -28q0 -15 -10.5 -26.5t-26.5 -11.5zM136 -6q-31 0 -49.5 17.5t-18.5 47.5q0 19 10 56
l77 268h-87l7 33h126l-86 -306q-10 -35 -10 -52q0 -16 9.5 -25.5t25.5 -9.5q18 0 32 15.5t29 52.5l24 -7q-17 -47 -38 -68.5t-51 -21.5z" />
    <glyph glyph-name="eth" unicode="&#xf0;" horiz-adv-x="487" 
d="M209 -6q-73 0 -119.5 47.5t-46.5 124.5q0 94 63 166t152 72q56 0 96 -28t54 -79q4 40 4 64q0 136 -63 235l-133 -121l-21 24l135 123q-53 63 -115 78q-6 -32 -34 -32q-13 0 -22.5 9t-9.5 23q0 15 11.5 25.5t32.5 10.5q38 0 81.5 -24t80.5 -68l97 88l21 -23l-99 -90
q72 -106 72 -256q0 -215 -92 -307q-60 -62 -145 -62zM212 27q67 0 122 55q61 64 61 153q0 62 -38.5 98.5t-98.5 36.5q-73 0 -124.5 -61t-51.5 -143q0 -63 36.5 -101t93.5 -38z" />
    <glyph glyph-name="ntilde" unicode="&#xf1;" horiz-adv-x="521" 
d="M401 -6q-31 0 -49 17.5t-18 46.5q0 20 10 57l40 132q12 39 12 71q0 33 -21 52.5t-58 19.5q-56 0 -107.5 -55t-75.5 -145l-47 -190h-37l96 383h-82l7 33h119l-30 -115q69 121 163 121q50 0 80.5 -28t30.5 -75q0 -31 -14 -78l-39 -130q-10 -37 -10 -53t9.5 -25.5t24.5 -9.5
q35 0 62 68l24 -7q-17 -47 -38 -68.5t-52 -21.5zM399 501q-34 0 -76 38q-33 29 -55 29q-20 0 -34.5 -14.5t-26.5 -46.5l-26 9q10 40 35 66t55 26q34 0 77 -38q32 -29 54 -29q38 0 62 61l26 -8q-10 -40 -35.5 -66.5t-55.5 -26.5z" />
    <glyph glyph-name="ograve" unicode="&#xf2;" horiz-adv-x="494" 
d="M220 -7q-78 0 -126.5 50t-48.5 130q0 99 66 174.5t162 75.5q78 0 126.5 -50t48.5 -130q0 -99 -66 -174.5t-162 -75.5zM222 26q79 0 133.5 65t54.5 152q0 67 -39 107t-100 40q-78 0 -133 -65.5t-55 -151.5q0 -67 39 -107t100 -40zM355 500l-116 75q-23 15 -23 34
q0 11 8 19t19 8q17 0 34 -21l90 -102z" />
    <glyph glyph-name="oacute" unicode="&#xf3;" horiz-adv-x="494" 
d="M273 501l-8 14l144 106q19 14 33 14q10 0 18 -8t8 -19q0 -21 -30 -33zM220 -7q-78 0 -126.5 50t-48.5 130q0 99 66 174.5t162 75.5q78 0 126.5 -50t48.5 -130q0 -99 -66 -174.5t-162 -75.5zM222 26q79 0 133.5 65t54.5 152q0 67 -39 107t-100 40q-78 0 -133 -65.5
t-55 -151.5q0 -67 39 -107t100 -40z" />
    <glyph glyph-name="ocircumflex" unicode="&#xf4;" horiz-adv-x="494" 
d="M195 497l-15 20l165 126l101 -129l-18 -16l-91 86zM220 -7q-78 0 -126.5 50t-48.5 130q0 99 66 174.5t162 75.5q78 0 126.5 -50t48.5 -130q0 -99 -66 -174.5t-162 -75.5zM222 26q79 0 133.5 65t54.5 152q0 67 -39 107t-100 40q-78 0 -133 -65.5t-55 -151.5q0 -67 39 -107
t100 -40z" />
    <glyph glyph-name="otilde" unicode="&#xf5;" horiz-adv-x="494" 
d="M220 -7q-78 0 -126.5 50t-48.5 130q0 99 66 174.5t162 75.5q78 0 126.5 -50t48.5 -130q0 -99 -66 -174.5t-162 -75.5zM222 26q79 0 133.5 65t54.5 152q0 67 -39 107t-100 40q-78 0 -133 -65.5t-55 -151.5q0 -67 39 -107t100 -40zM387 501q-34 0 -76 38q-33 29 -55 29
q-20 0 -34.5 -14.5t-26.5 -46.5l-26 9q10 40 35 66t55 26q34 0 77 -38q32 -29 54 -29q38 0 62 61l26 -8q-10 -40 -35.5 -66.5t-55.5 -26.5z" />
    <glyph glyph-name="odieresis" unicode="&#xf6;" horiz-adv-x="494" 
d="M395 519q-15 0 -26 11.5t-11 26.5q0 17 10.5 28t26.5 11t26.5 -11t10.5 -28q0 -15 -10.5 -26.5t-26.5 -11.5zM259 519q-15 0 -26 11.5t-11 26.5q0 17 10.5 28t26.5 11t26.5 -11t10.5 -28q0 -15 -10.5 -26.5t-26.5 -11.5zM220 -7q-78 0 -126.5 50t-48.5 130q0 99 66 174.5
t162 75.5q78 0 126.5 -50t48.5 -130q0 -99 -66 -174.5t-162 -75.5zM222 26q79 0 133.5 65t54.5 152q0 67 -39 107t-100 40q-78 0 -133 -65.5t-55 -151.5q0 -67 39 -107t100 -40z" />
    <glyph glyph-name="divide" unicode="&#xf7;" horiz-adv-x="392" 
d="M52 246l8 35h306l-8 -35h-306zM238 354q-14 0 -24 10t-10 24t10 24.5t24 10.5q13 0 23 -10.5t10 -24.5t-9.5 -24t-23.5 -10zM180 104q-14 0 -24 10.5t-10 24.5t10 24t24 10t23.5 -10t9.5 -24t-10 -24.5t-23 -10.5z" />
    <glyph glyph-name="oslash" unicode="&#xf8;" horiz-adv-x="494" 
d="M223 -7q-82 0 -132 56l-65 -56l-21 25l67 57q-25 44 -25 99q0 99 65.5 174t162.5 75q83 0 134 -59l66 58l22 -25l-70 -59q24 -43 24 -96q0 -99 -65.5 -174t-162.5 -75zM85 173q0 -42 16 -76l282 244q-40 49 -109 49q-79 0 -134 -64.5t-55 -152.5zM224 26q79 0 134 64.5
t55 152.5q0 39 -14 72l-282 -243q38 -46 107 -46z" />
    <glyph glyph-name="ugrave" unicode="&#xf9;" horiz-adv-x="522" 
d="M65 416h119l-64 -253q-10 -40 -10 -69q0 -30 20 -49t55 -19q56 0 108 55.5t74 144.5l47 190h38l-77 -308q-9 -33 -9 -50q0 -16 9.5 -25.5t24.5 -9.5q18 0 32 15.5t30 52.5l24 -7q-18 -47 -38.5 -68.5t-51.5 -21.5q-29 0 -46.5 17t-17.5 47q0 16 9 56q-68 -120 -161 -120
q-48 0 -78 27t-30 72q0 24 12 74l55 216h-82zM357 500l-116 75q-23 15 -23 34q0 11 8 19t19 8q17 0 34 -21l90 -102z" />
    <glyph glyph-name="uacute" unicode="&#xfa;" horiz-adv-x="522" 
d="M65 416h119l-64 -253q-10 -40 -10 -69q0 -30 20 -49t55 -19q56 0 108 55.5t74 144.5l47 190h38l-77 -308q-9 -33 -9 -50q0 -16 9.5 -25.5t24.5 -9.5q18 0 32 15.5t30 52.5l24 -7q-18 -47 -38.5 -68.5t-51.5 -21.5q-29 0 -46.5 17t-17.5 47q0 16 9 56q-68 -120 -161 -120
q-48 0 -78 27t-30 72q0 24 12 74l55 216h-82zM275 501l-8 14l144 106q19 14 33 14q10 0 18 -8t8 -19q0 -21 -30 -33z" />
    <glyph glyph-name="ucircumflex" unicode="&#xfb;" horiz-adv-x="522" 
d="M65 416h119l-64 -253q-10 -40 -10 -69q0 -30 20 -49t55 -19q56 0 108 55.5t74 144.5l47 190h38l-77 -308q-9 -33 -9 -50q0 -16 9.5 -25.5t24.5 -9.5q18 0 32 15.5t30 52.5l24 -7q-18 -47 -38.5 -68.5t-51.5 -21.5q-29 0 -46.5 17t-17.5 47q0 16 9 56q-68 -120 -161 -120
q-48 0 -78 27t-30 72q0 24 12 74l55 216h-82zM197 497l-15 20l165 126l101 -129l-18 -16l-91 86z" />
    <glyph glyph-name="udieresis" unicode="&#xfc;" horiz-adv-x="522" 
d="M65 416h119l-64 -253q-10 -40 -10 -69q0 -30 20 -49t55 -19q56 0 108 55.5t74 144.5l47 190h38l-77 -308q-9 -33 -9 -50q0 -16 9.5 -25.5t24.5 -9.5q18 0 32 15.5t30 52.5l24 -7q-18 -47 -38.5 -68.5t-51.5 -21.5q-29 0 -46.5 17t-17.5 47q0 16 9 56q-68 -120 -161 -120
q-48 0 -78 27t-30 72q0 24 12 74l55 216h-82zM261 519q-15 0 -26 11.5t-11 26.5q0 17 10.5 28t26.5 11t26.5 -11t10.5 -28q0 -15 -10.5 -26.5t-26.5 -11.5zM397 519q-15 0 -26 11.5t-11 26.5q0 17 10.5 28t26.5 11t26.5 -11t10.5 -28q0 -15 -10.5 -26.5t-26.5 -11.5z" />
    <glyph glyph-name="yacute" unicode="&#xfd;" horiz-adv-x="467" 
d="M-23 -199q-21 0 -35.5 11.5t-14.5 29.5q0 14 9 23.5t23 9.5q16 0 25.5 -11t9.5 -29q59 5 189 163l-75 385h-80l8 33h106l69 -383q171 217 187 316q-15 3 -26 14t-11 27q0 13 10 23t24 10q18 0 29.5 -13t11.5 -36q0 -109 -215 -376q-89 -110 -145.5 -153.5t-98.5 -43.5z
M257 501l-8 14l144 106q19 14 33 14q10 0 18 -8t8 -19q0 -21 -30 -33z" />
    <glyph glyph-name="thorn" unicode="&#xfe;" horiz-adv-x="515" 
d="M-69 -196l8 33h62l202 862h-82l7 33h121l-94 -403q61 94 156 94q69 0 113 -47.5t44 -127.5q0 -104 -63.5 -179.5t-154.5 -75.5q-55 0 -96 30t-53 82l-62 -268h89l-7 -33h-190zM249 26q77 0 128 66.5t51 152.5q0 68 -32.5 106.5t-90.5 38.5q-76 0 -132 -73t-56 -154
q0 -61 36 -99t96 -38z" />
    <glyph glyph-name="ydieresis" unicode="&#xff;" horiz-adv-x="467" 
d="M-23 -199q-21 0 -35.5 11.5t-14.5 29.5q0 14 9 23.5t23 9.5q16 0 25.5 -11t9.5 -29q59 5 189 163l-75 385h-80l8 33h106l69 -383q171 217 187 316q-15 3 -26 14t-11 27q0 13 10 23t24 10q18 0 29.5 -13t11.5 -36q0 -109 -215 -376q-89 -110 -145.5 -153.5t-98.5 -43.5z
M243 519q-15 0 -26 11.5t-11 26.5q0 17 10.5 28t26.5 11t26.5 -11t10.5 -28q0 -15 -10.5 -26.5t-26.5 -11.5zM379 519q-15 0 -26 11.5t-11 26.5q0 17 10.5 28t26.5 11t26.5 -11t10.5 -28q0 -15 -10.5 -26.5t-26.5 -11.5z" />
    <glyph glyph-name="Amacron" unicode="&#x100;" horiz-adv-x="697" 
d="M-22 0l9 35h59l354 588h-86l9 35h251l-8 -35h-83l83 -588h70l-8 -35h-195l8 35h84l-28 208h-283l-124 -208h94l-9 -35h-197zM236 279h256l-48 347zM330 750l8 37h280l-8 -37h-280z" />
    <glyph glyph-name="amacron" unicode="&#x101;" horiz-adv-x="542" 
d="M196 -7q-66 0 -108 45t-42 123q0 105 63.5 183.5t155.5 78.5q56 0 94 -31.5t47 -86.5l28 113h37l-76 -310q-9 -40 -9 -50q0 -16 9.5 -25.5t24.5 -9.5q18 0 32 15.5t30 52.5l23 -7q-17 -47 -37.5 -68.5t-51.5 -21.5q-29 0 -47 17.5t-18 44.5q0 17 4 32q-65 -95 -159 -95z
M203 26q80 0 133.5 73.5t53.5 155.5q0 60 -33.5 97.5t-90.5 37.5q-77 0 -129 -69t-52 -158q0 -64 31.5 -100.5t86.5 -36.5zM185 534l8 37h280l-8 -37h-280z" />
    <glyph glyph-name="Abreve" unicode="&#x102;" horiz-adv-x="697" 
d="M-22 0l9 35h59l354 588h-86l9 35h251l-8 -35h-83l83 -588h70l-8 -35h-195l8 35h84l-28 208h-283l-124 -208h94l-9 -35h-197zM236 279h256l-48 347zM468 718q-49 0 -79 31t-39 81l28 10q19 -80 95 -80q77 0 125 79l25 -14q-24 -47 -66 -77t-89 -30z" />
    <glyph glyph-name="abreve" unicode="&#x103;" horiz-adv-x="542" 
d="M196 -7q-66 0 -108 45t-42 123q0 105 63.5 183.5t155.5 78.5q56 0 94 -31.5t47 -86.5l28 113h37l-76 -310q-9 -40 -9 -50q0 -16 9.5 -25.5t24.5 -9.5q18 0 32 15.5t30 52.5l23 -7q-17 -47 -37.5 -68.5t-51.5 -21.5q-29 0 -47 17.5t-18 44.5q0 17 4 32q-65 -95 -159 -95z
M203 26q80 0 133.5 73.5t53.5 155.5q0 60 -33.5 97.5t-90.5 37.5q-77 0 -129 -69t-52 -158q0 -64 31.5 -100.5t86.5 -36.5zM323 502q-49 0 -79 31t-39 81l28 10q19 -80 95 -80q77 0 125 79l25 -14q-24 -47 -66 -77t-89 -30z" />
    <glyph glyph-name="Aogonek" unicode="&#x104;" horiz-adv-x="697" 
d="M-22 0l9 35h59l354 588h-86l9 35h251l-8 -35h-83l83 -588h70l-8 -35h-70q-90 -66 -90 -122q0 -22 13.5 -34t37.5 -12q25 0 49 8l-8 -31q-25 -11 -51 -11q-36 0 -56.5 18.5t-20.5 51.5q0 65 90 132h-89l8 35h84l-28 208h-283l-124 -208h94l-9 -35h-197zM236 279h256
l-48 347z" />
    <glyph glyph-name="aogonek" unicode="&#x105;" horiz-adv-x="542" 
d="M482 91l23 -7q-17 -48 -42 -72q-9 -8 -32 -28t-35.5 -32.5t-24.5 -33t-12 -40.5q0 -46 50 -46q25 0 49 8l-7 -31q-27 -11 -52 -11q-36 0 -56 19t-20 51q0 65 87 126q-27 2 -43 19t-16 43q0 16 4 33q-64 -96 -159 -96q-66 0 -108 45t-42 123q0 105 63.5 183.5t155.5 78.5
q56 0 94 -31.5t47 -85.5l28 112h37l-76 -310q-9 -40 -9 -50q0 -16 9.5 -25.5t24.5 -9.5q18 0 32 15.5t30 52.5zM203 26q80 0 133.5 73.5t53.5 155.5q0 60 -33.5 97.5t-90.5 37.5q-77 0 -129 -69t-52 -158q0 -64 31.5 -100.5t86.5 -36.5z" />
    <glyph glyph-name="Cacute" unicode="&#x106;" horiz-adv-x="672" 
d="M423 717l-8 14l144 106q19 14 33 14q10 0 18 -8t8 -19q0 -21 -30 -33zM350 -11q-123 0 -198.5 78t-75.5 208q0 98 47.5 188.5t132.5 147.5t186 57q102 0 161.5 -50t59.5 -104q0 -24 -11.5 -38t-28.5 -14q-16 0 -26 9t-10 24q0 28 30 40q-7 36 -54.5 66.5t-123.5 30.5
q-93 0 -168.5 -55t-114 -135t-38.5 -164q0 -114 63.5 -183.5t172.5 -69.5q119 0 220 96l23 -26q-109 -106 -247 -106z" />
    <glyph glyph-name="cacute" unicode="&#x107;" horiz-adv-x="446" 
d="M266 501l-8 14l144 106q19 14 33 14q10 0 18 -8t8 -19q0 -21 -30 -33zM218 -7q-74 0 -123.5 47.5t-49.5 128.5q0 101 67.5 177.5t160.5 76.5q68 0 107 -33.5t39 -72.5q0 -18 -10 -30t-25 -12q-12 0 -20 7.5t-8 21.5q0 23 22 31q-22 55 -106 55q-77 0 -133.5 -66
t-56.5 -154q0 -66 39 -105t103 -39q73 0 138 56l-3 -40q-66 -49 -141 -49z" />
    <glyph glyph-name="Cdotaccent" unicode="&#x10a;" horiz-adv-x="672" 
d="M350 -11q-123 0 -198.5 78t-75.5 208q0 98 47.5 188.5t132.5 147.5t186 57q102 0 161.5 -50t59.5 -104q0 -24 -11.5 -38t-28.5 -14q-16 0 -26 9t-10 24q0 28 30 40q-7 36 -54.5 66.5t-123.5 30.5q-93 0 -168.5 -55t-114 -135t-38.5 -164q0 -114 63.5 -183.5t172.5 -69.5
q119 0 220 96l23 -26q-109 -106 -247 -106zM476 736q-16 0 -27.5 11.5t-11.5 28.5t11.5 29t27.5 12q17 0 28.5 -12t11.5 -29t-11.5 -28.5t-28.5 -11.5z" />
    <glyph glyph-name="cdotaccent" unicode="&#x10b;" horiz-adv-x="446" 
d="M218 -7q-74 0 -123.5 47.5t-49.5 128.5q0 101 67.5 177.5t160.5 76.5q68 0 107 -33.5t39 -72.5q0 -18 -10 -30t-25 -12q-12 0 -20 7.5t-8 21.5q0 23 22 31q-22 55 -106 55q-77 0 -133.5 -66t-56.5 -154q0 -66 39 -105t103 -39q73 0 138 56l-3 -40q-66 -49 -141 -49z
M320 520q-16 0 -27.5 11.5t-11.5 28.5t11.5 29t27.5 12q17 0 28.5 -12t11.5 -29t-11.5 -28.5t-28.5 -11.5z" />
    <glyph glyph-name="Ccaron" unicode="&#x10c;" horiz-adv-x="672" 
d="M462 716l-101 129l17 16l91 -87l143 88l15 -21zM350 -11q-123 0 -198.5 78t-75.5 208q0 98 47.5 188.5t132.5 147.5t186 57q102 0 161.5 -50t59.5 -104q0 -24 -11.5 -38t-28.5 -14q-16 0 -26 9t-10 24q0 28 30 40q-7 36 -54.5 66.5t-123.5 30.5q-93 0 -168.5 -55
t-114 -135t-38.5 -164q0 -114 63.5 -183.5t172.5 -69.5q119 0 220 96l23 -26q-109 -106 -247 -106z" />
    <glyph glyph-name="ccaron" unicode="&#x10d;" horiz-adv-x="446" 
d="M306 500l-101 129l17 16l91 -87l143 88l15 -21zM218 -7q-74 0 -123.5 47.5t-49.5 128.5q0 101 67.5 177.5t160.5 76.5q68 0 107 -33.5t39 -72.5q0 -18 -10 -30t-25 -12q-12 0 -20 7.5t-8 21.5q0 23 22 31q-22 55 -106 55q-77 0 -133.5 -66t-56.5 -154q0 -66 39 -105
t103 -39q73 0 138 56l-3 -40q-66 -49 -141 -49z" />
    <glyph glyph-name="Dcaron" unicode="&#x10e;" horiz-adv-x="697" 
d="M426 716l-101 129l17 16l91 -87l143 88l15 -21zM4 0l9 35h86l136 588h-97l9 35h201q169 0 257 -89q69 -67 69 -181q0 -158 -105 -265q-123 -123 -346 -123h-219zM140 35h89q197 0 306 109q97 99 97 242q0 100 -59 159q-78 78 -229 78h-68z" />
    <glyph glyph-name="dcaron" unicode="&#x10f;" horiz-adv-x="548" 
d="M47 166q0 105 62.5 181t153.5 76q57 0 97 -31.5t50 -85.5l91 393h-82l7 33h121l-145 -621q-9 -41 -9 -53q0 -16 9 -25.5t25 -9.5q18 0 32 15.5t29 52.5l24 -7q-16 -47 -37 -68.5t-52 -21.5q-29 0 -47 18t-18 46q0 14 3 30q-65 -95 -158 -95q-70 0 -113 46.5t-43 126.5z
M209 26q79 0 132.5 71.5t53.5 153.5q0 63 -35 101t-94 38q-79 0 -129.5 -67.5t-50.5 -155.5q0 -65 32.5 -103t90.5 -38zM554 540l-11 12q42 50 51 87q4 13 5.5 36t2.5 27q3 29 29 29q25 0 25 -26q0 -32 -27 -78q-25 -43 -75 -87z" />
    <glyph glyph-name="Dcroat" unicode="&#x110;" horiz-adv-x="700" 
d="M4 0l9 35h86l65 284h-82l9 36h82l62 268h-97l9 35h201q169 0 257 -89q69 -67 69 -181q0 -158 -105 -265q-123 -123 -346 -123h-219zM140 35h89q197 0 306 109q97 99 97 242q0 100 -59 159q-78 78 -229 78h-68l-62 -268h146l-8 -36h-147z" />
    <glyph glyph-name="dcroat" unicode="&#x111;" horiz-adv-x="548" 
d="M303 544l7 33h162l29 122h-82l7 33h121l-37 -155h77l-7 -33h-77l-101 -433q-9 -41 -9 -53q0 -16 9 -25.5t25 -9.5q18 0 32 15.5t29 52.5l24 -7q-16 -47 -37 -68.5t-52 -21.5q-29 0 -47 18t-18 46q0 14 3 30q-65 -95 -158 -95q-70 0 -113 46.5t-43 126.5q0 105 62.5 181
t153.5 76q57 0 97 -31.5t50 -85.5l55 238h-162zM209 26q79 0 132.5 71.5t53.5 153.5q0 63 -35 101t-94 38q-79 0 -129.5 -67.5t-50.5 -155.5q0 -65 32.5 -103t90.5 -38z" />
    <glyph glyph-name="Emacron" unicode="&#x112;" horiz-adv-x="573" 
d="M4 0l9 35h86l136 588h-97l9 35h461l-34 -144h-39l25 109h-284l-62 -269h227l-8 -36h-227l-66 -283h284l25 109h40l-33 -144h-452zM264 750l8 37h280l-8 -37h-280z" />
    <glyph glyph-name="emacron" unicode="&#x113;" horiz-adv-x="462" 
d="M407 203h-323q-3 -18 -3 -37q0 -66 42 -103t104 -37q70 0 137 37l-9 -38q-60 -32 -133 -32q-76 0 -127.5 46.5t-51.5 126.5q0 104 68.5 180.5t163.5 76.5q67 0 106.5 -39.5t39.5 -108.5q0 -32 -14 -72zM272 390q-62 0 -112 -44t-69 -111h287q7 26 7 46q0 49 -29.5 79
t-83.5 30zM168 534l8 37h280l-8 -37h-280z" />
    <glyph glyph-name="Ebreve" unicode="&#x114;" horiz-adv-x="573" 
d="M4 0l9 35h86l136 588h-97l9 35h461l-34 -144h-39l25 109h-284l-62 -269h227l-8 -36h-227l-66 -283h284l25 109h40l-33 -144h-452zM402 718q-49 0 -79 31t-39 81l28 10q19 -80 95 -80q77 0 125 79l25 -14q-24 -47 -66 -77t-89 -30z" />
    <glyph glyph-name="ebreve" unicode="&#x115;" horiz-adv-x="462" 
d="M407 203h-323q-3 -18 -3 -37q0 -66 42 -103t104 -37q70 0 137 37l-9 -38q-60 -32 -133 -32q-76 0 -127.5 46.5t-51.5 126.5q0 104 68.5 180.5t163.5 76.5q67 0 106.5 -39.5t39.5 -108.5q0 -32 -14 -72zM272 390q-62 0 -112 -44t-69 -111h287q7 26 7 46q0 49 -29.5 79
t-83.5 30zM305 502q-49 0 -79 31t-39 81l28 10q19 -80 95 -80q77 0 125 79l25 -14q-24 -47 -66 -77t-89 -30z" />
    <glyph glyph-name="Edotaccent" unicode="&#x116;" horiz-adv-x="573" 
d="M4 0l9 35h86l136 588h-97l9 35h461l-34 -144h-39l25 109h-284l-62 -269h227l-8 -36h-227l-66 -283h284l25 109h40l-33 -144h-452zM410 736q-16 0 -27.5 11.5t-11.5 28.5t11.5 29t27.5 12q17 0 28.5 -12t11.5 -29t-11.5 -28.5t-28.5 -11.5z" />
    <glyph glyph-name="edotaccent" unicode="&#x117;" horiz-adv-x="462" 
d="M407 203h-323q-3 -18 -3 -37q0 -66 42 -103t104 -37q70 0 137 37l-9 -38q-60 -32 -133 -32q-76 0 -127.5 46.5t-51.5 126.5q0 104 68.5 180.5t163.5 76.5q67 0 106.5 -39.5t39.5 -108.5q0 -32 -14 -72zM272 390q-62 0 -112 -44t-69 -111h287q7 26 7 46q0 49 -29.5 79
t-83.5 30zM313 520q-16 0 -27.5 11.5t-11.5 28.5t11.5 29t27.5 12q17 0 28.5 -12t11.5 -29t-11.5 -28.5t-28.5 -11.5z" />
    <glyph glyph-name="Eogonek" unicode="&#x118;" horiz-adv-x="573" 
d="M4 0l9 35h86l136 588h-97l9 35h461l-34 -144h-39l25 109h-284l-62 -269h227l-8 -36h-227l-66 -283h284l25 109h40l-33 -144h-39q-90 -66 -90 -122q0 -22 13.5 -34t37.5 -12q25 0 49 8l-8 -31q-25 -11 -51 -11q-36 0 -56.5 18.5t-20.5 51.5q0 65 90 132h-377z" />
    <glyph glyph-name="eogonek" unicode="&#x119;" horiz-adv-x="462" 
d="M265 -202q-36 0 -56.5 18.5t-20.5 51.5q0 72 90 131q-26 -6 -56 -6q-76 0 -127.5 46.5t-51.5 126.5q0 104 68.5 180.5t163.5 76.5q67 0 106.5 -39.5t39.5 -108.5q0 -32 -14 -72h-323q-3 -18 -3 -37q0 -66 42 -103t104 -37q70 0 137 37l-9 -38q-131 -76 -131 -147
q0 -22 13.5 -34t36.5 -12q25 0 49 8l-7 -31q-28 -11 -51 -11zM272 390q-62 0 -112 -44t-69 -111h287q7 26 7 46q0 49 -29.5 79t-83.5 30z" />
    <glyph glyph-name="Ecaron" unicode="&#x11a;" horiz-adv-x="573" 
d="M395 716l-101 129l17 16l91 -87l143 88l15 -21zM4 0l9 35h86l136 588h-97l9 35h461l-34 -144h-39l25 109h-284l-62 -269h227l-8 -36h-227l-66 -283h284l25 109h40l-33 -144h-452z" />
    <glyph glyph-name="ecaron" unicode="&#x11b;" horiz-adv-x="462" 
d="M407 203h-323q-3 -18 -3 -37q0 -66 42 -103t104 -37q70 0 137 37l-9 -38q-60 -32 -133 -32q-76 0 -127.5 46.5t-51.5 126.5q0 104 68.5 180.5t163.5 76.5q67 0 106.5 -39.5t39.5 -108.5q0 -32 -14 -72zM272 390q-62 0 -112 -44t-69 -111h287q7 26 7 46q0 49 -29.5 79
t-83.5 30zM298 500l-101 129l17 16l91 -87l143 88l15 -21z" />
    <glyph glyph-name="Gbreve" unicode="&#x11e;" horiz-adv-x="702" 
d="M529 0l15 61q-95 -72 -211 -72q-117 0 -187.5 73.5t-70.5 192.5q0 103 48 197t137 155t196 61q58 0 107 -19t78 -47q36 -36 36 -78q0 -22 -12.5 -35.5t-28.5 -13.5t-26 9.5t-10 24.5q0 27 32 40q-4 14 -24 34q-58 49 -155 49q-75 0 -139.5 -34t-106.5 -88t-66 -120.5
t-24 -133.5q0 -101 58.5 -166t162.5 -65q117 0 216 79l40 163h-202l8 35h241l-73 -302h-39zM474 718q-49 0 -79 31t-39 81l28 10q19 -80 95 -80q77 0 125 79l25 -14q-24 -47 -66 -77t-89 -30z" />
    <glyph glyph-name="gbreve" unicode="&#x11f;" horiz-adv-x="511" 
d="M167 -200q-38 0 -75 13t-55 32q-18 18 -18 39q0 17 9 27.5t24 10.5q14 0 23.5 -10.5t9.5 -24.5q0 -15 -12 -26q29 -29 97 -29q73 0 117 44q36 36 55 120l24 100q-28 -45 -69.5 -71t-90.5 -26q-70 0 -114.5 47t-44.5 126q0 101 63.5 176t155.5 75q60 0 99 -33t48 -87
q23 103 27 114h37l-99 -426q-21 -93 -65 -139q-52 -52 -146 -52zM212 32q79 0 132 71.5t53 152.5q0 60 -35.5 97t-94.5 37q-78 0 -129.5 -66t-51.5 -151q0 -64 34 -102.5t92 -38.5zM327 502q-49 0 -79 31t-39 81l28 10q19 -80 95 -80q77 0 125 79l25 -14q-24 -47 -66 -77
t-89 -30z" />
    <glyph glyph-name="Gdotaccent" unicode="&#x120;" horiz-adv-x="702" 
d="M529 0l15 61q-95 -72 -211 -72q-117 0 -187.5 73.5t-70.5 192.5q0 103 48 197t137 155t196 61q58 0 107 -19t78 -47q36 -36 36 -78q0 -22 -12.5 -35.5t-28.5 -13.5t-26 9.5t-10 24.5q0 27 32 40q-4 14 -24 34q-58 49 -155 49q-75 0 -139.5 -34t-106.5 -88t-66 -120.5
t-24 -133.5q0 -101 58.5 -166t162.5 -65q117 0 216 79l40 163h-202l8 35h241l-73 -302h-39zM481 736q-16 0 -27.5 11.5t-11.5 28.5t11.5 29t27.5 12q17 0 28.5 -12t11.5 -29t-11.5 -28.5t-28.5 -11.5z" />
    <glyph glyph-name="gdotaccent" unicode="&#x121;" horiz-adv-x="511" 
d="M167 -200q-38 0 -75 13t-55 32q-18 18 -18 39q0 17 9 27.5t24 10.5q14 0 23.5 -10.5t9.5 -24.5q0 -15 -12 -26q29 -29 97 -29q73 0 117 44q36 36 55 120l24 100q-28 -45 -69.5 -71t-90.5 -26q-70 0 -114.5 47t-44.5 126q0 101 63.5 176t155.5 75q60 0 99 -33t48 -87
q23 103 27 114h37l-99 -426q-21 -93 -65 -139q-52 -52 -146 -52zM212 32q79 0 132 71.5t53 152.5q0 60 -35.5 97t-94.5 37q-78 0 -129.5 -66t-51.5 -151q0 -64 34 -102.5t92 -38.5zM334 520q-16 0 -27.5 11.5t-11.5 28.5t11.5 29t27.5 12q17 0 28.5 -12t11.5 -29
t-11.5 -28.5t-28.5 -11.5z" />
    <glyph glyph-name="Gcommaaccent" unicode="&#x122;" horiz-adv-x="702" 
d="M529 0l15 61q-95 -72 -211 -72q-117 0 -187.5 73.5t-70.5 192.5q0 103 48 197t137 155t196 61q58 0 107 -19t78 -47q36 -36 36 -78q0 -22 -12.5 -35.5t-28.5 -13.5t-26 9.5t-10 24.5q0 27 32 40q-4 14 -24 34q-58 49 -155 49q-75 0 -139.5 -34t-106.5 -88t-66 -120.5
t-24 -133.5q0 -101 58.5 -166t162.5 -65q117 0 216 79l40 163h-202l8 35h241l-73 -302h-39zM205 -244l-7 16q39 19 63 46t28 51q-15 2 -24 13t-9 24q0 15 10 25t25 10q17 0 28.5 -12.5t11.5 -32.5q0 -39 -34 -78.5t-92 -61.5z" />
    <glyph glyph-name="gcommaaccent" unicode="&#x123;" horiz-adv-x="512" 
d="M167 -200q-38 0 -75 13t-55 32q-18 18 -18 39q0 17 9 27.5t24 10.5q14 0 23.5 -10.5t9.5 -24.5q0 -15 -12 -26q29 -29 97 -29q73 0 117 44q36 36 55 120l24 100q-28 -45 -69.5 -71t-90.5 -26q-70 0 -114.5 47t-44.5 126q0 101 63.5 176t155.5 75q60 0 99 -33t48 -87
q23 103 27 114h37l-99 -426q-21 -93 -65 -139q-52 -52 -146 -52zM212 32q79 0 132 71.5t53 152.5q0 60 -35.5 97t-94.5 37q-78 0 -129.5 -66t-51.5 -151q0 -64 34 -102.5t92 -38.5zM420 714l7 -16q-39 -19 -63 -46t-28 -51q15 -2 24 -13t9 -24q0 -15 -10 -25t-25 -10
q-17 0 -28.5 12.5t-11.5 32.5q0 39 34 78.5t92 61.5z" />
    <glyph glyph-name="Hbar" unicode="&#x126;" horiz-adv-x="756" 
d="M761 510l-8 -35h-75l-101 -440h96l-9 -35h-224l9 35h87l66 286h-396l-66 -286h97l-8 -35h-225l9 35h86l102 440h-75l8 35h75l26 113h-97l9 35h225l-8 -35h-88l-26 -113h395l26 113h-98l9 35h225l-8 -35h-87l-26 -113h75zM215 357h396l26 118h-395z" />
    <glyph glyph-name="hbar" unicode="&#x127;" horiz-adv-x="512" 
d="M39 0l127 544h-77l8 33h76l29 122h-82l7 33h121l-37 -155h163l-8 -33h-163l-55 -235q65 113 158 113q51 0 83 -28.5t33 -74.5q0 -34 -13 -78l-37 -131q-10 -37 -10 -52q0 -16 9.5 -25.5t25.5 -9.5q18 0 32 15.5t29 52.5l24 -7q-17 -47 -37.5 -68.5t-51.5 -21.5
t-49.5 17.5t-18.5 46.5q0 19 10 57l37 132q11 37 11 70q0 34 -22 53.5t-58 19.5q-58 0 -109.5 -56t-72.5 -146l-44 -188h-38z" />
    <glyph glyph-name="Imacron" unicode="&#x12a;" horiz-adv-x="330" 
d="M1 0l9 35h95l135 588h-96l9 35h232l-8 -35h-96l-135 -588h96l-9 -35h-232zM151 750l8 37h280l-8 -37h-280z" />
    <glyph glyph-name="imacron" unicode="&#x12b;" horiz-adv-x="275" 
d="M136 -6q-31 0 -49.5 17.5t-18.5 47.5q0 19 10 56l77 268h-87l7 33h126l-86 -306q-10 -35 -10 -52q0 -16 9.5 -25.5t25.5 -9.5q18 0 32 15.5t29 52.5l24 -7q-17 -47 -38 -68.5t-51 -21.5zM69 534l8 37h280l-8 -37h-280z" />
    <glyph glyph-name="Ibreve" unicode="&#x12c;" horiz-adv-x="330" 
d="M1 0l9 35h95l135 588h-96l9 35h232l-8 -35h-96l-135 -588h96l-9 -35h-232zM289 718q-49 0 -79 31t-39 81l28 10q19 -80 95 -80q77 0 125 79l25 -14q-24 -47 -66 -77t-89 -30z" />
    <glyph glyph-name="ibreve" unicode="&#x12d;" horiz-adv-x="275" 
d="M136 -6q-31 0 -49.5 17.5t-18.5 47.5q0 19 10 56l77 268h-87l7 33h126l-86 -306q-10 -35 -10 -52q0 -16 9.5 -25.5t25.5 -9.5q18 0 32 15.5t29 52.5l24 -7q-17 -47 -38 -68.5t-51 -21.5zM207 502q-49 0 -79 31t-39 81l28 10q19 -80 95 -80q77 0 125 79l25 -14
q-24 -47 -66 -77t-89 -30z" />
    <glyph glyph-name="Iogonek" unicode="&#x12e;" horiz-adv-x="330" 
d="M1 0l9 35h95l135 588h-96l9 35h232l-8 -35h-96l-135 -588h96l-9 -35h-96q-90 -66 -90 -122q0 -22 13.5 -34t37.5 -12q25 0 49 8l-8 -31q-25 -11 -51 -11q-36 0 -56.5 18.5t-20.5 51.5q0 65 90 132h-100z" />
    <glyph glyph-name="iogonek" unicode="&#x12f;" horiz-adv-x="275" 
d="M201 91l24 -7q-18 -48 -43 -71q-9 -9 -31.5 -28.5t-36 -32.5t-25 -33.5t-11.5 -40.5q0 -22 13.5 -34t37.5 -12q26 0 48 8l-7 -31q-28 -11 -51 -11q-36 0 -56.5 18.5t-20.5 51.5q0 65 87 126q-28 2 -44.5 19t-16.5 46q0 19 10 56l77 268h-87l7 33h126l-86 -306
q-10 -35 -10 -52q0 -35 34 -35q35 0 62 68zM197 519q-13 0 -23 10t-10 24t10 24t23 10t23 -10t10 -24t-10 -24t-23 -10z" />
    <glyph glyph-name="Idotaccent" unicode="&#x130;" horiz-adv-x="330" 
d="M1 0l9 35h95l135 588h-96l9 35h232l-8 -35h-96l-135 -588h96l-9 -35h-232zM297 736q-16 0 -27.5 11.5t-11.5 28.5t11.5 29t27.5 12q17 0 28.5 -12t11.5 -29t-11.5 -28.5t-28.5 -11.5z" />
    <glyph glyph-name="dotlessi" unicode="&#x131;" horiz-adv-x="275" 
d="M136 -6q-31 0 -49.5 17.5t-18.5 47.5q0 19 10 56l77 268h-87l7 33h126l-86 -306q-10 -35 -10 -52q0 -16 9.5 -25.5t25.5 -9.5q18 0 32 15.5t29 52.5l24 -7q-17 -47 -38 -68.5t-51 -21.5z" />
    <glyph glyph-name="Kcommaaccent" unicode="&#x136;" horiz-adv-x="639" 
d="M630 623l-292 -249l164 -339h90l-8 -35h-110l-168 348l-117 -101l-49 -212h97l-8 -35h-225l9 35h86l136 588h-97l9 35h225l-8 -35h-88l-76 -327l380 327h-99l8 35h225l-8 -35h-76zM182 -244l-7 16q39 19 63 46t28 51q-15 2 -24 13t-9 24q0 15 10 25t25 10
q17 0 28.5 -12.5t11.5 -32.5q0 -39 -34 -78.5t-92 -61.5z" />
    <glyph glyph-name="kcommaaccent" unicode="&#x137;" horiz-adv-x="449" 
d="M77 0h-38l163 699h-82l7 33h120l-124 -533q96 42 161.5 85.5t78.5 69.5q-21 10 -21 33q0 16 10 26t25 10q14 0 24 -11t10 -29q0 -68 -185 -166l49 -121q19 -46 31 -59q11 -13 28 -13q32 0 53 80l25 -8q-13 -54 -33 -78t-49 -24q-30 0 -51 22q-18 20 -36 64l-50 122
q-22 -11 -77 -36zM65 -244l-7 16q39 19 63 46t28 51q-15 2 -24 13t-9 24q0 15 10 25t25 10q17 0 28.5 -12.5t11.5 -32.5q0 -39 -34 -78.5t-92 -61.5z" />
    <glyph glyph-name="Lacute" unicode="&#x139;" horiz-adv-x="531" 
d="M263 724l-8 14l144 106q19 14 33 14q10 0 18 -8t8 -19q0 -21 -30 -33zM4 0l9 35h86l136 588h-97l9 35h227l-8 -35h-90l-136 -588h260l26 115h40l-35 -150h-427z" />
    <glyph glyph-name="lacute" unicode="&#x13a;" horiz-adv-x="253" 
d="M212 776l-8 14l144 106q19 14 33 14q10 0 18 -8t8 -19q0 -21 -30 -33zM125 -6q-29 0 -48 18t-19 47q0 15 9 56l136 584h-81l7 33h119l-144 -620q-9 -39 -9 -53q0 -16 9.5 -26t24.5 -10q35 0 62 68l23 -7q-30 -90 -89 -90z" />
    <glyph glyph-name="Lcommaaccent" unicode="&#x13b;" horiz-adv-x="531" 
d="M122 -244l-7 16q39 19 63 46t28 51q-15 2 -24 13t-9 24q0 15 10 25t25 10q17 0 28.5 -12.5t11.5 -32.5q0 -39 -34 -78.5t-92 -61.5zM4 0l9 35h86l136 588h-97l9 35h227l-8 -35h-90l-136 -588h260l26 115h40l-35 -150h-427z" />
    <glyph glyph-name="lcommaaccent" unicode="&#x13c;" horiz-adv-x="253" 
d="M10 -244l-7 16q39 19 63 46t28 51q-15 2 -24 13t-9 24q0 15 10 25t25 10q17 0 28.5 -12.5t11.5 -32.5q0 -39 -34 -78.5t-92 -61.5zM125 -6q-29 0 -48 18t-19 47q0 15 9 56l136 584h-81l7 33h119l-144 -620q-9 -39 -9 -53q0 -16 9.5 -26t24.5 -10q35 0 62 68l23 -7
q-30 -90 -89 -90z" />
    <glyph glyph-name="Lcaron" unicode="&#x13d;" horiz-adv-x="531" 
d="M400 467l-11 12q42 50 51 87q4 13 5.5 36t2.5 27q3 29 29 29q25 0 25 -26q0 -32 -27 -78q-25 -43 -75 -87zM4 0l9 35h86l136 588h-97l9 35h227l-8 -35h-90l-136 -588h260l26 115h40l-35 -150h-427z" />
    <glyph glyph-name="lcaron" unicode="&#x13e;" horiz-adv-x="253" 
d="M255 540l-11 12q42 50 51 87q4 13 5.5 36t2.5 27q3 29 29 29q25 0 25 -26q0 -32 -27 -78q-25 -43 -75 -87zM125 -6q-29 0 -48 18t-19 47q0 15 9 56l136 584h-81l7 33h119l-144 -620q-9 -39 -9 -53q0 -16 9.5 -26t24.5 -10q35 0 62 68l23 -7q-30 -90 -89 -90z" />
    <glyph glyph-name="Ldot" unicode="&#x13f;" horiz-adv-x="531" 
d="M4 0l9 35h86l136 588h-97l9 35h227l-8 -35h-90l-136 -588h260l26 115h40l-35 -150h-427zM461 309q-16 0 -27.5 11.5t-11.5 28.5t11.5 29t27.5 12q17 0 28.5 -12t11.5 -29t-11.5 -28.5t-28.5 -11.5z" />
    <glyph glyph-name="ldot" unicode="&#x140;" horiz-adv-x="289" 
d="M125 -6q-29 0 -48 18t-19 47q0 15 9 56l136 584h-81l7 33h119l-144 -620q-9 -39 -9 -53q0 -16 9.5 -26t24.5 -10q35 0 62 68l23 -7q-30 -90 -89 -90zM284 305q-16 0 -27.5 11.5t-11.5 28.5t11.5 29t27.5 12q17 0 28.5 -12t11.5 -29t-11.5 -28.5t-28.5 -11.5z" />
    <glyph glyph-name="Lslash" unicode="&#x141;" horiz-adv-x="534" 
d="M4 0l9 35h86l60 259l-104 -36l-12 32l125 43l67 290h-97l9 35h227l-8 -35h-90l-64 -275l138 48l11 -32l-158 -55l-63 -274h260l26 115h40l-35 -150h-427z" />
    <glyph glyph-name="lslash" unicode="&#x142;" horiz-adv-x="277" 
d="M134 -6q-29 0 -48 18t-19 47q0 15 9 56l63 270l-108 -45l-12 29l128 53l65 277h-81l7 33h119l-68 -292l120 51l13 -29l-142 -60l-67 -290q-9 -39 -9 -53q0 -16 9.5 -26t24.5 -10q35 0 62 68l23 -7q-30 -90 -89 -90z" />
    <glyph glyph-name="Nacute" unicode="&#x143;" horiz-adv-x="744" 
d="M449 717l-8 14l144 106q19 14 33 14q10 0 18 -8t8 -19q0 -21 -30 -33zM550 -3l-284 593l-127 -555h97l-8 -35h-224l9 35h86l136 588h-96l8 35h128l278 -579l124 544h-98l8 35h223l-9 -35h-85l-144 -626h-22z" />
    <glyph glyph-name="nacute" unicode="&#x144;" horiz-adv-x="521" 
d="M286 501l-8 14l144 106q19 14 33 14q10 0 18 -8t8 -19q0 -21 -30 -33zM401 -6q-31 0 -49 17.5t-18 46.5q0 20 10 57l40 132q12 39 12 71q0 33 -21 52.5t-58 19.5q-56 0 -107.5 -55t-75.5 -145l-47 -190h-37l96 383h-82l7 33h119l-30 -115q69 121 163 121q50 0 80.5 -28
t30.5 -75q0 -31 -14 -78l-39 -130q-10 -37 -10 -53t9.5 -25.5t24.5 -9.5q35 0 62 68l24 -7q-17 -47 -38 -68.5t-52 -21.5z" />
    <glyph glyph-name="Ncommaaccent" unicode="&#x145;" horiz-adv-x="744" 
d="M229 -244l-7 16q39 19 63 46t28 51q-15 2 -24 13t-9 24q0 15 10 25t25 10q17 0 28.5 -12.5t11.5 -32.5q0 -39 -34 -78.5t-92 -61.5zM550 -3l-284 593l-127 -555h97l-8 -35h-224l9 35h86l136 588h-96l8 35h128l278 -579l124 544h-98l8 35h223l-9 -35h-85l-144 -626h-22z
" />
    <glyph glyph-name="ncommaaccent" unicode="&#x146;" horiz-adv-x="521" 
d="M110 -244l-7 16q39 19 63 46t28 51q-15 2 -24 13t-9 24q0 15 10 25t25 10q17 0 28.5 -12.5t11.5 -32.5q0 -39 -34 -78.5t-92 -61.5zM401 -6q-31 0 -49 17.5t-18 46.5q0 20 10 57l40 132q12 39 12 71q0 33 -21 52.5t-58 19.5q-56 0 -107.5 -55t-75.5 -145l-47 -190h-37
l96 383h-82l7 33h119l-30 -115q69 121 163 121q50 0 80.5 -28t30.5 -75q0 -31 -14 -78l-39 -130q-10 -37 -10 -53t9.5 -25.5t24.5 -9.5q35 0 62 68l24 -7q-17 -47 -38 -68.5t-52 -21.5z" />
    <glyph glyph-name="Ncaron" unicode="&#x147;" horiz-adv-x="744" 
d="M489 716l-101 129l17 16l91 -87l143 88l15 -21zM550 -3l-284 593l-127 -555h97l-8 -35h-224l9 35h86l136 588h-96l8 35h128l278 -579l124 544h-98l8 35h223l-9 -35h-85l-144 -626h-22z" />
    <glyph glyph-name="ncaron" unicode="&#x148;" horiz-adv-x="521" 
d="M325 500l-101 129l17 16l91 -87l143 88l15 -21zM401 -6q-31 0 -49 17.5t-18 46.5q0 20 10 57l40 132q12 39 12 71q0 33 -21 52.5t-58 19.5q-56 0 -107.5 -55t-75.5 -145l-47 -190h-37l96 383h-82l7 33h119l-30 -115q69 121 163 121q50 0 80.5 -28t30.5 -75q0 -31 -14 -78
l-39 -130q-10 -37 -10 -53t9.5 -25.5t24.5 -9.5q35 0 62 68l24 -7q-17 -47 -38 -68.5t-52 -21.5z" />
    <glyph glyph-name="Omacron" unicode="&#x14c;" horiz-adv-x="726" 
d="M347 750l8 37h280l-8 -37h-280zM344 -10q-124 0 -196 78.5t-72 197.5q0 98 45.5 190t130 152t186.5 60q124 0 196 -78.5t72 -197.5q0 -98 -45.5 -190t-130.5 -152t-186 -60zM347 26q132 0 224.5 111.5t92.5 253.5q0 103 -59.5 172t-170.5 69q-87 0 -160.5 -53
t-115 -136.5t-41.5 -175.5q0 -103 60 -172t170 -69z" />
    <glyph glyph-name="omacron" unicode="&#x14d;" horiz-adv-x="494" 
d="M182 534l8 37h280l-8 -37h-280zM220 -7q-78 0 -126.5 50t-48.5 130q0 99 66 174.5t162 75.5q78 0 126.5 -50t48.5 -130q0 -99 -66 -174.5t-162 -75.5zM222 26q79 0 133.5 65t54.5 152q0 67 -39 107t-100 40q-78 0 -133 -65.5t-55 -151.5q0 -67 39 -107t100 -40z" />
    <glyph glyph-name="Obreve" unicode="&#x14e;" horiz-adv-x="726" 
d="M344 -10q-124 0 -196 78.5t-72 197.5q0 98 45.5 190t130 152t186.5 60q124 0 196 -78.5t72 -197.5q0 -98 -45.5 -190t-130.5 -152t-186 -60zM347 26q132 0 224.5 111.5t92.5 253.5q0 103 -59.5 172t-170.5 69q-87 0 -160.5 -53t-115 -136.5t-41.5 -175.5q0 -103 60 -172
t170 -69zM486 718q-49 0 -79 31t-39 81l28 10q19 -80 95 -80q77 0 125 79l25 -14q-24 -47 -66 -77t-89 -30z" />
    <glyph glyph-name="obreve" unicode="&#x14f;" horiz-adv-x="494" 
d="M220 -7q-78 0 -126.5 50t-48.5 130q0 99 66 174.5t162 75.5q78 0 126.5 -50t48.5 -130q0 -99 -66 -174.5t-162 -75.5zM222 26q79 0 133.5 65t54.5 152q0 67 -39 107t-100 40q-78 0 -133 -65.5t-55 -151.5q0 -67 39 -107t100 -40zM320 502q-49 0 -79 31t-39 81l28 10
q19 -80 95 -80q77 0 125 79l25 -14q-24 -47 -66 -77t-89 -30z" />
    <glyph glyph-name="Ohungarumlaut" unicode="&#x150;" horiz-adv-x="726" 
d="M371 717l-9 15l122 100q18 15 33 15q10 0 17.5 -7t7.5 -20q0 -16 -30 -31zM539 721l-8 15l129 94q16 12 31 12q11 0 18 -7.5t7 -18.5q0 -19 -31 -31zM344 -10q-124 0 -196 78.5t-72 197.5q0 98 45.5 190t130 152t186.5 60q124 0 196 -78.5t72 -197.5q0 -98 -45.5 -190
t-130.5 -152t-186 -60zM347 26q132 0 224.5 111.5t92.5 253.5q0 103 -59.5 172t-170.5 69q-87 0 -160.5 -53t-115 -136.5t-41.5 -175.5q0 -103 60 -172t170 -69z" />
    <glyph glyph-name="ohungarumlaut" unicode="&#x151;" horiz-adv-x="494" 
d="M204 501l-9 15l122 100q18 15 33 15q10 0 17.5 -7t7.5 -20q0 -16 -30 -31zM372 505l-8 15l129 94q16 12 31 12q11 0 18 -7.5t7 -18.5q0 -19 -31 -31zM220 -7q-78 0 -126.5 50t-48.5 130q0 99 66 174.5t162 75.5q78 0 126.5 -50t48.5 -130q0 -99 -66 -174.5t-162 -75.5z
M222 26q79 0 133.5 65t54.5 152q0 67 -39 107t-100 40q-78 0 -133 -65.5t-55 -151.5q0 -67 39 -107t100 -40z" />
    <glyph glyph-name="OE" unicode="&#x152;" horiz-adv-x="928" 
d="M404 0q-175 0 -262 87q-69 69 -69 179q0 163 106 269q121 123 346 123h438l-34 -144h-39l25 109h-284l-62 -269h228l-8 -36h-228l-65 -283h283l26 109h39l-33 -144h-407zM408 35h46l136 588h-72q-196 0 -305 -109q-97 -97 -97 -246q0 -96 58 -156q77 -77 234 -77z" />
    <glyph glyph-name="oe" unicode="&#x153;" horiz-adv-x="818" 
d="M720 63l-9 -38q-60 -32 -133 -32q-63 0 -108.5 34.5t-57.5 92.5q-29 -57 -79 -92t-113 -35q-78 0 -126.5 50t-48.5 130q0 99 66 174.5t162 75.5q64 0 107 -35t56 -96q29 59 79.5 95t115.5 36q67 0 106 -39.5t39 -108.5q0 -34 -13 -72h-323q-3 -18 -3 -37q0 -66 42 -103
t104 -37q70 0 137 37zM222 26q79 0 133.5 65t54.5 152q0 67 -39 107t-100 40q-78 0 -133 -65.5t-55 -151.5q0 -67 39 -107t100 -40zM628 390q-62 0 -112 -44t-69 -111h287q7 26 7 46q0 49 -29.5 79t-83.5 30z" />
    <glyph glyph-name="Racute" unicode="&#x154;" horiz-adv-x="590" 
d="M4 0l9 35h86l136 588h-97l9 35h194q126 0 187 -59q42 -42 42 -111q0 -76 -55 -130t-151 -69l118 -254h77l-8 -35h-98l-130 284h-32q-68 0 -93 2l-58 -251h97l-8 -35h-225zM302 319q105 0 166 46.5t61 121.5q0 55 -33 88q-48 48 -158 48h-62l-70 -302q48 -2 96 -2z
M357 717l-8 14l144 106q19 14 33 14q10 0 18 -8t8 -19q0 -21 -30 -33z" />
    <glyph glyph-name="racute" unicode="&#x155;" horiz-adv-x="334" 
d="M51 0l95 383h-82l8 33h118l-31 -125q37 64 73.5 97.5t65.5 33.5q20 0 31.5 -10.5t11.5 -26.5q0 -15 -10.5 -25.5t-24.5 -10.5t-24 9t-12 23q-33 -12 -76.5 -71t-60.5 -132l-45 -178h-37zM218 501l-8 14l144 106q19 14 33 14q10 0 18 -8t8 -19q0 -21 -30 -33zM290 381h-1
h1z" />
    <glyph glyph-name="Rcommaaccent" unicode="&#x156;" horiz-adv-x="590" 
d="M4 0l9 35h86l136 588h-97l9 35h194q126 0 187 -59q42 -42 42 -111q0 -76 -55 -130t-151 -69l118 -254h77l-8 -35h-98l-130 284h-32q-68 0 -93 2l-58 -251h97l-8 -35h-225zM302 319q105 0 166 46.5t61 121.5q0 55 -33 88q-48 48 -158 48h-62l-70 -302q48 -2 96 -2z
M159 -244l-7 16q39 19 63 46t28 51q-15 2 -24 13t-9 24q0 15 10 25t25 10q17 0 28.5 -12.5t11.5 -32.5q0 -39 -34 -78.5t-92 -61.5z" />
    <glyph glyph-name="rcommaaccent" unicode="&#x157;" horiz-adv-x="333" 
d="M51 0l95 383h-82l8 33h118l-31 -125q37 64 73.5 97.5t65.5 33.5q20 0 31.5 -10.5t11.5 -26.5q0 -15 -10.5 -25.5t-24.5 -10.5t-24 9t-12 23q-33 -12 -76.5 -71t-60.5 -132l-45 -178h-37zM-32 -244l-7 16q39 19 63 46t28 51q-15 2 -24 13t-9 24q0 15 10 25t25 10
q17 0 28.5 -12.5t11.5 -32.5q0 -39 -34 -78.5t-92 -61.5zM290 381h-1h1z" />
    <glyph glyph-name="Rcaron" unicode="&#x158;" horiz-adv-x="590" 
d="M4 0l9 35h86l136 588h-97l9 35h194q126 0 187 -59q42 -42 42 -111q0 -76 -55 -130t-151 -69l118 -254h77l-8 -35h-98l-130 284h-32q-68 0 -93 2l-58 -251h97l-8 -35h-225zM302 319q105 0 166 46.5t61 121.5q0 55 -33 88q-48 48 -158 48h-62l-70 -302q48 -2 96 -2z
M397 716l-101 129l17 16l91 -87l143 88l15 -21z" />
    <glyph glyph-name="rcaron" unicode="&#x159;" horiz-adv-x="334" 
d="M51 0l95 383h-82l8 33h118l-31 -125q37 64 73.5 97.5t65.5 33.5q20 0 31.5 -10.5t11.5 -26.5q0 -15 -10.5 -25.5t-24.5 -10.5t-24 9t-12 23q-33 -12 -76.5 -71t-60.5 -132l-45 -178h-37zM257 500l-101 129l17 16l91 -87l143 88l15 -21zM290 381h-1h1z" />
    <glyph glyph-name="Sacute" unicode="&#x15a;" horiz-adv-x="523" 
d="M345 717l-8 14l144 106q19 14 33 14q10 0 18 -8t8 -19q0 -21 -30 -33zM251 -10q-89 0 -151.5 44.5t-62.5 91.5q0 20 11 33t29 13q15 0 25 -9.5t10 -22.5q0 -27 -26 -40q16 -30 61 -52.5t107 -22.5q68 0 115 38.5t47 97.5q0 47 -30 80t-95 76q-73 47 -108.5 87t-35.5 98
q0 71 56.5 118.5t138.5 47.5q74 0 129 -37.5t55 -84.5q0 -21 -11 -33t-27 -12q-15 0 -25 10t-10 24q0 24 25 36q-14 26 -51 44t-88 18q-65 0 -108 -36t-43 -92q0 -47 29.5 -79.5t98.5 -76.5q71 -46 105.5 -85.5t34.5 -99.5q0 -76 -58 -125t-147 -49z" />
    <glyph glyph-name="sacute" unicode="&#x15b;" horiz-adv-x="397" 
d="M234 501l-8 14l144 106q19 14 33 14q10 0 18 -8t8 -19q0 -21 -30 -33zM186 -7q-41 0 -78 14.5t-59 37.5q-22 24 -22 49q0 16 9 27t24 11q13 0 20.5 -8.5t7.5 -20.5q0 -18 -16 -31q4 -8 16 -18q38 -29 100 -29q45 0 73.5 22t28.5 57q0 31 -22.5 50.5t-70.5 43.5
q-56 27 -83.5 51t-27.5 62q0 49 39 80.5t98 31.5q79 0 123 -44q20 -20 20 -46q0 -16 -9 -26t-21 -10q-13 0 -21.5 8t-8.5 21q0 16 13 31q-5 7 -16 14q-33 20 -82 20q-43 0 -70.5 -21.5t-27.5 -53.5q0 -27 21.5 -44.5t71.5 -42.5q54 -26 82.5 -52.5t28.5 -67.5
q0 -54 -40.5 -85t-100.5 -31z" />
    <glyph glyph-name="Scedilla" unicode="&#x15e;" horiz-adv-x="523" 
d="M251 -10h-6l-20 -50q38 -4 57 -22t19 -43q0 -33 -26 -54t-66 -21q-59 0 -108 37l15 22q43 -28 92 -28q26 0 40.5 12t14.5 30q0 19 -19 30.5t-53 7.5l-9 9l36 72q-77 8 -129 49.5t-52 84.5q0 20 11 33t29 13q15 0 25 -9.5t10 -22.5q0 -27 -26 -40q16 -30 61 -52.5
t107 -22.5q68 0 115 38.5t47 97.5q0 47 -30 80t-95 76q-73 47 -108.5 87t-35.5 98q0 71 56.5 118.5t138.5 47.5q74 0 129 -37.5t55 -84.5q0 -21 -11 -33t-27 -12q-15 0 -25 10t-10 24q0 24 25 36q-14 26 -51 44t-88 18q-65 0 -108 -36t-43 -92q0 -47 29.5 -79.5t98.5 -76.5
q71 -46 105.5 -85.5t34.5 -99.5q0 -76 -58 -125t-147 -49z" />
    <glyph glyph-name="scedilla" unicode="&#x15f;" horiz-adv-x="397" 
d="M146 -200q-57 0 -108 37l16 22q43 -28 92 -28q26 0 40 12t14 30q0 19 -18.5 30.5t-52.5 7.5l-10 9l38 75q-69 9 -108 50q-22 24 -22 49q0 16 9 27t24 11q13 0 20.5 -8.5t7.5 -20.5q0 -18 -16 -31q4 -8 16 -18q38 -29 100 -29q45 0 73.5 22t28.5 57q0 31 -22.5 50.5
t-70.5 43.5q-56 27 -83.5 51t-27.5 62q0 49 39 80.5t98 31.5q79 0 123 -44q20 -20 20 -46q0 -16 -9 -26t-21 -10q-13 0 -21.5 8t-8.5 21q0 16 13 31q-5 7 -16 14q-33 20 -82 20q-43 0 -70.5 -21.5t-27.5 -53.5q0 -27 21.5 -44.5t71.5 -42.5q54 -26 82.5 -52.5t28.5 -67.5
q0 -54 -40.5 -85t-100.5 -31h-3l-20 -53q38 -4 56.5 -22t18.5 -43q0 -33 -25.5 -54t-66.5 -21z" />
    <glyph glyph-name="Scaron" unicode="&#x160;" horiz-adv-x="523" 
d="M385 716l-101 129l17 16l91 -87l143 88l15 -21zM251 -10q-89 0 -151.5 44.5t-62.5 91.5q0 20 11 33t29 13q15 0 25 -9.5t10 -22.5q0 -27 -26 -40q16 -30 61 -52.5t107 -22.5q68 0 115 38.5t47 97.5q0 47 -30 80t-95 76q-73 47 -108.5 87t-35.5 98q0 71 56.5 118.5
t138.5 47.5q74 0 129 -37.5t55 -84.5q0 -21 -11 -33t-27 -12q-15 0 -25 10t-10 24q0 24 25 36q-14 26 -51 44t-88 18q-65 0 -108 -36t-43 -92q0 -47 29.5 -79.5t98.5 -76.5q71 -46 105.5 -85.5t34.5 -99.5q0 -76 -58 -125t-147 -49z" />
    <glyph glyph-name="scaron" unicode="&#x161;" horiz-adv-x="397" 
d="M274 500l-101 129l17 16l91 -87l143 88l15 -21zM186 -7q-41 0 -78 14.5t-59 37.5q-22 24 -22 49q0 16 9 27t24 11q13 0 20.5 -8.5t7.5 -20.5q0 -18 -16 -31q4 -8 16 -18q38 -29 100 -29q45 0 73.5 22t28.5 57q0 31 -22.5 50.5t-70.5 43.5q-56 27 -83.5 51t-27.5 62
q0 49 39 80.5t98 31.5q79 0 123 -44q20 -20 20 -46q0 -16 -9 -26t-21 -10q-13 0 -21.5 8t-8.5 21q0 16 13 31q-5 7 -16 14q-33 20 -82 20q-43 0 -70.5 -21.5t-27.5 -53.5q0 -27 21.5 -44.5t71.5 -42.5q54 -26 82.5 -52.5t28.5 -67.5q0 -54 -40.5 -85t-100.5 -31z" />
    <glyph glyph-name="Tcommaaccent" unicode="&#x162;" horiz-adv-x="614" 
d="M157 -244l-7 16q39 19 63 46t28 51q-15 2 -24 13t-9 24q0 15 10 25t25 10q17 0 28.5 -12.5t11.5 -32.5q0 -39 -34 -78.5t-92 -61.5zM147 0l9 35h91l135 588h-201l-27 -115h-39l35 150h522l-36 -150h-39l27 115h-201l-135 -588h101l-8 -35h-234z" />
    <glyph glyph-name="tcommaaccent" unicode="&#x163;" horiz-adv-x="309" 
d="M305 383h-131l-68 -276q-6 -24 -6 -42q0 -17 11 -28t30 -11q30 0 93 44l15 -23q-69 -54 -114 -54q-33 0 -53.5 18.5t-20.5 49.5q0 18 7 48l68 274h-75l8 33h75l27 105l40 11l-29 -116h131zM26 -244l-7 16q39 19 63 46t28 51q-15 2 -24 13t-9 24q0 15 10 25t25 10
q17 0 28.5 -12.5t11.5 -32.5q0 -39 -34 -78.5t-92 -61.5z" />
    <glyph glyph-name="Tcaron" unicode="&#x164;" horiz-adv-x="614" 
d="M422 716l-101 129l17 16l91 -87l143 88l15 -21zM147 0l9 35h91l135 588h-201l-27 -115h-39l35 150h522l-36 -150h-39l27 115h-201l-135 -588h101l-8 -35h-234z" />
    <glyph glyph-name="tcaron" unicode="&#x165;" horiz-adv-x="309" 
d="M305 383h-131l-68 -276q-6 -24 -6 -42q0 -17 11 -28t30 -11q30 0 93 44l15 -23q-69 -54 -114 -54q-33 0 -53.5 18.5t-20.5 49.5q0 18 7 48l68 274h-75l8 33h75l27 105l40 11l-29 -116h131zM250 471l-11 12q42 50 51 87q4 13 5.5 36t2.5 27q3 29 29 29q25 0 25 -26
q0 -32 -27 -78q-25 -43 -75 -87z" />
    <glyph glyph-name="Umacron" unicode="&#x16a;" horiz-adv-x="701" 
d="M327 -10q-93 0 -147 48t-54 133q0 36 12 87l84 365h-96l8 35h225l-8 -35h-89l-84 -368q-10 -41 -10 -82q0 -70 42 -109t121 -39q164 0 208 202l91 396h-98l8 35h225l-8 -35h-87l-92 -401q-53 -232 -251 -232zM329 750l8 37h280l-8 -37h-280z" />
    <glyph glyph-name="umacron" unicode="&#x16b;" horiz-adv-x="522" 
d="M65 416h119l-64 -253q-10 -40 -10 -69q0 -30 20 -49t55 -19q56 0 108 55.5t74 144.5l47 190h38l-77 -308q-9 -33 -9 -50q0 -16 9.5 -25.5t24.5 -9.5q18 0 32 15.5t30 52.5l24 -7q-18 -47 -38.5 -68.5t-51.5 -21.5q-29 0 -46.5 17t-17.5 47q0 16 9 56q-68 -120 -161 -120
q-48 0 -78 27t-30 72q0 24 12 74l55 216h-82zM184 534l8 37h280l-8 -37h-280z" />
    <glyph glyph-name="Ubreve" unicode="&#x16c;" horiz-adv-x="701" 
d="M327 -10q-93 0 -147 48t-54 133q0 36 12 87l84 365h-96l8 35h225l-8 -35h-89l-84 -368q-10 -41 -10 -82q0 -70 42 -109t121 -39q164 0 208 202l91 396h-98l8 35h225l-8 -35h-87l-92 -401q-53 -232 -251 -232zM466 718q-49 0 -79 31t-39 81l28 10q19 -80 95 -80
q77 0 125 79l25 -14q-24 -47 -66 -77t-89 -30z" />
    <glyph glyph-name="ubreve" unicode="&#x16d;" horiz-adv-x="522" 
d="M65 416h119l-64 -253q-10 -40 -10 -69q0 -30 20 -49t55 -19q56 0 108 55.5t74 144.5l47 190h38l-77 -308q-9 -33 -9 -50q0 -16 9.5 -25.5t24.5 -9.5q18 0 32 15.5t30 52.5l24 -7q-18 -47 -38.5 -68.5t-51.5 -21.5q-29 0 -46.5 17t-17.5 47q0 16 9 56q-68 -120 -161 -120
q-48 0 -78 27t-30 72q0 24 12 74l55 216h-82zM322 502q-49 0 -79 31t-39 81l28 10q19 -80 95 -80q77 0 125 79l25 -14q-24 -47 -66 -77t-89 -30z" />
    <glyph glyph-name="Uring" unicode="&#x16e;" horiz-adv-x="701" 
d="M469 708q-35 0 -55.5 22.5t-20.5 55.5q0 44 28.5 76.5t70.5 32.5q35 0 56 -22.5t21 -55.5q0 -43 -29 -76t-71 -33zM472 737q28 0 46.5 23.5t18.5 55.5q0 22 -13 36t-34 14q-28 0 -47 -23.5t-19 -54.5q0 -22 13.5 -36.5t34.5 -14.5zM327 -10q-93 0 -147 48t-54 133
q0 36 12 87l84 365h-96l8 35h225l-8 -35h-89l-84 -368q-10 -41 -10 -82q0 -70 42 -109t121 -39q164 0 208 202l91 396h-98l8 35h225l-8 -35h-87l-92 -401q-53 -232 -251 -232z" />
    <glyph glyph-name="uring" unicode="&#x16f;" horiz-adv-x="522" 
d="M65 416h119l-64 -253q-10 -40 -10 -69q0 -30 20 -49t55 -19q56 0 108 55.5t74 144.5l47 190h38l-77 -308q-9 -33 -9 -50q0 -16 9.5 -25.5t24.5 -9.5q18 0 32 15.5t30 52.5l24 -7q-18 -47 -38.5 -68.5t-51.5 -21.5q-29 0 -46.5 17t-17.5 47q0 16 9 56q-68 -120 -161 -120
q-48 0 -78 27t-30 72q0 24 12 74l55 216h-82zM325 492q-35 0 -55.5 22.5t-20.5 55.5q0 44 28.5 76.5t70.5 32.5q35 0 56 -22.5t21 -55.5q0 -43 -29 -76t-71 -33zM328 521q28 0 46.5 23.5t18.5 55.5q0 22 -13 36t-34 14q-28 0 -47 -23.5t-19 -54.5q0 -22 13.5 -36.5
t34.5 -14.5z" />
    <glyph glyph-name="Uhungarumlaut" unicode="&#x170;" horiz-adv-x="701" 
d="M327 -10q-93 0 -147 48t-54 133q0 36 12 87l84 365h-96l8 35h225l-8 -35h-89l-84 -368q-10 -41 -10 -82q0 -70 42 -109t121 -39q164 0 208 202l91 396h-98l8 35h225l-8 -35h-87l-92 -401q-53 -232 -251 -232zM352 717l-9 15l122 100q18 15 33 15q10 0 17.5 -7t7.5 -20
q0 -16 -30 -31zM520 721l-8 15l129 94q16 12 31 12q11 0 18 -7.5t7 -18.5q0 -19 -31 -31z" />
    <glyph glyph-name="uhungarumlaut" unicode="&#x171;" horiz-adv-x="522" 
d="M65 416h119l-64 -253q-10 -40 -10 -69q0 -30 20 -49t55 -19q56 0 108 55.5t74 144.5l47 190h38l-77 -308q-9 -33 -9 -50q0 -16 9.5 -25.5t24.5 -9.5q18 0 32 15.5t30 52.5l24 -7q-18 -47 -38.5 -68.5t-51.5 -21.5q-29 0 -46.5 17t-17.5 47q0 16 9 56q-68 -120 -161 -120
q-48 0 -78 27t-30 72q0 24 12 74l55 216h-82zM206 501l-9 15l122 100q18 15 33 15q10 0 17.5 -7t7.5 -20q0 -16 -30 -31zM374 505l-8 15l129 94q16 12 31 12q11 0 18 -7.5t7 -18.5q0 -19 -31 -31z" />
    <glyph glyph-name="Uogonek" unicode="&#x172;" horiz-adv-x="701" 
d="M241 -132q0 64 75 122q-88 3 -139 50.5t-51 130.5q0 36 12 87l84 365h-96l8 35h225l-8 -35h-89l-84 -368q-10 -41 -10 -82q0 -70 42 -109t121 -39q164 0 208 202l91 396h-98l8 35h225l-8 -35h-87l-92 -401q-50 -217 -225 -231q-77 -60 -77 -113q0 -22 13.5 -34.5
t36.5 -12.5t49 10l-7 -32q-27 -11 -51 -11q-36 0 -56 19t-20 51z" />
    <glyph glyph-name="uogonek" unicode="&#x173;" horiz-adv-x="522" 
d="M462 91l24 -7q-19 -48 -44 -71q-6 -6 -40 -35.5t-49 -51.5t-15 -48q0 -22 13.5 -34t37.5 -12q25 0 49 8l-8 -31q-25 -11 -51 -11q-36 0 -56 19t-20 51q0 66 87 126q-26 2 -42 19t-16 45q0 16 9 56q-68 -120 -161 -120q-48 0 -78 27t-30 72q0 24 12 74l55 216h-82l8 33
h119l-64 -253q-10 -40 -10 -69q0 -30 20 -49t55 -19q56 0 108 55.5t74 144.5l47 190h38l-77 -308q-9 -33 -9 -50q0 -16 9 -25.5t24 -9.5q18 0 32.5 15.5t30.5 52.5z" />
    <glyph glyph-name="Wcircumflex" unicode="&#x174;" horiz-adv-x="937" 
d="M460 713l-15 20l165 126l101 -129l-18 -16l-91 86zM214 -13l-26 636h-76l8 35h201l-9 -35h-86l19 -562l278 506h20l54 -506l293 562h-86l8 35h200l-8 -35h-73l-337 -636h-24l-54 498l-277 -498h-25z" />
    <glyph glyph-name="wcircumflex" unicode="&#x175;" horiz-adv-x="642" 
d="M138 -17l-29 400h-79l8 33h103l24 -362l177 305h14l68 -317q132 194 141 307q-15 2 -26.5 12.5t-11.5 26.5q0 14 10 24.5t24 10.5q18 0 29.5 -14t11.5 -36q0 -129 -183 -390h-15l-66 313l-184 -313h-16zM264 497l-15 20l165 126l101 -129l-18 -16l-91 86z" />
    <glyph glyph-name="Ycircumflex" unicode="&#x176;" horiz-adv-x="625" 
d="M131 0l9 35h99l59 240l-123 348h-70l9 35h198l-8 -35h-86l108 -315l262 315h-83l8 35h198l-8 -35h-67l-300 -355l-55 -233h100l-8 -35h-242zM300 713l-15 20l165 126l101 -129l-18 -16l-91 86z" />
    <glyph glyph-name="ycircumflex" unicode="&#x177;" horiz-adv-x="467" 
d="M-23 -199q-21 0 -35.5 11.5t-14.5 29.5q0 14 9 23.5t23 9.5q16 0 25.5 -11t9.5 -29q59 5 189 163l-75 385h-80l8 33h106l69 -383q171 217 187 316q-15 3 -26 14t-11 27q0 13 10 23t24 10q18 0 29.5 -13t11.5 -36q0 -109 -215 -376q-89 -110 -145.5 -153.5t-98.5 -43.5z
M179 497l-15 20l165 126l101 -129l-18 -16l-91 86z" />
    <glyph glyph-name="Ydieresis" unicode="&#x178;" horiz-adv-x="625" 
d="M131 0l9 35h99l59 240l-123 348h-70l9 35h198l-8 -35h-86l108 -315l262 315h-83l8 35h198l-8 -35h-67l-300 -355l-55 -233h100l-8 -35h-242zM500 735q-15 0 -26 11.5t-11 26.5q0 17 10.5 28t26.5 11t26.5 -11t10.5 -28q0 -15 -10.5 -26.5t-26.5 -11.5zM364 735
q-15 0 -26 11.5t-11 26.5q0 17 10.5 28t26.5 11t26.5 -11t10.5 -28q0 -15 -10.5 -26.5t-26.5 -11.5z" />
    <glyph glyph-name="Zacute" unicode="&#x179;" horiz-adv-x="592" 
d="M370 717l-8 14l144 106q19 14 33 14q10 0 18 -8t8 -19q0 -21 -30 -33zM5 0v18l568 606h-373l-26 -111h-39l33 145h470v-18l-568 -606h392l26 111h39l-33 -145h-489z" />
    <glyph glyph-name="zacute" unicode="&#x17a;" horiz-adv-x="441" 
d="M245 501l-8 14l144 106q19 14 33 14q10 0 18 -8t8 -19q0 -21 -30 -33zM18 -7l-14 18l369 373h-242l-21 -84h-34l28 116h317l10 -17l-359 -362q26 10 67 10q27 0 74 -11t66 -11q30 0 47.5 20.5t34.5 71.5l24 -6q-17 -63 -40 -91t-68 -28q-23 0 -75 12.5t-80 12.5
q-60 0 -104 -24z" />
    <glyph glyph-name="Zdotaccent" unicode="&#x17b;" horiz-adv-x="592" 
d="M5 0v18l568 606h-373l-26 -111h-39l33 145h470v-18l-568 -606h392l26 111h39l-33 -145h-489zM424 736q-16 0 -27.5 11.5t-11.5 28.5t11.5 29t27.5 12q17 0 28.5 -12t11.5 -29t-11.5 -28.5t-28.5 -11.5z" />
    <glyph glyph-name="zdotaccent" unicode="&#x17c;" horiz-adv-x="441" 
d="M18 -7l-14 18l369 373h-242l-21 -84h-34l28 116h317l10 -17l-359 -362q26 10 67 10q27 0 74 -11t66 -11q30 0 47.5 20.5t34.5 71.5l24 -6q-17 -63 -40 -91t-68 -28q-23 0 -75 12.5t-80 12.5q-60 0 -104 -24zM299 520q-16 0 -27.5 11.5t-11.5 28.5t11.5 29t27.5 12
q17 0 28.5 -12t11.5 -29t-11.5 -28.5t-28.5 -11.5z" />
    <glyph glyph-name="Zcaron" unicode="&#x17d;" horiz-adv-x="592" 
d="M409 716l-101 129l17 16l91 -87l143 88l15 -21zM5 0v18l568 606h-373l-26 -111h-39l33 145h470v-18l-568 -606h392l26 111h39l-33 -145h-489z" />
    <glyph glyph-name="zcaron" unicode="&#x17e;" horiz-adv-x="441" 
d="M285 500l-101 129l17 16l91 -87l143 88l15 -21zM18 -7l-14 18l369 373h-242l-21 -84h-34l28 116h317l10 -17l-359 -362q26 10 67 10q27 0 74 -11t66 -11q30 0 47.5 20.5t34.5 71.5l24 -6q-17 -63 -40 -91t-68 -28q-23 0 -75 12.5t-80 12.5q-60 0 -104 -24z" />
    <glyph glyph-name="Aringacute" unicode="&#x1fa;" horiz-adv-x="697" 
d="M469 878l-8 14l144 106q19 14 33 14q10 0 18 -8t8 -19q0 -21 -30 -33zM-22 0l9 35h59l354 588h-86l9 35h81q-30 20 -30 60t29 71.5t71 31.5q35 0 55.5 -22.5t20.5 -55.5q0 -28 -14.5 -51t-36.5 -34h75l-8 -35h-83l83 -588h70l-8 -35h-195l8 35h84l-28 208h-283l-124 -208
h94l-9 -35h-197zM452 663q28 0 47 23.5t19 54.5q0 22 -13 36.5t-34 14.5q-28 0 -47 -23.5t-19 -55.5q0 -21 13 -35.5t34 -14.5zM236 279h256l-48 347z" />
    <glyph glyph-name="aringacute" unicode="&#x1fb;" horiz-adv-x="542" 
d="M196 -7q-66 0 -108 45t-42 123q0 105 63.5 183.5t155.5 78.5q56 0 94 -31.5t47 -86.5l28 113h37l-76 -310q-9 -40 -9 -50q0 -16 9.5 -25.5t24.5 -9.5q18 0 32 15.5t30 52.5l23 -7q-17 -47 -37.5 -68.5t-51.5 -21.5q-29 0 -47 17.5t-18 44.5q0 17 4 32q-65 -95 -159 -95z
M203 26q80 0 133.5 73.5t53.5 155.5q0 60 -33.5 97.5t-90.5 37.5q-77 0 -129 -69t-52 -158q0 -64 31.5 -100.5t86.5 -36.5zM327 492q-35 0 -55.5 22.5t-20.5 55.5q0 44 28.5 76.5t70.5 32.5q35 0 56 -22.5t21 -55.5q0 -43 -29 -76t-71 -33zM330 521q28 0 46.5 23.5
t18.5 55.5q0 22 -13 36t-34 14q-28 0 -47 -23.5t-19 -54.5q0 -22 13.5 -36.5t34.5 -14.5zM351 750l-8 14l144 106q19 14 33 14q10 0 18 -8t8 -19q0 -21 -30 -33z" />
    <glyph glyph-name="AEacute" unicode="&#x1fc;" horiz-adv-x="882" 
d="M594 717l-8 14l144 106q19 14 33 14q10 0 18 -8t8 -19q0 -21 -30 -33zM-45 0l8 35h76l454 588h-99l8 35h514l-34 -144h-39l25 109h-275l-61 -269h217l-7 -36h-219l-65 -283h275l25 109h39l-33 -144h-442l8 35h87l48 209h-221l-162 -209h95l-9 -35h-213zM270 279h203
l80 346h-15z" />
    <glyph glyph-name="aeacute" unicode="&#x1fd;" horiz-adv-x="764" 
d="M709 203h-323q-3 -18 -3 -37q0 -66 42 -103t104 -37q70 0 136 37l-9 -38q-58 -32 -133 -32q-67 0 -112 37.5t-56 99.5q-26 -62 -81.5 -99.5t-118.5 -37.5q-64 0 -95.5 31t-31.5 73q0 65 58 101t158 36h111q-1 68 -33.5 112t-98.5 44q-29 0 -51 -9q-11 -5 -16 -11
q10 -12 10 -24q0 -13 -9.5 -23.5t-22.5 -10.5q-14 0 -23 10t-9 25q0 37 46 60q32 16 72 16q133 0 158 -141q29 65 82 103t116 38q67 0 106.5 -39.5t39.5 -108.5q0 -30 -13 -72zM155 26q66 0 126.5 51t71.5 127h-100q-186 0 -186 -107q0 -31 23 -51t65 -20zM574 390
q-63 0 -113 -44t-69 -111h288q7 26 7 46q0 49 -29.5 79t-83.5 30zM402 501l-8 14l144 106q19 14 33 14q10 0 18 -8t8 -19q0 -21 -30 -33z" />
    <glyph glyph-name="Oslashacute" unicode="&#x1fe;" horiz-adv-x="726" 
d="M344 -10q-138 0 -213 98l-112 -96l-23 27l116 99q-36 64 -36 148q0 98 45.5 190t130 152t186.5 60q134 0 209 -94l110 95l24 -27l-114 -98q39 -67 39 -152q0 -98 -45.5 -190t-130.5 -152t-186 -60zM347 26q132 0 225 111.5t93 253.5q0 73 -30 128l-474 -406
q62 -87 186 -87zM117 267q0 -68 26 -123l474 404q-63 84 -183 84q-87 0 -161 -53t-115 -136.5t-41 -175.5zM436 717l-8 14l144 106q19 14 33 14q10 0 18 -8t8 -19q0 -21 -30 -33z" />
    <glyph glyph-name="oslashacute" unicode="&#x1ff;" horiz-adv-x="494" 
d="M223 -7q-82 0 -132 56l-65 -56l-21 25l67 57q-25 44 -25 99q0 99 65.5 174t162.5 75q83 0 134 -59l66 58l22 -25l-70 -59q24 -43 24 -96q0 -99 -65.5 -174t-162.5 -75zM85 173q0 -42 16 -76l282 244q-40 49 -109 49q-79 0 -134 -64.5t-55 -152.5zM224 26q79 0 134 64.5
t55 152.5q0 39 -14 72l-282 -243q38 -46 107 -46zM277 501l-8 14l144 106q19 14 33 14q10 0 18 -8t8 -19q0 -21 -30 -33z" />
    <glyph glyph-name="Scommaaccent" unicode="&#x218;" horiz-adv-x="523" 
d="M118 -244l-7 16q39 19 63 46t28 51q-15 2 -24 13t-9 24q0 15 10 25t25 10q17 0 28.5 -12.5t11.5 -32.5q0 -39 -34 -78.5t-92 -61.5zM251 -10q-89 0 -151.5 44.5t-62.5 91.5q0 20 11 33t29 13q15 0 25 -9.5t10 -22.5q0 -27 -26 -40q16 -30 61 -52.5t107 -22.5
q68 0 115 38.5t47 97.5q0 47 -30 80t-95 76q-73 47 -108.5 87t-35.5 98q0 71 56.5 118.5t138.5 47.5q74 0 129 -37.5t55 -84.5q0 -21 -11 -33t-27 -12q-15 0 -25 10t-10 24q0 24 25 36q-14 26 -51 44t-88 18q-65 0 -108 -36t-43 -92q0 -47 29.5 -79.5t98.5 -76.5
q71 -46 105.5 -85.5t34.5 -99.5q0 -76 -58 -125t-147 -49z" />
    <glyph glyph-name="scommaaccent" unicode="&#x219;" horiz-adv-x="397" 
d="M57 -244l-7 16q39 19 63 46t28 51q-15 2 -24 13t-9 24q0 15 10 25t25 10q17 0 28.5 -12.5t11.5 -32.5q0 -39 -34 -78.5t-92 -61.5zM186 -7q-41 0 -78 14.5t-59 37.5q-22 24 -22 49q0 16 9 27t24 11q13 0 20.5 -8.5t7.5 -20.5q0 -18 -16 -31q4 -8 16 -18q38 -29 100 -29
q45 0 73.5 22t28.5 57q0 31 -22.5 50.5t-70.5 43.5q-56 27 -83.5 51t-27.5 62q0 49 39 80.5t98 31.5q79 0 123 -44q20 -20 20 -46q0 -16 -9 -26t-21 -10q-13 0 -21.5 8t-8.5 21q0 16 13 31q-5 7 -16 14q-33 20 -82 20q-43 0 -70.5 -21.5t-27.5 -53.5q0 -27 21.5 -44.5
t71.5 -42.5q54 -26 82.5 -52.5t28.5 -67.5q0 -54 -40.5 -85t-100.5 -31z" />
    <glyph glyph-name="schwa" unicode="&#x259;" horiz-adv-x="461" 
d="M42 142q0 33 12 72h323q3 18 3 37q0 66 -42 103t-104 37q-69 0 -135 -37l8 38q60 32 132 32q76 0 127.5 -46.5t51.5 -126.5q0 -104 -68.5 -180.5t-163.5 -76.5q-66 0 -105 39.5t-39 108.5zM189 27q62 0 111.5 43.5t69.5 111.5h-286q-7 -26 -7 -46q0 -49 29 -79t83 -30z
" />
    <glyph glyph-name="circumflex" unicode="&#x2c6;" horiz-adv-x="503" 
d="M203 497l-15 20l165 126l101 -129l-18 -16l-91 86z" />
    <glyph glyph-name="caron" unicode="&#x2c7;" horiz-adv-x="503" 
d="M316 500l-101 129l17 16l91 -87l143 88l15 -21z" />
    <glyph glyph-name="breve" unicode="&#x2d8;" horiz-adv-x="503" 
d="M320 502q-49 0 -79 31t-39 81l28 10q19 -80 95 -80q77 0 125 79l25 -14q-24 -47 -66 -77t-89 -30z" />
    <glyph glyph-name="dotaccent" unicode="&#x2d9;" horiz-adv-x="503" 
d="M332 520q-16 0 -27.5 11.5t-11.5 28.5t11.5 29t27.5 12q17 0 28.5 -12t11.5 -29t-11.5 -28.5t-28.5 -11.5z" />
    <glyph glyph-name="ring" unicode="&#x2da;" horiz-adv-x="503" 
d="M328 492q-35 0 -55.5 22.5t-20.5 55.5q0 44 28.5 76.5t70.5 32.5q35 0 56 -22.5t21 -55.5q0 -43 -29 -76t-71 -33zM331 521q28 0 46.5 23.5t18.5 55.5q0 22 -13 36t-34 14q-28 0 -47 -23.5t-19 -54.5q0 -22 13.5 -36.5t34.5 -14.5z" />
    <glyph glyph-name="ogonek" unicode="&#x2db;" horiz-adv-x="504" 
d="M260 28l26 -4q-124 -82 -124 -146q0 -22 13.5 -34t37.5 -12q25 0 49 8l-8 -31q-25 -11 -51 -11q-36 0 -56.5 18.5t-20.5 51.5q0 81 134 160z" />
    <glyph glyph-name="tilde" unicode="&#x2dc;" horiz-adv-x="503" 
d="M397 501q-34 0 -76 38q-33 29 -55 29q-20 0 -34.5 -14.5t-26.5 -46.5l-26 9q10 40 35 66t55 26q34 0 77 -38q32 -29 54 -29q38 0 62 61l26 -8q-10 -40 -35.5 -66.5t-55.5 -26.5z" />
    <glyph glyph-name="hungarumlaut" unicode="&#x2dd;" horiz-adv-x="503" 
d="M155 501l-9 15l122 100q18 15 33 15q10 0 17.5 -7t7.5 -20q0 -16 -30 -31zM323 505l-8 15l129 94q16 12 31 12q11 0 18 -7.5t7 -18.5q0 -19 -31 -31z" />
    <glyph glyph-name="commaaccent" unicode="&#x326;" horiz-adv-x="204" 
d="M27 -244l-7 16q39 19 63 46t28 51q-15 2 -24 13t-9 24q0 15 10 25t25 10q17 0 28.5 -12.5t11.5 -32.5q0 -39 -34 -78.5t-92 -61.5z" />
    <glyph glyph-name="Wgrave" unicode="&#x1e80;" horiz-adv-x="937" 
d="M214 -13l-26 636h-76l8 35h201l-9 -35h-86l19 -562l278 506h20l54 -506l293 562h-86l8 35h200l-8 -35h-73l-337 -636h-24l-54 498l-277 -498h-25zM620 716l-116 75q-23 15 -23 34q0 11 8 19t19 8q17 0 34 -21l90 -102z" />
    <glyph glyph-name="wgrave" unicode="&#x1e81;" horiz-adv-x="642" 
d="M138 -17l-29 400h-79l8 33h103l24 -362l177 305h14l68 -317q132 194 141 307q-15 2 -26.5 12.5t-11.5 26.5q0 14 10 24.5t24 10.5q18 0 29.5 -14t11.5 -36q0 -129 -183 -390h-15l-66 313l-184 -313h-16zM425 500l-116 75q-23 15 -23 34q0 11 8 19t19 8q17 0 34 -21
l90 -102z" />
    <glyph glyph-name="Wacute" unicode="&#x1e82;" horiz-adv-x="937" 
d="M538 717l-8 14l144 106q19 14 33 14q10 0 18 -8t8 -19q0 -21 -30 -33zM214 -13l-26 636h-76l8 35h201l-9 -35h-86l19 -562l278 506h20l54 -506l293 562h-86l8 35h200l-8 -35h-73l-337 -636h-24l-54 498l-277 -498h-25z" />
    <glyph glyph-name="wacute" unicode="&#x1e83;" horiz-adv-x="642" 
d="M138 -17l-29 400h-79l8 33h103l24 -362l177 305h14l68 -317q132 194 141 307q-15 2 -26.5 12.5t-11.5 26.5q0 14 10 24.5t24 10.5q18 0 29.5 -14t11.5 -36q0 -129 -183 -390h-15l-66 313l-184 -313h-16zM343 501l-8 14l144 106q19 14 33 14q10 0 18 -8t8 -19
q0 -21 -30 -33z" />
    <glyph glyph-name="Wdieresis" unicode="&#x1e84;" horiz-adv-x="937" 
d="M660 735q-15 0 -26 11.5t-11 26.5q0 17 10.5 28t26.5 11t26.5 -11t10.5 -28q0 -15 -10.5 -26.5t-26.5 -11.5zM524 735q-15 0 -26 11.5t-11 26.5q0 17 10.5 28t26.5 11t26.5 -11t10.5 -28q0 -15 -10.5 -26.5t-26.5 -11.5zM214 -13l-26 636h-76l8 35h201l-9 -35h-86
l19 -562l278 506h20l54 -506l293 562h-86l8 35h200l-8 -35h-73l-337 -636h-24l-54 498l-277 -498h-25z" />
    <glyph glyph-name="wdieresis" unicode="&#x1e85;" horiz-adv-x="642" 
d="M138 -17l-29 400h-79l8 33h103l24 -362l177 305h14l68 -317q132 194 141 307q-15 2 -26.5 12.5t-11.5 26.5q0 14 10 24.5t24 10.5q18 0 29.5 -14t11.5 -36q0 -129 -183 -390h-15l-66 313l-184 -313h-16zM329 519q-15 0 -26 11.5t-11 26.5q0 17 10.5 28t26.5 11t26.5 -11
t10.5 -28q0 -15 -10.5 -26.5t-26.5 -11.5zM465 519q-15 0 -26 11.5t-11 26.5q0 17 10.5 28t26.5 11t26.5 -11t10.5 -28q0 -15 -10.5 -26.5t-26.5 -11.5z" />
    <glyph glyph-name="Ygrave" unicode="&#x1ef2;" horiz-adv-x="625" 
d="M131 0l9 35h99l59 240l-123 348h-70l9 35h198l-8 -35h-86l108 -315l262 315h-83l8 35h198l-8 -35h-67l-300 -355l-55 -233h100l-8 -35h-242zM460 716l-116 75q-23 15 -23 34q0 11 8 19t19 8q17 0 34 -21l90 -102z" />
    <glyph glyph-name="ygrave" unicode="&#x1ef3;" horiz-adv-x="467" 
d="M-23 -199q-21 0 -35.5 11.5t-14.5 29.5q0 14 9 23.5t23 9.5q16 0 25.5 -11t9.5 -29q59 5 189 163l-75 385h-80l8 33h106l69 -383q171 217 187 316q-15 3 -26 14t-11 27q0 13 10 23t24 10q18 0 29.5 -13t11.5 -36q0 -109 -215 -376q-89 -110 -145.5 -153.5t-98.5 -43.5z
M339 500l-116 75q-23 15 -23 34q0 11 8 19t19 8q17 0 34 -21l90 -102z" />
    <glyph glyph-name="enspace" unicode="&#x2002;" horiz-adv-x="500" 
 />
    <glyph glyph-name="emspace" unicode="&#x2003;" horiz-adv-x="1000" 
 />
    <glyph glyph-name="threeperemspace" unicode="&#x2004;" horiz-adv-x="333" 
 />
    <glyph glyph-name="fourperemspace" unicode="&#x2005;" horiz-adv-x="250" 
 />
    <glyph glyph-name="figurespace" unicode="&#x2007;" horiz-adv-x="530" 
 />
    <glyph glyph-name="thinspace" unicode="&#x2009;" horiz-adv-x="133" 
 />
    <glyph glyph-name="hairspace" unicode="&#x200a;" horiz-adv-x="75" 
 />
    <glyph glyph-name="endash" unicode="&#x2013;" horiz-adv-x="382" 
d="M24 254l8 38h341l-8 -38h-341z" />
    <glyph glyph-name="emdash" unicode="&#x2014;" horiz-adv-x="599" 
d="M24 254l8 38h558l-8 -38h-558z" />
    <glyph glyph-name="quoteleft" unicode="&#x2018;" horiz-adv-x="174" 
d="M154 463q-19 0 -30.5 14t-11.5 36q0 45 38.5 90t99.5 71l8 -16q-44 -26 -69 -57.5t-29 -56.5q35 -8 35 -40q0 -17 -11.5 -29t-29.5 -12z" />
    <glyph glyph-name="quoteright" unicode="&#x2019;" horiz-adv-x="174" 
d="M83 462l-8 17q44 26 69 57.5t29 56.5q-35 8 -35 40q0 17 11.5 28.5t28.5 11.5q20 0 32 -13.5t12 -35.5q0 -45 -38.5 -90t-100.5 -72z" />
    <glyph glyph-name="quotesinglbase" unicode="&#x201a;" horiz-adv-x="171" 
d="M-33 -122l-9 17q42 21 67.5 49t30.5 54q-16 2 -26 13.5t-10 25.5q0 16 11.5 27t27.5 11q18 0 30 -13.5t12 -34.5q0 -41 -36 -83.5t-98 -65.5z" />
    <glyph glyph-name="quotedblleft" unicode="&#x201c;" horiz-adv-x="327" 
d="M307 463q-19 0 -30.5 14t-11.5 36q0 45 38 90t99 71l9 -16q-44 -26 -69 -57.5t-29 -56.5q34 -8 34 -40q0 -17 -11 -29t-29 -12zM154 463q-19 0 -30.5 14t-11.5 36q0 45 38.5 90t99.5 71l8 -16q-44 -26 -69 -57.5t-29 -56.5q35 -8 35 -40q0 -17 -11.5 -29t-29.5 -12z" />
    <glyph glyph-name="quotedblright" unicode="&#x201d;" horiz-adv-x="327" 
d="M236 462l-8 17q44 26 69 57.5t29 56.5q-35 8 -35 40q0 17 11.5 28.5t28.5 11.5q19 0 31 -13.5t12 -35.5q0 -45 -38.5 -90t-99.5 -72zM83 462l-8 17q44 26 69 57.5t29 56.5q-35 8 -35 40q0 17 11.5 28.5t28.5 11.5q20 0 32 -13.5t12 -35.5q0 -45 -38.5 -90t-100.5 -72z
" />
    <glyph glyph-name="quotedblbase" unicode="&#x201e;" horiz-adv-x="321" 
d="M117 -122l-9 17q42 21 67.5 49t30.5 54q-17 2 -26.5 13.5t-9.5 25.5q0 16 11 27t27 11q18 0 30 -13.5t12 -34.5q0 -42 -36 -84t-97 -65zM-33 -122l-9 17q42 21 67.5 49t30.5 54q-16 2 -26 13.5t-10 25.5q0 16 11.5 27t27.5 11q18 0 30 -13.5t12 -34.5q0 -41 -36 -83.5
t-98 -65.5z" />
    <glyph glyph-name="dagger" unicode="&#x2020;" horiz-adv-x="444" 
d="M149 -2l88 402l-100 9q1 -19 -9.5 -31.5t-26.5 -12.5t-25 10.5t-9 24.5q0 18 11.5 29.5t33.5 11.5q12 0 25 -3l114 -21l20 172q4 44 31 44q41 0 21 -57l-53 -162l111 24q15 3 25 3q41 0 41 -41q0 -14 -9 -24.5t-25 -10.5t-26 12.5t-9 31.5l-103 -13l-104 -398h-22z" />
    <glyph glyph-name="daggerdbl" unicode="&#x2021;" horiz-adv-x="453" 
d="M201 63l-16 -142q-4 -44 -32 -44q-40 0 -21 54l44 133l-90 -21q-14 -3 -25 -3q-21 0 -33.5 11.5t-12.5 28.5q0 14 10 24.5t26 10.5q15 0 25.5 -12t9.5 -31l88 11l48 173l25 172l-87 10q1 -19 -9.5 -30.5t-25.5 -11.5q-16 0 -25.5 10t-9.5 24q0 17 12 28.5t33 11.5
q11 0 25 -3l98 -20l16 142q6 44 32 44q40 0 21 -54l-44 -133l91 21q24 3 25 3q20 0 32.5 -11.5t12.5 -28.5q0 -14 -10 -24.5t-26 -10.5q-15 0 -25 12t-9 31l-89 -11l-48 -174l-25 -171l88 -10q-1 18 9 30t25 12q16 0 26 -10t10 -24q0 -17 -12.5 -28.5t-33.5 -11.5
q-12 0 -25 3z" />
    <glyph glyph-name="bullet" unicode="&#x2022;" horiz-adv-x="251" 
d="M140 188q-33 0 -56 23.5t-23 57.5t23 57.5t56 23.5t55.5 -23.5t22.5 -57.5t-22.5 -57.5t-55.5 -23.5z" />
    <glyph glyph-name="ellipsis" unicode="&#x2026;" horiz-adv-x="509" 
d="M390 -8q-17 0 -29 12t-12 30q0 17 12 29t29 12t28.5 -12t11.5 -29q0 -18 -11.5 -30t-28.5 -12zM222 -8q-17 0 -28.5 12t-11.5 30q0 17 11.5 29t28.5 12t29 -12t12 -29q0 -18 -12 -30t-29 -12zM55 -8q-17 0 -28.5 12t-11.5 30q0 17 11.5 29t28.5 12t28.5 -12t11.5 -29
q0 -18 -11.5 -30t-28.5 -12z" />
    <glyph glyph-name="perthousand" unicode="&#x2030;" horiz-adv-x="815" 
d="M59 -15l-21 22q6 6 115 113.5t136 133.5q72 69 254 251l21 -22q-6 -6 -116 -115t-137 -135q-28 -26 -138 -135t-114 -113zM168 300q36 0 63 33t27 78q0 29 -17 48.5t-45 19.5q-35 0 -62.5 -33.5t-27.5 -77.5q0 -30 17 -49t45 -19zM167 273q-43 0 -68.5 27.5t-25.5 68.5
q0 53 36.5 95t87.5 42q43 0 68.5 -27.5t25.5 -68.5q0 -54 -36.5 -95.5t-87.5 -41.5zM416 21q36 0 63 33t27 78q0 30 -17 49t-44 19q-37 0 -64 -33t-27 -79q0 -29 17 -48t45 -19zM415 -6q-43 0 -68.5 27.5t-25.5 68.5q0 53 36.5 95t88.5 42q43 0 68 -27.5t25 -68.5
q0 -54 -36.5 -95.5t-87.5 -41.5zM663 21q37 0 64 33t27 78q0 30 -17 49t-45 19q-36 0 -63 -33.5t-27 -78.5q0 -29 17 -48t44 -19zM663 -6q-43 0 -68.5 27.5t-25.5 68.5q0 53 36.5 95t87.5 42q43 0 68.5 -27.5t25.5 -68.5q0 -54 -36.5 -95.5t-87.5 -41.5z" />
    <glyph glyph-name="guilsinglleft" unicode="&#x2039;" horiz-adv-x="270" 
d="M173 113l-130 158l203 156l20 -23l-173 -139l105 -133z" />
    <glyph glyph-name="guilsinglright" unicode="&#x203a;" horiz-adv-x="269" 
d="M53 113l-20 23l174 139l-105 133l24 19l131 -158z" />
    <glyph glyph-name="fraction" unicode="&#x2044;" horiz-adv-x="488" 
d="M-15 -9l-20 16q16 19 115.5 136.5t153.5 182.5q67 79 265 319l20 -16l-268 -319q-73 -86 -266 -319z" />
    <glyph glyph-name="zero.sup" unicode="&#x2070;" horiz-adv-x="353" 
d="M242 425q-51 0 -79.5 37t-28.5 98q0 96 46 167.5t116 71.5q50 0 78.5 -37t28.5 -99q0 -95 -46 -166.5t-115 -71.5zM244 453q54 0 90 64t36 144q0 50 -19.5 79.5t-57.5 29.5q-54 0 -90 -64t-36 -143q0 -51 19.5 -80.5t57.5 -29.5z" />
    <glyph glyph-name="four.sup" unicode="&#x2074;" horiz-adv-x="353" 
d="M272 456l20 84h-171l-4 14l243 246l20 -18l-217 -217h135l22 89l33 13l-24 -101h65l-6 -26h-65l-19 -84h52l-6 -26h-149l6 26h65z" />
    <glyph glyph-name="five.sup" unicode="&#x2075;" horiz-adv-x="353" 
d="M225 424q-41 0 -72 20t-31 45q0 28 24 28q9 0 15.5 -6t6.5 -16q0 -11 -9 -16q18 -28 69 -28q50 0 84.5 31t34.5 73q0 33 -21 52t-59 19q-47 0 -84 -17l-15 12l56 170h187l-6 -30h-162l-41 -122q36 14 74 14q45 0 74 -26.5t29 -68.5q0 -55 -44.5 -94.5t-109.5 -39.5z" />
    <glyph glyph-name="six.sup" unicode="&#x2076;" horiz-adv-x="353" 
d="M173 455q-34 33 -34 95q0 54 22 110.5t60 92.5q50 45 104 45q38 0 62.5 -18t24.5 -42q0 -13 -7.5 -21t-17.5 -8q-9 0 -15.5 6t-6.5 16q0 13 10 20q-10 20 -49 20q-45 0 -85 -38q-55 -55 -69 -144q39 65 111 65q47 0 76 -27.5t29 -69.5q0 -52 -40.5 -92.5t-95.5 -40.5
q-50 0 -79 31zM252 453q42 0 72.5 30.5t30.5 71.5q0 32 -21 52.5t-56 20.5q-42 0 -73.5 -30.5t-31.5 -69.5q0 -31 22 -53q20 -22 57 -22z" />
    <glyph glyph-name="seven.sup" unicode="&#x2077;" horiz-adv-x="353" 
d="M171 430l227 335h-179l-15 -64h-30l22 91h237l8 -15l-233 -347h-37z" />
    <glyph glyph-name="eight.sup" unicode="&#x2078;" horiz-adv-x="353" 
d="M252 425q-53 0 -88 28t-35 69q0 40 31 68.5t73 32.5q-26 11 -41.5 31.5t-15.5 45.5q0 39 35.5 68.5t89.5 29.5q49 0 81 -26t32 -65q0 -35 -26 -59.5t-66 -33.5q27 -10 44 -31.5t17 -50.5q0 -46 -37.5 -76.5t-93.5 -30.5zM289 631q38 0 65 21.5t27 52.5q0 28 -22.5 46.5
t-58.5 18.5q-38 0 -64.5 -20.5t-26.5 -51.5q0 -29 23.5 -48t56.5 -19zM251 453q41 0 70.5 23t29.5 56q0 32 -25 52.5t-65 20.5q-42 0 -70.5 -23t-28.5 -57q0 -31 25 -51.5t64 -20.5z" />
    <glyph glyph-name="nine.sup" unicode="&#x2079;" horiz-adv-x="353" 
d="M160 666q0 52 40.5 92t95.5 40q49 0 79 -30q34 -33 34 -95q0 -54 -22 -110.5t-60 -92.5q-49 -46 -104 -46q-37 0 -62 18.5t-25 41.5q0 13 7.5 21.5t17.5 8.5q9 0 15.5 -6.5t6.5 -15.5q0 -13 -10 -20q11 -21 49 -21q44 0 85 38q53 51 69 144q-40 -65 -111 -65
q-47 0 -76 28t-29 70zM296 770q-42 0 -72.5 -30.5t-30.5 -71.5q0 -33 21 -53t56 -20q42 0 73.5 30.5t31.5 69.5q0 31 -22 53t-57 22z" />
    <glyph glyph-name="zero.inf" unicode="&#x2080;" horiz-adv-x="353" 
d="M111 -145q-51 0 -79.5 37t-28.5 98q0 96 46 167.5t116 71.5q50 0 78.5 -37t28.5 -99q0 -95 -46 -166.5t-115 -71.5zM113 -117q54 0 90 64t36 144q0 50 -19.5 79.5t-57.5 29.5q-54 0 -90 -64t-36 -143q0 -51 19.5 -80.5t57.5 -29.5z" />
    <glyph glyph-name="one.inf" unicode="&#x2081;" horiz-adv-x="353" 
d="M-9 -140l7 29h102l71 302l-107 -26v29l130 33l15 -7l-77 -331h100l-6 -29h-235z" />
    <glyph glyph-name="two.inf" unicode="&#x2082;" horiz-adv-x="353" 
d="M-16 -140l-6 15q22 55 63 92t107 73q48 26 72 48.5t24 51.5q0 26 -20.5 42.5t-54.5 16.5q-35 0 -58 -13t-29 -29q13 -8 13 -20q0 -11 -7 -18t-17 -7q-11 0 -18 8.5t-7 21.5q0 31 35.5 58.5t89.5 27.5q47 0 76.5 -24t29.5 -64q0 -38 -29 -65t-87 -59q-55 -30 -90 -59.5
t-52 -69.5h178l15 66h29l-21 -93h-236z" />
    <glyph glyph-name="three.inf" unicode="&#x2083;" horiz-adv-x="353" 
d="M112 -144q-48 0 -82 23.5t-34 54.5q0 12 7 21t18 9q10 0 16.5 -6.5t6.5 -15.5q0 -16 -16 -21q6 -15 29.5 -26.5t54.5 -11.5q45 0 72.5 22.5t27.5 56.5q0 30 -27 51t-68 21h-17l7 28h16q51 0 83 22t32 54q0 29 -23 45t-59 16q-55 0 -68 -29q13 -5 13 -18q0 -9 -7.5 -15.5
t-16.5 -6.5q-11 0 -17.5 8.5t-6.5 21.5q0 26 30 47t79 21q48 0 79 -25t31 -62q0 -38 -29.5 -63.5t-75.5 -31.5q35 -8 56.5 -31t21.5 -54q0 -47 -38.5 -76t-94.5 -29z" />
    <glyph glyph-name="four.inf" unicode="&#x2084;" horiz-adv-x="353" 
d="M141 -114l20 84h-171l-4 14l243 246l20 -18l-217 -217h135l22 89l33 13l-24 -101h65l-6 -26h-65l-19 -84h52l-6 -26h-149l6 26h65z" />
    <glyph glyph-name="five.inf" unicode="&#x2085;" horiz-adv-x="353" 
d="M94 -146q-41 0 -72 20t-31 45q0 28 24 28q9 0 15.5 -6t6.5 -16q0 -11 -9 -16q18 -28 69 -28q50 0 84.5 31t34.5 73q0 33 -21 52t-59 19q-47 0 -84 -17l-15 12l56 170h187l-6 -30h-162l-41 -122q36 14 74 14q45 0 74 -26.5t29 -68.5q0 -55 -44.5 -94.5t-109.5 -39.5z" />
    <glyph glyph-name="six.inf" unicode="&#x2086;" horiz-adv-x="353" 
d="M42 -115q-34 33 -34 95q0 54 22 110.5t60 92.5q50 45 104 45q38 0 62.5 -18t24.5 -42q0 -13 -7.5 -21t-17.5 -8q-9 0 -15.5 6t-6.5 16q0 13 10 20q-10 20 -49 20q-45 0 -85 -38q-55 -55 -69 -144q39 65 111 65q47 0 76 -27.5t29 -69.5q0 -52 -40.5 -92.5t-95.5 -40.5
q-50 0 -79 31zM121 -117q42 0 72.5 30.5t30.5 71.5q0 32 -21 52.5t-56 20.5q-42 0 -73.5 -30.5t-31.5 -69.5q0 -31 22 -53q20 -22 57 -22z" />
    <glyph glyph-name="seven.inf" unicode="&#x2087;" horiz-adv-x="353" 
d="M40 -140l227 335h-179l-15 -64h-30l22 91h237l8 -15l-233 -347h-37z" />
    <glyph glyph-name="eight.inf" unicode="&#x2088;" horiz-adv-x="353" 
d="M121 -145q-53 0 -88 28t-35 69q0 40 31 68.5t73 32.5q-26 11 -41.5 31.5t-15.5 45.5q0 39 35.5 68.5t89.5 29.5q49 0 81 -26t32 -65q0 -35 -26 -59.5t-66 -33.5q27 -10 44 -31.5t17 -50.5q0 -46 -37.5 -76.5t-93.5 -30.5zM158 61q38 0 65 21.5t27 52.5q0 28 -22.5 46.5
t-58.5 18.5q-38 0 -64.5 -20.5t-26.5 -51.5q0 -29 23.5 -48t56.5 -19zM120 -117q41 0 70.5 23t29.5 56q0 32 -25 52.5t-65 20.5q-42 0 -70.5 -23t-28.5 -57q0 -31 25 -51.5t64 -20.5z" />
    <glyph glyph-name="nine.inf" unicode="&#x2089;" horiz-adv-x="353" 
d="M29 96q0 52 40.5 92t95.5 40q49 0 79 -30q34 -33 34 -95q0 -54 -22 -110.5t-60 -92.5q-49 -46 -104 -46q-37 0 -62 18.5t-25 41.5q0 13 7.5 21.5t17.5 8.5q9 0 15.5 -6.5t6.5 -15.5q0 -13 -10 -20q10 -21 49 -21q44 0 85 38q53 51 69 144q-40 -65 -111 -65q-47 0 -76 28
t-29 70zM165 200q-42 0 -72.5 -30.5t-30.5 -71.5q0 -33 21 -53t56 -20q42 0 73.5 30.5t31.5 69.5q0 31 -22 53t-57 22z" />
    <glyph glyph-name="Euro" unicode="&#x20ac;" horiz-adv-x="550" 
d="M26 203h64v2q0 47 13 89h-64l7 31h69q33 78 101.5 128.5t150.5 50.5q79 0 125.5 -40t46.5 -88q0 -19 -11 -32.5t-27 -13.5q-13 0 -21.5 8t-8.5 23q0 10 7.5 20.5t18.5 14.5q-9 31 -43.5 53t-88.5 22q-67 0 -123 -40.5t-87 -105.5h205l-7 -31h-210q-15 -44 -15 -89v-2h212
l-8 -32h-202q10 -67 57 -105.5t113 -38.5q87 0 161 59l19 -27q-85 -65 -185 -65q-80 0 -136.5 47.5t-66.5 129.5h-74z" />
    <glyph glyph-name="published" unicode="&#x2117;" horiz-adv-x="596" 
d="M303 -9q-108 0 -179.5 75t-71.5 184t71.5 184.5t179.5 75.5q109 0 180.5 -75t71.5 -184t-71.5 -184.5t-180.5 -75.5zM303 15q96 0 161 69t65 167t-65 166.5t-161 68.5t-160.5 -69t-64.5 -167q0 -97 64.5 -166t160.5 -69zM220 115v23h36v218h-36v23h101q43 0 70 -22.5
t27 -59.5q0 -40 -26 -63t-71 -23q-8 0 -21.5 0.5t-17.5 0.5v-74h37v-23h-99zM322 234q32 0 51 16.5t19 45.5q0 28 -20 44t-51 16h-39v-121q4 0 17.5 -0.5t22.5 -0.5z" />
    <glyph glyph-name="servicemark" unicode="&#x2120;" horiz-adv-x="585" 
d="M181 408q-36 0 -60.5 17.5t-24.5 40.5q0 11 6.5 18.5t16.5 7.5q19 0 19 -19q0 -12 -10 -20q15 -22 55 -22q23 0 38.5 12t15.5 31q0 27 -46 52q-28 17 -42 32.5t-14 38.5q0 26 22 45.5t57 19.5q33 0 54.5 -15.5t21.5 -35.5q0 -11 -6.5 -18.5t-15.5 -7.5q-20 0 -20 19
q0 12 11 18q-13 18 -46 18q-22 0 -36.5 -12t-14.5 -29q0 -16 11 -26.5t36 -25.5q56 -34 56 -71q0 -29 -23.5 -48.5t-60.5 -19.5zM285 413l5 23h36l57 199h-39l5 23h67l39 -172l118 172h71l-5 -23h-39l-38 -199h39l-5 -23h-96l5 23h33l35 184l-120 -175h-12l-41 174l-49 -183
h34l-6 -23h-94z" />
    <glyph glyph-name="trademark" unicode="&#x2122;" horiz-adv-x="603" 
d="M303 413l5 23h37l55 199h-38l5 23h67l39 -172l118 172h71l-6 -23h-38l-38 -199h39l-5 -23h-96l5 23h33l36 184l-121 -175h-12l-41 174l-49 -183h33l-5 -23h-94zM112 413l5 23h39l47 201h-70l-10 -43h-26l16 64h215l-15 -64h-25l10 43h-69l-47 -201h38l-5 -23h-103z" />
    <glyph glyph-name="onethird" unicode="&#x2153;" horiz-adv-x="795" 
d="M581 -4q-48 0 -82 23.5t-34 54.5q0 12 7 21t18 9q10 0 16.5 -6.5t6.5 -15.5q0 -16 -16 -21q6 -15 29.5 -26.5t54.5 -11.5q45 0 72.5 22.5t27.5 56.5q0 30 -27 51t-68 21h-17l7 28h16q51 0 83 22t32 54q0 29 -23 45t-59 16q-55 0 -68 -29q13 -5 13 -18q0 -9 -7.5 -15.5
t-16.5 -6.5q-11 0 -17.5 8.5t-6.5 21.5q0 26 30 47t79 21q48 0 79 -25t31 -62q0 -38 -29.5 -63.5t-75.5 -31.5q35 -8 56.5 -31t21.5 -54q0 -47 -38.5 -76t-94.5 -29zM80 280l7 29h102l71 302l-107 -26v29l130 33l15 -7l-77 -331h100l-6 -29h-235zM164 -9l-20 16
q16 19 115.5 136.5t153.5 182.5q67 79 265 319l20 -16l-268 -319q-73 -86 -266 -319z" />
    <glyph glyph-name="twothirds" unicode="&#x2154;" horiz-adv-x="795" 
d="M78 280l-6 15q22 55 63 92t107 73q48 26 72 48.5t24 51.5q0 26 -20.5 42.5t-54.5 16.5q-35 0 -58 -13t-29 -29q13 -8 13 -20q0 -11 -7 -18t-17 -7q-11 0 -18 8.5t-7 21.5q0 31 35.5 58.5t89.5 27.5q47 0 76.5 -24t29.5 -64q0 -38 -29 -65t-87 -59q-55 -30 -90 -59.5
t-52 -69.5h178l15 66h29l-21 -93h-236zM583 -4q-48 0 -82 23.5t-34 54.5q0 12 7 21t18 9q10 0 16.5 -6.5t6.5 -15.5q0 -16 -16 -21q6 -15 29.5 -26.5t54.5 -11.5q45 0 72.5 22.5t27.5 56.5q0 30 -27 51t-68 21h-17l7 28h16q51 0 83 22t32 54q0 29 -23 45t-59 16
q-55 0 -68 -29q13 -5 13 -18q0 -9 -7.5 -15.5t-16.5 -6.5q-11 0 -17.5 8.5t-6.5 21.5q0 26 30 47t79 21q48 0 79 -25t31 -62q0 -38 -29.5 -63.5t-75.5 -31.5q35 -8 56.5 -31t21.5 -54q0 -47 -38.5 -76t-94.5 -29zM170 -9l-20 16q16 19 115.5 136.5t153.5 182.5
q67 79 265 319l20 -16l-268 -319q-73 -86 -266 -319z" />
    <glyph glyph-name="onefifth" unicode="&#x2155;" horiz-adv-x="795" 
d="M559 -6q-41 0 -72 20t-31 45q0 28 24 28q9 0 15.5 -6t6.5 -16q0 -11 -9 -16q18 -28 69 -28q50 0 84.5 31t34.5 73q0 33 -21 52t-59 19q-47 0 -84 -17l-15 12l56 170h187l-6 -30h-162l-41 -122q36 14 74 14q45 0 74 -26.5t29 -68.5q0 -55 -44.5 -94.5t-109.5 -39.5z
M74 280l7 29h102l71 302l-107 -26v29l130 33l15 -7l-77 -331h100l-6 -29h-235zM161 -9l-20 16q16 19 115.5 136.5t153.5 182.5q67 79 265 319l20 -16l-268 -319q-73 -86 -266 -319z" />
    <glyph glyph-name="twofifths" unicode="&#x2156;" horiz-adv-x="795" 
d="M94 280l-6 15q22 55 63 92t107 73q48 26 72 48.5t24 51.5q0 26 -20.5 42.5t-54.5 16.5q-35 0 -58 -13t-29 -29q13 -8 13 -20q0 -11 -7 -18t-17 -7q-11 0 -18 8.5t-7 21.5q0 31 35.5 58.5t89.5 27.5q47 0 76.5 -24t29.5 -64q0 -38 -29 -65t-87 -59q-55 -30 -90 -59.5
t-52 -69.5h178l15 66h29l-21 -93h-236zM566 -6q-41 0 -72 20t-31 45q0 28 24 28q9 0 15.5 -6t6.5 -16q0 -11 -9 -16q18 -28 69 -28q50 0 84.5 31t34.5 73q0 33 -21 52t-59 19q-47 0 -84 -17l-15 12l56 170h187l-6 -30h-162l-41 -122q36 14 74 14q45 0 74 -26.5t29 -68.5
q0 -55 -44.5 -94.5t-109.5 -39.5zM180 -9l-20 16q16 19 115.5 136.5t153.5 182.5q67 79 265 319l20 -16l-268 -319q-73 -86 -266 -319z" />
    <glyph glyph-name="threefifths" unicode="&#x2157;" horiz-adv-x="795" 
d="M211 276q-48 0 -82 23.5t-34 54.5q0 12 7 21t18 9q10 0 16.5 -6.5t6.5 -15.5q0 -16 -16 -21q6 -15 29.5 -26.5t54.5 -11.5q45 0 72.5 22.5t27.5 56.5q0 30 -27 51t-68 21h-17l7 28h16q51 0 83 22t32 54q0 29 -23 45t-59 16q-55 0 -68 -29q13 -5 13 -18q0 -9 -7.5 -15.5
t-16.5 -6.5q-11 0 -17.5 8.5t-6.5 21.5q0 26 30 47t79 21q48 0 79 -25t31 -62q0 -38 -29.5 -63.5t-75.5 -31.5q35 -8 56.5 -31t21.5 -54q0 -47 -38.5 -76t-94.5 -29zM561 -6q-41 0 -72 20t-31 45q0 28 24 28q9 0 15.5 -6t6.5 -16q0 -11 -9 -16q18 -28 69 -28q50 0 84.5 31
t34.5 73q0 33 -21 52t-59 19q-47 0 -84 -17l-15 12l56 170h187l-6 -30h-162l-41 -122q36 14 74 14q45 0 74 -26.5t29 -68.5q0 -55 -44.5 -94.5t-109.5 -39.5zM161 -9l-20 16q16 19 115.5 136.5t153.5 182.5q67 79 265 319l20 -16l-268 -319q-73 -86 -266 -319z" />
    <glyph glyph-name="fourfifths" unicode="&#x2158;" horiz-adv-x="795" 
d="M570 -6q-41 0 -72 20t-31 45q0 28 24 28q9 0 15.5 -6t6.5 -16q0 -11 -9 -16q18 -28 69 -28q50 0 84.5 31t34.5 73q0 33 -21 52t-59 19q-47 0 -84 -17l-15 12l56 170h187l-6 -30h-162l-41 -122q36 14 74 14q45 0 74 -26.5t29 -68.5q0 -55 -44.5 -94.5t-109.5 -39.5z
M240 306l20 84h-171l-4 14l243 246l20 -18l-217 -217h135l22 89l33 13l-24 -101h65l-6 -26h-65l-19 -84h52l-6 -26h-149l6 26h65zM171 -9l-20 16q16 19 115.5 136.5t153.5 182.5q67 79 265 319l20 -16l-268 -319q-73 -86 -266 -319z" />
    <glyph glyph-name="onesixth" unicode="&#x2159;" horiz-adv-x="795" 
d="M496 25q-34 33 -34 95q0 54 22 110.5t60 92.5q50 45 104 45q38 0 62.5 -18t24.5 -42q0 -13 -7.5 -21t-17.5 -8q-9 0 -15.5 6t-6.5 16q0 13 10 20q-10 20 -49 20q-45 0 -85 -38q-55 -55 -69 -144q39 65 111 65q47 0 76 -27.5t29 -69.5q0 -52 -40.5 -92.5t-95.5 -40.5
q-50 0 -79 31zM575 23q42 0 72.5 30.5t30.5 71.5q0 32 -21 52.5t-56 20.5q-42 0 -73.5 -30.5t-31.5 -69.5q0 -31 22 -53q20 -22 57 -22zM72 280l7 29h102l71 302l-107 -26v29l130 33l15 -7l-77 -331h100l-6 -29h-235zM158 -9l-20 16q16 19 115.5 136.5t153.5 182.5
q67 79 265 319l20 -16l-268 -319q-73 -86 -266 -319z" />
    <glyph glyph-name="fivesixths" unicode="&#x215a;" horiz-adv-x="795" 
d="M497 25q-34 33 -34 95q0 54 22 110.5t60 92.5q50 45 104 45q38 0 62.5 -18t24.5 -42q0 -13 -7.5 -21t-17.5 -8q-9 0 -15.5 6t-6.5 16q0 13 10 20q-10 20 -49 20q-45 0 -85 -38q-55 -55 -69 -144q39 65 111 65q47 0 76 -27.5t29 -69.5q0 -52 -40.5 -92.5t-95.5 -40.5
q-50 0 -79 31zM191 274q-41 0 -72 20t-31 45q0 28 24 28q9 0 15.5 -6t6.5 -16q0 -11 -9 -16q18 -28 69 -28q50 0 84.5 31t34.5 73q0 33 -21 52t-59 19q-47 0 -84 -17l-15 12l56 170h187l-6 -30h-162l-41 -122q36 14 74 14q45 0 74 -26.5t29 -68.5q0 -55 -44.5 -94.5
t-109.5 -39.5zM576 23q42 0 72.5 30.5t30.5 71.5q0 32 -21 52.5t-56 20.5q-42 0 -73.5 -30.5t-31.5 -69.5q0 -31 22 -53q20 -22 57 -22zM158 -9l-20 16q16 19 115.5 136.5t153.5 182.5q67 79 265 319l20 -16l-268 -319q-73 -86 -266 -319z" />
    <glyph glyph-name="oneeighth" unicode="&#x215b;" horiz-adv-x="795" 
d="M581 -5q-53 0 -88 28t-35 69q0 40 31 68.5t73 32.5q-26 11 -41.5 31.5t-15.5 45.5q0 39 35.5 68.5t89.5 29.5q49 0 81 -26t32 -65q0 -35 -26 -59.5t-66 -33.5q27 -10 44 -31.5t17 -50.5q0 -46 -37.5 -76.5t-93.5 -30.5zM580 23q41 0 70.5 23t29.5 56q0 32 -25 52.5
t-65 20.5q-42 0 -70.5 -23t-28.5 -57q0 -31 25 -51.5t64 -20.5zM77 280l7 29h102l71 302l-107 -26v29l130 33l15 -7l-77 -331h100l-6 -29h-235zM157 -9l-20 16q16 19 115.5 136.5t153.5 182.5q67 79 265 319l20 -16l-268 -319q-73 -86 -266 -319zM618 201q38 0 65 21.5
t27 52.5q0 28 -22.5 46.5t-58.5 18.5q-38 0 -64.5 -20.5t-26.5 -51.5q0 -29 23.5 -48t56.5 -19z" />
    <glyph glyph-name="threeeighths" unicode="&#x215c;" horiz-adv-x="795" 
d="M588 -5q-53 0 -88 28t-35 69q0 40 31 68.5t73 32.5q-26 11 -41.5 31.5t-15.5 45.5q0 39 35.5 68.5t89.5 29.5q49 0 81 -26t32 -65q0 -35 -26 -59.5t-66 -33.5q27 -10 44 -31.5t17 -50.5q0 -46 -37.5 -76.5t-93.5 -30.5zM207 276q-48 0 -82 23.5t-34 54.5q0 12 7 21t18 9
q10 0 16.5 -6.5t6.5 -15.5q0 -16 -16 -21q6 -15 29.5 -26.5t54.5 -11.5q45 0 72.5 22.5t27.5 56.5q0 30 -27 51t-68 21h-17l7 28h16q51 0 83 22t32 54q0 29 -23 45t-59 16q-55 0 -68 -29q13 -5 13 -18q0 -9 -7.5 -15.5t-16.5 -6.5q-11 0 -17.5 8.5t-6.5 21.5q0 26 30 47
t79 21q48 0 79 -25t31 -62q0 -38 -29.5 -63.5t-75.5 -31.5q35 -8 56.5 -31t21.5 -54q0 -47 -38.5 -76t-94.5 -29zM587 23q41 0 70.5 23t29.5 56q0 32 -25 52.5t-65 20.5q-42 0 -70.5 -23t-28.5 -57q0 -31 25 -51.5t64 -20.5zM159 -9l-20 16q16 19 115.5 136.5t153.5 182.5
q67 79 265 319l20 -16l-268 -319q-73 -86 -266 -319zM625 201q38 0 65 21.5t27 52.5q0 28 -22.5 46.5t-58.5 18.5q-38 0 -64.5 -20.5t-26.5 -51.5q0 -29 23.5 -48t56.5 -19z" />
    <glyph glyph-name="fiveeighths" unicode="&#x215d;" horiz-adv-x="795" 
d="M577 -5q-53 0 -88 28t-35 69q0 40 31 68.5t73 32.5q-26 11 -41.5 31.5t-15.5 45.5q0 39 35.5 68.5t89.5 29.5q49 0 81 -26t32 -65q0 -35 -26 -59.5t-66 -33.5q27 -10 44 -31.5t17 -50.5q0 -46 -37.5 -76.5t-93.5 -30.5zM189 274q-41 0 -72 20t-31 45q0 28 24 28
q9 0 15.5 -6t6.5 -16q0 -11 -9 -16q18 -28 69 -28q50 0 84.5 31t34.5 73q0 33 -21 52t-59 19q-47 0 -84 -17l-15 12l56 170h187l-6 -30h-162l-41 -122q36 14 74 14q45 0 74 -26.5t29 -68.5q0 -55 -44.5 -94.5t-109.5 -39.5zM576 23q41 0 70.5 23t29.5 56q0 32 -25 52.5
t-65 20.5q-42 0 -70.5 -23t-28.5 -57q0 -31 25 -51.5t64 -20.5zM150 -9l-20 16q16 19 115.5 136.5t153.5 182.5q67 79 265 319l20 -16l-268 -319q-73 -86 -266 -319zM614 201q38 0 65 21.5t27 52.5q0 28 -22.5 46.5t-58.5 18.5q-38 0 -64.5 -20.5t-26.5 -51.5
q0 -29 23.5 -48t56.5 -19z" />
    <glyph glyph-name="seveneighths" unicode="&#x215e;" horiz-adv-x="795" 
d="M576 -5q-53 0 -88 28t-35 69q0 40 31 68.5t73 32.5q-26 11 -41.5 31.5t-15.5 45.5q0 39 35.5 68.5t89.5 29.5q49 0 81 -26t32 -65q0 -35 -26 -59.5t-66 -33.5q27 -10 44 -31.5t17 -50.5q0 -46 -37.5 -76.5t-93.5 -30.5zM575 23q41 0 70.5 23t29.5 56q0 32 -25 52.5
t-65 20.5q-42 0 -70.5 -23t-28.5 -57q0 -31 25 -51.5t64 -20.5zM147 280l227 335h-179l-15 -64h-30l22 91h237l8 -15l-233 -347h-37zM123 -9l-20 16q16 19 115.5 136.5t153.5 182.5q67 79 265 319l20 -16l-268 -319q-73 -86 -266 -319zM613 201q38 0 65 21.5t27 52.5
q0 28 -22.5 46.5t-58.5 18.5q-38 0 -64.5 -20.5t-26.5 -51.5q0 -29 23.5 -48t56.5 -19z" />
    <glyph glyph-name="minus" unicode="&#x2212;" horiz-adv-x="392" 
d="M52 246l8 35h306l-8 -35h-306z" />
    <glyph glyph-name="Q.alt" horiz-adv-x="726" 
d="M344 -10q-124 0 -196 78.5t-72 197.5q0 98 45.5 190t130 152t186.5 60q124 0 196 -78.5t72 -197.5q0 -108 -56 -208t-149 -152l47 -131l-35 -11l-44 126q-63 -26 -125 -26zM347 26q57 0 109 23l-52 144l35 11l50 -138q79 47 127 136.5t48 188.5q0 103 -59.5 172
t-170.5 69q-87 0 -160.5 -53t-115 -136.5t-41.5 -175.5q0 -103 60 -172t170 -69z" />
    <glyph glyph-name="zero.lin" horiz-adv-x="605" 
d="M279 -10q-94 0 -150.5 66t-56.5 176q0 114 40 214t111.5 161t157.5 61q94 0 150.5 -66t56.5 -176q0 -113 -40 -213t-111.5 -161.5t-157.5 -61.5zM281 27q75 0 136.5 58.5t95 149t33.5 189.5q0 94 -44 151t-124 57q-74 0 -136 -58.5t-95 -149.5t-33 -190q0 -93 43.5 -150
t123.5 -57z" />
    <glyph glyph-name="one.lin" horiz-adv-x="402" 
d="M5 0l8 35h135l135 583l-148 -41v38l182 52l15 -9l-143 -623h134l-8 -35h-310z" />
    <glyph glyph-name="two.lin" horiz-adv-x="524" 
d="M17 0l-7 19q37 100 108.5 168t187.5 132q93 53 134.5 95.5t41.5 98.5q0 52 -38 85.5t-99 33.5q-63 0 -109 -26.5t-59 -59.5q24 -14 24 -36q0 -15 -10 -25t-25 -10q-16 0 -26.5 11.5t-10.5 30.5q0 53 63 102t155 49q79 0 128.5 -44t49.5 -108q0 -70 -48.5 -119
t-149.5 -107q-110 -62 -172.5 -119t-94.5 -136h329l28 123h39l-36 -158h-403z" />
    <glyph glyph-name="three.lin" horiz-adv-x="502" 
d="M217 -9q-77 0 -136.5 39t-59.5 89q0 20 10.5 34t28.5 14q14 0 23 -9.5t9 -22.5q0 -11 -8 -20.5t-21 -12.5q8 -27 53.5 -50.5t102.5 -23.5q83 0 134.5 44t51.5 108q0 65 -52.5 104.5t-135.5 39.5h-18l8 36h20q105 0 165.5 42.5t60.5 107.5q0 53 -39.5 87.5t-105.5 34.5
q-101 0 -134 -59q26 -8 26 -32q0 -14 -10.5 -22.5t-23.5 -8.5q-15 0 -25.5 11t-10.5 29q0 47 54.5 82.5t129.5 35.5q79 0 130 -44.5t51 -110.5q0 -71 -54.5 -117t-136.5 -57q65 -15 104 -56.5t39 -102.5q0 -80 -66 -134.5t-164 -54.5z" />
    <glyph glyph-name="four.lin" horiz-adv-x="537" 
d="M435 430l-46 -192h121l-8 -35h-121l-40 -168h100l-8 -35h-262l8 35h122l39 168h-307l-3 15l444 452l27 -25l-404 -407h251l41 174z" />
    <glyph glyph-name="five.lin" horiz-adv-x="506" 
d="M200 -10q-67 0 -119.5 33.5t-52.5 75.5q0 16 10 28.5t25 12.5q14 0 23.5 -9t9.5 -22q0 -22 -20 -30q12 -22 46.5 -37.5t81.5 -15.5q91 0 149 61t58 141q0 67 -39.5 102.5t-107.5 35.5q-71 0 -133 -28l-16 15l100 305h301l-9 -39h-267l-79 -237q48 20 108 20
q84 0 134 -46.5t50 -124.5q0 -93 -70.5 -167t-182.5 -74z" />
    <glyph glyph-name="six.lin" horiz-adv-x="540" 
d="M127 44q-57 58 -57 167q0 101 39 205.5t109 172.5q81 79 180 79q60 0 102.5 -31t42.5 -70q0 -20 -11 -32t-27 -12q-13 0 -22.5 9t-9.5 24q0 21 21 34q-7 17 -33.5 30.5t-62.5 13.5q-82 0 -155 -71q-50 -48 -84.5 -123.5t-45.5 -156.5q28 50 80 85t121 35q83 0 134.5 -50
t51.5 -125q0 -93 -69 -165.5t-165 -72.5q-83 0 -139 54zM269 26q76 0 132.5 60t56.5 142q0 63 -40.5 101t-108.5 38q-80 0 -138 -58.5t-58 -131.5q0 -66 44 -108q43 -43 112 -43z" />
    <glyph glyph-name="seven.lin" horiz-adv-x="488" 
d="M74 0l418 623h-319l-26 -111h-39l34 146h398l9 -16l-428 -642h-47z" />
    <glyph glyph-name="eight.lin" horiz-adv-x="532" 
d="M265 -9q-90 0 -150.5 48.5t-60.5 124.5q0 73 50.5 124t126.5 61q-44 18 -72 57t-28 86q0 72 58.5 124t147.5 52q84 0 139.5 -45.5t55.5 -115.5q0 -67 -45 -112t-120 -59q51 -17 83 -58.5t32 -93.5q0 -83 -63.5 -138t-153.5 -55zM320 359q74 0 122.5 41.5t48.5 104.5
q0 56 -42 91.5t-113 35.5q-70 0 -117.5 -41t-47.5 -103q0 -55 42.5 -92t106.5 -37zM264 26q72 0 124.5 44.5t52.5 112.5q0 62 -45.5 102t-121.5 40q-78 0 -129 -46.5t-51 -112.5q0 -62 48.5 -101t121.5 -39z" />
    <glyph glyph-name="nine.lin" horiz-adv-x="540" 
d="M95 431q0 93 69 165t165 72q87 0 139 -54q58 -59 58 -167q0 -101 -39 -205.5t-109 -171.5q-82 -80 -181 -80q-59 0 -101.5 31t-42.5 70q0 20 11 32t27 12q13 0 22.5 -9t9.5 -24q0 -22 -22 -34q8 -16 34.5 -29.5t62.5 -13.5q82 0 155 70q50 48 84.5 123.5t45.5 156.5
q-29 -50 -81 -84.5t-120 -34.5q-83 0 -135 49.5t-52 125.5zM483 482q0 65 -44 107q-45 43 -112 43q-76 0 -132.5 -60t-56.5 -142q0 -63 40.5 -101t107.5 -38q81 0 139 59t58 132z" />
    <glyph glyph-name="bullet.alt" horiz-adv-x="616" 
d="M309 -48q-109 0 -182.5 75.5t-73.5 183.5t73.5 183.5t182.5 75.5t182.5 -75.5t73.5 -183.5t-73.5 -183.5t-182.5 -75.5z" />
    <glyph glyph-name="hyphen.lin" horiz-adv-x="234" 
d="M56 316l9 38h164l-8 -38h-165z" />
    <glyph glyph-name="endash.lin" horiz-adv-x="382" 
d="M42 316l9 38h340l-8 -38h-341z" />
    <glyph glyph-name="emdash.lin" horiz-adv-x="599" 
d="M42 316l9 38h557l-7 -38h-559z" />
    <glyph glyph-name="parenleft.lin" horiz-adv-x="321" 
d="M272 -160q-191 160 -191 402q0 179 97 331.5t255 236.5l18 -28q-151 -82 -240.5 -227.5t-89.5 -312.5q0 -225 172 -376z" />
    <glyph glyph-name="parenright.lin" horiz-adv-x="321" 
d="M-61 -159l-18 28q151 83 240.5 228.5t89.5 311.5q0 227 -171 376l21 26q191 -160 191 -402q0 -179 -97 -331.5t-256 -236.5z" />
    <glyph glyph-name="bracketleft.lin" horiz-adv-x="322" 
d="M33 -140l217 932h203l-8 -34h-163l-201 -864h163l-8 -34h-203z" />
    <glyph glyph-name="bracketright.lin" horiz-adv-x="322" 
d="M-76 -140l8 34h163l200 864h-162l8 34h202l-216 -932h-203z" />
    <glyph glyph-name="braceleft.lin" horiz-adv-x="299" 
d="M190 -152q-66 12 -102.5 53.5t-36.5 98.5q0 69 79 140q22 21 33.5 33t22 30.5t10.5 35.5q0 27 -22 48t-69 21h-36l11 41h37q56 0 86.5 25t30.5 64q0 38 -27 94q-30 64 -30 109q0 69 60 116t169 49l-7 -30q-89 -4 -136.5 -42.5t-47.5 -91.5q0 -41 28 -104q28 -60 28 -100
q0 -47 -31 -76.5t-82 -34.5q36 -9 55.5 -32.5t19.5 -54.5q0 -53 -73 -120q-71 -63 -71 -119q0 -94 109 -123z" />
    <glyph glyph-name="braceright.lin" horiz-adv-x="299" 
d="M-53 -151l7 30q89 4 137 43t48 92q0 39 -29 103q-28 59 -28 101q0 46 31 75.5t82 35.5q-35 8 -54.5 31.5t-19.5 54.5q0 54 72 120t72 119q0 93 -110 124l8 29q66 -12 102.5 -53t36.5 -98q0 -68 -79 -141q-65 -61 -65 -98q0 -28 22 -49t68 -21h36l-10 -41h-37
q-56 0 -87 -25t-31 -64q0 -35 27 -93q30 -64 30 -110q0 -69 -60 -116t-169 -49z" />
    <glyph glyph-name="registered.alt" horiz-adv-x="596" 
d="M303 -9q-108 0 -179.5 75t-71.5 184t71.5 184.5t179.5 75.5q109 0 180.5 -75t71.5 -184t-71.5 -184.5t-180.5 -75.5zM303 15q96 0 161 69t65 167t-65 166.5t-161 68.5t-160.5 -69t-64.5 -167q0 -97 64.5 -166t160.5 -69zM199 124v23h36v217h-36v23h100q43 0 68.5 -20.5
t25.5 -54.5q0 -55 -58 -72l57 -93h33v-23h-50l-65 109h-49v-86h35v-23h-97zM261 255h34q32 0 52 15t20 41q0 25 -19 39t-51 14h-36v-109z" />
    <glyph glyph-name="copyright.lin" horiz-adv-x="787" 
d="M408 -10q-140 0 -235 98.5t-95 240.5t95 240.5t235 98.5t235 -98.5t95 -240.5t-95 -240.5t-235 -98.5zM408 15q128 0 215 91t87 223t-87 223t-215 91t-215 -91t-87 -223t87 -223t215 -91zM421 165q-74 0 -120.5 49t-46.5 118q0 74 48.5 123t117.5 49q50 0 86 -25.5
t36 -56.5q0 -12 -7.5 -20t-18.5 -8q-10 0 -17 6.5t-7 16.5q0 14 14 19q-7 15 -31 27.5t-56 12.5q-58 0 -95.5 -41.5t-37.5 -101.5q0 -57 38 -98.5t97 -41.5t104 43l18 -22q-49 -49 -122 -49z" />
    <glyph glyph-name="published.lin" horiz-adv-x="787" 
d="M408 -10q-140 0 -235 98.5t-95 240.5t95 240.5t235 98.5t235 -98.5t95 -240.5t-95 -240.5t-235 -98.5zM408 15q128 0 215 91t87 223t-87 223t-215 91t-215 -91t-87 -223t87 -223t215 -91zM301 165v27h44v275h-44v27h124q53 0 87 -28t34 -74q0 -50 -33 -78t-88 -28
q-10 0 -27.5 0.5t-22.5 0.5v-95h47v-27h-121zM426 313q41 0 65 21t24 58q0 34 -25 54.5t-65 20.5h-50v-153q5 0 22.5 -0.5t28.5 -0.5z" />
    <glyph glyph-name="registered.lin" horiz-adv-x="787" 
d="M408 -10q-140 0 -235 98.5t-95 240.5t95 240.5t235 98.5t235 -98.5t95 -240.5t-95 -240.5t-235 -98.5zM408 15q128 0 215 91t87 223t-87 223t-215 91t-215 -91t-87 -223t87 -223t215 -91zM285 171v27h44v275h-44v27h124q53 0 85 -25.5t32 -68.5q0 -34 -21 -58t-54 -32
l74 -118h40v-27h-59l-83 136h-64v-109h44v-27h-118zM359 334h46q39 0 64 18.5t25 52.5q0 32 -23 50t-64 18h-48v-139z" />
    <glyph glyph-name="dollar.lin" horiz-adv-x="526" 
d="M146 -92l30 103q-64 17 -105.5 54t-41.5 72q0 20 11.5 33t28.5 13q15 0 25 -10t10 -22q0 -26 -26 -41q11 -20 41.5 -39t70.5 -28l87 281q-33 18 -53.5 31.5t-43 34t-33.5 46t-11 57.5q0 72 58.5 118t145.5 46q20 0 40 -3l28 93l32 -9l-27 -92q53 -15 87.5 -46t34.5 -65
q0 -21 -11 -33t-27 -12q-15 0 -25.5 10t-10.5 24q0 23 26 37q-27 36 -88 52l-82 -265q35 -18 56 -31.5t46 -35.5t37 -49t12 -60q0 -79 -59 -125t-155 -46q-23 0 -44 3l-31 -105zM428 169q0 47 -31.5 78.5t-91.5 62.5l-84 -272q11 -2 35 -2q76 0 124 36t48 97zM176 496
q0 -45 29 -74.5t84 -59.5l80 257q-17 3 -33 3q-67 0 -113.5 -34t-46.5 -92z" />
    <glyph glyph-name="sterling.lin" horiz-adv-x="536" 
d="M400 263h-167q-3 -118 -100 -190q47 -6 96 -24q66 -23 111 -23q55 0 111 42l20 -27q-58 -51 -136 -51q-48 0 -123 26q-58 23 -110 23q-15 -20 -36 -32.5t-36 -12.5q-31 0 -31 26q0 20 24.5 35t69.5 17q98 82 101 191h-107l7 34h99q-1 15 -6.5 63t-5.5 76q0 99 54.5 165.5
t150.5 66.5q59 0 101 -32.5t42 -73.5q0 -21 -10.5 -33t-27.5 -12q-15 0 -25.5 10.5t-10.5 25.5q0 24 22 33q-7 17 -32 31t-61 14q-78 0 -121 -56.5t-43 -137.5q0 -26 5.5 -74.5t6.5 -65.5h175z" />
    <glyph glyph-name="Euro.lin" horiz-adv-x="688" 
d="M480 382h-279q-18 -62 -19 -119h270l-7 -34h-263q6 -91 60 -146.5t144 -55.5q112 0 202 92l26 -26q-103 -103 -231 -103q-104 0 -170 66t-72 173h-104l8 34h96q2 61 18 119h-86l7 35h90q40 110 121.5 180t186.5 70q90 0 144.5 -50.5t54.5 -104.5q0 -23 -12 -37t-28 -14
t-26 9t-10 24q0 28 30 40q-7 37 -48.5 67t-106.5 30q-89 0 -158.5 -59.5t-105.5 -154.5h276z" />
    <glyph glyph-name="yen.lin" horiz-adv-x="626" 
d="M123 270l8 34h156l-116 319h-71l9 35h198l-8 -35h-85l110 -316l259 316h-84l9 35h198l-8 -35h-67l-268 -319h151l-8 -34h-171l-20 -83h172l-8 -34h-172l-28 -118h102l-8 -35h-244l8 35h102l28 118h-171l7 34h172l19 83h-171z" />
    <glyph glyph-name="cent.lin" horiz-adv-x="457" 
d="M240 125q-18 0 -35 3l-42 -145l-30 8l43 144q-50 18 -79.5 61t-29.5 105q0 101 69 177t163 76l36 117l30 -8l-33 -111q52 -9 83 -39.5t31 -64.5q0 -19 -10.5 -31t-25.5 -12q-12 0 -20 7.5t-8 22.5q0 24 22 31q-16 44 -83 54l-106 -360q9 -2 30 -2q79 0 143 57l-2 -40
q-65 -50 -146 -50zM105 302q0 -100 81 -133l104 352q-74 -3 -129.5 -68.5t-55.5 -150.5z" />
    <glyph glyph-name="numbersign.lin" horiz-adv-x="549" 
d="M502 658l-55 -198h127l-9 -33h-127l-57 -204h132l-9 -33h-132l-53 -190h-37l53 190h-144l-52 -190h-37l53 190h-127l9 33h127l56 204h-131l9 33h131l56 198h37l-55 -198h143l55 198h37zM257 427l-56 -204h143l57 204h-144z" />
    <glyph glyph-name="paragraph.lin" horiz-adv-x="634" 
d="M210 0l8 35h83l49 211h-41q-107 0 -164.5 48t-57.5 134q0 99 75.5 164.5t194.5 65.5h321l-8 -35h-82l-136 -588h87l-8 -35h-321zM342 34h69l136 590h-69z" />
    <glyph glyph-name="section.lin" horiz-adv-x="489" 
d="M76 336q0 44 44.5 74t117.5 42q-75 40 -75 101q0 49 47.5 82t118.5 33q93 0 141 -50q25 -25 25 -52q0 -18 -9.5 -29.5t-24.5 -11.5q-14 0 -23.5 9.5t-9.5 22.5q0 19 16 32q-6 13 -21 21q-37 24 -95 24q-55 0 -89.5 -23.5t-34.5 -55.5q0 -35 30.5 -57.5t94.5 -47.5
q36 -14 56.5 -24t43 -25.5t33 -35t10.5 -43.5q0 -42 -43 -72.5t-120 -44.5q75 -40 75 -100q0 -49 -47 -82t-118 -33q-94 0 -143 53q-23 25 -23 50q0 17 9.5 28.5t24.5 11.5t24 -9.5t9 -22.5q0 -19 -16 -32q1 -7 16 -18q39 -26 99 -26q56 0 90.5 23t34.5 55q0 35 -31 57.5
t-97 48.5q-36 14 -55.5 24t-42 25t-32.5 34.5t-10 43.5zM307 422q-4 2 -14 5.5t-15 5.5q-75 -10 -118 -36t-43 -61q0 -33 30 -54t91 -45l32 -13q76 10 118.5 36.5t42.5 61.5q0 33 -31 54.5t-93 45.5z" />
    <glyph glyph-name="ordfeminine.lin" horiz-adv-x="332" 
d="M175 482q-41 0 -67.5 27.5t-26.5 75.5q0 64 40 111t95 47q34 0 56 -17t29 -46l15 60h28l-46 -187q-3 -17 -3 -28q0 -19 18 -19q20 0 38 41l17 -8q-20 -56 -58 -56q-43 0 -43 43v8q-38 -52 -92 -52zM181 509q45 0 76 42t31 89q0 34 -19.5 55t-52.5 21q-44 0 -74.5 -39
t-30.5 -90q0 -36 19 -57t51 -21zM57 388l7 27h256l-7 -27h-256z" />
    <glyph glyph-name="ordmasculine.lin" horiz-adv-x="328" 
d="M212 481q-48 0 -77.5 31t-29.5 80q0 60 40.5 106t99.5 46q48 0 77.5 -30.5t29.5 -79.5q0 -61 -40.5 -107t-99.5 -46zM71 388l7 27h227l-7 -27h-227zM214 509q45 0 76.5 37t31.5 87q0 37 -22 60.5t-57 23.5q-45 0 -76.5 -37.5t-31.5 -87.5q0 -37 22 -60t57 -23z" />
    <glyph glyph-name="degree.lin" horiz-adv-x="317" 
d="M205 496q-46 0 -73.5 29.5t-27.5 74.5q0 56 39 99.5t95 43.5q46 0 73.5 -29.5t27.5 -74.5q0 -56 -39 -99.5t-95 -43.5zM207 525q43 0 72 33.5t29 78.5q0 35 -20 56t-52 21q-42 0 -71 -33.5t-29 -78.5q0 -35 20 -56t51 -21z" />
    <glyph glyph-name="percent.lin" horiz-adv-x="673" 
d="M471 -9q-52 0 -84 34t-32 86q0 64 44.5 115t108.5 51q53 0 84.5 -34t31.5 -86q0 -64 -44.5 -115t-108.5 -51zM221 383q-53 0 -84.5 34t-31.5 86q0 64 44.5 114.5t108.5 50.5q52 0 83.5 -33.5t31.5 -86.5q0 -64 -44.5 -114.5t-107.5 -50.5zM474 25q48 0 81 39.5t33 90.5
q0 40 -23 64.5t-59 24.5q-48 0 -81.5 -40t-33.5 -91q0 -39 23.5 -63.5t59.5 -24.5zM223 416q48 0 81.5 40t33.5 91q0 39 -23.5 63.5t-59.5 24.5q-47 0 -80.5 -39.5t-33.5 -90.5q0 -40 23 -64.5t59 -24.5zM63 -7l-24 22q40 42 313 325l314 327l25 -22l-313 -325
q-22 -23 -97.5 -101.5t-140 -145.5t-77.5 -80z" />
    <glyph glyph-name="perthousand.lin" horiz-adv-x="996" 
d="M471 -9q-52 0 -84 34t-32 86q0 64 44.5 115t108.5 51q53 0 84.5 -34t31.5 -86q0 -64 -44.5 -115t-108.5 -51zM795 -9q-52 0 -83.5 34t-31.5 86q0 64 44.5 115t107.5 51q52 0 84 -34t32 -86q0 -64 -44.5 -115t-108.5 -51zM221 383q-53 0 -84.5 34t-31.5 86
q0 64 44.5 114.5t108.5 50.5q52 0 83.5 -33.5t31.5 -86.5q0 -64 -44.5 -114.5t-107.5 -50.5zM474 25q48 0 81 39.5t33 90.5q0 40 -23 64.5t-59 24.5q-48 0 -81.5 -40t-33.5 -91q0 -39 23.5 -63.5t59.5 -24.5zM798 25q47 0 80.5 39.5t33.5 90.5q0 40 -23 64.5t-59 24.5
q-48 0 -81.5 -40t-33.5 -91q0 -39 23.5 -63.5t59.5 -24.5zM223 416q48 0 81.5 40t33.5 91q0 39 -23.5 63.5t-59.5 24.5q-47 0 -80.5 -39.5t-33.5 -90.5q0 -40 23 -64.5t59 -24.5zM63 -7l-24 22q40 42 313 325l314 327l25 -22l-313 -325q-22 -23 -97.5 -101.5t-140 -145.5
t-77.5 -80z" />
    <glyph glyph-name="quotedbl.lin" horiz-adv-x="263" 
d="M222 539l28 163q6 39 31 39q13 0 21.5 -7.5t8.5 -19.5q0 -10 -6 -24l-68 -151h-15zM102 539l28 163q6 39 31 39q13 0 21 -7.5t8 -19.5q0 -10 -6 -24l-68 -151h-14z" />
    <glyph glyph-name="quotesingle.lin" horiz-adv-x="138" 
d="M102 539l28 163q6 39 31 39q13 0 21 -7.5t8 -19.5q0 -10 -6 -24l-68 -151h-14z" />
    <glyph glyph-name="plus.lin" horiz-adv-x="392" 
d="M278 488l-32 -134h136l-8 -35h-136l-34 -149h-36l34 149h-134l8 35h134l32 134h36z" />
    <glyph glyph-name="minus.lin" horiz-adv-x="392" 
d="M68 319l8 35h306l-8 -35h-306z" />
    <glyph glyph-name="divide.lin" horiz-adv-x="392" 
d="M68 319l8 35h306l-8 -35h-306zM254 427q-14 0 -24 10t-10 24t10 24.5t24 10.5q13 0 23 -10.5t10 -24.5t-9.5 -24t-23.5 -10zM196 177q-14 0 -24 10.5t-10 24.5t10 24t24 10t23.5 -10t9.5 -24t-10 -24.5t-23 -10.5z" />
    <glyph glyph-name="equal.lin" horiz-adv-x="392" 
d="M86 380l8 35h286l-8 -35h-286zM52 237l8 35h286l-8 -35h-286z" />
    <glyph glyph-name="multiply.lin" horiz-adv-x="392" 
d="M127 478l88 -115l136 109l23 -28l-136 -110l89 -115l-29 -24l-90 115l-135 -109l-23 29l136 109l-89 115z" />
    <glyph glyph-name="less.lin" horiz-adv-x="382" 
d="M271 162l-203 158l3 14l272 155l18 -29l-241 -136l173 -135z" />
    <glyph glyph-name="greater.lin" horiz-adv-x="382" 
d="M88 164l-18 28l240 136l-173 135l23 28l203 -158l-3 -15z" />
    <glyph glyph-name="plusminus.lin" horiz-adv-x="392" 
d="M281 532l-32 -136h135l-7 -35h-136l-31 -138h-36l31 138h-133l7 35h134l32 136h36zM16 118l7 35h305l-8 -35h-304z" />
    <glyph glyph-name="zero.tab" horiz-adv-x="530" 
d="M521 436q0 -113 -38.5 -215.5t-105.5 -166.5t-144 -64q-79 0 -124 63t-44 170q0 113 38.5 216t105 166.5t143.5 63.5q79 0 124 -62.5t45 -170.5zM108 226q0 -91 33.5 -144.5t96.5 -53.5q64 0 120.5 61.5t87.5 154.5t31 189q0 91 -33.5 144.5t-96.5 53.5
q-64 0 -120.5 -61.5t-87.5 -154.5t-31 -189z" />
    <glyph glyph-name="one.tab" horiz-adv-x="530" 
d="M32 0l9 36h170l137 583l-181 -48v37l213 58l18 -9l-146 -621h169l-9 -36h-380z" />
    <glyph glyph-name="two.tab" horiz-adv-x="530" 
d="M69 36h324l27 119h40l-35 -155h-401l-7 18q38 100 105.5 167.5t185.5 133.5q90 52 131.5 95.5t41.5 98.5q0 52 -37.5 85.5t-99.5 33.5q-65 0 -108.5 -28t-54.5 -62q23 -15 23 -36q0 -14 -10 -24.5t-25 -10.5t-26 12t-11 31q0 55 60.5 105t153.5 50q81 0 129.5 -43.5
t48.5 -110.5q0 -69 -47.5 -118t-150.5 -109t-164.5 -117.5t-92.5 -134.5z" />
    <glyph glyph-name="three.tab" horiz-adv-x="530" 
d="M317 340q67 -15 107.5 -56.5t40.5 -101.5q0 -81 -66 -135t-166 -54q-81 0 -141 41t-60 92q0 20 10.5 33.5t27.5 13.5q15 0 24 -9t9 -22q0 -11 -8 -20.5t-21 -12.5q12 -30 57 -55t104 -25q85 0 135.5 43.5t50.5 109.5q0 64 -51.5 103t-137.5 39h-25l8 36h29q105 0 164 43
t59 107q0 55 -42.5 88.5t-107.5 33.5q-51 0 -89 -19t-50 -45q25 -10 25 -32q0 -14 -10 -23t-24 -9q-15 0 -25.5 11t-10.5 29q0 50 55.5 87t135.5 37q81 0 133.5 -44t52.5 -110q0 -70 -55 -116t-138 -58z" />
    <glyph glyph-name="four.tab" horiz-adv-x="530" 
d="M435 429l-45 -191h117l-7 -35h-118l-38 -167h100l-8 -36h-263l8 36h122l39 167h-304l-4 16l440 451l28 -24l-401 -408h249l40 172z" />
    <glyph glyph-name="five.tab" horiz-adv-x="530" 
d="M213 -10q-71 0 -125 35t-54 79q0 17 9.5 29t25.5 12q14 0 23 -8.5t9 -21.5q0 -21 -18 -30q14 -25 49.5 -42t84.5 -17q97 0 158 60.5t61 141.5q0 66 -42.5 101.5t-114.5 35.5q-75 0 -144 -27l-16 15l101 305h320l-8 -39h-287l-80 -239q57 22 117 22q89 0 143 -46.5
t54 -125.5q0 -94 -74 -167t-192 -73z" />
    <glyph glyph-name="six.tab" horiz-adv-x="530" 
d="M487 589q-7 18 -30.5 31.5t-62.5 13.5q-82 0 -150 -68q-48 -48 -82.5 -126t-45.5 -157q27 50 78 86t119 36q83 0 133.5 -50t50.5 -126q0 -92 -68.5 -165.5t-163.5 -73.5q-82 0 -135 53q-58 58 -58 175q0 94 39.5 199t108.5 174q78 78 176 78q62 0 101.5 -31.5t39.5 -71.5
q0 -20 -11 -31.5t-27 -11.5q-13 0 -22.5 9t-9.5 23q0 21 20 34zM267 26q75 0 130 60.5t55 141.5q0 63 -38.5 102t-102.5 39q-80 0 -137 -59.5t-57 -135.5q0 -63 43 -106q42 -42 107 -42z" />
    <glyph glyph-name="seven.tab" horiz-adv-x="530" 
d="M102 0l422 622h-343l-25 -108h-39l33 144h427l8 -14l-435 -644h-48z" />
    <glyph glyph-name="eight.tab" horiz-adv-x="530" 
d="M488 505q0 54 -40.5 90.5t-109.5 36.5q-70 0 -117.5 -40.5t-47.5 -100.5q0 -55 42.5 -93t105.5 -38q72 0 119.5 42t47.5 103zM480 183q0 -82 -63.5 -137t-155.5 -55q-90 0 -148.5 49t-58.5 126q0 74 53 125t129 59q-45 17 -74.5 57t-29.5 87q0 71 58 123t148 52
q81 0 136.5 -46.5t55.5 -115.5t-46 -113t-121 -57q50 -16 83.5 -57.5t33.5 -96.5zM439 182q0 62 -45 102.5t-120 40.5q-78 0 -129 -46t-51 -112q0 -60 46.5 -99.5t120.5 -39.5q73 0 125.5 44t52.5 110z" />
    <glyph glyph-name="nine.tab" horiz-adv-x="530" 
d="M108 70q7 -17 30.5 -31t62.5 -14q82 0 150 68q48 47 83 126t46 158q-26 -50 -78.5 -87t-120.5 -37q-82 0 -132.5 50t-50.5 126q0 92 68.5 166t163.5 74q83 0 135 -54q57 -57 57 -175q0 -94 -38.5 -199.5t-108.5 -173.5q-77 -77 -175 -77q-62 0 -102.5 31.5t-40.5 70.5
q0 20 11 32t27 12q13 0 23 -9t10 -24q0 -20 -20 -33zM328 632q-75 0 -130 -60t-55 -141q0 -64 39 -103t105 -39q77 0 134 60t57 136q0 64 -43 105q-40 42 -107 42z" />
    <glyph glyph-name="period.tab" horiz-adv-x="265" 
d="M107 -9q-18 0 -30 12.5t-12 30.5t12 30.5t30 12.5t30 -12.5t12 -30.5t-12 -30.5t-30 -12.5z" />
    <glyph glyph-name="comma.tab" horiz-adv-x="265" 
d="M12 -125l-8 17q43 21 69 51.5t28 53.5q-15 1 -25.5 13t-10.5 27q0 17 11.5 28t28.5 11q20 0 32 -13.5t12 -35.5q0 -42 -35 -84t-102 -68z" />
    <glyph glyph-name="colon.tab" horiz-adv-x="265" 
d="M108 -9q-18 0 -30 12.5t-12 30.5t12 30.5t30 12.5t30 -12.5t12 -30.5t-12 -30.5t-30 -12.5zM172 267q-19 0 -30.5 12.5t-11.5 31.5q0 18 12 30.5t30 12.5t30 -12.5t12 -30.5q0 -19 -12 -31.5t-30 -12.5z" />
    <glyph glyph-name="semicolon.tab" horiz-adv-x="265" 
d="M14 -125l-8 17q43 21 69 51.5t28 53.5q-15 1 -25.5 13t-10.5 27q0 17 11.5 28t28.5 11q20 0 32 -13.5t12 -35.5q0 -42 -35 -84t-102 -68zM172 267q-19 0 -30.5 12.5t-11.5 31.5q0 18 12 30.5t30 12.5t30 -12.5t12 -30.5q0 -19 -12 -31.5t-30 -12.5z" />
    <glyph glyph-name="twodotleader.tab" horiz-adv-x="530" 
d="M107 -9q-18 0 -30 12.5t-12 30.5t12 30.5t30 12.5t30 -12.5t12 -30.5t-12 -30.5t-30 -12.5zM372 -9q-18 0 -30 12.5t-12 30.5t12 30.5t30 12.5t30 -12.5t12 -30.5t-12 -30.5t-30 -12.5z" />
    <glyph glyph-name="periodcentered.tab" horiz-adv-x="265" 
d="M144 218q-18 0 -30 12.5t-12 30.5t12 30.5t30 12.5t30 -12.5t12 -30.5t-12 -30.5t-30 -12.5z" />
    <glyph glyph-name="slash.tab" horiz-adv-x="530" 
d="M-39 -206l-31 22l637 922l31 -21z" />
    <glyph glyph-name="bar.tab" horiz-adv-x="265" 
d="M116 -200v932h34v-932h-34z" />
    <glyph glyph-name="underscore.tab" horiz-adv-x="530" 
d="M-49 -133l9 38h546l-8 -38h-547z" />
    <glyph glyph-name="dollar.tab" horiz-adv-x="530" 
d="M37 139q0 20 11 33t29 13q15 0 25 -9.5t10 -22.5q0 -26 -26 -41q9 -21 38.5 -40t70.5 -28l86 280q-67 36 -103.5 73.5t-36.5 98.5q0 70 58.5 115.5t146.5 45.5q18 0 38 -3l27 93l33 -9l-27 -91q52 -15 85.5 -46.5t33.5 -65.5q0 -22 -11 -34t-27 -12q-15 0 -25.5 10
t-10.5 25q0 22 25 36q-27 36 -85 52l-80 -264q34 -18 55 -31.5t45.5 -35.5t36 -49.5t11.5 -61.5q0 -77 -59 -123t-156 -46q-15 0 -39 2l-32 -104l-33 9l29 102q-62 17 -102.5 54.5t-40.5 74.5zM429 167q0 48 -31 79.5t-90 63.5l-82 -272q10 -1 31 -1q77 0 124.5 35.5
t47.5 94.5zM183 499q0 -46 28.5 -76t83.5 -61l77 257q-20 2 -32 2q-66 -1 -111.5 -34t-45.5 -88z" />
    <glyph glyph-name="sterling.tab" horiz-adv-x="530" 
d="M223 440q0 -28 7 -79t8 -65h172l-8 -33h-163q-2 -123 -104 -192q47 -2 98 -21q5 -2 16.5 -6t16.5 -5.5t16 -4.5t19 -4.5t19.5 -2.5t24.5 -1q51 0 110 42l20 -28q-60 -51 -137 -51q-50 0 -121 27q-61 23 -114 21q-15 -20 -36 -32.5t-36 -12.5q-31 0 -31 26q0 20 24.5 35
t68.5 17q57 42 81.5 87.5t25.5 105.5h-107l8 33h97q-1 7 -7.5 60t-6.5 83q0 99 54.5 163.5t151.5 64.5q57 0 100 -32t43 -74q0 -21 -10.5 -33t-27.5 -12q-15 0 -25.5 10t-10.5 26q0 24 21 33q-7 17 -32.5 31t-59.5 14q-79 0 -122 -55t-43 -135z" />
    <glyph glyph-name="Euro.tab" horiz-adv-x="530" 
d="M64 382l8 34h65q35 111 104 180.5t152 69.5q66 0 104 -42t38 -100q0 -24 -12 -38t-29 -14q-16 0 -25.5 9.5t-9.5 24.5q0 30 32 40q-5 33 -30 58t-71 25q-66 0 -121.5 -59t-87.5 -154h182l-8 -34h-184q-16 -62 -19 -116h176l-9 -35h-168v-4q0 -94 37 -146.5t101 -52.5
q85 0 150 93l29 -23q-77 -107 -185 -107q-80 0 -128 60.5t-48 171.5v8h-76l8 35h69q5 63 19 116h-63z" />
    <glyph glyph-name="yen.tab" horiz-adv-x="530" 
d="M95 270l8 35h135l-82 317h-66l9 36h200l-8 -36h-93l78 -313l227 313h-92l8 36h201l-9 -36h-60l-235 -317h130l-8 -35h-151l-19 -82h151l-8 -35h-151l-27 -117h98l-8 -36h-239l8 36h99l27 117h-150l8 35h150l20 82h-151z" />
    <glyph glyph-name="cent.tab" horiz-adv-x="530" 
d="M434 215l-2 -40q-68 -50 -158 -50q-13 0 -33 2l-42 -143l-29 8l42 142q-55 17 -88 61t-33 106q0 100 72.5 176t172.5 77l35 117l29 -8l-33 -111q57 -7 91 -38.5t34 -65.5q0 -19 -10.5 -31t-25.5 -12q-12 0 -20 7.5t-8 22.5q0 24 22 31q-24 46 -94 53l-106 -359
q18 -2 30 -2q86 0 154 57zM130 302q0 -50 25 -84.5t67 -49.5l104 352q-80 -5 -138 -70.5t-58 -147.5z" />
    <glyph glyph-name="numbersign.tab" horiz-adv-x="530" 
d="M490 658l-55 -198h119l-8 -33h-120l-57 -203h124l-8 -33h-125l-53 -191h-38l53 191h-138l-52 -191h-38l53 191h-119l8 33h120l56 203h-123l8 33h124l56 198h38l-56 -198h138l55 198h38zM250 427l-56 -203h138l56 203h-138z" />
    <glyph glyph-name="paragraph.tab" horiz-adv-x="530" 
d="M242 36l49 210q-3 -1 -13 -1q-90 0 -145.5 49.5t-55.5 132.5q0 101 77.5 166t198.5 65h236l-8 -36h-73l-135 -586h76l-8 -36h-291l8 36h84zM278 34h57l137 590h-56z" />
    <glyph glyph-name="section.tab" horiz-adv-x="530" 
d="M86 335q0 43 47 73t125 43q-83 39 -83 101q0 52 51.5 84.5t127.5 32.5q103 0 153 -54q23 -26 23 -51q0 -19 -9.5 -30.5t-24.5 -11.5q-14 0 -23.5 9.5t-9.5 22.5q0 18 17 33q-6 9 -20 19q-37 29 -107 29q-60 0 -98.5 -23t-38.5 -57q0 -35 33 -58t98 -45l51 -19.5t42 -19
t36.5 -24t21 -29t9.5 -37.5q0 -42 -45.5 -71.5t-124.5 -45.5q81 -39 81 -100q0 -50 -50.5 -83t-128.5 -33q-105 0 -153 54q-22 25 -22 51q0 17 9.5 28.5t24.5 11.5q14 0 23.5 -9.5t9.5 -21.5q0 -20 -16 -33q2 -6 17 -16q37 -31 109 -31q61 0 98.5 23.5t37.5 55.5
q0 36 -34 58.5t-104 47.5q-38 14 -60.5 23.5t-46.5 24.5t-35 34.5t-11 43.5zM329 423q-17 5 -28 10q-78 -10 -125.5 -36.5t-47.5 -62.5q0 -32 33 -53t96 -43l37 -14q78 11 124.5 38t46.5 62q0 18 -10.5 32.5t-32.5 26.5t-41 20t-52 20z" />
    <glyph glyph-name="degree.tab" horiz-adv-x="530" 
d="M302 388q-68 0 -109 42.5t-41 105.5q0 81 57.5 144t143.5 63q69 0 110 -42.5t41 -105.5q0 -81 -58 -144t-144 -63zM303 417q71 0 119.5 53.5t48.5 122.5q0 53 -33 87t-85 34q-71 0 -119.5 -53.5t-48.5 -123.5q0 -52 33 -86t85 -34z" />
    <glyph glyph-name="percent.tab" horiz-adv-x="530" 
d="M50 -7l-24 21l256 327l257 327l25 -22l-257 -326zM183 383q-41 0 -66 29t-25 75q0 73 40 127t97 54q41 0 66 -28.5t25 -75.5q0 -73 -40 -127t-97 -54zM187 415q41 0 70 45t29 100q0 34 -16 55t-45 21q-41 0 -70 -44.5t-29 -99.5q0 -34 16 -55.5t45 -21.5zM360 -7
q-41 0 -66 28t-25 75q0 73 40 127t97 54q41 0 66 -28.5t25 -75.5q0 -73 -39.5 -126.5t-97.5 -53.5zM365 24q40 0 69 45t29 100q0 34 -16 55.5t-46 21.5q-40 0 -69 -45t-29 -100q0 -35 16 -56t46 -21z" />
    <glyph glyph-name="quotedbl.tab" horiz-adv-x="530" 
d="M201 494l33 209q5 39 36 39q27 0 27 -28q0 -11 -4 -23l-78 -197h-14zM379 494l33 209q3 20 13.5 29.5t22.5 9.5q27 0 27 -28q0 -12 -5 -23l-77 -197h-14z" />
    <glyph glyph-name="quotesingle.tab" horiz-adv-x="265" 
d="M163 494l34 209q2 20 12.5 29.5t22.5 9.5q28 0 28 -28q0 -8 -5 -23l-77 -197h-15z" />
    <glyph glyph-name="plus.tab" horiz-adv-x="530" 
d="M354 508l-36 -152h155l-8 -35h-155l-40 -170h-36l39 170h-154l8 35h154l36 152h37z" />
    <glyph glyph-name="minus.tab" horiz-adv-x="530" 
d="M119 321l8 35h346l-8 -35h-346z" />
    <glyph glyph-name="divide.tab" horiz-adv-x="530" 
d="M119 321l8 35h346l-8 -35h-346zM330 450q-14 0 -23.5 10t-9.5 23t9.5 23t23.5 10q13 0 22.5 -10t9.5 -23t-9.5 -23t-22.5 -10zM261 159q-13 0 -23 9.5t-10 23.5t10 23.5t23 9.5t22.5 -10t9.5 -23t-9.5 -23t-22.5 -10z" />
    <glyph glyph-name="equal.tab" horiz-adv-x="530" 
d="M145 394l8 34h319l-8 -34h-319zM107 229l8 34h318l-8 -34h-318z" />
    <glyph glyph-name="multiply.tab" horiz-adv-x="530" 
d="M180 502l107 -137l156 127l23 -29l-157 -127l108 -137l-30 -25l-108 138l-157 -127l-23 29l157 127l-106 136z" />
    <glyph glyph-name="less.tab" horiz-adv-x="530" 
d="M354 139l-235 185l2 10l318 177l17 -28l-278 -157l199 -160z" />
    <glyph glyph-name="greater.tab" horiz-adv-x="530" 
d="M231 519l235 -185l-2 -10l-318 -177l-17 27l279 157l-200 161z" />
    <glyph glyph-name="plusminus.tab" horiz-adv-x="530" 
d="M361 561l-37 -156h156l-8 -34h-156l-37 -160h-36l37 160h-154l8 34h154l37 156h36zM62 100l8 34h346l-8 -34h-346z" />
    <glyph glyph-name="zero.idx_P2D" horiz-adv-x="1088" 
d="M544 792q133 0 245 -66t176.5 -179t64.5 -247t-64.5 -247t-176.5 -179t-245 -66q-134 0 -246 66t-176.5 179t-64.5 247t64.5 247t176.5 179t246 66zM544 765q-126 0 -231 -62.5t-165 -169t-60 -233.5t60 -233.5t165 -169t231 -62.5t231 62.5t165 169t60 233.5t-60 233.5
t-165 169t-231 62.5zM542 65q-76 0 -126.5 67.5t-50.5 174.5q0 108 51 174.5t128 66.5q76 0 127 -67t51 -174q0 -108 -51.5 -175t-128.5 -67zM543 100q63 0 101.5 57.5t38.5 149.5t-39 149.5t-101 57.5t-101 -57.5t-39 -149.5t39 -149.5t101 -57.5z" />
    <glyph glyph-name="one.idx_P2D" horiz-adv-x="1088" 
d="M544 792q133 0 245 -66t176.5 -179t64.5 -247t-64.5 -247t-176.5 -179t-245 -66q-134 0 -246 66t-176.5 179t-64.5 247t64.5 247t176.5 179t246 66zM544 765q-126 0 -231 -62.5t-165 -169t-60 -233.5t60 -233.5t165 -169t231 -62.5t231 62.5t165 169t60 233.5t-60 233.5
t-165 169t-231 62.5zM675 73h-255v34h110v395l-106 -24l-8 33l134 32h18v-436h107v-34z" />
    <glyph glyph-name="two.idx_P2D" horiz-adv-x="1088" 
d="M544 792q133 0 245 -66t176.5 -179t64.5 -247t-64.5 -247t-176.5 -179t-245 -66q-134 0 -246 66t-176.5 179t-64.5 247t64.5 247t176.5 179t246 66zM544 765q-126 0 -231 -62.5t-165 -169t-60 -233.5t60 -233.5t165 -169t231 -62.5t231 62.5t165 169t60 233.5t-60 233.5
t-165 169t-231 62.5zM402 439q0 20 12 41q16 30 51 49t81 19q61 0 102.5 -35.5t41.5 -88.5q0 -35 -17 -64.5t-37.5 -47.5t-62.5 -48q-55 -39 -90 -76t-49 -82h230v81h34v-114h-299l-10 16q19 66 60 112.5t102 88.5q52 36 76 65t24 69q0 39 -30.5 65t-75.5 26q-67 0 -95 -42
q-6 -6 -8 -15q22 -8 22 -29q0 -13 -8.5 -21.5t-20.5 -8.5q-33 0 -33 40z" />
    <glyph glyph-name="three.idx_P2D" horiz-adv-x="1088" 
d="M544 792q133 0 245 -66t176.5 -179t64.5 -247t-64.5 -247t-176.5 -179t-245 -66q-134 0 -246 66t-176.5 179t-64.5 247t64.5 247t176.5 179t246 66zM544 765q-126 0 -231 -62.5t-165 -169t-60 -233.5t60 -233.5t165 -169t231 -62.5t231 62.5t165 169t60 233.5t-60 233.5
t-165 169t-231 62.5zM392 162q0 15 9 26t22 11q12 0 20.5 -9t8.5 -20q0 -18 -19 -27q3 -7 10 -12q29 -31 96 -31q54 0 86.5 28t32.5 69q0 58 -59 85q-37 17 -89 17h-15v33h18q54 0 91 27q41 27 41 72q0 38 -28 60t-76 22q-64 0 -90 -33q-3 -3 -7 -9h1q19 -5 19 -25
q0 -12 -8.5 -20.5t-19.5 -8.5q-13 0 -22 10t-9 27q0 21 15 42q40 51 123 51q61 0 100.5 -32.5t39.5 -82.5q0 -61 -57 -95q-22 -13 -50 -19q23 -4 49 -16q70 -33 70 -105q0 -57 -43.5 -93.5t-112.5 -36.5q-85 0 -127 47q-20 22 -20 48z" />
    <glyph glyph-name="four.idx_P2D" horiz-adv-x="1088" 
d="M544 792q133 0 245 -66t176.5 -179t64.5 -247t-64.5 -247t-176.5 -179t-245 -66q-134 0 -246 66t-176.5 179t-64.5 247t64.5 247t176.5 179t246 66zM544 765q-126 0 -231 -62.5t-165 -169t-60 -233.5t60 -233.5t165 -169t231 -62.5t231 62.5t165 169t60 233.5t-60 233.5
t-165 169t-231 62.5zM477 73v33h95v109h-221l-8 15l245 321l28 -20l-218 -285h174v119l38 17v-136h88v-32h-88v-108h74v-33h-207z" />
    <glyph glyph-name="five.idx_P2D" horiz-adv-x="1088" 
d="M544 792q133 0 245 -66t176.5 -179t64.5 -247t-64.5 -247t-176.5 -179t-245 -66q-134 0 -246 66t-176.5 179t-64.5 247t64.5 247t176.5 179t246 66zM544 765q-126 0 -231 -62.5t-165 -169t-60 -233.5t60 -233.5t165 -169t231 -62.5t231 62.5t165 169t60 233.5t-60 233.5
t-165 169t-231 62.5zM535 65q-58 0 -100.5 24.5t-42.5 57.5q0 13 8 23t22 10q12 0 20 -8.5t8 -19.5q0 -16 -11 -22q8 -13 35 -22t61 -9q53 0 86 33t33 86q0 50 -31 80.5t-87 30.5q-62 0 -108 -23l-17 10l23 225h231v-37h-200l-17 -155q37 14 91 14q68 0 110.5 -38.5
t42.5 -105.5q0 -70 -45 -112t-112 -42z" />
    <glyph glyph-name="six.idx_P2D" horiz-adv-x="1088" 
d="M544 792q133 0 245 -66t176.5 -179t64.5 -247t-64.5 -247t-176.5 -179t-245 -66q-134 0 -246 66t-176.5 179t-64.5 247t64.5 247t176.5 179t246 66zM544 765q-126 0 -231 -62.5t-165 -169t-60 -233.5t60 -233.5t165 -169t231 -62.5t231 62.5t165 169t60 233.5t-60 233.5
t-165 169t-231 62.5zM650 440q-13 0 -21 8t-8 20t9 21q-1 4 -8 9q-20 16 -58 16q-64 0 -105 -62.5t-42 -176.5q14 37 50.5 60t81.5 23q68 0 111 -41t43 -104t-44.5 -105.5t-110.5 -42.5q-69 0 -115 46q-52 52 -52 160q0 138 53.5 207.5t131.5 69.5q47 0 79 -22
q34 -22 34 -54q0 -15 -8 -23.5t-21 -8.5zM424 215q0 -46 36 -82q38 -35 88 -35t83.5 32.5t33.5 81.5t-33 81t-85 32q-51 0 -87 -32.5t-36 -77.5z" />
    <glyph glyph-name="seven.idx_P2D" horiz-adv-x="1088" 
d="M544 792q133 0 245 -66t176.5 -179t64.5 -247t-64.5 -247t-176.5 -179t-245 -66q-134 0 -246 66t-176.5 179t-64.5 247t64.5 247t176.5 179t246 66zM544 765q-126 0 -231 -62.5t-165 -169t-60 -233.5t60 -233.5t165 -169t231 -62.5t231 62.5t165 169t60 233.5t-60 233.5
t-165 169t-231 62.5zM514 68h-39l196 435h-229v-80h-36v112h304l7 -14z" />
    <glyph glyph-name="eight.idx_P2D" horiz-adv-x="1088" 
d="M544 792q133 0 245 -66t176.5 -179t64.5 -247t-64.5 -247t-176.5 -179t-245 -66q-134 0 -246 66t-176.5 179t-64.5 247t64.5 247t176.5 179t246 66zM544 765q-126 0 -231 -62.5t-165 -169t-60 -233.5t60 -233.5t165 -169t231 -62.5t231 62.5t165 169t60 233.5t-60 233.5
t-165 169t-231 62.5zM544 67q-69 0 -113.5 36t-44.5 94q0 42 30 75.5t71 43.5q-40 11 -65.5 40.5t-25.5 66.5q0 56 42.5 90t105.5 34q62 0 104.5 -34t42.5 -90q0 -37 -25.5 -66.5t-65.5 -40.5q42 -10 71.5 -43.5t29.5 -75.5q0 -57 -44 -93.5t-113 -36.5zM544 331q47 0 78 26
t31 65t-31.5 65.5t-77.5 26.5q-47 0 -78.5 -26.5t-31.5 -65.5q0 -38 32 -64.5t78 -26.5zM544 100q52 0 85.5 27.5t33.5 71.5q0 41 -35 70.5t-84 29.5q-50 0 -85 -29.5t-35 -70.5q0 -44 34 -71.5t86 -27.5z" />
    <glyph glyph-name="nine.idx_P2D" horiz-adv-x="1088" 
d="M544 792q133 0 245 -66t176.5 -179t64.5 -247t-64.5 -247t-176.5 -179t-245 -66q-134 0 -246 66t-176.5 179t-64.5 247t64.5 247t176.5 179t246 66zM544 765q-126 0 -231 -62.5t-165 -169t-60 -233.5t60 -233.5t165 -169t231 -62.5t231 62.5t165 169t60 233.5t-60 233.5
t-165 169t-231 62.5zM408 141q0 15 8 24t20 9q13 0 21 -8.5t8 -20.5q0 -13 -10 -20q3 -4 7 -6q19 -21 65 -21q63 0 103.5 58.5t41.5 171.5q-16 -33 -51.5 -55t-80.5 -22q-69 0 -111 41t-42 106q0 64 44 107t111 43t113 -44q53 -53 53 -164q0 -142 -51 -208.5t-131 -66.5
q-57 0 -94 32q-24 21 -24 44zM665 393q0 53 -37 88q-36 34 -87 34q-50 0 -83 -33t-33 -83q0 -51 32.5 -82.5t84.5 -31.5t87.5 31.5t35.5 76.5z" />
    <glyph glyph-name="space.tab" horiz-adv-x="265" 
 />
    <glyph glyph-name="NUL" 
 />
    <glyph glyph-name="hfjslug" horiz-adv-x="697" 
d="M646 -200h-208l-8 14h-163l-8 -14h-207v303q14 0 23 9.5t9 22.5t-9.5 22.5t-22.5 9.5v554h100l30 79h334l29 -79h101v-921zM402 563v-172h15v78h38v14h-38v66h43v14h-58zM186 563v-172h15v79h47v-79h15v172h-15v-79h-47v79h-15zM462 394q10 -4 21 -4q31 0 31 36v137h-16
v-137q0 -22 -16 -22q-8 0 -20 5v-15zM373 465l-13 3q-4 -18 -8 -30h-1l-16 31q23 21 23 42q0 12 -7 21.5t-20 9.5q-12 0 -20 -9.5t-8 -21.5q0 -13 14 -39q-23 -18 -23 -47q0 -16 8 -26.5t21 -10.5q19 0 29 24h1l12 -24l12 6l-17 32q6 14 13 39zM525 323v-46h8v12l8 8l15 -20
h10l-20 26l18 20h-10l-20 -24h-1v24h-8zM490 292l10 -15h9l-12 17q10 4 10 14q0 15 -17 15h-20v-46h8v15h12zM428 276q10 0 17 7t7 17q0 9 -7 16.5t-17 7.5t-17 -7.5t-7 -16.5q0 -10 7 -17t17 -7zM372 301l-13 22h-9l18 -29v-17h8v17l18 29h-9zM195 323v-46h34v7h-26v13h23
v7h-23v12h26v7h-34zM134 323v-46h8v32l25 -32h7v46h-8v-32l-25 32h-7zM243 323l14 -47h8l11 34h1l11 -34h8l14 47h-8l-10 -35h-1l-11 35h-7l-11 -35h-1l-10 35h-8zM329 479q-12 22 -12 32q0 19 14 19q13 0 13 -19q0 -15 -15 -32zM344 423q-8 -21 -20 -21q-16 0 -16 25
q0 19 16 35zM489 299h-11v17h11q10 0 10 -8q0 -9 -10 -9zM428 283q-16 0 -16 17q0 6 4.5 11.5t11.5 5.5t11.5 -5.5t4.5 -11.5q0 -17 -16 -17z" />
    <glyph glyph-name="i.dot" horiz-adv-x="275" 
d="M197 519q-13 0 -23 10t-10 24t10 24t23 10t23 -10t10 -24t-10 -24t-23 -10zM136 -6q-31 0 -49.5 17.5t-18.5 47.5q0 19 10 56l77 268h-87l7 33h126l-86 -306q-10 -35 -10 -52q0 -16 9.5 -25.5t25.5 -9.5q18 0 32 15.5t29 52.5l24 -7q-17 -47 -38 -68.5t-51 -21.5z" />
    <glyph glyph-name="zero.num" horiz-adv-x="353" 
d="M180 275q-51 0 -79.5 37t-28.5 98q0 96 46 167.5t116 71.5q50 0 78.5 -37t28.5 -99q0 -95 -46 -166.5t-115 -71.5zM182 303q54 0 90 64t36 144q0 50 -19.5 79.5t-57.5 29.5q-54 0 -90 -64t-36 -143q0 -51 19.5 -80.5t57.5 -29.5z" />
    <glyph glyph-name="one.num" horiz-adv-x="353" 
d="M60 280l7 29h102l71 302l-107 -26v29l130 33l15 -7l-77 -331h100l-6 -29h-235z" />
    <glyph glyph-name="two.num" horiz-adv-x="353" 
d="M53 280l-6 15q22 55 63 92t107 73q48 26 72 48.5t24 51.5q0 26 -20.5 42.5t-54.5 16.5q-35 0 -58 -13t-29 -29q13 -8 13 -20q0 -11 -7 -18t-17 -7q-11 0 -18 8.5t-7 21.5q0 31 35.5 58.5t89.5 27.5q47 0 76.5 -24t29.5 -64q0 -38 -29 -65t-87 -59q-55 -30 -90 -59.5
t-52 -69.5h178l15 66h29l-21 -93h-236z" />
    <glyph glyph-name="three.num" horiz-adv-x="353" 
d="M181 276q-48 0 -82 23.5t-34 54.5q0 12 7 21t18 9q10 0 16.5 -6.5t6.5 -15.5q0 -16 -16 -21q6 -15 29.5 -26.5t54.5 -11.5q45 0 72.5 22.5t27.5 56.5q0 30 -27 51t-68 21h-17l7 28h16q51 0 83 22t32 54q0 29 -23 45t-59 16q-55 0 -68 -29q13 -5 13 -18q0 -9 -7.5 -15.5
t-16.5 -6.5q-11 0 -17.5 8.5t-6.5 21.5q0 26 30 47t79 21q48 0 79 -25t31 -62q0 -38 -29.5 -63.5t-75.5 -31.5q35 -8 56.5 -31t21.5 -54q0 -47 -38.5 -76t-94.5 -29z" />
    <glyph glyph-name="four.num" horiz-adv-x="353" 
d="M210 306l20 84h-171l-4 14l243 246l20 -18l-217 -217h135l22 89l33 13l-24 -101h65l-6 -26h-65l-19 -84h52l-6 -26h-149l6 26h65z" />
    <glyph glyph-name="five.num" horiz-adv-x="353" 
d="M163 274q-41 0 -72 20t-31 45q0 28 24 28q9 0 15.5 -6t6.5 -16q0 -11 -9 -16q18 -28 69 -28q50 0 84.5 31t34.5 73q0 33 -21 52t-59 19q-47 0 -84 -17l-15 12l56 170h187l-6 -30h-162l-41 -122q36 14 74 14q45 0 74 -26.5t29 -68.5q0 -55 -44.5 -94.5t-109.5 -39.5z" />
    <glyph glyph-name="six.num" horiz-adv-x="353" 
d="M111 305q-34 33 -34 95q0 54 22 110.5t60 92.5q50 45 104 45q38 0 62.5 -18t24.5 -42q0 -13 -7.5 -21t-17.5 -8q-9 0 -15.5 6t-6.5 16q0 13 10 20q-10 20 -49 20q-45 0 -85 -38q-55 -55 -69 -144q39 65 111 65q47 0 76 -27.5t29 -69.5q0 -52 -40.5 -92.5t-95.5 -40.5
q-50 0 -79 31zM190 303q42 0 72.5 30.5t30.5 71.5q0 32 -21 52.5t-56 20.5q-42 0 -73.5 -30.5t-31.5 -69.5q0 -31 22 -53q20 -22 57 -22z" />
    <glyph glyph-name="seven.num" horiz-adv-x="353" 
d="M109 280l227 335h-179l-15 -64h-30l22 91h237l8 -15l-233 -347h-37z" />
    <glyph glyph-name="eight.num" horiz-adv-x="353" 
d="M190 275q-53 0 -88 28t-35 69q0 40 31 68.5t73 32.5q-26 11 -41.5 31.5t-15.5 45.5q0 39 35.5 68.5t89.5 29.5q49 0 81 -26t32 -65q0 -35 -26 -59.5t-66 -33.5q27 -10 44 -31.5t17 -50.5q0 -46 -37.5 -76.5t-93.5 -30.5zM227 481q38 0 65 21.5t27 52.5q0 28 -22.5 46.5
t-58.5 18.5q-38 0 -64.5 -20.5t-26.5 -51.5q0 -29 23.5 -48t56.5 -19zM189 303q41 0 70.5 23t29.5 56q0 32 -25 52.5t-65 20.5q-42 0 -70.5 -23t-28.5 -57q0 -31 25 -51.5t64 -20.5z" />
    <glyph glyph-name="nine.num" horiz-adv-x="353" 
d="M98 516q0 52 40.5 92t95.5 40q49 0 79 -30q34 -33 34 -95q0 -54 -22 -110.5t-60 -92.5q-49 -46 -104 -46q-37 0 -62 18.5t-25 41.5q0 13 7.5 21.5t17.5 8.5q9 0 15.5 -6.5t6.5 -15.5q0 -13 -10 -20q11 -21 49 -21q44 0 85 38q53 51 69 144q-40 -65 -111 -65q-47 0 -76 28
t-29 70zM234 620q-42 0 -72.5 -30.5t-30.5 -71.5q0 -33 21 -53t56 -20q42 0 73.5 30.5t31.5 69.5q0 31 -22 53t-57 22z" />
    <glyph glyph-name="zero.den" horiz-adv-x="353" 
d="M115 -5q-51 0 -79.5 37t-28.5 98q0 96 46 167.5t116 71.5q50 0 78.5 -37t28.5 -99q0 -95 -46 -166.5t-115 -71.5zM117 23q54 0 90 64t36 144q0 50 -19.5 79.5t-57.5 29.5q-54 0 -90 -64t-36 -143q0 -51 19.5 -80.5t57.5 -29.5z" />
    <glyph glyph-name="one.den" horiz-adv-x="353" 
d="M-5 0l7 29h102l71 302l-107 -26v29l130 33l15 -7l-77 -331h100l-6 -29h-235z" />
    <glyph glyph-name="two.den" horiz-adv-x="353" 
d="M-12 0l-6 15q22 55 63 92t107 73q48 26 72 48.5t24 51.5q0 26 -20.5 42.5t-54.5 16.5q-35 0 -58 -13t-29 -29q13 -8 13 -20q0 -11 -7 -18t-17 -7q-11 0 -18 8.5t-7 21.5q0 31 35.5 58.5t89.5 27.5q47 0 76.5 -24t29.5 -64q0 -38 -29 -65t-87 -59q-55 -30 -90 -59.5
t-52 -69.5h178l15 66h29l-21 -93h-236z" />
    <glyph glyph-name="three.den" horiz-adv-x="353" 
d="M116 -4q-48 0 -82 23.5t-34 54.5q0 12 7 21t18 9q10 0 16.5 -6.5t6.5 -15.5q0 -16 -16 -21q6 -15 29.5 -26.5t54.5 -11.5q45 0 72.5 22.5t27.5 56.5q0 30 -27 51t-68 21h-17l7 28h16q51 0 83 22t32 54q0 29 -23 45t-59 16q-55 0 -68 -29q13 -5 13 -18q0 -9 -7.5 -15.5
t-16.5 -6.5q-11 0 -17.5 8.5t-6.5 21.5q0 26 30 47t79 21q48 0 79 -25t31 -62q0 -38 -29.5 -63.5t-75.5 -31.5q35 -8 56.5 -31t21.5 -54q0 -47 -38.5 -76t-94.5 -29z" />
    <glyph glyph-name="four.den" horiz-adv-x="353" 
d="M145 26l20 84h-171l-4 14l243 246l20 -18l-217 -217h135l22 89l33 13l-24 -101h65l-6 -26h-65l-19 -84h52l-6 -26h-149l6 26h65z" />
    <glyph glyph-name="five.den" horiz-adv-x="353" 
d="M98 -6q-41 0 -72 20t-31 45q0 28 24 28q9 0 15.5 -6t6.5 -16q0 -11 -9 -16q18 -28 69 -28q50 0 84.5 31t34.5 73q0 33 -21 52t-59 19q-47 0 -84 -17l-15 12l56 170h187l-6 -30h-162l-41 -122q36 14 74 14q45 0 74 -26.5t29 -68.5q0 -55 -44.5 -94.5t-109.5 -39.5z" />
    <glyph glyph-name="six.den" horiz-adv-x="353" 
d="M46 25q-34 33 -34 95q0 54 22 110.5t60 92.5q50 45 104 45q38 0 62.5 -18t24.5 -42q0 -13 -7.5 -21t-17.5 -8q-9 0 -15.5 6t-6.5 16q0 13 10 20q-10 20 -49 20q-45 0 -85 -38q-55 -55 -69 -144q39 65 111 65q47 0 76 -27.5t29 -69.5q0 -52 -40.5 -92.5t-95.5 -40.5
q-50 0 -79 31zM125 23q42 0 72.5 30.5t30.5 71.5q0 32 -21 52.5t-56 20.5q-42 0 -73.5 -30.5t-31.5 -69.5q0 -31 22 -53q20 -22 57 -22z" />
    <glyph glyph-name="seven.den" horiz-adv-x="353" 
d="M44 0l227 335h-179l-15 -64h-30l22 91h237l8 -15l-233 -347h-37z" />
    <glyph glyph-name="eight.den" horiz-adv-x="353" 
d="M125 -5q-53 0 -88 28t-35 69q0 40 31 68.5t73 32.5q-26 11 -41.5 31.5t-15.5 45.5q0 39 35.5 68.5t89.5 29.5q49 0 81 -26t32 -65q0 -35 -26 -59.5t-66 -33.5q27 -10 44 -31.5t17 -50.5q0 -46 -37.5 -76.5t-93.5 -30.5zM162 201q38 0 65 21.5t27 52.5q0 28 -22.5 46.5
t-58.5 18.5q-38 0 -64.5 -20.5t-26.5 -51.5q0 -29 23.5 -48t56.5 -19zM124 23q41 0 70.5 23t29.5 56q0 32 -25 52.5t-65 20.5q-42 0 -70.5 -23t-28.5 -57q0 -31 25 -51.5t64 -20.5z" />
    <glyph glyph-name="nine.den" horiz-adv-x="353" 
d="M33 236q0 52 40.5 92t95.5 40q49 0 79 -30q34 -33 34 -95q0 -54 -22 -110.5t-60 -92.5q-49 -46 -104 -46q-37 0 -62 18.5t-25 41.5q0 13 7.5 21.5t17.5 8.5q9 0 15.5 -6.5t6.5 -15.5q0 -13 -10 -20q10 -21 49 -21q44 0 85 38q53 51 69 144q-40 -65 -111 -65q-47 0 -76 28
t-29 70zM169 340q-42 0 -72.5 -30.5t-30.5 -71.5q0 -33 21 -53t56 -20q42 0 73.5 30.5t31.5 69.5q0 31 -22 53t-57 22z" />
    <glyph glyph-name="caron.alt" horiz-adv-x="503" 
d="M201 536l-11 12q42 50 51 87q4 13 5.5 36t2.5 27q3 29 29 29q25 0 25 -26q0 -32 -27 -78q-25 -43 -75 -87z" />
    <glyph glyph-name="g.sc" 
 />
    <glyph glyph-name="gbreve.sc" 
 />
    <glyph glyph-name="i.sc" 
 />
    <glyph glyph-name="iacute.sc" 
 />
    <glyph glyph-name="ibreve.sc" 
 />
    <glyph glyph-name="icircumflex.sc" 
 />
    <glyph glyph-name="idieresis.sc" 
 />
    <glyph glyph-name="igrave.sc" 
 />
    <glyph glyph-name="imacron.sc" 
 />
    <glyph glyph-name="iogonek.sc" 
 />
    <glyph glyph-name="S.sc" 
 />
    <glyph glyph-name="Sacute.sc" 
 />
    <glyph glyph-name="Aring.sc" 
 />
    <glyph glyph-name="Aringacute.sc" 
 />
    <glyph glyph-name="E.sc" 
 />
    <glyph glyph-name="Eacute.sc" 
 />
    <glyph glyph-name="Ebreve.sc" 
 />
    <glyph glyph-name="Ecircumflex.sc" 
 />
    <glyph glyph-name="Edieresis.sc" 
 />
    <glyph glyph-name="Egrave.sc" 
 />
    <glyph glyph-name="Emacron.sc" 
 />
    <glyph glyph-name="Eogonek.sc" 
 />
    <glyph glyph-name="N.sc" 
 />
    <glyph glyph-name="Nacute.sc" 
 />
    <glyph glyph-name="Ntilde.sc" 
 />
    <glyph glyph-name="a.sc" 
 />
    <glyph glyph-name="aogonek.sc" 
 />
    <glyph glyph-name="L.sc" 
 />
    <glyph glyph-name="Lacute.sc" 
 />
    <glyph glyph-name="s.sc" 
 />
    <glyph glyph-name="sacute.sc" 
 />
    <glyph glyph-name="aring.sc" 
 />
    <glyph glyph-name="aringacute.sc" 
 />
    <glyph glyph-name="C.sc" 
 />
    <glyph glyph-name="Cacute.sc" 
 />
    <glyph glyph-name="e.sc" 
 />
    <glyph glyph-name="eacute.sc" 
 />
    <glyph glyph-name="ebreve.sc" 
 />
    <glyph glyph-name="ecircumflex.sc" 
 />
    <glyph glyph-name="edieresis.sc" 
 />
    <glyph glyph-name="egrave.sc" 
 />
    <glyph glyph-name="emacron.sc" 
 />
    <glyph glyph-name="eogonek.sc" 
 />
    <glyph glyph-name="n.sc" 
 />
    <glyph glyph-name="nacute.sc" 
 />
    <glyph glyph-name="ntilde.sc" 
 />
    <glyph glyph-name="l.sc" 
 />
    <glyph glyph-name="lacute.sc" 
 />
    <glyph glyph-name="c.sc" 
 />
    <glyph glyph-name="cacute.sc" 
 />
    <glyph glyph-name="R.sc" 
 />
    <glyph glyph-name="Racute.sc" 
 />
    <glyph glyph-name="G.sc" 
 />
    <glyph glyph-name="Gbreve.sc" 
 />
    <glyph glyph-name="I.sc" 
 />
    <glyph glyph-name="Iacute.sc" 
 />
    <glyph glyph-name="Ibreve.sc" 
 />
    <glyph glyph-name="Icircumflex.sc" 
 />
    <glyph glyph-name="Idieresis.sc" 
 />
    <glyph glyph-name="Igrave.sc" 
 />
    <glyph glyph-name="Imacron.sc" 
 />
    <glyph glyph-name="Iogonek.sc" 
 />
    <glyph glyph-name="r.sc" 
 />
    <glyph glyph-name="racute.sc" 
 />
    <glyph glyph-name="A.sc" 
 />
    <glyph glyph-name="Aogonek.sc" 
 />
    </font>
</defs>
</svg>
