<?xml version="1.0" standalone="no"?>
<!DOCTYPE svg PUBLIC "-//W3C//DTD SVG 1.1//EN" "http://www.w3.org/Graphics/SVG/1.1/DTD/svg11.dtd" >
<svg>
<metadata>
Created by FontForge 20110222 at Fri May  9 17:01:30 2014
 By Orthosie Webhosting
Copyright (C) 2000, 2007 Hoefler &#38; Frere-Jones. http://www.typography.com
</metadata>
<defs>
<font id="ArcherBookItalic" horiz-adv-x="0" >
  <font-face 
    font-family="ArcherBookItalic"
    font-weight="325"
    font-style="italic"
    font-stretch="normal"
    units-per-em="1000"
    panose-1="2 0 0 0 0 0 0 0 0 0"
    ascent="800"
    descent="-200"
    x-height="420"
    cap-height="658"
    bbox="-113 -267 1042 1045"
    underline-thickness="50"
    underline-position="-50"
    slope="-12"
    unicode-range="U+0020-FB04"
  />
<missing-glyph horiz-adv-x="500" 
d="M0 -200v1000h500v-1000h-500zM71 750l179 -390l179 390h-358zM50 -76l172 376l-172 376v-752zM450 676l-172 -376l172 -376v752zM250 240l-179 -390h358z" />
    <glyph glyph-name="f_f" unicode="ff" horiz-adv-x="566" 
d="M368 622q-43 0 -43 47q-26 -5 -45 -24q-29 -27 -44 -93l-31 -132h212l38 162q17 73 59 115q38 38 96 38q32 0 51 -14t19 -37q0 -17 -12 -29t-28 -12q-20 0 -31.5 12.5t-11.5 34.5q-28 -3 -49 -24q-29 -27 -44 -93l-35 -153h109l-11 -46h-109l-86 -374h-52l87 374h-212
l-86 -374h-52l86 374h-75l11 46h75l33 141q17 73 59 115q38 38 92 38q32 0 51 -14t19 -37q0 -17 -12 -29t-28 -12z" />
    <glyph glyph-name="fi" unicode="fi" horiz-adv-x="540" 
d="M411 374h-216l-86 -374h-52l87 374h-76l11 46h76l32 136q14 59 35 95q48 84 146 84q43 0 68 -18.5t25 -43.5q0 -20 -12 -33t-31 -13t-29.5 12.5t-10.5 28.5q0 11 4 18q-14 2 -22 2q-60 0 -95 -60q-20 -35 -30 -81l-30 -127h271l-88 -315q-7 -25 -7 -40t8.5 -24t22.5 -9
q31 0 58 66l31 -10q-32 -94 -96 -94q-33 0 -54.5 20t-21.5 51q0 17 8 45z" />
    <glyph glyph-name="fl" unicode="fl" horiz-adv-x="538" 
d="M79 420h75l39 166q10 48 38 83q52 66 136 66q72 0 106 -59l31 56h29l-146 -625q-7 -35 -7 -42q0 -15 8.5 -24t22.5 -9q31 0 58 66l31 -10q-32 -94 -96 -94q-33 0 -54.5 20t-21.5 51q0 9 7 42l64 267h-204l-86 -374h-52l87 374h-76zM242 578l-37 -158h205l34 141l3 12
q-29 10 -29 39q0 23 18 36q-24 40 -73 40q-53 0 -88 -40q-24 -27 -33 -70z" />
    <glyph glyph-name="f_f_i" unicode="ffi" horiz-adv-x="803" 
d="M320 0l87 374h-212l-86 -374h-52l87 374h-76l11 46h75l34 144q11 48 38 83q52 66 136 66q31 0 58 -12.5t27 -41.5q0 -19 -12 -30.5t-28 -11.5q-20 0 -31.5 14t-11.5 35h-6q-52 0 -87 -40q-25 -28 -34 -70l-32 -136h213l32 136q14 59 35 95q48 84 146 84q43 0 68 -18.5
t25 -43.5q0 -20 -12 -33t-31 -13t-29.5 12.5t-10.5 28.5q0 11 4 18q-14 2 -22 2q-60 0 -95 -60q-20 -35 -30 -81l-30 -127h271l-88 -315q-7 -25 -7 -40t8.5 -24t22.5 -9q31 0 58 66l31 -10q-32 -94 -96 -94q-33 0 -54.5 20t-21.5 51q0 17 8 45l74 264h-216l-86 -374h-52z
" />
    <glyph glyph-name="f_f_l" unicode="ffl" horiz-adv-x="801" 
d="M68 374l11 46h75l34 144q11 48 38 83q52 66 136 66q31 0 58 -12.5t27 -41.5q0 -19 -12 -30.5t-28 -11.5q-20 0 -31.5 14t-11.5 35h-6q-52 0 -87 -40q-25 -28 -34 -70l-32 -136h212l39 166q10 48 38 83q52 66 136 66q72 0 106 -59l31 56h29l-146 -625q-7 -35 -7 -42
q0 -15 8.5 -24t22.5 -9q31 0 58 66l31 -10q-32 -94 -96 -94q-33 0 -54.5 20t-21.5 51q0 9 7 42l64 267h-204l-86 -374h-52l87 374h-212l-86 -374h-52l87 374h-76zM505 578l-37 -158h205l34 141l3 12q-29 10 -29 39q0 23 18 36q-24 40 -73 40q-53 0 -88 -40q-24 -27 -33 -70z
" />
    <glyph glyph-name="f_b" unicode="fb" horiz-adv-x="802" 
d="M57 0l87 374h-76l11 46h75l39 166q10 48 38 83q52 66 136 66q72 0 106 -59l31 56h32l-92 -393q63 89 150 89q70 0 116 -48.5t46 -128.5q0 -108 -68 -183.5t-156 -75.5q-55 0 -93.5 29t-49.5 78l-24 -99h-52l87 374h-205l-86 -374h-52zM531 39q72 0 120.5 62.5t48.5 143.5
q0 63 -30.5 99.5t-84.5 36.5q-72 0 -125.5 -69.5t-53.5 -147.5q0 -56 33.5 -90.5t91.5 -34.5zM418 612q0 23 18 36q-24 40 -73 40q-53 0 -88 -40q-24 -27 -33 -70l-37 -158h206l33 141l3 12q-29 10 -29 39z" />
    <glyph glyph-name="f_h" unicode="fh" horiz-adv-x="797" 
d="M313 0l87 374h-205l-86 -374h-52l87 374h-76l11 46h75l39 166q10 48 38 83q52 66 136 66q72 0 106 -59l31 56h32l-96 -405q62 100 147 100q52 0 86.5 -31t35.5 -78q0 -28 -10 -65l-40 -148q-6 -23 -6 -40q0 -15 8.5 -24t22.5 -9q31 0 57 66l31 -10q-30 -94 -94 -94
q-33 0 -55 20t-22 51q0 19 7 45l40 150q8 29 8 56q-1 29 -22.5 47.5t-53.5 18.5q-50 0 -100 -49.5t-69 -132.5l-46 -200h-52zM418 612q0 23 18 36q-24 40 -73 40q-53 0 -88 -40q-24 -27 -33 -70l-37 -158h206l33 141l3 12q-29 10 -29 39z" />
    <glyph glyph-name="f_j" unicode="fj" horiz-adv-x="505" 
d="M473 420l-108 -467q-18 -76 -57 -115q-38 -38 -98 -38q-27 0 -46.5 13.5t-19.5 34.5q0 19 11.5 30t28.5 11q16 0 27 -11.5t11 -25.5q0 -2 -0.5 -4.5t-0.5 -3.5q27 3 47 20q32 28 48 98l95 412h-216l-86 -374h-52l87 374h-76l11 46h76l32 136q14 59 35 95q48 84 146 84
q43 0 68 -18.5t25 -43.5q0 -20 -12 -33t-31 -13t-29.5 12.5t-10.5 28.5q0 11 4 18q-14 2 -22 2q-60 0 -95 -60q-20 -35 -30 -81l-30 -127h268z" />
    <glyph glyph-name="f_k" unicode="fk" horiz-adv-x="733" 
d="M313 0l87 374h-205l-86 -374h-52l87 374h-76l11 46h75l39 166q10 48 38 83q52 66 136 66q72 0 106 -59l31 56h32l-123 -525q92 42 150 79t70 58q-9 4 -16 15.5t-7 21.5q0 20 13 33.5t33 13.5q19 0 31.5 -13t12.5 -35q0 -74 -183 -167l46 -116q16 -41 26 -52t26 -11
q30 0 48 77l33 -11q-23 -106 -86 -106q-32 0 -55 20q-20 18 -36 58l-49 121l-67 -31l-38 -162h-52zM418 612q0 23 18 36q-24 40 -73 40q-53 0 -88 -40q-24 -27 -33 -70l-37 -158h206l33 141l3 12q-29 10 -29 39z" />
    <glyph glyph-name="f_f_b" unicode="ffb" horiz-adv-x="1065" 
d="M79 420h75l34 144q11 48 38 83q52 66 136 66q31 0 58 -12.5t27 -41.5q0 -19 -12 -30.5t-28 -11.5q-20 0 -31.5 14t-11.5 35h-6q-52 0 -87 -40q-25 -28 -34 -70l-32 -136h212l39 166q10 48 38 83q52 66 136 66q72 0 106 -59l31 56h32l-92 -393q63 89 150 89
q70 0 116 -48.5t46 -128.5q0 -108 -68 -183.5t-156 -75.5q-55 0 -93.5 29t-49.5 78l-24 -99h-52l87 374h-205l-86 -374h-52l87 374h-212l-86 -374h-52l87 374h-76zM794 39q72 0 120.5 62.5t48.5 143.5q0 63 -30.5 99.5t-84.5 36.5q-72 0 -125.5 -69.5t-53.5 -147.5
q0 -56 33.5 -90.5t91.5 -34.5zM681 612q0 23 18 36q-24 40 -73 40q-53 0 -88 -40q-24 -27 -33 -70l-37 -158h206l33 141l3 12q-29 10 -29 39z" />
    <glyph glyph-name="f_f_h" unicode="ffh" horiz-adv-x="1060" 
d="M576 0l87 374h-205l-86 -374h-52l87 374h-212l-86 -374h-52l87 374h-76l11 46h75l34 144q11 48 38 83q52 66 136 66q31 0 58 -12.5t27 -41.5q0 -19 -12 -30.5t-28 -11.5q-20 0 -31.5 14t-11.5 35h-6q-52 0 -87 -40q-25 -28 -34 -70l-32 -136h212l39 166q10 48 38 83
q52 66 136 66q72 0 106 -59l31 56h32l-96 -405q62 100 147 100q52 0 86.5 -31t35.5 -78q0 -28 -10 -65l-40 -148q-6 -23 -6 -40q0 -15 8.5 -24t22.5 -9q31 0 57 66l31 -10q-30 -94 -94 -94q-33 0 -55 20t-22 51q0 19 7 45l40 150q8 29 8 56q-1 29 -22.5 47.5t-53.5 18.5
q-50 0 -100 -49.5t-69 -132.5l-46 -200h-52zM681 612q0 23 18 36q-24 40 -73 40q-53 0 -88 -40q-24 -27 -33 -70l-37 -158h206l33 141l3 12q-29 10 -29 39z" />
    <glyph glyph-name="f_f_j" unicode="ffj" horiz-adv-x="768" 
d="M57 0l87 374h-76l11 46h75l34 144q11 48 38 83q52 66 136 66q31 0 58 -12.5t27 -41.5q0 -19 -12 -30.5t-28 -11.5q-20 0 -31.5 14t-11.5 35h-6q-52 0 -87 -40q-25 -28 -34 -70l-32 -136h213l32 136q14 59 35 95q48 84 146 84q43 0 68 -18.5t25 -43.5q0 -20 -12 -33
t-31 -13t-29.5 12.5t-10.5 28.5q0 11 4 18q-14 2 -22 2q-60 0 -95 -60q-20 -35 -30 -81l-30 -127h268l-108 -467q-18 -76 -57 -115q-38 -38 -98 -38q-27 0 -46.5 13.5t-19.5 34.5q0 19 11.5 30t28.5 11q16 0 27 -11.5t11 -25.5q0 -2 -0.5 -4.5t-0.5 -3.5q27 3 47 20
q32 28 48 98l95 412h-216l-86 -374h-52l87 374h-212l-86 -374h-52z" />
    <glyph glyph-name="f_f_k" unicode="ffk" horiz-adv-x="996" 
d="M576 0l87 374h-205l-86 -374h-52l87 374h-212l-86 -374h-52l87 374h-76l11 46h75l34 144q11 48 38 83q52 66 136 66q31 0 58 -12.5t27 -41.5q0 -19 -12 -30.5t-28 -11.5q-20 0 -31.5 14t-11.5 35h-6q-52 0 -87 -40q-25 -28 -34 -70l-32 -136h212l39 166q10 48 38 83
q52 66 136 66q72 0 106 -59l31 56h32l-123 -525q92 42 150 79t70 58q-9 4 -16 15.5t-7 21.5q0 20 13 33.5t33 13.5q19 0 31.5 -13t12.5 -35q0 -74 -183 -167l46 -116q16 -41 26 -52t26 -11q30 0 48 77l33 -11q-23 -106 -86 -106q-32 0 -55 20q-20 18 -36 58l-49 121l-67 -31
l-38 -162h-52zM681 612q0 23 18 36q-24 40 -73 40q-53 0 -88 -40q-24 -27 -33 -70l-37 -158h206l33 141l3 12q-29 10 -29 39z" />
    <glyph glyph-name=".notdef" horiz-adv-x="500" 
d="M0 -200v1000h500v-1000h-500zM71 750l179 -390l179 390h-358zM50 -76l172 376l-172 376v-752zM450 676l-172 -376l172 -376v752zM250 240l-179 -390h358z" />
    <glyph glyph-name=".null" 
 />
    <glyph glyph-name="nonmarkingreturn" horiz-adv-x="333" 
 />
    <glyph glyph-name="space" unicode=" " horiz-adv-x="210" 
 />
    <glyph glyph-name="exclam" unicode="!" horiz-adv-x="234" 
d="M103 164l84 493h68l-128 -493h-24zM90 -8q-21 0 -35.5 15t-14.5 36t14.5 36.5t35.5 15.5t35.5 -15.5t14.5 -36.5t-14.5 -36t-35.5 -15z" />
    <glyph glyph-name="quotedbl" unicode="&#x22;" horiz-adv-x="281" 
d="M214 440l26 180q7 50 43 50q18 0 28 -10.5t10 -26.5q0 -13 -6 -26l-82 -167h-19zM86 440l26 180q7 50 43 50q18 0 28 -10.5t10 -26.5q0 -13 -6 -26l-82 -167h-19z" />
    <glyph glyph-name="numbersign" unicode="#" horiz-adv-x="519" 
d="M67 328l12 46h107l35 127h46l-35 -127h138l35 127h46l-35 -127h96l-12 -46h-97l-42 -152h107l-12 -46h-107l-36 -130h-46l36 130h-139l-35 -130h-46l36 130h-96l12 46h96l42 152h-106zM219 328l-42 -152h138l42 152h-138z" />
    <glyph glyph-name="dollar" unicode="$" horiz-adv-x="461" 
d="M159 -105l-41 11q11 41 29 98q-52 15 -85 45t-33 62q0 21 13 36.5t32 15.5q18 0 29 -11.5t11 -26.5q0 -21 -21 -40q17 -23 69 -37l57 192q-54 26 -84 54.5t-30 74.5q0 58 48.5 97t121.5 39q3 0 10 -0.5t11 -0.5l20 69l41 -11l-19 -65q46 -13 75.5 -39.5t29.5 -56.5
q0 -23 -13 -37t-30 -14q-18 0 -29 11t-11 28q0 21 18 38q-14 16 -56 26l-53 -178q29 -14 46.5 -24.5t38 -27.5t30.5 -38.5t10 -48.5q0 -64 -51.5 -103t-121.5 -39q-12 0 -32 2zM341 129q0 31 -22 51.5t-65 42.5l-53 -182q7 -1 20 -1q48 0 84 24t36 65zM159 375q0 -45 75 -83
l48 167h-11q-46 0 -79 -22.5t-33 -61.5z" />
    <glyph glyph-name="percent" unicode="%" horiz-adv-x="605" 
d="M166 270q-44 0 -69.5 28t-25.5 71q0 54 37.5 97.5t91.5 43.5q44 0 69.5 -28t25.5 -71q0 -54 -37.5 -97.5t-91.5 -43.5zM424 -8q-44 0 -69.5 28t-25.5 71q0 54 37.5 97.5t91.5 43.5q44 0 69.5 -28t25.5 -71q0 -54 -37.5 -97.5t-91.5 -43.5zM69 -9l-28 31l252 240l260 247
l28 -31l-259 -246zM167 306q32 0 59 32t27 75q0 27 -15 44t-39 17q-32 0 -59 -32t-27 -75q0 -27 15 -44t39 -17zM425 28q32 0 59 32t27 75q0 27 -15 44t-39 17q-32 0 -59 -32t-27 -75q0 -27 15 -44t39 -17z" />
    <glyph glyph-name="ampersand" unicode="&#x26;" horiz-adv-x="586" 
d="M7 132q0 74 48 122t134 86q-33 59 -33 116q0 71 44.5 118.5t112.5 47.5q56 0 91.5 -34t35.5 -82q0 -34 -14 -61.5t-43.5 -50.5t-56.5 -38t-72 -36q7 -11 35 -45l84 -102q42 63 74 91.5t73 28.5q28 0 43 -14t15 -33q0 -18 -12.5 -30.5t-29.5 -12.5q-34 0 -42 36
q-26 -7 -82 -90q-6 -9 -9 -13l99 -119l-36 -30l-93 115q-98 -114 -208 -114q-72 0 -115 42t-43 102zM170 35q54 0 94.5 27t79.5 75l-92 114q-11 14 -41 53q-75 -38 -112 -75t-37 -94q0 -42 29 -71t79 -29zM206 460q0 -58 25 -104q82 36 119.5 69.5t37.5 76.5q0 31 -21.5 53
t-58.5 22q-44 0 -73 -35t-29 -82z" />
    <glyph glyph-name="quotesingle" unicode="'" horiz-adv-x="153" 
d="M86 440l26 180q7 50 43 50q18 0 28 -10.5t10 -26.5q0 -13 -6 -26l-82 -167h-19z" />
    <glyph glyph-name="parenleft" unicode="(" horiz-adv-x="340" 
d="M270 -219q-190 157 -190 398q0 181 98.5 335t255.5 238l25 -39q-147 -83 -234.5 -227.5t-87.5 -306.5q0 -218 161 -362z" />
    <glyph glyph-name="parenright" unicode=")" horiz-adv-x="340" 
d="M-53 -219l-25 39q147 83 234.5 227.5t87.5 306.5q0 218 -161 362l28 36q190 -157 190 -398q0 -181 -98.5 -335t-255.5 -238z" />
    <glyph glyph-name="asterisk" unicode="*" horiz-adv-x="380" 
d="M316 398q-27 0 -34 31l-24 100l-56 -85q-13 -20 -32 -20q-13 0 -22 8.5t-9 21.5q0 20 20 33l85 55l-96 27q-31 9 -31 35q0 13 9 21t23 8t27 -11l78 -63l-3 100q-1 20 9 31t23 11q17 0 26.5 -15t0.5 -37l-38 -93l95 32q9 3 19 3q13 0 22.5 -9t9.5 -21q0 -16 -12.5 -25
t-30.5 -7l-99 7l61 -81q10 -13 10 -28q0 -12 -10 -20.5t-21 -8.5z" />
    <glyph glyph-name="plus" unicode="+" horiz-adv-x="399" 
d="M273 420l-30 -131h135l-11 -48h-135l-35 -151h-50l35 151h-135l11 48h135l30 131h50z" />
    <glyph glyph-name="comma" unicode="," horiz-adv-x="184" 
d="M-47 -135l-11 22q51 23 81.5 56.5t33.5 56.5q-18 4 -29.5 19t-11.5 31q0 21 14.5 35.5t36.5 14.5q23 0 38.5 -17t15.5 -43q0 -50 -42 -98.5t-126 -76.5z" />
    <glyph glyph-name="hyphen" unicode="-" horiz-adv-x="244" 
d="M33 250l13 52h179l-11 -52h-181z" />
    <glyph glyph-name="period" unicode="." horiz-adv-x="184" 
d="M68 -8q-22 0 -37 15.5t-15 38.5t15 38.5t37 15.5t37 -15.5t15 -38.5t-15 -38.5t-37 -15.5z" />
    <glyph glyph-name="slash" unicode="/" horiz-adv-x="355" 
d="M-55 -207l-46 25l510 921l46 -25z" />
    <glyph glyph-name="zero" unicode="0" horiz-adv-x="557" 
d="M260 -9q-93 0 -149 65t-56 158q0 117 74.5 205t185.5 88q92 0 148.5 -65t56.5 -158q0 -117 -74.5 -205t-185.5 -88zM260 40q88 0 146 72t58 171q0 74 -43 124.5t-107 50.5q-88 0 -146 -72t-58 -171q0 -74 43 -124.5t107 -50.5z" />
    <glyph glyph-name="one" unicode="1" horiz-adv-x="372" 
d="M2 0l11 46h120l91 395l-115 -29l-1 50l163 43l19 -9l-104 -450h118l-11 -46h-291z" />
    <glyph glyph-name="two" unicode="2" horiz-adv-x="474" 
d="M3 0l-6 31q27 68 88.5 115t160.5 97q72 37 108.5 67.5t36.5 68.5q0 33 -31.5 57.5t-92.5 24.5q-76 0 -115 -47q24 -10 24 -38q0 -17 -12 -29t-29 -12q-19 0 -32.5 13t-13.5 34q0 50 53.5 88.5t126.5 38.5q82 0 129 -37t47 -89q0 -32 -14 -59t-44 -50t-56 -38.5t-69 -36.5
q-92 -45 -133.5 -76.5t-65.5 -76.5h271l20 88h49l-31 -134h-369z" />
    <glyph glyph-name="three" unicode="3" horiz-adv-x="479" 
d="M183 -125q-71 0 -130 35t-59 90q0 23 13.5 38t33.5 15q18 0 28.5 -11t10.5 -25q0 -12 -9 -23.5t-23 -15.5q10 -22 46.5 -39t92.5 -17q69 0 113 37t44 94q0 56 -47 92t-120 36h-19l12 47h21q91 0 147.5 37t56.5 94q0 46 -35 74t-95 28q-75 0 -112 -37q27 -10 27 -36
q0 -16 -12 -27t-29 -11q-18 0 -30.5 14t-12.5 33q0 45 53.5 78.5t116.5 33.5q85 0 134 -41t49 -103q0 -67 -48 -107t-126 -55q59 -19 91 -58t32 -89q0 -76 -63 -128.5t-152 -52.5z" />
    <glyph glyph-name="four" unicode="4" horiz-adv-x="522" 
d="M393 284l-41 -175h117l-11 -46h-116l-42 -183h-54l42 183h-284l-4 19l405 426l35 -31l-350 -368h208l36 154z" />
    <glyph glyph-name="five" unicode="5" horiz-adv-x="477" 
d="M169 -122q-68 0 -117.5 32t-49.5 73q0 19 12.5 33.5t32.5 14.5q17 0 28.5 -10.5t11.5 -27.5q0 -22 -18 -33q29 -34 102 -34q75 0 125.5 48.5t50.5 119.5q0 59 -38.5 89t-100.5 30t-120 -29l-21 15l100 302h294l-11 -50h-252l-66 -204q34 15 89 15q79 0 130.5 -45
t51.5 -119q0 -90 -68.5 -155t-165.5 -65z" />
    <glyph glyph-name="six" unicode="6" horiz-adv-x="524" 
d="M112 45q-55 55 -55 165q0 97 37.5 191.5t106.5 160.5q77 74 175 74q59 0 101 -28.5t42 -67.5q0 -22 -11.5 -36t-33.5 -14q-17 0 -28.5 10.5t-11.5 27.5q0 23 19 35q-22 27 -83 27q-73 0 -138 -63q-41 -39 -74.5 -106t-45.5 -136q26 43 74 74.5t115 31.5q79 0 126.5 -49
t47.5 -124q0 -90 -68 -158t-162 -68q-80 0 -133 53zM112 174q0 -56 35 -93q38 -40 104 -40q69 0 118.5 52t49.5 121q0 57 -33 93t-93 36q-78 0 -129.5 -51t-51.5 -118z" />
    <glyph glyph-name="seven" unicode="7" horiz-adv-x="471" 
d="M74 -123l-42 25l378 554h-271l-24 -95h-51l33 140h375l12 -23z" />
    <glyph glyph-name="eight" unicode="8" horiz-adv-x="487" 
d="M218 -8q-78 0 -130.5 46.5t-52.5 113.5q0 68 44.5 115.5t114.5 64.5q-76 46 -76 132q0 66 57 119t139 53q75 0 122 -44t47 -111q0 -63 -37.5 -106.5t-103.5 -61.5q90 -48 90 -139q0 -73 -63 -127.5t-151 -54.5zM286 344q62 0 103.5 38t41.5 95q0 49 -32.5 80.5
t-88.5 31.5q-60 0 -99.5 -38t-39.5 -95q0 -46 32.5 -79t82.5 -33zM220 39q68 0 112.5 40.5t44.5 97.5q0 54 -38.5 88.5t-93.5 34.5q-69 0 -112.5 -42.5t-43.5 -99.5q0 -53 38 -86t93 -33z" />
    <glyph glyph-name="nine" unicode="9" horiz-adv-x="524" 
d="M168 -125q-59 0 -101 28.5t-42 67.5q0 22 11.5 36t33.5 14q17 0 28.5 -10.5t11.5 -27.5q0 -23 -19 -35q23 -27 83 -27q72 0 135 58q44 40 76.5 106t42.5 132q-25 -43 -73.5 -75t-115.5 -32q-79 0 -126.5 49t-47.5 124q0 90 68.5 158t162.5 68q79 0 132 -53
q55 -55 55 -165q0 -98 -35 -186.5t-93 -146.5q-43 -43 -86.5 -63t-100.5 -20zM428 327q0 58 -34 93q-38 40 -104 40q-69 0 -119 -52t-50 -121q0 -57 33 -93t93 -36q78 0 129.5 51t51.5 118z" />
    <glyph glyph-name="colon" unicode=":" horiz-adv-x="204" 
d="M138 255q-22 0 -37 15.5t-15 38.5t15 38.5t37 15.5t37 -15.5t15 -38.5t-15 -38.5t-37 -15.5zM78 -8q-22 0 -37 15.5t-15 38.5t15 38.5t37 15.5t37 -15.5t15 -38.5t-15 -38.5t-37 -15.5z" />
    <glyph glyph-name="semicolon" unicode=";" horiz-adv-x="204" 
d="M138 255q-22 0 -37 15.5t-15 38.5t15 38.5t37 15.5t37 -15.5t15 -38.5t-15 -38.5t-37 -15.5zM-37 -135l-11 22q51 23 81.5 56.5t33.5 56.5q-18 4 -29.5 19t-11.5 31q0 21 14.5 35.5t36.5 14.5q23 0 38.5 -17t15.5 -43q0 -50 -42 -98.5t-126 -76.5z" />
    <glyph glyph-name="less" unicode="&#x3c;" horiz-adv-x="399" 
d="M263 84l-212 163l5 20l279 159l24 -38l-236 -134l171 -132z" />
    <glyph glyph-name="equal" unicode="=" horiz-adv-x="399" 
d="M85 306l11 48h280l-11 -48h-280zM50 157l11 48h280l-11 -48h-280z" />
    <glyph glyph-name="greater" unicode="&#x3e;" horiz-adv-x="399" 
d="M86 88l-24 38l236 134l-171 132l31 38l212 -163l-5 -20z" />
    <glyph glyph-name="question" unicode="?" horiz-adv-x="441" 
d="M124 165l32 162q129 4 196 58.5t67 123.5q0 53 -35.5 82t-89.5 29q-42 0 -74.5 -16.5t-40.5 -36.5q11 -4 20 -15t9 -25q0 -18 -13.5 -30.5t-31.5 -12.5q-20 0 -33.5 15t-13.5 38q0 51 57 92t126 41q77 0 126.5 -44t49.5 -113q0 -84 -75 -150.5t-200 -78.5l-40 -119h-36z
M117 -8q-21 0 -35.5 15t-14.5 36t14.5 36.5t35.5 15.5t35.5 -15.5t14.5 -36.5t-14.5 -36t-35.5 -15z" />
    <glyph glyph-name="at" unicode="@" horiz-adv-x="802" 
d="M330 -174q-127 0 -204.5 83.5t-77.5 208.5q0 202 127.5 343t301.5 141q129 0 205 -77t76 -205q0 -117 -55 -199.5t-132 -82.5q-44 0 -64.5 25.5t-15.5 58.5q-20 -39 -56 -61.5t-78 -22.5q-56 0 -93 38.5t-37 102.5q0 84 56 146t130 62q49 0 77.5 -25t34.5 -60l20 82h47
l-55 -221q-11 -41 -1.5 -63t37.5 -22q59 0 101.5 74t42.5 169q0 107 -65.5 175.5t-175.5 68.5q-158 0 -272.5 -130.5t-114.5 -317.5q0 -105 67 -179.5t175 -74.5q87 0 161 40l17 -33q-80 -44 -179 -44zM367 83q60 0 101 51.5t41 112.5q0 45 -25.5 70t-69.5 25
q-57 0 -95.5 -48.5t-38.5 -113.5q0 -46 22.5 -71.5t64.5 -25.5z" />
    <glyph glyph-name="A" unicode="A" horiz-adv-x="706" 
d="M-26 0l12 50h61l334 558h-78l12 50h272l-12 -50h-76l76 -558h71l-12 -50h-202l12 50h73l-24 186h-275l-110 -186h85l-12 -50h-207zM248 286h238l-43 327z" />
    <glyph glyph-name="B" unicode="B" horiz-adv-x="604" 
d="M8 0l12 50h83l129 558h-93l12 50h240q73 0 123 -29q71 -41 71 -123q0 -67 -47.5 -113.5t-122.5 -57.5q53 -14 88 -52t35 -92q0 -75 -56 -126q-43 -40 -111 -56q-37 -9 -82 -9h-281zM233 364h91q91 0 147.5 37.5t56.5 102.5q0 58 -52 85q-38 19 -96 19h-91zM160 50h136
q38 0 70 9q48 13 80 45q35 35 35 87t-47.5 88.5t-135.5 36.5h-76z" />
    <glyph glyph-name="C" unicode="C" horiz-adv-x="693" 
d="M356 -12q-120 0 -201 78t-81 212q0 157 110.5 274.5t259.5 117.5q110 0 173 -53t63 -105q0 -31 -15.5 -48.5t-36.5 -17.5t-33.5 11.5t-12.5 29.5q0 30 33 47q-9 32 -55 58.5t-119 26.5q-89 0 -161 -51.5t-109 -127.5t-37 -155q0 -116 62.5 -180.5t165.5 -64.5
q119 0 218 94l32 -36q-112 -110 -256 -110z" />
    <glyph glyph-name="D" unicode="D" horiz-adv-x="715" 
d="M8 0l12 50h83l129 558h-93l12 50h206q96 0 157.5 -22t109.5 -70q67 -67 67 -176q0 -160 -102 -262q-128 -128 -355 -128h-226zM160 50h85q190 0 294 104q91 91 91 233q0 92 -53 145q-38 38 -89.5 57t-135.5 19h-63z" />
    <glyph glyph-name="E" unicode="E" horiz-adv-x="588" 
d="M8 0l12 50h83l129 558h-93l12 50h472l-35 -149h-55l23 99h-267l-57 -247h218l-11 -50h-218l-61 -261h267l23 99h55l-34 -149h-463z" />
    <glyph glyph-name="F" unicode="F" horiz-adv-x="566" 
d="M8 0l12 50h83l129 558h-93l12 50h464l-35 -149h-55l23 99h-259l-60 -259h214l-11 -50h-214l-58 -249h98l-12 -50h-238z" />
    <glyph glyph-name="G" unicode="G" horiz-adv-x="720" 
d="M528 0l13 60q-94 -72 -210 -72q-112 0 -184.5 74t-72.5 195q0 164 112.5 288.5t273.5 124.5q59 0 111.5 -19t83.5 -48q38 -36 38 -77q0 -27 -15.5 -43.5t-36.5 -16.5t-33.5 11.5t-12.5 29.5q0 30 33 47q-9 13 -21 22q-58 43 -150 43q-73 0 -135 -32t-102.5 -84t-63 -116
t-22.5 -128q0 -97 55 -159t152 -62q119 0 212 77l36 147h-191l12 49h246l-74 -311h-54z" />
    <glyph glyph-name="H" unicode="H" horiz-adv-x="776" 
d="M8 0l12 50h83l129 558h-93l12 50h233l-12 -50h-83l-56 -244h383l55 244h-93l12 50h233l-12 -50h-83l-129 -558h93l-12 -50h-233l12 50h83l62 263h-383l-61 -263h93l-12 -50h-233z" />
    <glyph glyph-name="I" unicode="I" horiz-adv-x="349" 
d="M5 0l12 50h93l128 558h-93l12 50h243l-12 -50h-93l-128 -558h93l-12 -50h-243z" />
    <glyph glyph-name="J" unicode="J" horiz-adv-x="559" 
d="M202 -12q-72 0 -122.5 41t-50.5 112q0 34 20 58t48 24q18 0 30.5 -11.5t12.5 -27.5q0 -21 -16 -35.5t-43 -10.5q-4 -43 32 -71.5t94 -28.5q73 0 116 53q36 44 54 126l89 391h-113l12 50h253l-12 -50h-83l-92 -400q-23 -98 -67 -151q-59 -69 -162 -69z" />
    <glyph glyph-name="K" unicode="K" horiz-adv-x="652" 
d="M639 608l-275 -232l155 -326h89l-12 -50h-117l-160 340l-115 -98l-44 -192h93l-12 -50h-233l12 50h83l129 558h-93l12 50h233l-12 -50h-83l-69 -299l351 299h-94l11 50h238l-11 -50h-76z" />
    <glyph glyph-name="L" unicode="L" horiz-adv-x="552" 
d="M8 0l12 50h83l129 558h-93l12 50h238l-12 -50h-88l-129 -558h244l25 104h55l-36 -154h-440z" />
    <glyph glyph-name="M" unicode="M" horiz-adv-x="874" 
d="M4 0l12 50h84l154 558h-97l12 50h153l105 -486l330 486h148l-12 -50h-86l-104 -558h94l-12 -50h-230l12 50h81l100 514l-335 -489h-12l-111 489l-136 -514h91l-12 -50h-229z" />
    <glyph glyph-name="N" unicode="N" horiz-adv-x="760" 
d="M559 -3l-282 569l-119 -516h93l-12 -50h-231l12 50h83l129 558h-93l12 50h141l269 -543l113 493h-93l12 50h227l-12 -50h-80l-141 -611h-28z" />
    <glyph glyph-name="O" unicode="O" horiz-adv-x="734" 
d="M347 -12q-127 0 -200 79t-73 199q0 99 46.5 191.5t132.5 152.5t188 60q127 0 200 -79t73 -199q0 -99 -46.5 -191.5t-132.5 -152.5t-188 -60zM352 40q126 0 214.5 107t88.5 243q0 98 -56 163t-163 65q-126 0 -214.5 -107t-88.5 -243q0 -98 56 -163t163 -65z" />
    <glyph glyph-name="P" unicode="P" horiz-adv-x="560" 
d="M8 0l12 50h83l129 558h-93l12 50h212q45 0 80 -9q68 -17 102 -61.5t34 -106.5q0 -99 -72.5 -167t-196.5 -68q-59 0 -103 2l-47 -198h93l-12 -50h-233zM319 296q98 0 150.5 53.5t52.5 126.5q0 98 -98 124q-32 8 -69 8h-66l-71 -310q48 -2 101 -2z" />
    <glyph glyph-name="Q" unicode="Q" horiz-adv-x="734" 
d="M714 392q0 -90 -39 -175t-111 -146t-160 -77q24 -39 66 -63t91 -24q31 0 64 17l18 -49q-43 -21 -83 -21q-72 0 -130 38.5t-93 95.5q-123 4 -193 82t-70 196q0 99 46.5 191.5t132.5 152.5t188 60q127 0 200 -79t73 -199zM352 40q126 0 214.5 107t88.5 243q0 98 -56 163
t-163 65q-126 0 -214.5 -107t-88.5 -243q0 -98 56 -163t163 -65z" />
    <glyph glyph-name="R" unicode="R" horiz-adv-x="602" 
d="M8 0l12 50h83l129 558h-93l12 50h197q128 0 188 -60q43 -43 43 -112q0 -74 -51 -128.5t-142 -73.5l112 -234h77l-12 -50h-105l-130 277q-13 -1 -41 -1q-32 0 -74 2l-53 -228h93l-12 -50h-233zM312 326q97 0 153.5 44t56.5 114q0 49 -32 81q-43 43 -145 43h-56l-65 -280
q48 -2 88 -2z" />
    <glyph glyph-name="S" unicode="S" horiz-adv-x="544" 
d="M265 -12q-93 0 -158 46t-65 97q0 27 15 43.5t38 16.5q19 0 31.5 -12.5t12.5 -27.5q0 -32 -31 -50q17 -26 59 -44.5t102 -18.5q61 0 106.5 37t45.5 92q0 43 -29 73.5t-84 64.5q-39 24 -60.5 39.5t-46.5 39.5t-36 50.5t-11 59.5q0 72 59 124t145 52q77 0 134.5 -38
t57.5 -88q0 -27 -15 -42.5t-35 -15.5q-19 0 -31.5 12.5t-12.5 30.5q0 26 29 43q-44 48 -131 48q-62 0 -102.5 -34.5t-40.5 -87.5q0 -43 28.5 -72t96.5 -71q33 -21 54 -36t43.5 -38t33.5 -50t11 -60q0 -79 -62 -131t-151 -52z" />
    <glyph glyph-name="T" unicode="T" horiz-adv-x="633" 
d="M152 0l12 50h88l128 558h-183l-24 -104h-55l36 154h533l-36 -154h-55l24 104h-183l-128 -558h98l-12 -50h-243z" />
    <glyph glyph-name="U" unicode="U" horiz-adv-x="724" 
d="M342 -12q-102 0 -157 52t-55 138q0 34 9 72l83 358h-93l12 50h233l-12 -50h-83l-83 -361q-8 -37 -8 -67q0 -66 38.5 -104t120.5 -38q79 0 127.5 48t66.5 126l90 396h-93l12 50h233l-12 -50h-83l-93 -405q-22 -99 -85 -157t-168 -58z" />
    <glyph glyph-name="V" unicode="V" horiz-adv-x="690" 
d="M277 -11l-98 619h-72l12 50h202l-12 -50h-72l78 -531l320 531h-79l12 50h201l-12 -50h-62l-384 -619h-34z" />
    <glyph glyph-name="W" unicode="W" horiz-adv-x="929" 
d="M209 -11l-22 619h-70l12 50h202l-12 -50h-82l14 -516l273 481h24l55 -482l272 517h-80l12 50h201l-12 -50h-66l-329 -619h-32l-58 467l-270 -467h-32z" />
    <glyph glyph-name="X" unicode="X" horiz-adv-x="706" 
d="M-12 0l12 50h77l277 292l-128 266h-86l12 50h233l-12 -50h-85l105 -234l219 234h-84l12 50h233l-12 -50h-83l-261 -275l139 -283h82l-12 -50h-233l12 50h89l-114 253l-237 -253h90l-12 -50h-233z" />
    <glyph glyph-name="Y" unicode="Y" horiz-adv-x="623" 
d="M122 0l13 50h96l54 219l-114 339h-72l13 50h208l-11 -50h-79l95 -293l239 293h-75l13 50h208l-11 -50h-69l-292 -349l-49 -209h96l-11 -50h-252z" />
    <glyph glyph-name="Z" unicode="Z" horiz-adv-x="605" 
d="M8 0v24l550 587h-346l-24 -102h-55l34 149h482v-24l-550 -587h362l24 102h55l-34 -149h-498z" />
    <glyph glyph-name="bracketleft" unicode="[" horiz-adv-x="331" 
d="M12 -200l217 932h216l-11 -47h-160l-196 -838h160l-11 -47h-215z" />
    <glyph glyph-name="backslash" unicode="\" horiz-adv-x="291" 
d="M167 -199l-65 927l52 4l65 -927z" />
    <glyph glyph-name="bracketright" unicode="]" horiz-adv-x="331" 
d="M-90 -200l11 47h160l196 838h-160l11 47h215l-217 -932h-216z" />
    <glyph glyph-name="asciicircum" unicode="^" horiz-adv-x="438" 
d="M137 377l-23 30l175 133l106 -140l-26 -23l-91 86z" />
    <glyph glyph-name="underscore" unicode="_" horiz-adv-x="502" 
d="M-37 -140l13 52h521l-11 -52h-523z" />
    <glyph glyph-name="grave" unicode="`" horiz-adv-x="500" 
d="M403 504l-118 76q-28 19 -28 42q0 15 11 26t26 11q22 0 42 -27l83 -112z" />
    <glyph glyph-name="a" unicode="a" horiz-adv-x="552" 
d="M200 -8q-69 0 -112 47t-43 127q0 107 67 184.5t158 77.5q56 0 92.5 -29t45.5 -80l25 106h52l-78 -320q-7 -28 -7 -40q0 -15 8.5 -24t22.5 -9q31 0 58 66l31 -10q-32 -94 -96 -94q-33 0 -53.5 19t-20.5 48v17q-65 -86 -150 -86zM211 39q52 0 93.5 35t62.5 83.5t21 97.5
q0 58 -30 92t-86 34q-73 0 -122 -64.5t-49 -149.5q0 -60 28.5 -94t81.5 -34z" />
    <glyph glyph-name="b" unicode="b" horiz-adv-x="524" 
d="M35 0l160 686h-80l11 46h132l-92 -393q63 89 150 89q70 0 116 -48.5t46 -128.5q0 -108 -68 -183.5t-156 -75.5q-55 0 -93.5 29t-49.5 78l-24 -99h-52zM253 39q72 0 120.5 62.5t48.5 143.5q0 63 -30.5 99.5t-84.5 36.5q-72 0 -125.5 -69.5t-53.5 -147.5q0 -56 33.5 -90.5
t91.5 -34.5z" />
    <glyph glyph-name="c" unicode="c" horiz-adv-x="453" 
d="M224 -8q-78 0 -129 48.5t-51 129.5q0 100 70 179t166 79q72 0 111 -34t39 -72q0 -22 -13.5 -37t-33.5 -15q-13 0 -23.5 9t-10.5 28q0 8 6.5 19t16.5 14q-25 41 -93 41q-73 0 -127.5 -64t-54.5 -146q0 -59 36.5 -95.5t99.5 -36.5q76 0 139 60l-3 -55q-66 -52 -145 -52z
" />
    <glyph glyph-name="d" unicode="d" horiz-adv-x="555" 
d="M46 167q0 108 66.5 184.5t154.5 76.5q55 0 94 -29t48 -80l85 367h-80l11 46h132l-147 -627q-7 -28 -7 -40q0 -33 30 -33q32 0 59 66l31 -10q-32 -94 -96 -94q-32 0 -52.5 19.5t-20.5 50.5q0 9 1 14q-65 -86 -150 -86q-70 0 -114.5 47.5t-44.5 127.5zM216 39
q75 0 125 67.5t50 146.5q0 58 -32 93t-88 35q-73 0 -121 -64t-48 -149q0 -59 30.5 -94t83.5 -35z" />
    <glyph glyph-name="e" unicode="e" horiz-adv-x="470" 
d="M414 196h-318q-1 -9 -1 -27q0 -62 42 -96.5t100 -34.5q65 0 138 39l-12 -54q-62 -31 -135 -31q-77 0 -131 47.5t-54 128.5q0 106 70.5 183t164.5 77q71 0 112 -41t41 -108q0 -37 -17 -83zM274 381q-55 0 -101.5 -40t-66.5 -101h268q8 24 8 48q0 39 -27.5 66t-80.5 27z
" />
    <glyph glyph-name="f" unicode="f" horiz-adv-x="303" 
d="M57 0l87 374h-76l11 46h75l38 162q17 73 59 115q38 38 96 38q32 0 51 -14t19 -37q0 -17 -12 -29t-28 -12q-20 0 -31.5 12.5t-11.5 34.5q-28 -3 -49 -24q-29 -29 -44 -93l-35 -153h109l-11 -46h-109l-86 -374h-52z" />
    <glyph glyph-name="g" unicode="g" horiz-adv-x="524" 
d="M177 -200q-40 0 -81.5 14.5t-58.5 31.5q-21 21 -21 43q0 20 11.5 33.5t31.5 13.5q19 0 30 -13t11 -31q0 -15 -9 -27q35 -21 88 -21q66 0 106 40q37 37 55 113l21 90q-54 -87 -151 -87q-70 0 -117 47.5t-47 126.5q0 106 67.5 180t159.5 74q57 0 94 -30t46 -79l25 106h52
l-101 -435q-21 -91 -66 -136q-54 -54 -146 -54zM220 47q75 0 124 65t49 144q0 58 -31.5 91.5t-88.5 33.5q-74 0 -122.5 -61t-48.5 -145q0 -59 32 -93.5t86 -34.5z" />
    <glyph glyph-name="h" unicode="h" horiz-adv-x="519" 
d="M35 0l160 686h-80l11 46h132l-96 -405q62 101 147 101q52 0 86.5 -31t35.5 -78q0 -29 -10 -66l-40 -148q-6 -23 -6 -40q0 -15 8.5 -24t22.5 -9q31 0 57 66l31 -10q-30 -94 -94 -94q-33 0 -55 20t-22 51q0 19 7 45l40 150q8 29 8 57q-1 29 -22.5 47.5t-53.5 18.5
q-50 0 -100 -50t-69 -133l-46 -200h-52z" />
    <glyph glyph-name="i" unicode="i" horiz-adv-x="282" 
d="M201 512q-18 0 -30.5 13t-12.5 31t12.5 31t30.5 13q17 0 29.5 -13t12.5 -31t-12.5 -31t-29.5 -13zM142 -6q-33 0 -54.5 20t-21.5 51q0 17 8 45l74 264h-84l12 46h137l-88 -315q-7 -25 -7 -40t8.5 -24t22.5 -9q31 0 58 66l31 -10q-32 -94 -96 -94z" />
    <glyph glyph-name="j" unicode="j" horiz-adv-x="248" 
d="M-47 -200q-27 0 -46.5 13.5t-19.5 34.5q0 19 11.5 30t28.5 11q16 0 27 -11.5t11 -25.5q0 -6 -1 -8q29 3 47 20q32 28 48 98l95 412h-87l12 46h137l-108 -467q-18 -76 -57 -115q-38 -38 -98 -38zM204 512q-18 0 -30.5 13t-12.5 31t12.5 31t30.5 13q17 0 29.5 -13t12.5 -31
t-12.5 -31t-29.5 -13z" />
    <glyph glyph-name="k" unicode="k" horiz-adv-x="455" 
d="M87 0h-52l160 686h-80l11 46h132l-123 -525q92 42 150 79t70 58q-9 4 -16 15.5t-7 21.5q0 20 13 33.5t33 13.5q19 0 31.5 -13t12.5 -35q0 -74 -183 -167l46 -116q16 -41 26 -52t26 -11q30 0 48 77l33 -11q-23 -106 -86 -106q-32 0 -55 20q-20 18 -36 58l-49 121l-67 -31z
" />
    <glyph glyph-name="l" unicode="l" horiz-adv-x="265" 
d="M131 -6q-33 0 -54.5 20t-21.5 51q0 7 7 42l135 579h-79l11 46h131l-146 -625q-7 -35 -7 -42q0 -15 8.5 -24t22.5 -9q31 0 58 66l31 -10q-32 -94 -96 -94z" />
    <glyph glyph-name="m" unicode="m" horiz-adv-x="781" 
d="M47 0l94 374h-80l12 46h129l-27 -101q68 109 150 109q49 0 78.5 -28t30.5 -77q31 49 70.5 77t80.5 28q49 0 80 -31t31 -78q0 -22 -12 -66l-43 -147q-7 -25 -7 -41q0 -15 8.5 -24t22.5 -9q31 0 58 66l31 -10q-32 -94 -96 -94q-33 0 -54.5 20t-21.5 51q0 18 8 46l43 149
q10 37 10 57q0 29 -18 47.5t-48 18.5q-48 0 -96 -49.5t-70 -134.5l-52 -199h-52l67 260q10 37 10 57q0 29 -18.5 47.5t-48.5 18.5q-48 0 -97.5 -50t-70.5 -133l-50 -200h-52z" />
    <glyph glyph-name="n" unicode="n" horiz-adv-x="531" 
d="M408 -6q-33 0 -54.5 20t-21.5 51q0 18 8 46l43 149q10 37 10 57q0 29 -20.5 47.5t-52.5 18.5q-50 0 -100 -49.5t-71 -133.5l-50 -200h-52l94 374h-80l12 46h129l-26 -101q68 109 152 109q52 0 85 -31t33 -78q0 -22 -12 -66l-43 -147q-7 -25 -7 -41q0 -15 8.5 -24t22.5 -9
q31 0 58 66l31 -10q-32 -94 -96 -94z" />
    <glyph glyph-name="o" unicode="o" horiz-adv-x="502" 
d="M220 -8q-81 0 -128.5 52t-47.5 128q0 102 69.5 179t168.5 77q81 0 128.5 -52t47.5 -128q0 -102 -69.5 -179t-168.5 -77zM223 39q76 0 129 62.5t53 147.5q0 59 -35.5 95.5t-90.5 36.5q-76 0 -129 -62.5t-53 -147.5q0 -59 35.5 -95.5t90.5 -36.5z" />
    <glyph glyph-name="p" unicode="p" horiz-adv-x="539" 
d="M-62 -196l11 46h65l126 524h-80l11 46h129l-19 -81q63 89 150 89q70 0 116 -48.5t46 -128.5q0 -108 -68 -183.5t-156 -75.5q-53 0 -92.5 27.5t-52.5 73.5l-57 -243h92l-11 -46h-210zM268 39q72 0 120.5 62.5t48.5 143.5q0 63 -30.5 99.5t-84.5 36.5q-72 0 -125.5 -69.5
t-53.5 -146.5q0 -56 33.5 -91t91.5 -35z" />
    <glyph glyph-name="q" unicode="q" horiz-adv-x="525" 
d="M204 -8q-69 0 -114 48t-45 128q0 106 68 183t160 77q54 0 91.5 -29t47.5 -78l24 99h52l-133 -570h91l-11 -46h-144l65 274q-63 -86 -152 -86zM215 39q77 0 127.5 68.5t50.5 145.5q0 58 -30.5 93t-86.5 35q-74 0 -124.5 -64t-50.5 -148q0 -59 30.5 -94.5t83.5 -35.5z" />
    <glyph glyph-name="r" unicode="r" horiz-adv-x="363" 
d="M47 0l94 374h-80l12 46h129l-28 -114q89 122 142 122q24 0 37.5 -12.5t13.5 -31.5q0 -20 -14 -34.5t-33 -14.5q-36 0 -44 34q-35 -20 -75 -69.5t-56 -115.5l-46 -184h-52z" />
    <glyph glyph-name="s" unicode="s" horiz-adv-x="410" 
d="M198 -8q-42 0 -81.5 15.5t-63.5 39.5q-23 23 -23 49q0 19 12 33t30 14t27.5 -10.5t9.5 -25.5q0 -18 -16 -35q4 -6 18 -14q39 -22 91 -22q38 0 63.5 19t25.5 50q0 28 -21.5 46.5t-63.5 39.5q-31 15 -47 24.5t-35 24.5t-27.5 32.5t-8.5 39.5q0 51 40 83.5t105 32.5
q81 0 125 -44q23 -21 23 -49q0 -20 -12 -33t-28 -13q-17 0 -27.5 10t-10.5 26q0 18 13 35q-6 6 -17 11q-28 13 -70 13q-41 0 -65 -18.5t-24 -45.5q0 -17 13 -32t29 -25t46 -25q37 -18 58.5 -32t39 -38.5t17.5 -54.5q0 -56 -42.5 -88.5t-102.5 -32.5z" />
    <glyph glyph-name="t" unicode="t" horiz-adv-x="324" 
d="M321 374h-129l-66 -269q-5 -22 -5 -36q0 -12 9.5 -21.5t25.5 -9.5q27 0 91 42l22 -31q-78 -57 -124 -57q-35 0 -57 20t-22 50q0 14 7 44l67 268h-74l12 46h73l26 103l56 16l-30 -119h130z" />
    <glyph glyph-name="u" unicode="u" horiz-adv-x="531" 
d="M68 420h132l-71 -272q-7 -26 -7 -51q0 -26 19 -43t51 -17q50 0 100 50t71 133l50 200h52l-79 -315q-7 -28 -7 -40q0 -15 8.5 -24t22.5 -9q31 0 58 66l31 -10q-32 -94 -96 -94q-33 0 -52.5 19t-19.5 52q0 13 5 36q-66 -109 -152 -109q-51 0 -83 28.5t-32 74.5q0 21 9 57
l58 222h-80z" />
    <glyph glyph-name="v" unicode="v" horiz-adv-x="457" 
d="M170 -17l-69 391h-79l12 46h116l54 -364q62 69 110 147t62 132q-16 3 -28 15.5t-12 30.5q0 20 13 33.5t33 13.5q21 0 35 -15.5t14 -43.5q0 -54 -73 -170.5t-168 -215.5h-20z" />
    <glyph glyph-name="w" unicode="w" horiz-adv-x="650" 
d="M140 -17l-34 391h-77l12 46h110l25 -340l172 285h16l67 -298q121 178 131 268q-41 8 -41 46q0 20 13 33.5t33 13.5q21 0 35 -15t14 -39q0 -119 -193 -391h-18l-64 294l-182 -294h-19z" />
    <glyph glyph-name="x" unicode="x" horiz-adv-x="525" 
d="M62 -6q-24 0 -38.5 14t-14.5 33q0 18 12.5 30.5t29.5 12.5q33 0 42 -36q15 5 31 23t49 62l66 90l-58 151h-86l12 46h107l56 -162l52 74q68 96 123 96q28 0 43.5 -14t15.5 -33q0 -18 -12.5 -30.5t-29.5 -12.5q-34 0 -43 36q-21 -8 -70 -73l-60 -82l51 -123
q16 -39 26 -51.5t21 -12.5q25 0 45 65l30 -9q-26 -94 -83 -94q-29 0 -46.5 17.5t-33.5 60.5l-41 113l-66 -95q-36 -52 -65.5 -74t-64.5 -22z" />
    <glyph glyph-name="y" unicode="y" horiz-adv-x="474" 
d="M-18 -200q-23 0 -41.5 14.5t-18.5 35.5q0 18 12 31.5t30 13.5q39 0 42 -46h5q47 0 171 152l-75 373h-78l11 46h114l67 -369q157 205 174 284q-17 5 -29 18t-12 32q0 17 13 30t32 13q21 0 35 -15.5t14 -43.5q0 -54 -48.5 -135t-166.5 -232q-90 -115 -147 -158.5
t-104 -43.5z" />
    <glyph glyph-name="z" unicode="z" horiz-adv-x="468" 
d="M28 -7l-19 23l361 360h-223l-21 -82h-48l31 126h330l14 -22l-351 -349q28 11 62 11q26 0 70 -10.5t66 -10.5q29 0 43.5 16.5t31.5 66.5l31 -7q-18 -69 -39 -96t-69 -27q-28 0 -82.5 14t-82.5 14q-56 0 -105 -27z" />
    <glyph glyph-name="braceleft" unicode="{" horiz-adv-x="318" 
d="M189 -213q-74 9 -113 52.5t-39 104.5q0 68 79 141q21 19 30.5 29.5t19.5 26t10 29.5q0 27 -20 48.5t-64 21.5h-37l14 57h37q50 0 80 25.5t30 61.5q0 34 -24 85q-28 62 -28 106q0 71 62 121t181 52l-10 -41q-91 -5 -136 -44t-45 -87q0 -38 26 -97q25 -57 25 -95
q0 -49 -30.5 -80t-78.5 -38q70 -21 70 -93q0 -52 -71 -117q-67 -61 -67 -109q0 -93 109 -120z" />
    <glyph glyph-name="bar" unicode="|" horiz-adv-x="264" 
d="M108 -200v932h48v-932h-48z" />
    <glyph glyph-name="braceright" unicode="}" horiz-adv-x="318" 
d="M-63 -211l10 41q91 5 136 44t45 87q0 38 -26 97q-25 57 -25 95q0 49 30.5 80t78.5 38q-70 21 -70 93q0 52 71 117q67 61 67 109q0 93 -109 120l10 40q74 -9 113 -52.5t39 -104.5q0 -68 -79 -141q-60 -54 -60 -85q0 -27 20 -48.5t64 -21.5h37l-14 -57h-37q-50 0 -80 -25.5
t-30 -61.5q0 -34 24 -85q28 -62 28 -106q0 -71 -62 -121t-181 -52z" />
    <glyph glyph-name="asciitilde" unicode="~" horiz-adv-x="460" 
d="M303 190q-42 0 -80 40q-27 27 -45 27q-34 0 -56 -62l-41 14q9 43 37 72.5t60 29.5q41 0 83 -42q28 -26 43 -26q32 0 55 63l42 -14q-13 -47 -39.5 -74.5t-58.5 -27.5z" />
    <glyph glyph-name="uni00A0" unicode="&#xa0;" horiz-adv-x="210" 
 />
    <glyph glyph-name="exclamdown" unicode="&#xa1;" horiz-adv-x="234" 
d="M199 562q-21 0 -35.5 15.5t-14.5 36.5t14.5 36t35.5 15t35.5 -15t14.5 -36t-14.5 -36.5t-35.5 -15.5zM34 0l128 493h24l-84 -493h-68z" />
    <glyph glyph-name="cent" unicode="&#xa2;" horiz-adv-x="464" 
d="M234 32q-20 0 -29 2l-41 -139l-40 11l41 138q-51 18 -81 62t-30 104q0 98 70 176t167 82l31 105l40 -11l-28 -97q52 -8 84 -39t32 -64q0 -22 -13.5 -37t-33.5 -15q-13 0 -23.5 9t-10.5 28q0 8 6.5 19t16.5 14q-22 34 -74 40l-100 -339q16 -2 25 -2q86 0 149 60l-3 -55
q-66 -52 -155 -52zM107 211q0 -86 72 -119l98 327q-71 -10 -120.5 -71t-49.5 -137z" />
    <glyph glyph-name="sterling" unicode="&#xa3;" horiz-adv-x="472" 
d="M460 408q0 -23 -12.5 -38t-31.5 -15q-15 0 -26 10.5t-11 27.5q0 26 19 36q-5 13 -28.5 23t-52.5 10q-67 0 -103.5 -47.5t-36.5 -129.5q0 -21 3.5 -60.5t4.5 -54.5h173l-11 -44h-162q-5 -106 -84 -169q22 -3 69 -19q60 -22 101 -22q57 0 111 40l24 -35q-57 -51 -138 -51
q-42 0 -114 28q-60 23 -88 23q-44 -47 -87 -47q-14 0 -24 9t-10 23q0 26 32 40.5t79 13.5q74 66 82 166h-101l11 44h90q-9 108 -9 116q0 98 51 160.5t139 62.5q60 0 100.5 -32t40.5 -69z" />
    <glyph glyph-name="yen" unicode="&#xa5;" horiz-adv-x="481" 
d="M80 221l10 43h110l-78 191h-57l11 46h172l-9 -46h-69l79 -198l168 198h-67l11 46h174l-10 -46h-53l-165 -191h103l-10 -43h-139l-13 -57h138l-10 -43h-138l-17 -75h77l-11 -46h-197l11 46h76l17 75h-137l10 43h137l13 57h-137z" />
    <glyph glyph-name="section" unicode="&#xa7;" horiz-adv-x="414" 
d="M263 466q-34 0 -56.5 -13t-22.5 -33q0 -22 20 -35.5t66 -32.5q34 -14 54 -24.5t36.5 -30t16.5 -43.5q0 -70 -115 -94q44 -28 44 -71q0 -41 -37.5 -69.5t-98.5 -28.5q-62 0 -96.5 25.5t-34.5 56.5q0 17 10.5 29t26.5 12q15 0 25 -10t10 -24q0 -15 -10 -25q18 -18 70 -18
q33 0 55.5 12.5t22.5 31.5q0 21 -20 35t-64 32q-35 14 -55 24.5t-37 30.5t-17 45q0 33 32 57.5t84 34.5q-44 29 -44 73q0 41 37.5 68.5t98.5 27.5q59 0 94.5 -26.5t35.5 -56.5q0 -17 -10.5 -28.5t-25.5 -11.5t-25 10.5t-10 24.5q0 16 10 26q-7 7 -27.5 13t-42.5 6zM197 191
q5 -2 12.5 -5.5t9.5 -4.5q101 18 101 65q0 19 -21 33t-62 30l-26 10q-45 -8 -71 -26.5t-26 -39.5q0 -18 20 -31.5t63 -30.5z" />
    <glyph glyph-name="dieresis" unicode="&#xa8;" horiz-adv-x="500" 
d="M416 525q-21 0 -35 15t-14 36t14 36t35 15t35 -15t14 -36t-14 -36t-35 -15zM256 525q-21 0 -35 15t-14 36t14 36t35 15t35 -15t14 -36t-14 -36t-35 -15z" />
    <glyph glyph-name="copyright" unicode="&#xa9;" horiz-adv-x="598" 
d="M299 -8q-108 0 -179.5 75t-71.5 183q0 109 71.5 184t179.5 75t179.5 -75t71.5 -184q0 -108 -71.5 -183t-179.5 -75zM299 24q92 0 153 66t61 161t-61 161t-153 66t-153 -66t-61 -161t61 -161t153 -66zM311 122q-59 0 -96.5 37.5t-37.5 94.5q0 58 39 96t91 38q43 0 71 -20
t28 -42q0 -11 -7 -19.5t-17 -8.5t-16.5 6.5t-6.5 16.5t5 15q-14 20 -57 20q-39 0 -65.5 -29.5t-26.5 -70.5q0 -42 27.5 -71.5t69.5 -29.5t77 33l21 -25q-37 -41 -99 -41z" />
    <glyph glyph-name="ordfeminine" unicode="&#xaa;" horiz-adv-x="339" 
d="M153 408q-43 0 -70 28.5t-27 77.5q0 65 42 111.5t97 46.5q64 0 83 -56l13 53h38l-45 -188q-3 -14 -3 -23q0 -17 15 -17q18 0 35 39l24 -11q-21 -60 -63 -60q-47 0 -49 48q-37 -49 -90 -49zM161 445q43 0 71.5 38t28.5 81q0 32 -17.5 51.5t-48.5 19.5q-40 0 -68.5 -36
t-28.5 -83q0 -33 16.5 -52t46.5 -19zM29 305l10 37h265l-10 -37h-265z" />
    <glyph glyph-name="guillemotleft" unicode="&#xab;" horiz-adv-x="450" 
d="M344 114l-130 160l200 157l28 -32l-158 -135l93 -125zM174 114l-130 160l200 157l28 -32l-158 -135l93 -125z" />
    <glyph glyph-name="registered" unicode="&#xae;" horiz-adv-x="386" 
d="M264 336q-75 0 -126.5 52t-51.5 126q0 75 51.5 127t126.5 52q74 0 126 -52t52 -127q0 -74 -52 -126t-126 -52zM264 663q-61 0 -102.5 -43t-41.5 -106q0 -62 41.5 -105t102.5 -43q59 0 101.5 43.5t42.5 104.5q0 63 -41.5 106t-102.5 43zM195 431v26h20v121h-20v26h68
q30 0 49 -13.5t19 -38.5q0 -33 -33 -47l27 -48h20v-26h-40l-36 66h-25v-40h23v-26h-72zM244 522h18q39 0 39 29q0 27 -39 27h-18v-56z" />
    <glyph glyph-name="macron" unicode="&#xaf;" horiz-adv-x="500" 
d="M183 540l13 52h287l-11 -52h-289z" />
    <glyph glyph-name="degree" unicode="&#xb0;" horiz-adv-x="322" 
d="M191 421q-46 0 -73 30t-27 74q0 56 39 101t95 45q46 0 73 -30t27 -74q0 -56 -39 -101t-95 -45zM194 460q37 0 64 32t27 71q0 30 -18 49.5t-45 19.5q-37 0 -64 -32t-27 -71q0 -30 18 -49.5t45 -19.5z" />
    <glyph glyph-name="plusminus" unicode="&#xb1;" horiz-adv-x="399" 
d="M290 463l-32 -136h136l-11 -48h-136l-31 -136h-50l31 136h-134l11 48h134l32 136h50zM3 16l11 48h319l-11 -48h-319z" />
    <glyph glyph-name="two.sup" unicode="&#xb2;" horiz-adv-x="353" 
d="M113 430l-8 20q22 54 61.5 91t106.5 73q47 25 68 46t21 47q0 23 -18.5 37.5t-48.5 14.5q-55 0 -74 -28q12 -12 12 -25t-8.5 -21.5t-21.5 -8.5q-14 0 -22.5 9.5t-8.5 25.5q0 31 35.5 59.5t90.5 28.5q49 0 79.5 -25.5t30.5 -66.5q0 -39 -28.5 -66t-89.5 -60
q-99 -55 -129 -114h159l13 57h39l-21 -94h-238z" />
    <glyph glyph-name="three.sup" unicode="&#xb3;" horiz-adv-x="353" 
d="M241 425q-48 0 -83 23t-35 55q0 14 9 24.5t22 10.5q12 0 20 -8t8 -20q0 -15 -14 -22q19 -25 75 -25q40 0 64 19t24 49q0 27 -27 47t-68 20h-14l9 39h15q50 0 79.5 19t29.5 48q0 27 -21 41t-53 14q-39 0 -53 -17q10 -5 10 -18q0 -12 -8.5 -20t-20.5 -8q-13 0 -21.5 9
t-8.5 24q0 27 30.5 48t80.5 21q48 0 79.5 -25.5t31.5 -64.5t-29 -63t-73 -30q35 -9 56 -31.5t21 -53.5q0 -48 -39.5 -76.5t-95.5 -28.5z" />
    <glyph glyph-name="acute" unicode="&#xb4;" horiz-adv-x="500" 
d="M225 505l-11 19l166 120q19 15 38 15q14 0 24 -10.5t10 -23.5q0 -29 -37 -43z" />
    <glyph glyph-name="paragraph" unicode="&#xb6;" horiz-adv-x="562" 
d="M131 0l12 44h80q37 143 39 143q-137 0 -190 52q-32 32 -32 81q0 87 73.5 134.5t187.5 47.5l272 -1l-12 -46h-76l-110 -409h76l-12 -46h-308zM272 44h54l110 413h-54z" />
    <glyph glyph-name="periodcentered" unicode="&#xb7;" horiz-adv-x="184" 
d="M105 220q-22 0 -37 15.5t-15 38.5t15 38.5t37 15.5t37 -15.5t15 -38.5t-15 -38.5t-37 -15.5z" />
    <glyph glyph-name="cedilla" unicode="&#xb8;" horiz-adv-x="500" 
d="M180 -199q-64 0 -115 42l20 28q14 -10 41.5 -19t50.5 -9q45 0 45 34q0 15 -17.5 24.5t-46.5 4.5l-14 14l55 102l29 -8l-25 -67q35 -4 53.5 -23.5t18.5 -43.5q0 -37 -28 -58t-67 -21z" />
    <glyph glyph-name="one.sup" unicode="&#xb9;" horiz-adv-x="353" 
d="M114 430l9 39h102l65 279l-103 -20v40l135 29l20 -10l-73 -318h100l-9 -39h-246z" />
    <glyph glyph-name="ordmasculine" unicode="&#xba;" horiz-adv-x="332" 
d="M188 409q-50 0 -78.5 31t-28.5 78q0 62 40.5 107.5t100.5 45.5q50 0 78.5 -31t28.5 -78q0 -62 -40.5 -107.5t-100.5 -45.5zM44 305l10 37h228l-10 -37h-228zM190 446q42 0 70.5 33.5t28.5 80.5q0 32 -19 53t-50 21q-42 0 -70.5 -33.5t-28.5 -80.5q0 -32 19 -53t50 -21z
" />
    <glyph glyph-name="guillemotright" unicode="&#xbb;" horiz-adv-x="450" 
d="M239 113l-28 32l158 135l-93 125l33 25l130 -160zM69 113l-28 32l158 135l-93 125l33 25l130 -160z" />
    <glyph glyph-name="onequarter" unicode="&#xbc;" horiz-adv-x="795" 
d="M601 35l17 71h-166l-5 19l241 247l27 -25l-205 -207h117l19 77l44 17l-21 -92h61l-9 -36h-61l-16 -71h49l-8 -35h-156l8 35h64zM71 280l9 39h102l65 279l-103 -20v40l135 29l20 -10l-73 -318h100l-9 -39h-246zM182 -12l-27 23q18 22 119 141t150 177q30 36 264 319
l27 -23q-18 -22 -119 -141t-150 -177q-30 -36 -264 -319z" />
    <glyph glyph-name="onehalf" unicode="&#xbd;" horiz-adv-x="795" 
d="M457 0l-8 20q22 54 61.5 91t106.5 73q47 25 68 46t21 47q0 23 -18.5 37.5t-48.5 14.5q-55 0 -74 -28q12 -12 12 -25t-8.5 -21.5t-21.5 -8.5q-14 0 -22.5 9.5t-8.5 25.5q0 31 35.5 59.5t90.5 28.5q49 0 79.5 -25.5t30.5 -66.5q0 -39 -28.5 -66t-89.5 -60
q-99 -55 -129 -114h159l13 57h39l-21 -94h-238zM60 280l9 39h102l65 279l-103 -20v40l135 29l20 -10l-73 -318h100l-9 -39h-246zM166 -12l-27 23q18 22 119 141t150 177q30 36 264 319l27 -23q-18 -22 -119 -141t-150 -177q-30 -36 -264 -319z" />
    <glyph glyph-name="threequarters" unicode="&#xbe;" horiz-adv-x="795" 
d="M204 275q-48 0 -83 23t-35 55q0 14 9 24.5t22 10.5q12 0 20 -8t8 -20q0 -15 -14 -22q19 -25 75 -25q40 0 64 19t24 49q0 27 -27 47t-68 20h-14l9 39h15q50 0 79.5 19t29.5 48q0 27 -21 41t-53 14q-39 0 -53 -17q10 -5 10 -18q0 -12 -8.5 -20t-20.5 -8q-13 0 -21.5 9
t-8.5 24q0 27 30.5 48t80.5 21q48 0 79.5 -25.5t31.5 -64.5t-29 -63t-73 -30q35 -9 56 -31.5t21 -53.5q0 -48 -39.5 -76.5t-95.5 -28.5zM593 35l17 71h-166l-5 19l241 247l27 -25l-205 -207h117l19 77l44 17l-21 -92h61l-9 -36h-61l-16 -71h49l-8 -35h-156l8 35h64zM172 -12
l-27 23q18 22 119 141t150 177q30 36 264 319l27 -23q-18 -22 -119 -141t-150 -177q-30 -36 -264 -319z" />
    <glyph glyph-name="questiondown" unicode="&#xbf;" horiz-adv-x="441" 
d="M384 567q-21 0 -35.5 15.5t-14.5 36.5t14.5 36t35.5 15t35.5 -15t14.5 -36t-14.5 -36.5t-35.5 -15.5zM202 -8q-77 0 -126.5 44t-49.5 113q0 84 75 150.5t200 78.5l40 119h36l-32 -162q-129 -4 -196 -58.5t-67 -123.5q0 -53 35.5 -82t89.5 -29q42 0 74.5 16.5t40.5 36.5
q-11 4 -20 15t-9 25q0 18 13.5 30.5t31.5 12.5q20 0 33.5 -15t13.5 -38q0 -51 -57 -92t-126 -41z" />
    <glyph glyph-name="Agrave" unicode="&#xc0;" horiz-adv-x="706" 
d="M-26 0l12 50h61l334 558h-78l12 50h272l-12 -50h-76l76 -558h71l-12 -50h-202l12 50h73l-24 186h-275l-110 -186h85l-12 -50h-207zM248 286h238l-43 327zM508 714l-118 76q-28 19 -28 42q0 15 11 26t26 11q22 0 42 -27l83 -112z" />
    <glyph glyph-name="Aacute" unicode="&#xc1;" horiz-adv-x="706" 
d="M-26 0l12 50h61l334 558h-78l12 50h272l-12 -50h-76l76 -558h71l-12 -50h-202l12 50h73l-24 186h-275l-110 -186h85l-12 -50h-207zM248 286h238l-43 327zM427 715l-11 19l166 120q19 15 38 15q14 0 24 -10.5t10 -23.5q0 -29 -37 -43z" />
    <glyph glyph-name="Acircumflex" unicode="&#xc2;" horiz-adv-x="706" 
d="M-26 0l12 50h61l334 558h-78l12 50h272l-12 -50h-76l76 -558h71l-12 -50h-202l12 50h73l-24 186h-275l-110 -186h85l-12 -50h-207zM248 286h238l-43 327zM349 714l-23 30l175 133l106 -140l-26 -23l-91 86z" />
    <glyph glyph-name="Atilde" unicode="&#xc3;" horiz-adv-x="706" 
d="M-26 0l12 50h61l334 558h-78l12 50h272l-12 -50h-76l76 -558h71l-12 -50h-202l12 50h73l-24 186h-275l-110 -186h85l-12 -50h-207zM248 286h238l-43 327zM535 714q-42 0 -80 40q-27 27 -48 27q-35 0 -57 -61l-37 12q9 43 37.5 73t60.5 30q42 0 80 -40q25 -27 48 -27
q35 0 57 61l37 -12q-9 -43 -37.5 -73t-60.5 -30z" />
    <glyph glyph-name="Adieresis" unicode="&#xc4;" horiz-adv-x="706" 
d="M-26 0l12 50h61l334 558h-78l12 50h272l-12 -50h-76l76 -558h71l-12 -50h-202l12 50h73l-24 186h-275l-110 -186h85l-12 -50h-207zM248 286h238l-43 327zM564 735q-21 0 -35 15t-14 36t14 36t35 15t35 -15t14 -36t-14 -36t-35 -15zM404 735q-21 0 -35 15t-14 36t14 36
t35 15t35 -15t14 -36t-14 -36t-35 -15z" />
    <glyph glyph-name="Aring" unicode="&#xc5;" horiz-adv-x="706" 
d="M-26 0l12 50h61l334 558h-78l12 50h86q-33 23 -33 67q0 42 31.5 75.5t77.5 33.5q38 0 59.5 -24t21.5 -61q0 -30 -15.5 -55.5t-39.5 -35.5h84l-12 -50h-76l76 -558h71l-12 -50h-202l12 50h73l-24 186h-275l-110 -186h85l-12 -50h-207zM453 669q27 0 46 22.5t19 53.5
q0 21 -13 35.5t-33 14.5q-27 0 -46 -22.5t-19 -53.5q0 -21 13 -35.5t33 -14.5zM248 286h238l-43 327z" />
    <glyph glyph-name="AE" unicode="&#xc6;" horiz-adv-x="902" 
d="M-43 0l12 50h83l423 558h-87l12 50h537l-35 -149h-55l23 99h-257l-57 -247h208l-11 -50h-208l-61 -261h257l23 99h55l-34 -149h-453l12 50h83l43 186h-217l-141 -186h97l-12 -50h-240zM290 285h191l76 326h-20z" />
    <glyph glyph-name="Ccedilla" unicode="&#xc7;" horiz-adv-x="693" 
d="M290 -199q-64 0 -115 42l20 28q14 -10 41.5 -19t50.5 -9q45 0 45 34q0 15 -17.5 24.5t-46.5 4.5l-14 14l40 74q-98 19 -159 93.5t-61 190.5q0 157 110.5 274.5t259.5 117.5q110 0 173 -53t63 -105q0 -31 -15.5 -48.5t-36.5 -17.5t-33.5 11.5t-12.5 29.5q0 30 33 47
q-9 32 -55 58.5t-119 26.5q-89 0 -161 -51.5t-109 -127.5t-37 -155q0 -116 62.5 -180.5t165.5 -64.5q119 0 218 94l32 -36q-112 -110 -256 -110q-9 0 -27 2l-16 -43q35 -4 53.5 -23.5t18.5 -43.5q0 -37 -28 -58t-67 -21z" />
    <glyph glyph-name="Egrave" unicode="&#xc8;" horiz-adv-x="588" 
d="M8 0l12 50h83l129 558h-93l12 50h472l-35 -149h-55l23 99h-267l-57 -247h218l-11 -50h-218l-61 -261h267l23 99h55l-34 -149h-463zM445 714l-118 76q-28 19 -28 42q0 15 11 26t26 11q22 0 42 -27l83 -112z" />
    <glyph glyph-name="Eacute" unicode="&#xc9;" horiz-adv-x="588" 
d="M8 0l12 50h83l129 558h-93l12 50h472l-35 -149h-55l23 99h-267l-57 -247h218l-11 -50h-218l-61 -261h267l23 99h55l-34 -149h-463zM364 715l-11 19l166 120q19 15 38 15q13 0 23.5 -10.5t10.5 -23.5q0 -29 -37 -43z" />
    <glyph glyph-name="Ecircumflex" unicode="&#xca;" horiz-adv-x="588" 
d="M8 0l12 50h83l129 558h-93l12 50h472l-35 -149h-55l23 99h-267l-57 -247h218l-11 -50h-218l-61 -261h267l23 99h55l-34 -149h-463zM286 714l-23 30l175 133l106 -140l-26 -23l-91 86z" />
    <glyph glyph-name="Edieresis" unicode="&#xcb;" horiz-adv-x="588" 
d="M8 0l12 50h83l129 558h-93l12 50h472l-35 -149h-55l23 99h-267l-57 -247h218l-11 -50h-218l-61 -261h267l23 99h55l-34 -149h-463zM501 735q-21 0 -35 15t-14 36t14 36t35 15t35 -15t14 -36t-14 -36t-35 -15zM341 735q-21 0 -35 15t-14 36t14 36t35 15t35 -15t14 -36
t-14 -36t-35 -15z" />
    <glyph glyph-name="Igrave" unicode="&#xcc;" horiz-adv-x="349" 
d="M5 0l12 50h93l128 558h-93l12 50h243l-12 -50h-93l-128 -558h93l-12 -50h-243zM332 714l-118 76q-28 19 -28 42q0 15 11 26t26 11q22 0 42 -27l83 -112z" />
    <glyph glyph-name="Iacute" unicode="&#xcd;" horiz-adv-x="349" 
d="M5 0l12 50h93l128 558h-93l12 50h243l-12 -50h-93l-128 -558h93l-12 -50h-243zM251 715l-11 19l166 120q19 15 38 15q14 0 24 -10.5t10 -23.5q0 -29 -37 -43z" />
    <glyph glyph-name="Icircumflex" unicode="&#xce;" horiz-adv-x="349" 
d="M5 0l12 50h93l128 558h-93l12 50h243l-12 -50h-93l-128 -558h93l-12 -50h-243zM173 714l-23 30l175 133l106 -140l-26 -23l-91 86z" />
    <glyph glyph-name="Idieresis" unicode="&#xcf;" horiz-adv-x="349" 
d="M5 0l12 50h93l128 558h-93l12 50h243l-12 -50h-93l-128 -558h93l-12 -50h-243zM388 735q-21 0 -35 15t-14 36t14 36t35 15t35 -15t14 -36t-14 -36t-35 -15zM228 735q-21 0 -35 15t-14 36t14 36t35 15t35 -15t14 -36t-14 -36t-35 -15z" />
    <glyph glyph-name="Eth" unicode="&#xd0;" horiz-adv-x="715" 
d="M8 0l12 50h83l60 262h-86l12 50h86l57 246h-93l12 50h206q96 0 157.5 -22t109.5 -70q67 -67 67 -176q0 -160 -102 -262q-128 -128 -355 -128h-226zM160 50h85q190 0 294 104q91 91 91 233q0 92 -53 145q-38 38 -89.5 57t-135.5 19h-63l-57 -246h135l-12 -50h-135z" />
    <glyph glyph-name="Ntilde" unicode="&#xd1;" horiz-adv-x="760" 
d="M559 -3l-282 569l-119 -516h93l-12 -50h-231l12 50h83l129 558h-93l12 50h141l269 -543l113 493h-93l12 50h227l-12 -50h-80l-141 -611h-28zM561 714q-42 0 -80 40q-27 27 -48 27q-35 0 -57 -61l-37 12q9 43 37.5 73t60.5 30q42 0 80 -40q26 -27 48 -27q35 0 57 61
l37 -12q-9 -43 -37.5 -73t-60.5 -30z" />
    <glyph glyph-name="Ograve" unicode="&#xd2;" horiz-adv-x="734" 
d="M347 -12q-127 0 -200 79t-73 199q0 99 46.5 191.5t132.5 152.5t188 60q127 0 200 -79t73 -199q0 -99 -46.5 -191.5t-132.5 -152.5t-188 -60zM352 40q126 0 214.5 107t88.5 243q0 98 -56 163t-163 65q-126 0 -214.5 -107t-88.5 -243q0 -98 56 -163t163 -65zM524 714
l-118 76q-28 19 -28 42q0 15 11 26t26 11q22 0 42 -27l83 -112z" />
    <glyph glyph-name="Oacute" unicode="&#xd3;" horiz-adv-x="734" 
d="M347 -12q-127 0 -200 79t-73 199q0 99 46.5 191.5t132.5 152.5t188 60q127 0 200 -79t73 -199q0 -99 -46.5 -191.5t-132.5 -152.5t-188 -60zM352 40q126 0 214.5 107t88.5 243q0 98 -56 163t-163 65q-126 0 -214.5 -107t-88.5 -243q0 -98 56 -163t163 -65zM443 715
l-11 19l166 120q19 15 38 15q14 0 24 -10.5t10 -23.5q0 -29 -37 -43z" />
    <glyph glyph-name="Ocircumflex" unicode="&#xd4;" horiz-adv-x="734" 
d="M347 -12q-127 0 -200 79t-73 199q0 99 46.5 191.5t132.5 152.5t188 60q127 0 200 -79t73 -199q0 -99 -46.5 -191.5t-132.5 -152.5t-188 -60zM352 40q126 0 214.5 107t88.5 243q0 98 -56 163t-163 65q-126 0 -214.5 -107t-88.5 -243q0 -98 56 -163t163 -65zM365 714
l-23 30l175 133l106 -140l-26 -23l-91 86z" />
    <glyph glyph-name="Otilde" unicode="&#xd5;" horiz-adv-x="734" 
d="M347 -12q-127 0 -200 79t-73 199q0 99 46.5 191.5t132.5 152.5t188 60q127 0 200 -79t73 -199q0 -99 -46.5 -191.5t-132.5 -152.5t-188 -60zM352 40q126 0 214.5 107t88.5 243q0 98 -56 163t-163 65q-126 0 -214.5 -107t-88.5 -243q0 -98 56 -163t163 -65zM551 714
q-42 0 -80 40q-27 27 -48 27q-35 0 -57 -61l-37 12q9 43 37.5 73t60.5 30q42 0 80 -40q25 -27 48 -27q35 0 57 61l37 -12q-9 -43 -37.5 -73t-60.5 -30z" />
    <glyph glyph-name="Odieresis" unicode="&#xd6;" horiz-adv-x="734" 
d="M347 -12q-127 0 -200 79t-73 199q0 99 46.5 191.5t132.5 152.5t188 60q127 0 200 -79t73 -199q0 -99 -46.5 -191.5t-132.5 -152.5t-188 -60zM352 40q126 0 214.5 107t88.5 243q0 98 -56 163t-163 65q-126 0 -214.5 -107t-88.5 -243q0 -98 56 -163t163 -65zM580 735
q-21 0 -35 15t-14 36t14 36t35 15t35 -15t14 -36t-14 -36t-35 -15zM420 735q-21 0 -35 15t-14 36t14 36t35 15t35 -15t14 -36t-14 -36t-35 -15z" />
    <glyph glyph-name="multiply" unicode="&#xd7;" horiz-adv-x="399" 
d="M133 409l82 -107l126 101l32 -40l-126 -102l83 -106l-42 -34l-83 107l-125 -101l-32 40l126 101l-83 107z" />
    <glyph glyph-name="Oslash" unicode="&#xd8;" horiz-adv-x="734" 
d="M347 -12q-135 0 -209 89l-101 -86l-33 40l105 89q-35 64 -35 146q0 99 46.5 191.5t132.5 152.5t188 60q133 0 209 -89l104 89l34 -39l-109 -93q35 -65 35 -146q0 -99 -46.5 -191.5t-132.5 -152.5t-188 -60zM132 268q0 -62 22 -112l454 389q-59 74 -172 74
q-127 0 -215.5 -107.5t-88.5 -243.5zM352 39q127 0 215.5 107.5t88.5 243.5q0 63 -22 111l-454 -388q59 -74 172 -74z" />
    <glyph glyph-name="Ugrave" unicode="&#xd9;" horiz-adv-x="724" 
d="M342 -12q-102 0 -157 52t-55 138q0 34 9 72l83 358h-93l12 50h233l-12 -50h-83l-83 -361q-8 -37 -8 -67q0 -66 38.5 -104t120.5 -38q79 0 127.5 48t66.5 126l90 396h-93l12 50h233l-12 -50h-83l-93 -405q-22 -99 -85 -157t-168 -58zM510 714l-118 76q-28 19 -28 42
q0 15 11 26t26 11q22 0 42 -27l83 -112z" />
    <glyph glyph-name="Uacute" unicode="&#xda;" horiz-adv-x="724" 
d="M342 -12q-102 0 -157 52t-55 138q0 34 9 72l83 358h-93l12 50h233l-12 -50h-83l-83 -361q-8 -37 -8 -67q0 -66 38.5 -104t120.5 -38q79 0 127.5 48t66.5 126l90 396h-93l12 50h233l-12 -50h-83l-93 -405q-22 -99 -85 -157t-168 -58zM429 715l-11 19l166 120q19 15 38 15
q14 0 24 -10.5t10 -23.5q0 -29 -37 -43z" />
    <glyph glyph-name="Ucircumflex" unicode="&#xdb;" horiz-adv-x="724" 
d="M342 -12q-102 0 -157 52t-55 138q0 34 9 72l83 358h-93l12 50h233l-12 -50h-83l-83 -361q-8 -37 -8 -67q0 -66 38.5 -104t120.5 -38q79 0 127.5 48t66.5 126l90 396h-93l12 50h233l-12 -50h-83l-93 -405q-22 -99 -85 -157t-168 -58zM352 714l-23 30l175 133l106 -140
l-26 -23l-91 86z" />
    <glyph glyph-name="Udieresis" unicode="&#xdc;" horiz-adv-x="724" 
d="M342 -12q-102 0 -157 52t-55 138q0 34 9 72l83 358h-93l12 50h233l-12 -50h-83l-83 -361q-8 -37 -8 -67q0 -66 38.5 -104t120.5 -38q79 0 127.5 48t66.5 126l90 396h-93l12 50h233l-12 -50h-83l-93 -405q-22 -99 -85 -157t-168 -58zM566 735q-21 0 -35 15t-14 36t14 36
t35 15t35 -15t14 -36t-14 -36t-35 -15zM406 735q-21 0 -35 15t-14 36t14 36t35 15t35 -15t14 -36t-14 -36t-35 -15z" />
    <glyph glyph-name="Yacute" unicode="&#xdd;" horiz-adv-x="623" 
d="M122 0l13 50h96l54 219l-114 339h-72l13 50h208l-11 -50h-79l95 -293l239 293h-75l13 50h208l-11 -50h-69l-292 -349l-49 -209h96l-11 -50h-252zM376 715l-11 19l166 120q19 15 38 15q13 0 23.5 -10.5t10.5 -23.5q0 -29 -37 -43z" />
    <glyph glyph-name="Thorn" unicode="&#xde;" horiz-adv-x="570" 
d="M8 0l12 50h83l129 558h-93l12 50h233l-12 -50h-83l-18 -79h52q126 0 184 -56q44 -43 44 -116q0 -97 -72 -158.5t-196 -61.5q-58 0 -102 2l-21 -89h93l-12 -50h-233zM292 187q99 0 150.5 46t51.5 122q0 52 -31 82q-42 42 -143 42h-61l-66 -290q48 -2 99 -2z" />
    <glyph glyph-name="germandbls" unicode="&#xdf;" horiz-adv-x="532" 
d="M330 -7q-44 0 -84 25.5t-40 64.5q0 19 12 33t30 14t29.5 -11.5t11.5 -25.5q0 -19 -15 -34q4 -8 22 -15t37 -7q42 0 68 27.5t26 69.5q0 45 -64 107q-36 35 -52.5 60.5t-16.5 57.5q0 38 19 64t55 51q27 19 41 31.5t28 38.5t14 57q0 36 -28 61.5t-63 25.5q-46 0 -78.5 -35
t-45.5 -99l-127 -554h-52l86 374h-75l11 46h75l32 141q19 85 65.5 129.5t111.5 44.5q58 0 98.5 -38t40.5 -96q0 -42 -16 -75t-34 -49.5t-51 -39.5q-30 -22 -43.5 -38.5t-13.5 -39.5q0 -28 60 -86q73 -71 73 -140q0 -60 -38.5 -100t-108.5 -40z" />
    <glyph glyph-name="agrave" unicode="&#xe0;" horiz-adv-x="552" 
d="M200 -8q-69 0 -112 47t-43 127q0 107 67 184.5t158 77.5q56 0 92.5 -29t45.5 -80l25 106h52l-78 -320q-7 -28 -7 -40q0 -15 8.5 -24t22.5 -9q31 0 58 66l31 -10q-32 -94 -96 -94q-33 0 -53.5 19t-20.5 48v17q-65 -86 -150 -86zM211 39q52 0 93.5 35t62.5 83.5t21 97.5
q0 58 -30 92t-86 34q-73 0 -122 -64.5t-49 -149.5q0 -60 28.5 -94t81.5 -34zM370 504l-118 76q-28 19 -28 42q0 15 11 26t26 11q22 0 42 -27l83 -112z" />
    <glyph glyph-name="aacute" unicode="&#xe1;" horiz-adv-x="552" 
d="M200 -8q-69 0 -112 47t-43 127q0 107 67 184.5t158 77.5q56 0 92.5 -29t45.5 -80l25 106h52l-78 -320q-7 -28 -7 -40q0 -15 8.5 -24t22.5 -9q31 0 58 66l31 -10q-32 -94 -96 -94q-33 0 -53.5 19t-20.5 48v17q-65 -86 -150 -86zM211 39q52 0 93.5 35t62.5 83.5t21 97.5
q0 58 -30 92t-86 34q-73 0 -122 -64.5t-49 -149.5q0 -60 28.5 -94t81.5 -34zM289 505l-11 19l166 120q19 15 38 15q14 0 24 -10.5t10 -23.5q0 -29 -37 -43z" />
    <glyph glyph-name="acircumflex" unicode="&#xe2;" horiz-adv-x="552" 
d="M200 -8q-69 0 -112 47t-43 127q0 107 67 184.5t158 77.5q56 0 92.5 -29t45.5 -80l25 106h52l-78 -320q-7 -28 -7 -40q0 -15 8.5 -24t22.5 -9q31 0 58 66l31 -10q-32 -94 -96 -94q-33 0 -53.5 19t-20.5 48v17q-65 -86 -150 -86zM211 39q52 0 93.5 35t62.5 83.5t21 97.5
q0 58 -30 92t-86 34q-73 0 -122 -64.5t-49 -149.5q0 -60 28.5 -94t81.5 -34zM211 504l-23 30l175 133l106 -140l-26 -23l-91 86z" />
    <glyph glyph-name="atilde" unicode="&#xe3;" horiz-adv-x="552" 
d="M200 -8q-69 0 -112 47t-43 127q0 107 67 184.5t158 77.5q56 0 92.5 -29t45.5 -80l25 106h52l-78 -320q-7 -28 -7 -40q0 -15 8.5 -24t22.5 -9q31 0 58 66l31 -10q-32 -94 -96 -94q-33 0 -53.5 19t-20.5 48v17q-65 -86 -150 -86zM211 39q52 0 93.5 35t62.5 83.5t21 97.5
q0 58 -30 92t-86 34q-73 0 -122 -64.5t-49 -149.5q0 -60 28.5 -94t81.5 -34zM397 504q-42 0 -80 40q-27 27 -48 27q-35 0 -57 -61l-37 12q9 43 37.5 73t60.5 30q42 0 80 -40q26 -27 48 -27q35 0 57 61l37 -12q-9 -43 -37.5 -73t-60.5 -30z" />
    <glyph glyph-name="adieresis" unicode="&#xe4;" horiz-adv-x="552" 
d="M200 -8q-69 0 -112 47t-43 127q0 107 67 184.5t158 77.5q56 0 92.5 -29t45.5 -80l25 106h52l-78 -320q-7 -28 -7 -40q0 -15 8.5 -24t22.5 -9q31 0 58 66l31 -10q-32 -94 -96 -94q-33 0 -53.5 19t-20.5 48v17q-65 -86 -150 -86zM211 39q52 0 93.5 35t62.5 83.5t21 97.5
q0 58 -30 92t-86 34q-73 0 -122 -64.5t-49 -149.5q0 -60 28.5 -94t81.5 -34zM425 525q-21 0 -35 15t-14 36t14 36t35 15t35 -15t14 -36t-14 -36t-35 -15zM265 525q-21 0 -35 15t-14 36t14 36t35 15t35 -15t14 -36t-14 -36t-35 -15z" />
    <glyph glyph-name="aring" unicode="&#xe5;" horiz-adv-x="552" 
d="M200 -8q-69 0 -112 47t-43 127q0 107 67 184.5t158 77.5q56 0 92.5 -29t45.5 -80l25 106h52l-78 -320q-7 -28 -7 -40q0 -15 8.5 -24t22.5 -9q31 0 58 66l31 -10q-32 -94 -96 -94q-33 0 -53.5 19t-20.5 48v17q-65 -86 -150 -86zM211 39q52 0 93.5 35t62.5 83.5t21 97.5
q0 58 -30 92t-86 34q-73 0 -122 -64.5t-49 -149.5q0 -60 28.5 -94t81.5 -34zM338 497q-38 0 -60 24t-22 61q0 48 31.5 83.5t77.5 35.5q38 0 60 -24t22 -61q0 -48 -31.5 -83.5t-77.5 -35.5zM342 536q27 0 46 22.5t19 53.5q0 21 -13 35.5t-33 14.5q-27 0 -46 -22.5t-19 -53.5
q0 -21 13 -35.5t33 -14.5z" />
    <glyph glyph-name="ae" unicode="&#xe6;" horiz-adv-x="784" 
d="M728 196h-317q-2 -18 -2 -27q0 -62 42 -96.5t100 -34.5q65 0 138 39l-12 -54q-62 -31 -135 -31q-68 0 -112 36.5t-59 94.5q-27 -59 -83.5 -95t-122.5 -36q-65 0 -97.5 32t-32.5 71q0 70 61.5 107t170.5 37h101q-1 62 -33 102t-95 40q-28 0 -45 -6q-10 -3 -16 -9
q10 -13 10 -27q0 -16 -12 -28t-28 -12q-17 0 -29 13t-12 32q0 43 52 68q32 16 76 16q136 0 162 -129q32 61 84.5 95t109.5 34q71 0 112 -41t41 -108q0 -37 -17 -83zM166 39q66 0 124.5 45.5t73.5 113.5h-83q-193 0 -193 -102q0 -24 21 -40.5t57 -16.5zM588 381
q-56 0 -102.5 -40t-65.5 -101h268q8 24 8 48q0 39 -27.5 66t-80.5 27z" />
    <glyph glyph-name="ccedilla" unicode="&#xe7;" horiz-adv-x="453" 
d="M167 -199q-64 0 -115 42l20 28q14 -10 41.5 -19t50.5 -9q45 0 45 34q0 15 -17.5 24.5t-46.5 4.5l-14 14l42 78q-59 15 -94 60t-35 112q0 100 70 179t166 79q72 0 111 -34t39 -72q0 -22 -13.5 -37t-33.5 -15q-13 0 -23.5 9t-10.5 28q0 8 6.5 19t16.5 14q-25 41 -93 41
q-73 0 -127.5 -64t-54.5 -146q0 -59 36.5 -95.5t99.5 -36.5q76 0 139 60l-3 -55q-66 -52 -145 -52q-12 0 -17 1l-17 -46q35 -4 53.5 -23.5t18.5 -43.5q0 -37 -28 -58t-67 -21z" />
    <glyph glyph-name="egrave" unicode="&#xe8;" horiz-adv-x="470" 
d="M414 196h-318q-1 -9 -1 -27q0 -62 42 -96.5t100 -34.5q65 0 138 39l-12 -54q-62 -31 -135 -31q-77 0 -131 47.5t-54 128.5q0 106 70.5 183t164.5 77q71 0 112 -41t41 -108q0 -37 -17 -83zM274 381q-55 0 -101.5 -40t-66.5 -101h268q8 24 8 48q0 39 -27.5 66t-80.5 27z
M346 504l-118 76q-28 19 -28 42q0 15 11 26t26 11q22 0 42 -27l83 -112z" />
    <glyph glyph-name="eacute" unicode="&#xe9;" horiz-adv-x="470" 
d="M414 196h-318q-1 -9 -1 -27q0 -62 42 -96.5t100 -34.5q65 0 138 39l-12 -54q-62 -31 -135 -31q-77 0 -131 47.5t-54 128.5q0 106 70.5 183t164.5 77q71 0 112 -41t41 -108q0 -37 -17 -83zM274 381q-55 0 -101.5 -40t-66.5 -101h268q8 24 8 48q0 39 -27.5 66t-80.5 27z
M265 505l-11 19l166 120q19 15 38 15q14 0 24 -10.5t10 -23.5q0 -29 -37 -43z" />
    <glyph glyph-name="ecircumflex" unicode="&#xea;" horiz-adv-x="470" 
d="M414 196h-318q-1 -9 -1 -27q0 -62 42 -96.5t100 -34.5q65 0 138 39l-12 -54q-62 -31 -135 -31q-77 0 -131 47.5t-54 128.5q0 106 70.5 183t164.5 77q71 0 112 -41t41 -108q0 -37 -17 -83zM274 381q-55 0 -101.5 -40t-66.5 -101h268q8 24 8 48q0 39 -27.5 66t-80.5 27z
M187 504l-23 30l175 133l106 -140l-26 -23l-91 86z" />
    <glyph glyph-name="edieresis" unicode="&#xeb;" horiz-adv-x="470" 
d="M414 196h-318q-1 -9 -1 -27q0 -62 42 -96.5t100 -34.5q65 0 138 39l-12 -54q-62 -31 -135 -31q-77 0 -131 47.5t-54 128.5q0 106 70.5 183t164.5 77q71 0 112 -41t41 -108q0 -37 -17 -83zM274 381q-55 0 -101.5 -40t-66.5 -101h268q8 24 8 48q0 39 -27.5 66t-80.5 27z
M401 525q-21 0 -35 15t-14 36t14 36t35 15t35 -15t14 -36t-14 -36t-35 -15zM241 525q-21 0 -35 15t-14 36t14 36t35 15t35 -15t14 -36t-14 -36t-35 -15z" />
    <glyph glyph-name="igrave" unicode="&#xec;" horiz-adv-x="282" 
d="M142 -6q-33 0 -54.5 20t-21.5 51q0 17 8 45l74 264h-84l12 46h137l-88 -315q-7 -25 -7 -40t8.5 -24t22.5 -9q31 0 58 66l31 -10q-32 -94 -96 -94zM242 504l-118 76q-28 19 -28 42q0 15 11 26t26 11q22 0 42 -27l83 -112z" />
    <glyph glyph-name="iacute" unicode="&#xed;" horiz-adv-x="282" 
d="M142 -6q-33 0 -54.5 20t-21.5 51q0 17 8 45l74 264h-84l12 46h137l-88 -315q-7 -25 -7 -40t8.5 -24t22.5 -9q31 0 58 66l31 -10q-32 -94 -96 -94zM161 505l-11 19l166 120q19 15 38 15q14 0 24 -10.5t10 -23.5q0 -29 -37 -43z" />
    <glyph glyph-name="icircumflex" unicode="&#xee;" horiz-adv-x="282" 
d="M142 -6q-33 0 -54.5 20t-21.5 51q0 17 8 45l74 264h-84l12 46h137l-88 -315q-7 -25 -7 -40t8.5 -24t22.5 -9q31 0 58 66l31 -10q-32 -94 -96 -94zM83 504l-23 30l175 133l106 -140l-26 -23l-91 86z" />
    <glyph glyph-name="idieresis" unicode="&#xef;" horiz-adv-x="282" 
d="M142 -6q-33 0 -54.5 20t-21.5 51q0 17 8 45l74 264h-84l12 46h137l-88 -315q-7 -25 -7 -40t8.5 -24t22.5 -9q31 0 58 66l31 -10q-32 -94 -96 -94zM297 525q-21 0 -35 15t-14 36t14 36t35 15t35 -15t14 -36t-14 -36t-35 -15zM137 525q-21 0 -35 15t-14 36t14 36t35 15
t35 -15t14 -36t-14 -36t-35 -15z" />
    <glyph glyph-name="eth" unicode="&#xf0;" horiz-adv-x="492" 
d="M206 -7q-77 0 -122 49t-45 122q0 95 65 169t151 74q114 0 145 -102q4 52 4 84q0 118 -55 200l-132 -120l-30 33l134 122q-43 44 -101 61q-9 -34 -40 -34q-17 0 -28.5 11.5t-11.5 30.5q0 16 14 28.5t38 12.5q85 0 163 -79l90 82l30 -33l-92 -83q30 -42 48.5 -103.5
t18.5 -125.5q0 -238 -99 -337q-62 -62 -145 -62zM210 41q65 0 114 52q55 58 55 143q0 56 -34 89.5t-88 33.5q-67 0 -115.5 -58t-48.5 -137q0 -55 33 -89t84 -34z" />
    <glyph glyph-name="ntilde" unicode="&#xf1;" horiz-adv-x="531" 
d="M408 -6q-33 0 -54.5 20t-21.5 51q0 18 8 46l43 149q10 37 10 57q0 29 -20.5 47.5t-52.5 18.5q-50 0 -100 -49.5t-71 -133.5l-50 -200h-52l94 374h-80l12 46h129l-26 -101q68 109 152 109q52 0 85 -31t33 -78q0 -22 -12 -66l-43 -147q-7 -25 -7 -41q0 -15 8.5 -24t22.5 -9
q31 0 58 66l31 -10q-32 -94 -96 -94zM400 504q-42 0 -80 40q-27 27 -48 27q-35 0 -57 -61l-37 12q9 43 37.5 73t60.5 30q42 0 80 -40q25 -27 48 -27q35 0 57 61l37 -12q-9 -43 -37.5 -73t-60.5 -30z" />
    <glyph glyph-name="ograve" unicode="&#xf2;" horiz-adv-x="502" 
d="M220 -8q-81 0 -128.5 52t-47.5 128q0 102 69.5 179t168.5 77q81 0 128.5 -52t47.5 -128q0 -102 -69.5 -179t-168.5 -77zM223 39q76 0 129 62.5t53 147.5q0 59 -35.5 95.5t-90.5 36.5q-76 0 -129 -62.5t-53 -147.5q0 -59 35.5 -95.5t90.5 -36.5zM360 504l-118 76
q-28 19 -28 42q0 15 11 26t26 11q22 0 42 -27l83 -112z" />
    <glyph glyph-name="oacute" unicode="&#xf3;" horiz-adv-x="502" 
d="M220 -8q-81 0 -128.5 52t-47.5 128q0 102 69.5 179t168.5 77q81 0 128.5 -52t47.5 -128q0 -102 -69.5 -179t-168.5 -77zM223 39q76 0 129 62.5t53 147.5q0 59 -35.5 95.5t-90.5 36.5q-76 0 -129 -62.5t-53 -147.5q0 -59 35.5 -95.5t90.5 -36.5zM279 505l-11 19l166 120
q19 15 38 15q14 0 24 -10.5t10 -23.5q0 -29 -37 -43z" />
    <glyph glyph-name="ocircumflex" unicode="&#xf4;" horiz-adv-x="502" 
d="M220 -8q-81 0 -128.5 52t-47.5 128q0 102 69.5 179t168.5 77q81 0 128.5 -52t47.5 -128q0 -102 -69.5 -179t-168.5 -77zM223 39q76 0 129 62.5t53 147.5q0 59 -35.5 95.5t-90.5 36.5q-76 0 -129 -62.5t-53 -147.5q0 -59 35.5 -95.5t90.5 -36.5zM201 504l-23 30l175 133
l106 -140l-26 -23l-91 86z" />
    <glyph glyph-name="otilde" unicode="&#xf5;" horiz-adv-x="502" 
d="M220 -8q-81 0 -128.5 52t-47.5 128q0 102 69.5 179t168.5 77q81 0 128.5 -52t47.5 -128q0 -102 -69.5 -179t-168.5 -77zM223 39q76 0 129 62.5t53 147.5q0 59 -35.5 95.5t-90.5 36.5q-76 0 -129 -62.5t-53 -147.5q0 -59 35.5 -95.5t90.5 -36.5zM387 504q-42 0 -80 40
q-27 27 -48 27q-35 0 -57 -61l-37 12q9 43 37.5 73t60.5 30q42 0 80 -40q26 -27 48 -27q35 0 57 61l37 -12q-9 -43 -37.5 -73t-60.5 -30z" />
    <glyph glyph-name="odieresis" unicode="&#xf6;" horiz-adv-x="502" 
d="M220 -8q-81 0 -128.5 52t-47.5 128q0 102 69.5 179t168.5 77q81 0 128.5 -52t47.5 -128q0 -102 -69.5 -179t-168.5 -77zM223 39q76 0 129 62.5t53 147.5q0 59 -35.5 95.5t-90.5 36.5q-76 0 -129 -62.5t-53 -147.5q0 -59 35.5 -95.5t90.5 -36.5zM415 525q-21 0 -35 15
t-14 36t14 36t35 15t35 -15t14 -36t-14 -36t-35 -15zM255 525q-21 0 -35 15t-14 36t14 36t35 15t35 -15t14 -36t-14 -36t-35 -15z" />
    <glyph glyph-name="divide" unicode="&#xf7;" horiz-adv-x="399" 
d="M47 241l11 48h320l-11 -48h-320zM243 353q-17 0 -29.5 13t-12.5 30t12.5 30t29.5 13q16 0 28.5 -13t12.5 -30t-12.5 -30t-28.5 -13zM182 91q-17 0 -29.5 13t-12.5 30t12.5 30t29.5 13q16 0 28.5 -13t12.5 -30t-12.5 -30t-28.5 -13z" />
    <glyph glyph-name="oslash" unicode="&#xf8;" horiz-adv-x="502" 
d="M227 -8q-80 0 -130 53l-62 -53l-28 36l64 53q-22 40 -22 92q0 103 67.5 179t168.5 76q82 0 132 -55l63 55l29 -35l-67 -57q21 -44 21 -89q0 -103 -68 -179t-168 -76zM102 172q0 -37 10 -61l268 230q-35 40 -96 40q-76 0 -129 -61t-53 -148zM228 39q76 0 129 61.5
t53 147.5q0 32 -9 56l-267 -228q32 -37 94 -37z" />
    <glyph glyph-name="ugrave" unicode="&#xf9;" horiz-adv-x="531" 
d="M68 420h132l-71 -272q-7 -26 -7 -51q0 -26 19 -43t51 -17q50 0 100 50t71 133l50 200h52l-79 -315q-7 -28 -7 -40q0 -15 8.5 -24t22.5 -9q31 0 58 66l31 -10q-32 -94 -96 -94q-33 0 -52.5 19t-19.5 52q0 13 5 36q-66 -109 -152 -109q-51 0 -83 28.5t-32 74.5q0 21 9 57
l58 222h-80zM367 504l-118 76q-28 19 -28 42q0 15 11 26t26 11q22 0 42 -27l83 -112z" />
    <glyph glyph-name="uacute" unicode="&#xfa;" horiz-adv-x="531" 
d="M68 420h132l-71 -272q-7 -26 -7 -51q0 -26 19 -43t51 -17q50 0 100 50t71 133l50 200h52l-79 -315q-7 -28 -7 -40q0 -15 8.5 -24t22.5 -9q31 0 58 66l31 -10q-32 -94 -96 -94q-33 0 -52.5 19t-19.5 52q0 13 5 36q-66 -109 -152 -109q-51 0 -83 28.5t-32 74.5q0 21 9 57
l58 222h-80zM286 505l-11 19l166 120q19 15 38 15q13 0 23.5 -10.5t10.5 -23.5q0 -29 -37 -43z" />
    <glyph glyph-name="ucircumflex" unicode="&#xfb;" horiz-adv-x="531" 
d="M68 420h132l-71 -272q-7 -26 -7 -51q0 -26 19 -43t51 -17q50 0 100 50t71 133l50 200h52l-79 -315q-7 -28 -7 -40q0 -15 8.5 -24t22.5 -9q31 0 58 66l31 -10q-32 -94 -96 -94q-33 0 -52.5 19t-19.5 52q0 13 5 36q-66 -109 -152 -109q-51 0 -83 28.5t-32 74.5q0 21 9 57
l58 222h-80zM208 504l-23 30l175 133l106 -140l-26 -23l-91 86z" />
    <glyph glyph-name="udieresis" unicode="&#xfc;" horiz-adv-x="531" 
d="M68 420h132l-71 -272q-7 -26 -7 -51q0 -26 19 -43t51 -17q50 0 100 50t71 133l50 200h52l-79 -315q-7 -28 -7 -40q0 -15 8.5 -24t22.5 -9q31 0 58 66l31 -10q-32 -94 -96 -94q-33 0 -52.5 19t-19.5 52q0 13 5 36q-66 -109 -152 -109q-51 0 -83 28.5t-32 74.5q0 21 9 57
l58 222h-80zM262 525q-21 0 -35 15t-14 36t14 36t35 15t35 -15t14 -36t-14 -36t-35 -15zM422 525q-21 0 -35 15t-14 36t14 36t35 15t35 -15t14 -36t-14 -36t-35 -15z" />
    <glyph glyph-name="yacute" unicode="&#xfd;" horiz-adv-x="474" 
d="M-18 -200q-23 0 -41.5 14.5t-18.5 35.5q0 18 12 31.5t30 13.5q39 0 42 -46h5q47 0 171 152l-75 373h-78l11 46h114l67 -369q157 205 174 284q-17 5 -29 18t-12 32q0 17 13 30t32 13q21 0 35 -15.5t14 -43.5q0 -54 -48.5 -135t-166.5 -232q-90 -115 -147 -158.5
t-104 -43.5zM263 505l-11 19l166 120q19 15 38 15q14 0 24 -10.5t10 -23.5q0 -29 -37 -43z" />
    <glyph glyph-name="thorn" unicode="&#xfe;" horiz-adv-x="524" 
d="M-77 -196l11 46h65l199 836h-80l11 46h133l-93 -389q59 85 147 85q70 0 116 -48.5t46 -128.5q0 -108 -68 -184t-156 -76q-52 0 -92.5 27t-52.5 74l-57 -242h92l-11 -46h-210zM253 38q72 0 120.5 63t48.5 144q0 63 -30.5 99.5t-84.5 36.5q-72 0 -125.5 -69.5t-53.5 -147.5
q0 -56 33.5 -91t91.5 -35z" />
    <glyph glyph-name="ydieresis" unicode="&#xff;" horiz-adv-x="474" 
d="M-18 -200q-23 0 -41.5 14.5t-18.5 35.5q0 18 12 31.5t30 13.5q39 0 42 -46h5q47 0 171 152l-75 373h-78l11 46h114l67 -369q157 205 174 284q-17 5 -29 18t-12 32q0 17 13 30t32 13q21 0 35 -15.5t14 -43.5q0 -54 -48.5 -135t-166.5 -232q-90 -115 -147 -158.5
t-104 -43.5zM240 525q-21 0 -35 15t-14 36t14 36t35 15t35 -15t14 -36t-14 -36t-35 -15zM400 525q-21 0 -35 15t-14 36t14 36t35 15t35 -15t14 -36t-14 -36t-35 -15z" />
    <glyph glyph-name="Amacron" unicode="&#x100;" horiz-adv-x="706" 
d="M-26 0l12 50h61l334 558h-78l12 50h272l-12 -50h-76l76 -558h71l-12 -50h-202l12 50h73l-24 186h-275l-110 -186h85l-12 -50h-207zM248 286h238l-43 327zM331 750l13 52h287l-11 -52h-289z" />
    <glyph glyph-name="amacron" unicode="&#x101;" horiz-adv-x="552" 
d="M200 -8q-69 0 -112 47t-43 127q0 107 67 184.5t158 77.5q56 0 92.5 -29t45.5 -80l25 106h52l-78 -320q-7 -28 -7 -40q0 -15 8.5 -24t22.5 -9q31 0 58 66l31 -10q-32 -94 -96 -94q-33 0 -53.5 19t-20.5 48v17q-65 -86 -150 -86zM211 39q52 0 93.5 35t62.5 83.5t21 97.5
q0 58 -30 92t-86 34q-73 0 -122 -64.5t-49 -149.5q0 -60 28.5 -94t81.5 -34zM193 540l13 52h287l-11 -52h-289z" />
    <glyph glyph-name="Abreve" unicode="&#x102;" horiz-adv-x="706" 
d="M-26 0l12 50h61l334 558h-78l12 50h272l-12 -50h-76l76 -558h71l-12 -50h-202l12 50h73l-24 186h-275l-110 -186h85l-12 -50h-207zM248 286h238l-43 327zM475 719q-53 0 -84.5 35t-39.5 89l37 13q16 -81 95 -81q75 0 124 80l33 -20q-27 -51 -72 -83.5t-93 -32.5z" />
    <glyph glyph-name="abreve" unicode="&#x103;" horiz-adv-x="552" 
d="M200 -8q-69 0 -112 47t-43 127q0 107 67 184.5t158 77.5q56 0 92.5 -29t45.5 -80l25 106h52l-78 -320q-7 -28 -7 -40q0 -15 8.5 -24t22.5 -9q31 0 58 66l31 -10q-32 -94 -96 -94q-33 0 -53.5 19t-20.5 48v17q-65 -86 -150 -86zM211 39q52 0 93.5 35t62.5 83.5t21 97.5
q0 58 -30 92t-86 34q-73 0 -122 -64.5t-49 -149.5q0 -60 28.5 -94t81.5 -34zM337 509q-53 0 -84.5 35t-39.5 89l37 13q16 -81 95 -81q75 0 124 80l33 -20q-27 -51 -72 -83.5t-93 -32.5z" />
    <glyph glyph-name="Aogonek" unicode="&#x104;" horiz-adv-x="706" 
d="M-26 0l12 50h61l334 558h-78l12 50h272l-12 -50h-76l76 -558h71l-12 -50h-75q-86 -62 -86 -116q0 -39 46 -39q26 0 49 9l-9 -42q-22 -13 -55 -13q-39 0 -59.5 19t-20.5 51q0 67 89 131h-81l12 50h73l-24 186h-275l-110 -186h85l-12 -50h-207zM248 286h238l-43 327z" />
    <glyph glyph-name="aogonek" unicode="&#x105;" horiz-adv-x="552" 
d="M350 65q0 9 1 13q-68 -86 -151 -86q-69 0 -112 47t-43 127q0 107 67 184.5t158 77.5q56 0 92.5 -29t45.5 -79l25 105h52l-78 -320q-7 -28 -7 -40q0 -31 29 -31q34 0 60 64l31 -10q-12 -37 -34 -62q-10 -12 -43 -40t-50 -52t-17 -50q0 -39 46 -39q26 0 49 9l-9 -42
q-22 -13 -55 -13q-39 0 -59.5 19t-20.5 51q0 64 84 127q-37 6 -52 33q-9 15 -9 36zM211 39q77 0 127 69.5t50 147.5q0 58 -30 91.5t-86 33.5q-73 0 -122 -64.5t-49 -149.5q0 -60 28.5 -94t81.5 -34z" />
    <glyph glyph-name="Cacute" unicode="&#x106;" horiz-adv-x="693" 
d="M356 -12q-120 0 -201 78t-81 212q0 157 110.5 274.5t259.5 117.5q110 0 173 -53t63 -105q0 -31 -15.5 -48.5t-36.5 -17.5t-33.5 11.5t-12.5 29.5q0 30 33 47q-9 32 -55 58.5t-119 26.5q-89 0 -161 -51.5t-109 -127.5t-37 -155q0 -116 62.5 -180.5t165.5 -64.5
q119 0 218 94l32 -36q-112 -110 -256 -110zM426 715l-11 19l166 120q19 15 38 15q13 0 23.5 -10.5t10.5 -23.5q0 -29 -37 -43z" />
    <glyph glyph-name="cacute" unicode="&#x107;" horiz-adv-x="453" 
d="M224 -8q-78 0 -129 48.5t-51 129.5q0 100 70 179t166 79q72 0 111 -34t39 -72q0 -22 -13.5 -37t-33.5 -15q-13 0 -23.5 9t-10.5 28q0 8 6.5 19t16.5 14q-25 41 -93 41q-73 0 -127.5 -64t-54.5 -146q0 -59 36.5 -95.5t99.5 -36.5q76 0 139 60l-3 -55q-66 -52 -145 -52z
M274 505l-11 19l166 120q19 15 38 15q13 0 23.5 -10.5t10.5 -23.5q0 -29 -37 -43z" />
    <glyph glyph-name="Cdotaccent" unicode="&#x10a;" horiz-adv-x="693" 
d="M356 -12q-120 0 -201 78t-81 212q0 157 110.5 274.5t259.5 117.5q110 0 173 -53t63 -105q0 -31 -15.5 -48.5t-36.5 -17.5t-33.5 11.5t-12.5 29.5q0 30 33 47q-9 32 -55 58.5t-119 26.5q-89 0 -161 -51.5t-109 -127.5t-37 -155q0 -116 62.5 -180.5t165.5 -64.5
q119 0 218 94l32 -36q-112 -110 -256 -110zM483 733q-22 0 -36.5 15.5t-14.5 37.5t14.5 37.5t36.5 15.5t36.5 -15.5t14.5 -37.5t-14.5 -37.5t-36.5 -15.5z" />
    <glyph glyph-name="cdotaccent" unicode="&#x10b;" horiz-adv-x="453" 
d="M224 -8q-78 0 -129 48.5t-51 129.5q0 100 70 179t166 79q72 0 111 -34t39 -72q0 -22 -13.5 -37t-33.5 -15q-13 0 -23.5 9t-10.5 28q0 8 6.5 19t16.5 14q-25 41 -93 41q-73 0 -127.5 -64t-54.5 -146q0 -59 36.5 -95.5t99.5 -36.5q76 0 139 60l-3 -55q-66 -52 -145 -52z
M330 523q-22 0 -36.5 15.5t-14.5 37.5t14.5 37.5t36.5 15.5t36.5 -15.5t14.5 -37.5t-14.5 -37.5t-36.5 -15.5z" />
    <glyph glyph-name="Ccaron" unicode="&#x10c;" horiz-adv-x="693" 
d="M356 -12q-120 0 -201 78t-81 212q0 157 110.5 274.5t259.5 117.5q110 0 173 -53t63 -105q0 -31 -15.5 -48.5t-36.5 -17.5t-33.5 11.5t-12.5 29.5q0 30 33 47q-9 32 -55 58.5t-119 26.5q-89 0 -161 -51.5t-109 -127.5t-37 -155q0 -116 62.5 -180.5t165.5 -64.5
q119 0 218 94l32 -36q-112 -110 -256 -110zM469 718l-106 140l26 23l91 -86l141 86l23 -30z" />
    <glyph glyph-name="ccaron" unicode="&#x10d;" horiz-adv-x="453" 
d="M224 -8q-78 0 -129 48.5t-51 129.5q0 100 70 179t166 79q72 0 111 -34t39 -72q0 -22 -13.5 -37t-33.5 -15q-13 0 -23.5 9t-10.5 28q0 8 6.5 19t16.5 14q-25 41 -93 41q-73 0 -127.5 -64t-54.5 -146q0 -59 36.5 -95.5t99.5 -36.5q76 0 139 60l-3 -55q-66 -52 -145 -52z
M317 508l-106 140l26 23l91 -86l141 86l23 -30z" />
    <glyph glyph-name="Dcaron" unicode="&#x10e;" horiz-adv-x="715" 
d="M8 0l12 50h83l129 558h-93l12 50h206q96 0 157.5 -22t109.5 -70q67 -67 67 -176q0 -160 -102 -262q-128 -128 -355 -128h-226zM160 50h85q190 0 294 104q91 91 91 233q0 92 -53 145q-38 38 -89.5 57t-135.5 19h-63zM441 718l-106 140l26 23l91 -86l141 86l23 -30z" />
    <glyph glyph-name="dcaron" unicode="&#x10f;" horiz-adv-x="555" 
d="M46 167q0 108 66.5 184.5t154.5 76.5q55 0 94 -29t48 -80l85 367h-80l11 46h132l-147 -627q-7 -28 -7 -40q0 -33 30 -33q32 0 59 66l31 -10q-32 -94 -96 -94q-32 0 -52.5 19.5t-20.5 50.5q0 9 1 14q-65 -86 -150 -86q-70 0 -114.5 47.5t-44.5 127.5zM216 39
q75 0 125 67.5t50 146.5q0 58 -32 93t-88 35q-73 0 -121 -64t-48 -149q0 -59 30.5 -94t83.5 -35zM562 518l-15 16q47 51 59 96q3 13 4 35t2 29q5 38 38 38t33 -34q0 -38 -31 -86q-29 -45 -90 -94z" />
    <glyph glyph-name="Dcroat" unicode="&#x110;" horiz-adv-x="715" 
d="M8 0l12 50h83l60 262h-86l12 50h86l57 246h-93l12 50h206q96 0 157.5 -22t109.5 -70q67 -67 67 -176q0 -160 -102 -262q-128 -128 -355 -128h-226zM160 50h85q190 0 294 104q91 91 91 233q0 92 -53 145q-38 38 -89.5 57t-135.5 19h-63l-57 -246h135l-12 -50h-135z" />
    <glyph glyph-name="dcroat" unicode="&#x111;" horiz-adv-x="555" 
d="M299 531l10 47h160l25 108h-80l11 46h132l-36 -154h78l-10 -47h-79l-100 -426q-7 -28 -7 -40q0 -33 30 -33q32 0 59 66l31 -10q-32 -94 -96 -94q-32 0 -52.5 19.5t-20.5 50.5q0 9 1 14q-65 -86 -150 -86q-70 0 -114.5 47.5t-44.5 127.5q0 108 66.5 184.5t154.5 76.5
q55 0 94 -29t48 -80l49 212h-159zM216 39q75 0 125 67.5t50 146.5q0 58 -32 93t-88 35q-73 0 -121 -64t-48 -149q0 -59 30.5 -94t83.5 -35z" />
    <glyph glyph-name="Emacron" unicode="&#x112;" horiz-adv-x="588" 
d="M8 0l12 50h83l129 558h-93l12 50h472l-35 -149h-55l23 99h-267l-57 -247h218l-11 -50h-218l-61 -261h267l23 99h55l-34 -149h-463zM268 750l13 52h287l-11 -52h-289z" />
    <glyph glyph-name="emacron" unicode="&#x113;" horiz-adv-x="470" 
d="M414 196h-318q-1 -9 -1 -27q0 -62 42 -96.5t100 -34.5q65 0 138 39l-12 -54q-62 -31 -135 -31q-77 0 -131 47.5t-54 128.5q0 106 70.5 183t164.5 77q71 0 112 -41t41 -108q0 -37 -17 -83zM274 381q-55 0 -101.5 -40t-66.5 -101h268q8 24 8 48q0 39 -27.5 66t-80.5 27z
M169 540l13 52h287l-11 -52h-289z" />
    <glyph glyph-name="Ebreve" unicode="&#x114;" horiz-adv-x="588" 
d="M8 0l12 50h83l129 558h-93l12 50h472l-35 -149h-55l23 99h-267l-57 -247h218l-11 -50h-218l-61 -261h267l23 99h55l-34 -149h-463zM412 719q-53 0 -84.5 35t-39.5 89l37 13q16 -81 95 -81q75 0 124 80l33 -20q-27 -51 -72 -83.5t-93 -32.5z" />
    <glyph glyph-name="ebreve" unicode="&#x115;" horiz-adv-x="470" 
d="M414 196h-318q-1 -9 -1 -27q0 -62 42 -96.5t100 -34.5q65 0 138 39l-12 -54q-62 -31 -135 -31q-77 0 -131 47.5t-54 128.5q0 106 70.5 183t164.5 77q71 0 112 -41t41 -108q0 -37 -17 -83zM274 381q-55 0 -101.5 -40t-66.5 -101h268q8 24 8 48q0 39 -27.5 66t-80.5 27z
M313 509q-53 0 -84.5 35t-39.5 89l37 13q16 -81 95 -81q75 0 124 80l33 -20q-27 -51 -72 -83.5t-93 -32.5z" />
    <glyph glyph-name="Edotaccent" unicode="&#x116;" horiz-adv-x="588" 
d="M8 0l12 50h83l129 558h-93l12 50h472l-35 -149h-55l23 99h-267l-57 -247h218l-11 -50h-218l-61 -261h267l23 99h55l-34 -149h-463zM421 733q-22 0 -36.5 15.5t-14.5 37.5t14.5 37.5t36.5 15.5t36.5 -15.5t14.5 -37.5t-14.5 -37.5t-36.5 -15.5z" />
    <glyph glyph-name="edotaccent" unicode="&#x117;" horiz-adv-x="470" 
d="M414 196h-318q-1 -9 -1 -27q0 -62 42 -96.5t100 -34.5q65 0 138 39l-12 -54q-62 -31 -135 -31q-77 0 -131 47.5t-54 128.5q0 106 70.5 183t164.5 77q71 0 112 -41t41 -108q0 -37 -17 -83zM274 381q-55 0 -101.5 -40t-66.5 -101h268q8 24 8 48q0 39 -27.5 66t-80.5 27z
M321 523q-22 0 -36.5 15.5t-14.5 37.5t14.5 37.5t36.5 15.5t36.5 -15.5t14.5 -37.5t-14.5 -37.5t-36.5 -15.5z" />
    <glyph glyph-name="Eogonek" unicode="&#x118;" horiz-adv-x="588" 
d="M8 0l12 50h83l129 558h-93l12 50h472l-35 -149h-55l23 99h-267l-57 -247h218l-11 -50h-218l-61 -261h267l23 99h55l-34 -149h-42q-86 -62 -86 -116q0 -39 46 -39q26 0 49 9l-9 -42q-22 -13 -55 -13q-39 0 -59.5 19t-20.5 51q0 67 89 131h-375z" />
    <glyph glyph-name="eogonek" unicode="&#x119;" horiz-adv-x="470" 
d="M262 -201q-39 0 -59.5 19t-20.5 51q0 34 23 67.5t61 58.5q-18 -3 -38 -3q-77 0 -131 47.5t-54 128.5q0 106 70.5 183t164.5 77q71 0 112 -41t41 -108q0 -37 -17 -83h-318q-1 -9 -1 -27q0 -62 42 -96.5t100 -34.5q65 0 138 39l-12 -53q-50 -24 -91 -62t-41 -78
q0 -39 46 -39q26 0 49 9l-9 -42q-22 -13 -55 -13zM274 381q-55 0 -101.5 -40t-66.5 -101h268q8 24 8 48q0 39 -27.5 66t-80.5 27z" />
    <glyph glyph-name="Ecaron" unicode="&#x11a;" horiz-adv-x="588" 
d="M8 0l12 50h83l129 558h-93l12 50h472l-35 -149h-55l23 99h-267l-57 -247h218l-11 -50h-218l-61 -261h267l23 99h55l-34 -149h-463zM407 718l-106 140l26 23l91 -86l141 86l23 -30z" />
    <glyph glyph-name="ecaron" unicode="&#x11b;" horiz-adv-x="470" 
d="M414 196h-318q-1 -9 -1 -27q0 -62 42 -96.5t100 -34.5q65 0 138 39l-12 -54q-62 -31 -135 -31q-77 0 -131 47.5t-54 128.5q0 106 70.5 183t164.5 77q71 0 112 -41t41 -108q0 -37 -17 -83zM274 381q-55 0 -101.5 -40t-66.5 -101h268q8 24 8 48q0 39 -27.5 66t-80.5 27z
M308 508l-106 140l26 23l91 -86l141 86l23 -30z" />
    <glyph glyph-name="Gbreve" unicode="&#x11e;" horiz-adv-x="720" 
d="M528 0l13 60q-94 -72 -210 -72q-112 0 -184.5 74t-72.5 195q0 164 112.5 288.5t273.5 124.5q59 0 111.5 -19t83.5 -48q38 -36 38 -77q0 -27 -15.5 -43.5t-36.5 -16.5t-33.5 11.5t-12.5 29.5q0 30 33 47q-9 13 -21 22q-58 43 -150 43q-73 0 -135 -32t-102.5 -84t-63 -116
t-22.5 -128q0 -97 55 -159t152 -62q119 0 212 77l36 147h-191l12 49h246l-74 -311h-54zM480 719q-53 0 -84.5 35t-39.5 89l37 13q16 -81 95 -81q75 0 124 80l33 -20q-27 -51 -72 -83.5t-93 -32.5z" />
    <glyph glyph-name="gbreve" unicode="&#x11f;" horiz-adv-x="524" 
d="M177 -200q-40 0 -81.5 14.5t-58.5 31.5q-21 21 -21 43q0 20 11.5 33.5t31.5 13.5q19 0 30 -13t11 -31q0 -15 -9 -27q35 -21 88 -21q66 0 106 40q37 37 55 113l21 90q-54 -87 -151 -87q-70 0 -117 47.5t-47 126.5q0 106 67.5 180t159.5 74q57 0 94 -30t46 -79l25 106h52
l-101 -435q-21 -91 -66 -136q-54 -54 -146 -54zM220 47q75 0 124 65t49 144q0 58 -31.5 91.5t-88.5 33.5q-74 0 -122.5 -61t-48.5 -145q0 -59 32 -93.5t86 -34.5zM336 509q-53 0 -84.5 35t-39.5 89l37 13q16 -81 95 -81q75 0 124 80l33 -20q-27 -51 -72 -83.5t-93 -32.5z
" />
    <glyph glyph-name="Gdotaccent" unicode="&#x120;" horiz-adv-x="720" 
d="M528 0l13 60q-94 -72 -210 -72q-112 0 -184.5 74t-72.5 195q0 164 112.5 288.5t273.5 124.5q59 0 111.5 -19t83.5 -48q38 -36 38 -77q0 -27 -15.5 -43.5t-36.5 -16.5t-33.5 11.5t-12.5 29.5q0 30 33 47q-9 13 -21 22q-58 43 -150 43q-73 0 -135 -32t-102.5 -84t-63 -116
t-22.5 -128q0 -97 55 -159t152 -62q119 0 212 77l36 147h-191l12 49h246l-74 -311h-54zM489 733q-22 0 -36.5 15.5t-14.5 37.5t14.5 37.5t36.5 15.5t36.5 -15.5t14.5 -37.5t-14.5 -37.5t-36.5 -15.5z" />
    <glyph glyph-name="gdotaccent" unicode="&#x121;" horiz-adv-x="524" 
d="M177 -200q-40 0 -81.5 14.5t-58.5 31.5q-21 21 -21 43q0 20 11.5 33.5t31.5 13.5q19 0 30 -13t11 -31q0 -15 -9 -27q35 -21 88 -21q66 0 106 40q37 37 55 113l21 90q-54 -87 -151 -87q-70 0 -117 47.5t-47 126.5q0 106 67.5 180t159.5 74q57 0 94 -30t46 -79l25 106h52
l-101 -435q-21 -91 -66 -136q-54 -54 -146 -54zM220 47q75 0 124 65t49 144q0 58 -31.5 91.5t-88.5 33.5q-74 0 -122.5 -61t-48.5 -145q0 -59 32 -93.5t86 -34.5zM345 523q-22 0 -36.5 15.5t-14.5 37.5t14.5 37.5t36.5 15.5t36.5 -15.5t14.5 -37.5t-14.5 -37.5t-36.5 -15.5z
" />
    <glyph glyph-name="Gcommaaccent" unicode="&#x122;" horiz-adv-x="720" 
d="M528 0l13 60q-94 -72 -210 -72q-112 0 -184.5 74t-72.5 195q0 164 112.5 288.5t273.5 124.5q59 0 111.5 -19t83.5 -48q38 -36 38 -77q0 -27 -15.5 -43.5t-36.5 -16.5t-33.5 11.5t-12.5 29.5q0 30 33 47q-9 13 -21 22q-58 43 -150 43q-73 0 -135 -32t-102.5 -84t-63 -116
t-22.5 -128q0 -97 55 -159t152 -62q119 0 212 77l36 147h-191l12 49h246l-74 -311h-54zM193 -267l-10 20q46 20 73.5 50t29.5 51q-16 4 -26 17t-10 28q0 19 12.5 32t32.5 13q21 0 35 -15t14 -39q0 -45 -38 -88.5t-113 -68.5z" />
    <glyph glyph-name="gcommaaccent" unicode="&#x123;" horiz-adv-x="524" 
d="M177 -200q-40 0 -81.5 14.5t-58.5 31.5q-21 21 -21 43q0 20 11.5 33.5t31.5 13.5q19 0 30 -13t11 -31q0 -15 -9 -27q35 -21 88 -21q66 0 106 40q37 37 55 113l21 90q-54 -87 -151 -87q-70 0 -117 47.5t-47 126.5q0 106 67.5 180t159.5 74q57 0 94 -30t46 -79l25 106h52
l-101 -435q-21 -91 -66 -136q-54 -54 -146 -54zM220 47q75 0 124 65t49 144q0 58 -31.5 91.5t-88.5 33.5q-74 0 -122.5 -61t-48.5 -145q0 -59 32 -93.5t86 -34.5zM450 742l10 -20q-46 -20 -73.5 -50t-29.5 -51q16 -4 26 -17t10 -28q0 -19 -12.5 -32t-32.5 -13q-21 0 -35 15
t-14 39q0 45 38 88.5t113 68.5z" />
    <glyph glyph-name="Hbar" unicode="&#x126;" horiz-adv-x="776" 
d="M779 516l-11 -48h-73l-96 -418h93l-12 -50h-233l12 50h83l62 263h-383l-61 -263h93l-12 -50h-233l12 50h83l96 418h-69l11 48h69l22 92h-93l12 50h233l-12 -50h-83l-21 -92h382l21 92h-93l12 50h233l-12 -50h-83l-22 -92h73zM233 364h383l23 104h-382z" />
    <glyph glyph-name="hbar" unicode="&#x127;" horiz-adv-x="519" 
d="M35 0l124 531h-78l10 47h79l25 108h-80l11 46h132l-37 -154h160l-10 -47h-161l-48 -204q62 101 147 101q52 0 86.5 -31t35.5 -78q0 -29 -10 -66l-40 -148q-6 -23 -6 -40q0 -15 8.5 -24t22.5 -9q31 0 57 66l31 -10q-30 -94 -94 -94q-33 0 -55 20t-22 51q0 19 7 45l40 150
q8 29 8 57q-1 29 -22.5 47.5t-53.5 18.5q-50 0 -100 -50t-69 -133l-46 -200h-52z" />
    <glyph glyph-name="Imacron" unicode="&#x12a;" horiz-adv-x="349" 
d="M5 0l12 50h93l128 558h-93l12 50h243l-12 -50h-93l-128 -558h93l-12 -50h-243zM155 750l13 52h287l-11 -52h-289z" />
    <glyph glyph-name="imacron" unicode="&#x12b;" horiz-adv-x="282" 
d="M142 -6q-33 0 -54.5 20t-21.5 51q0 17 8 45l74 264h-84l12 46h137l-88 -315q-7 -25 -7 -40t8.5 -24t22.5 -9q31 0 58 66l31 -10q-32 -94 -96 -94zM65 540l13 52h287l-11 -52h-289z" />
    <glyph glyph-name="Ibreve" unicode="&#x12c;" horiz-adv-x="349" 
d="M5 0l12 50h93l128 558h-93l12 50h243l-12 -50h-93l-128 -558h93l-12 -50h-243zM299 719q-53 0 -84.5 35t-39.5 89l37 13q16 -81 95 -81q75 0 124 80l33 -20q-27 -51 -72 -83.5t-93 -32.5z" />
    <glyph glyph-name="ibreve" unicode="&#x12d;" horiz-adv-x="282" 
d="M142 -6q-33 0 -54.5 20t-21.5 51q0 17 8 45l74 264h-84l12 46h137l-88 -315q-7 -25 -7 -40t8.5 -24t22.5 -9q31 0 58 66l31 -10q-32 -94 -96 -94zM209 509q-53 0 -84.5 35t-39.5 89l37 13q16 -81 95 -81q75 0 124 80l33 -20q-27 -51 -72 -83.5t-93 -32.5z" />
    <glyph glyph-name="Iogonek" unicode="&#x12e;" horiz-adv-x="349" 
d="M5 0l12 50h93l128 558h-93l12 50h243l-12 -50h-93l-128 -558h93l-12 -50h-99q-86 -62 -86 -116q0 -39 46 -39q26 0 49 9l-9 -42q-22 -13 -55 -13q-39 0 -59.5 19t-20.5 51q0 67 89 131h-98z" />
    <glyph glyph-name="iogonek" unicode="&#x12f;" horiz-adv-x="282" 
d="M207 98l31 -10q-12 -38 -34 -63q-11 -12 -43.5 -40t-49.5 -51.5t-17 -49.5q0 -39 46 -39q26 0 49 9l-9 -42q-22 -13 -55 -13q-39 0 -59.5 19t-20.5 51q0 66 84 126q-29 4 -46 23t-17 47q0 17 8 45l74 264h-84l12 46h137l-88 -315q-7 -25 -7 -40q0 -32 30 -32q32 0 59 65z
M201 512q-18 0 -30.5 13t-12.5 31t12.5 31t30.5 13q17 0 29.5 -13t12.5 -31t-12.5 -31t-29.5 -13z" />
    <glyph glyph-name="Idotaccent" unicode="&#x130;" horiz-adv-x="349" 
d="M5 0l12 50h93l128 558h-93l12 50h243l-12 -50h-93l-128 -558h93l-12 -50h-243zM308 733q-22 0 -36.5 15.5t-14.5 37.5t14.5 37.5t36.5 15.5t36.5 -15.5t14.5 -37.5t-14.5 -37.5t-36.5 -15.5z" />
    <glyph glyph-name="dotlessi" unicode="&#x131;" horiz-adv-x="282" 
d="M142 -6q-33 0 -54.5 20t-21.5 51q0 17 8 45l74 264h-84l12 46h137l-88 -315q-7 -25 -7 -40t8.5 -24t22.5 -9q31 0 58 66l31 -10q-32 -94 -96 -94z" />
    <glyph glyph-name="Kcommaaccent" unicode="&#x136;" horiz-adv-x="652" 
d="M639 608l-275 -232l155 -326h89l-12 -50h-117l-160 340l-115 -98l-44 -192h93l-12 -50h-233l12 50h83l129 558h-93l12 50h233l-12 -50h-83l-69 -299l351 299h-94l11 50h238l-11 -50h-76zM177 -267l-10 20q46 20 73.5 50t29.5 51q-16 4 -26 17t-10 28q0 19 12.5 32
t32.5 13q21 0 35 -15t14 -39q0 -45 -38 -88.5t-113 -68.5z" />
    <glyph glyph-name="kcommaaccent" unicode="&#x137;" horiz-adv-x="455" 
d="M87 0h-52l160 686h-80l11 46h132l-123 -525q92 42 150 79t70 58q-9 4 -16 15.5t-7 21.5q0 20 13 33.5t33 13.5q19 0 31.5 -13t12.5 -35q0 -74 -183 -167l46 -116q16 -41 26 -52t26 -11q30 0 48 77l33 -11q-23 -106 -86 -106q-32 0 -55 20q-20 18 -36 58l-49 121l-67 -31z
M50 -267l-10 20q46 20 73.5 50t29.5 51q-16 4 -26 17t-10 28q0 19 12.5 32t32.5 13q21 0 35 -15t14 -39q0 -45 -38 -88.5t-113 -68.5z" />
    <glyph glyph-name="Lacute" unicode="&#x139;" horiz-adv-x="552" 
d="M8 0l12 50h83l129 558h-93l12 50h238l-12 -50h-88l-129 -558h244l25 104h55l-36 -154h-440zM272 730l-11 19l166 120q19 15 38 15q13 0 23.5 -10t10.5 -24q0 -29 -37 -43z" />
    <glyph glyph-name="lacute" unicode="&#x13a;" horiz-adv-x="265" 
d="M131 -6q-33 0 -54.5 20t-21.5 51q0 7 7 42l135 579h-79l11 46h131l-146 -625q-7 -35 -7 -42q0 -15 8.5 -24t22.5 -9q31 0 58 66l31 -10q-32 -94 -96 -94zM213 775l-11 19l166 120q19 15 38 15q14 0 24 -10.5t10 -23.5q0 -29 -37 -43z" />
    <glyph glyph-name="Lcommaaccent" unicode="&#x13b;" horiz-adv-x="552" 
d="M8 0l12 50h83l129 558h-93l12 50h238l-12 -50h-88l-129 -558h244l25 104h55l-36 -154h-440zM106 -267l-10 20q46 20 73.5 50t29.5 51q-16 4 -26 17t-10 28q0 19 12.5 32t32.5 13q21 0 35 -15t14 -39q0 -45 -38 -88.5t-113 -68.5z" />
    <glyph glyph-name="lcommaaccent" unicode="&#x13c;" horiz-adv-x="265" 
d="M131 -6q-33 0 -54.5 20t-21.5 51q0 7 7 42l135 579h-79l11 46h131l-146 -625q-7 -35 -7 -42q0 -15 8.5 -24t22.5 -9q31 0 58 66l31 -10q-32 -94 -96 -94zM-7 -267l-10 20q46 20 73.5 50t29.5 51q-16 4 -26 17t-10 28q0 19 12.5 32t32.5 13q21 0 35 -15t14 -39
q0 -45 -38 -88.5t-113 -68.5z" />
    <glyph glyph-name="Lcaron" unicode="&#x13d;" horiz-adv-x="552" 
d="M8 0l12 50h83l129 558h-93l12 50h238l-12 -50h-88l-129 -558h244l25 104h55l-36 -154h-440zM405 444l-15 16q47 51 59 96q3 13 4 35t2 29q5 38 38 38t33 -34q0 -38 -31 -86q-29 -45 -90 -94z" />
    <glyph glyph-name="lcaron" unicode="&#x13e;" horiz-adv-x="265" 
d="M131 -6q-33 0 -54.5 20t-21.5 51q0 7 7 42l135 579h-79l11 46h131l-146 -625q-7 -35 -7 -42q0 -15 8.5 -24t22.5 -9q31 0 58 66l31 -10q-32 -94 -96 -94zM263 518l-15 16q47 51 59 96q3 13 4 35t2 29q5 38 38 38t33 -34q0 -38 -31 -86q-29 -45 -90 -94z" />
    <glyph glyph-name="Ldot" unicode="&#x13f;" horiz-adv-x="552" 
d="M8 0l12 50h83l129 558h-93l12 50h238l-12 -50h-88l-129 -558h244l25 104h55l-36 -154h-440zM487 294q-22 0 -36.5 15.5t-14.5 37.5t14.5 37.5t36.5 15.5t36.5 -15.5t14.5 -37.5t-14.5 -37.5t-36.5 -15.5z" />
    <glyph glyph-name="ldot" unicode="&#x140;" horiz-adv-x="311" 
d="M131 -6q-33 0 -54.5 20t-21.5 51q0 7 7 42l135 579h-79l11 46h131l-146 -625q-7 -35 -7 -42q0 -15 8.5 -24t22.5 -9q31 0 58 66l31 -10q-32 -94 -96 -94zM298 284q-22 0 -36.5 15.5t-14.5 37.5t14.5 37.5t36.5 15.5t36.5 -15.5t14.5 -37.5t-14.5 -37.5t-36.5 -15.5z" />
    <glyph glyph-name="Lslash" unicode="&#x141;" horiz-adv-x="552" 
d="M8 0l12 50h83l54 234l-95 -32l-16 44l123 42l63 270h-93l12 50h238l-12 -50h-88l-58 -250l123 42l16 -44l-151 -52l-59 -254h244l25 104h55l-36 -154h-440z" />
    <glyph glyph-name="lslash" unicode="&#x142;" horiz-adv-x="295" 
d="M146 -6q-33 0 -54.5 20t-21.5 51q0 7 7 42l62 266l-99 -40l-16 41l127 51l61 261h-79l11 46h131l-66 -281l116 49l16 -41l-144 -61l-68 -291q-7 -35 -7 -42q0 -15 8.5 -24t22.5 -9q31 0 58 66l31 -10q-32 -94 -96 -94z" />
    <glyph glyph-name="Nacute" unicode="&#x143;" horiz-adv-x="760" 
d="M559 -3l-282 569l-119 -516h93l-12 -50h-231l12 50h83l129 558h-93l12 50h141l269 -543l113 493h-93l12 50h227l-12 -50h-80l-141 -611h-28zM453 715l-11 19l166 120q19 15 38 15q14 0 24 -10.5t10 -23.5q0 -29 -37 -43z" />
    <glyph glyph-name="nacute" unicode="&#x144;" horiz-adv-x="531" 
d="M408 -6q-33 0 -54.5 20t-21.5 51q0 18 8 46l43 149q10 37 10 57q0 29 -20.5 47.5t-52.5 18.5q-50 0 -100 -49.5t-71 -133.5l-50 -200h-52l94 374h-80l12 46h129l-26 -101q68 109 152 109q52 0 85 -31t33 -78q0 -22 -12 -66l-43 -147q-7 -25 -7 -41q0 -15 8.5 -24t22.5 -9
q31 0 58 66l31 -10q-32 -94 -96 -94zM292 505l-11 19l166 120q19 15 38 15q13 0 23.5 -10.5t10.5 -23.5q0 -29 -37 -43z" />
    <glyph glyph-name="Ncommaaccent" unicode="&#x145;" horiz-adv-x="760" 
d="M559 -3l-282 569l-119 -516h93l-12 -50h-231l12 50h83l129 558h-93l12 50h141l269 -543l113 493h-93l12 50h227l-12 -50h-80l-141 -611h-28zM225 -267l-10 20q46 20 73.5 50t29.5 51q-16 4 -26 17t-10 28q0 19 12.5 32t32.5 13q21 0 35 -15t14 -39q0 -45 -38 -88.5
t-113 -68.5z" />
    <glyph glyph-name="ncommaaccent" unicode="&#x146;" horiz-adv-x="531" 
d="M408 -6q-33 0 -54.5 20t-21.5 51q0 18 8 46l43 149q10 37 10 57q0 29 -20.5 47.5t-52.5 18.5q-50 0 -100 -49.5t-71 -133.5l-50 -200h-52l94 374h-80l12 46h129l-26 -101q68 109 152 109q52 0 85 -31t33 -78q0 -22 -12 -66l-43 -147q-7 -25 -7 -41q0 -15 8.5 -24t22.5 -9
q31 0 58 66l31 -10q-32 -94 -96 -94zM102 -267l-10 20q46 20 73.5 50t29.5 51q-16 4 -26 17t-10 28q0 19 12.5 32t32.5 13q21 0 35 -15t14 -39q0 -45 -38 -88.5t-113 -68.5z" />
    <glyph glyph-name="Ncaron" unicode="&#x147;" horiz-adv-x="760" 
d="M559 -3l-282 569l-119 -516h93l-12 -50h-231l12 50h83l129 558h-93l12 50h141l269 -543l113 493h-93l12 50h227l-12 -50h-80l-141 -611h-28zM497 718l-106 140l26 23l91 -86l141 86l23 -30z" />
    <glyph glyph-name="ncaron" unicode="&#x148;" horiz-adv-x="531" 
d="M408 -6q-33 0 -54.5 20t-21.5 51q0 18 8 46l43 149q10 37 10 57q0 29 -20.5 47.5t-52.5 18.5q-50 0 -100 -49.5t-71 -133.5l-50 -200h-52l94 374h-80l12 46h129l-26 -101q68 109 152 109q52 0 85 -31t33 -78q0 -22 -12 -66l-43 -147q-7 -25 -7 -41q0 -15 8.5 -24t22.5 -9
q31 0 58 66l31 -10q-32 -94 -96 -94zM335 508l-106 140l26 23l91 -86l141 86l23 -30z" />
    <glyph glyph-name="Omacron" unicode="&#x14c;" horiz-adv-x="734" 
d="M347 -12q-127 0 -200 79t-73 199q0 99 46.5 191.5t132.5 152.5t188 60q127 0 200 -79t73 -199q0 -99 -46.5 -191.5t-132.5 -152.5t-188 -60zM352 40q126 0 214.5 107t88.5 243q0 98 -56 163t-163 65q-126 0 -214.5 -107t-88.5 -243q0 -98 56 -163t163 -65zM347 750l13 52
h287l-11 -52h-289z" />
    <glyph glyph-name="omacron" unicode="&#x14d;" horiz-adv-x="502" 
d="M220 -8q-81 0 -128.5 52t-47.5 128q0 102 69.5 179t168.5 77q81 0 128.5 -52t47.5 -128q0 -102 -69.5 -179t-168.5 -77zM223 39q76 0 129 62.5t53 147.5q0 59 -35.5 95.5t-90.5 36.5q-76 0 -129 -62.5t-53 -147.5q0 -59 35.5 -95.5t90.5 -36.5zM183 540l13 52h287
l-11 -52h-289z" />
    <glyph glyph-name="Obreve" unicode="&#x14e;" horiz-adv-x="734" 
d="M347 -12q-127 0 -200 79t-73 199q0 99 46.5 191.5t132.5 152.5t188 60q127 0 200 -79t73 -199q0 -99 -46.5 -191.5t-132.5 -152.5t-188 -60zM352 40q126 0 214.5 107t88.5 243q0 98 -56 163t-163 65q-126 0 -214.5 -107t-88.5 -243q0 -98 56 -163t163 -65zM491 719
q-53 0 -84.5 35t-39.5 89l37 13q16 -81 95 -81q75 0 124 80l33 -20q-27 -51 -72 -83.5t-93 -32.5z" />
    <glyph glyph-name="obreve" unicode="&#x14f;" horiz-adv-x="502" 
d="M220 -8q-81 0 -128.5 52t-47.5 128q0 102 69.5 179t168.5 77q81 0 128.5 -52t47.5 -128q0 -102 -69.5 -179t-168.5 -77zM223 39q76 0 129 62.5t53 147.5q0 59 -35.5 95.5t-90.5 36.5q-76 0 -129 -62.5t-53 -147.5q0 -59 35.5 -95.5t90.5 -36.5zM327 509q-53 0 -84.5 35
t-39.5 89l37 13q16 -81 95 -81q75 0 124 80l33 -20q-27 -51 -72 -83.5t-93 -32.5z" />
    <glyph glyph-name="Ohungarumlaut" unicode="&#x150;" horiz-adv-x="734" 
d="M347 -12q-127 0 -200 79t-73 199q0 99 46.5 191.5t132.5 152.5t188 60q127 0 200 -79t73 -199q0 -99 -46.5 -191.5t-132.5 -152.5t-188 -60zM352 40q126 0 214.5 107t88.5 243q0 98 -56 163t-163 65q-126 0 -214.5 -107t-88.5 -243q0 -98 56 -163t163 -65zM369 717
l-12 19l126 115q22 20 38 20q14 0 24 -9.5t10 -26.5q0 -21 -35 -39zM548 722l-10 20l134 106q22 17 37 17t24 -10t9 -25q0 -25 -38 -40z" />
    <glyph glyph-name="ohungarumlaut" unicode="&#x151;" horiz-adv-x="502" 
d="M220 -8q-81 0 -128.5 52t-47.5 128q0 102 69.5 179t168.5 77q81 0 128.5 -52t47.5 -128q0 -102 -69.5 -179t-168.5 -77zM223 39q76 0 129 62.5t53 147.5q0 59 -35.5 95.5t-90.5 36.5q-76 0 -129 -62.5t-53 -147.5q0 -59 35.5 -95.5t90.5 -36.5zM205 507l-12 19l126 115
q22 20 38 20q14 0 24 -9.5t10 -26.5q0 -21 -35 -39zM384 512l-10 20l134 106q22 17 37 17t24 -10t9 -25q0 -25 -38 -40z" />
    <glyph glyph-name="OE" unicode="&#x152;" horiz-adv-x="934" 
d="M401 0q-96 0 -157.5 22t-109.5 70q-67 67 -67 176q0 160 102 262q128 128 355 128h445l-35 -149h-55l23 99h-267l-57 -247h218l-11 -50h-218l-61 -261h267l23 99h55l-34 -149h-416zM406 50h43l129 558h-65q-190 0 -294 -104q-91 -91 -91 -233q0 -92 53 -145
q38 -38 89.5 -57t135.5 -19z" />
    <glyph glyph-name="oe" unicode="&#x153;" horiz-adv-x="820" 
d="M725 77l-12 -54q-62 -31 -135 -31q-61 0 -106.5 32.5t-60.5 84.5q-73 -117 -191 -117q-81 0 -128.5 52t-47.5 128q0 102 69.5 179t168.5 77q62 0 102.5 -31.5t56.5 -85.5q68 117 187 117q71 0 112 -41t41 -108q0 -37 -17 -83h-318q-1 -9 -1 -27q0 -62 42 -96.5t100 -34.5
q65 0 138 39zM223 39q76 0 129 62.5t53 147.5q0 59 -35.5 95.5t-90.5 36.5q-76 0 -129 -62.5t-53 -147.5q0 -59 35.5 -95.5t90.5 -36.5zM624 381q-55 0 -101.5 -40t-66.5 -101h268q8 24 8 48q0 39 -27.5 66t-80.5 27z" />
    <glyph glyph-name="Racute" unicode="&#x154;" horiz-adv-x="602" 
d="M8 0l12 50h83l129 558h-93l12 50h197q128 0 188 -60q43 -43 43 -112q0 -74 -51 -128.5t-142 -73.5l112 -234h77l-12 -50h-105l-130 277q-13 -1 -41 -1q-32 0 -74 2l-53 -228h93l-12 -50h-233zM312 326q97 0 153.5 44t56.5 114q0 49 -32 81q-43 43 -145 43h-56l-65 -280
q48 -2 88 -2zM362 715l-11 19l166 120q19 15 38 15q13 0 23.5 -10.5t10.5 -23.5q0 -29 -37 -43z" />
    <glyph glyph-name="racute" unicode="&#x155;" horiz-adv-x="363" 
d="M47 0l94 374h-80l12 46h129l-28 -114q89 122 142 122q24 0 37.5 -12.5t13.5 -31.5q0 -20 -14 -34.5t-33 -14.5q-36 0 -44 34q-35 -20 -75 -69.5t-56 -115.5l-46 -184h-52zM233 505l-11 19l166 120q19 15 38 15q14 0 24 -10.5t10 -23.5q0 -29 -37 -43z" />
    <glyph glyph-name="Rcommaaccent" unicode="&#x156;" horiz-adv-x="602" 
d="M8 0l12 50h83l129 558h-93l12 50h197q128 0 188 -60q43 -43 43 -112q0 -74 -51 -128.5t-142 -73.5l112 -234h77l-12 -50h-105l-130 277q-13 -1 -41 -1q-32 0 -74 2l-53 -228h93l-12 -50h-233zM312 326q97 0 153.5 44t56.5 114q0 49 -32 81q-43 43 -145 43h-56l-65 -280
q48 -2 88 -2zM153 -267l-10 20q46 20 73.5 50t29.5 51q-16 4 -26 17t-10 28q0 19 12.5 32t32.5 13q21 0 35 -15t14 -39q0 -45 -38 -88.5t-113 -68.5z" />
    <glyph glyph-name="rcommaaccent" unicode="&#x157;" horiz-adv-x="363" 
d="M47 0l94 374h-80l12 46h129l-28 -114q89 122 142 122q24 0 37.5 -12.5t13.5 -31.5q0 -20 -14 -34.5t-33 -14.5q-36 0 -44 34q-35 -20 -75 -69.5t-56 -115.5l-46 -184h-52zM-47 -267l-10 20q46 20 73.5 50t29.5 51q-16 4 -26 17t-10 28q0 19 12.5 32t32.5 13q21 0 35 -15
t14 -39q0 -45 -38 -88.5t-113 -68.5z" />
    <glyph glyph-name="Rcaron" unicode="&#x158;" horiz-adv-x="602" 
d="M8 0l12 50h83l129 558h-93l12 50h197q128 0 188 -60q43 -43 43 -112q0 -74 -51 -128.5t-142 -73.5l112 -234h77l-12 -50h-105l-130 277q-13 -1 -41 -1q-32 0 -74 2l-53 -228h93l-12 -50h-233zM312 326q97 0 153.5 44t56.5 114q0 49 -32 81q-43 43 -145 43h-56l-65 -280
q48 -2 88 -2zM405 718l-106 140l26 23l91 -86l141 86l23 -30z" />
    <glyph glyph-name="rcaron" unicode="&#x159;" horiz-adv-x="363" 
d="M47 0l94 374h-80l12 46h129l-28 -114q89 122 142 122q24 0 37.5 -12.5t13.5 -31.5q0 -20 -14 -34.5t-33 -14.5q-36 0 -44 34q-35 -20 -75 -69.5t-56 -115.5l-46 -184h-52zM276 508l-106 140l26 23l91 -86l141 86l23 -30z" />
    <glyph glyph-name="Sacute" unicode="&#x15a;" horiz-adv-x="544" 
d="M265 -12q-93 0 -158 46t-65 97q0 27 15 43.5t38 16.5q19 0 31.5 -12.5t12.5 -27.5q0 -32 -31 -50q17 -26 59 -44.5t102 -18.5q61 0 106.5 37t45.5 92q0 43 -29 73.5t-84 64.5q-39 24 -60.5 39.5t-46.5 39.5t-36 50.5t-11 59.5q0 72 59 124t145 52q77 0 134.5 -38
t57.5 -88q0 -27 -15 -42.5t-35 -15.5q-19 0 -31.5 12.5t-12.5 30.5q0 26 29 43q-44 48 -131 48q-62 0 -102.5 -34.5t-40.5 -87.5q0 -43 28.5 -72t96.5 -71q33 -21 54 -36t43.5 -38t33.5 -50t11 -60q0 -79 -62 -131t-151 -52zM358 715l-11 19l166 120q19 15 38 15
q13 0 23.5 -10.5t10.5 -23.5q0 -29 -37 -43z" />
    <glyph glyph-name="sacute" unicode="&#x15b;" horiz-adv-x="410" 
d="M198 -8q-42 0 -81.5 15.5t-63.5 39.5q-23 23 -23 49q0 19 12 33t30 14t27.5 -10.5t9.5 -25.5q0 -18 -16 -35q4 -6 18 -14q39 -22 91 -22q38 0 63.5 19t25.5 50q0 28 -21.5 46.5t-63.5 39.5q-31 15 -47 24.5t-35 24.5t-27.5 32.5t-8.5 39.5q0 51 40 83.5t105 32.5
q81 0 125 -44q23 -21 23 -49q0 -20 -12 -33t-28 -13q-17 0 -27.5 10t-10.5 26q0 18 13 35q-6 6 -17 11q-28 13 -70 13q-41 0 -65 -18.5t-24 -45.5q0 -17 13 -32t29 -25t46 -25q37 -18 58.5 -32t39 -38.5t17.5 -54.5q0 -56 -42.5 -88.5t-102.5 -32.5zM243 505l-11 19l166 120
q19 15 38 15q14 0 24 -10.5t10 -23.5q0 -29 -37 -43z" />
    <glyph glyph-name="Scedilla" unicode="&#x15e;" horiz-adv-x="544" 
d="M241 -199q-64 0 -115 42l20 28q14 -10 41.5 -19t50.5 -9q45 0 45 34q0 15 -17.5 24.5t-46.5 4.5l-14 14l37 69q-86 6 -143 50.5t-57 91.5q0 27 15 43.5t38 16.5q19 0 31.5 -12.5t12.5 -27.5q0 -32 -31 -50q17 -26 59 -44.5t102 -18.5q61 0 106.5 37t45.5 92
q0 43 -29 73.5t-84 64.5q-39 24 -60.5 39.5t-46.5 39.5t-36 50.5t-11 59.5q0 72 59 124t145 52q77 0 134.5 -38t57.5 -88q0 -27 -15 -42.5t-35 -15.5q-19 0 -31.5 12.5t-12.5 30.5q0 26 29 43q-44 48 -131 48q-62 0 -102.5 -34.5t-40.5 -87.5q0 -43 28.5 -72t96.5 -71
q33 -21 54 -36t43.5 -38t33.5 -50t11 -60q0 -76 -57.5 -126.5t-141.5 -55.5l-15 -42q35 -4 53.5 -23.5t18.5 -43.5q0 -37 -28 -58t-67 -21z" />
    <glyph glyph-name="scedilla" unicode="&#x15f;" horiz-adv-x="410" 
d="M155 -199q-64 0 -115 42l20 28q14 -10 41.5 -19t50.5 -9q45 0 45 34q0 15 -17.5 24.5t-46.5 4.5l-14 14l40 76q-68 11 -106 51q-23 23 -23 49q0 19 12 33t30 14t27.5 -10.5t9.5 -25.5q0 -18 -16 -35q4 -6 18 -14q39 -22 91 -22q38 0 63.5 19t25.5 50q0 28 -21.5 46.5
t-63.5 39.5q-31 15 -47 24.5t-35 24.5t-27.5 32.5t-8.5 39.5q0 51 40 83.5t105 32.5q81 0 125 -44q23 -21 23 -49q0 -20 -12 -33t-28 -13q-17 0 -27.5 10t-10.5 26q0 18 13 35q-6 6 -17 11q-28 13 -70 13q-41 0 -65 -18.5t-24 -45.5q0 -17 13 -32t29 -25t46 -25
q37 -18 58.5 -32t39 -38.5t17.5 -54.5q0 -56 -42.5 -88.5t-102.5 -32.5h-3l-17 -45q35 -4 53.5 -23.5t18.5 -43.5q0 -37 -28 -58t-67 -21z" />
    <glyph glyph-name="Scaron" unicode="&#x160;" horiz-adv-x="544" 
d="M265 -12q-93 0 -158 46t-65 97q0 27 15 43.5t38 16.5q19 0 31.5 -12.5t12.5 -27.5q0 -32 -31 -50q17 -26 59 -44.5t102 -18.5q61 0 106.5 37t45.5 92q0 43 -29 73.5t-84 64.5q-39 24 -60.5 39.5t-46.5 39.5t-36 50.5t-11 59.5q0 72 59 124t145 52q77 0 134.5 -38
t57.5 -88q0 -27 -15 -42.5t-35 -15.5q-19 0 -31.5 12.5t-12.5 30.5q0 26 29 43q-44 48 -131 48q-62 0 -102.5 -34.5t-40.5 -87.5q0 -43 28.5 -72t96.5 -71q33 -21 54 -36t43.5 -38t33.5 -50t11 -60q0 -79 -62 -131t-151 -52zM401 718l-106 140l26 23l91 -86l141 86l23 -30z
" />
    <glyph glyph-name="scaron" unicode="&#x161;" horiz-adv-x="410" 
d="M198 -8q-42 0 -81.5 15.5t-63.5 39.5q-23 23 -23 49q0 19 12 33t30 14t27.5 -10.5t9.5 -25.5q0 -18 -16 -35q4 -6 18 -14q39 -22 91 -22q38 0 63.5 19t25.5 50q0 28 -21.5 46.5t-63.5 39.5q-31 15 -47 24.5t-35 24.5t-27.5 32.5t-8.5 39.5q0 51 40 83.5t105 32.5
q81 0 125 -44q23 -21 23 -49q0 -20 -12 -33t-28 -13q-17 0 -27.5 10t-10.5 26q0 18 13 35q-6 6 -17 11q-28 13 -70 13q-41 0 -65 -18.5t-24 -45.5q0 -17 13 -32t29 -25t46 -25q37 -18 58.5 -32t39 -38.5t17.5 -54.5q0 -56 -42.5 -88.5t-102.5 -32.5zM286 508l-106 140l26 23
l91 -86l141 86l23 -30z" />
    <glyph glyph-name="Tcommaaccent" unicode="&#x162;" horiz-adv-x="633" 
d="M152 0l12 50h88l128 558h-183l-24 -104h-55l36 154h533l-36 -154h-55l24 104h-183l-128 -558h98l-12 -50h-243zM154 -267l-10 20q46 20 73.5 50t29.5 51q-16 4 -26 17t-10 28q0 19 12.5 32t32.5 13q21 0 35 -15t14 -39q0 -45 -38 -88.5t-113 -68.5z" />
    <glyph glyph-name="tcommaaccent" unicode="&#x163;" horiz-adv-x="324" 
d="M321 374h-129l-66 -269q-5 -22 -5 -36q0 -12 9.5 -21.5t25.5 -9.5q27 0 91 42l22 -31q-78 -57 -124 -57q-35 0 -57 20t-22 50q0 14 7 44l67 268h-74l12 46h73l26 103l56 16l-30 -119h130zM24 -267l-10 20q46 20 73.5 50t29.5 51q-16 4 -26 17t-10 28q0 19 12.5 32
t32.5 13q21 0 35 -15t14 -39q0 -45 -38 -88.5t-113 -68.5z" />
    <glyph glyph-name="Tcaron" unicode="&#x164;" horiz-adv-x="633" 
d="M152 0l12 50h88l128 558h-183l-24 -104h-55l36 154h533l-36 -154h-55l24 104h-183l-128 -558h98l-12 -50h-243zM436 718l-106 140l26 23l91 -86l141 86l23 -30z" />
    <glyph glyph-name="tcaron" unicode="&#x165;" horiz-adv-x="324" 
d="M321 374h-129l-66 -269q-5 -22 -5 -36q0 -12 9.5 -21.5t25.5 -9.5q27 0 91 42l22 -31q-78 -57 -124 -57q-35 0 -57 20t-22 50q0 14 7 44l67 268h-74l12 46h73l26 103l56 16l-30 -119h130zM272 465l-15 16q47 51 59 96q3 13 4 35t2 29q5 38 38 38t33 -34q0 -38 -31 -86
q-29 -45 -90 -94z" />
    <glyph glyph-name="Umacron" unicode="&#x16a;" horiz-adv-x="724" 
d="M342 -12q-102 0 -157 52t-55 138q0 34 9 72l83 358h-93l12 50h233l-12 -50h-83l-83 -361q-8 -37 -8 -67q0 -66 38.5 -104t120.5 -38q79 0 127.5 48t66.5 126l90 396h-93l12 50h233l-12 -50h-83l-93 -405q-22 -99 -85 -157t-168 -58zM334 750l13 52h287l-11 -52h-289z" />
    <glyph glyph-name="umacron" unicode="&#x16b;" horiz-adv-x="531" 
d="M68 420h132l-71 -272q-7 -26 -7 -51q0 -26 19 -43t51 -17q50 0 100 50t71 133l50 200h52l-79 -315q-7 -28 -7 -40q0 -15 8.5 -24t22.5 -9q31 0 58 66l31 -10q-32 -94 -96 -94q-33 0 -52.5 19t-19.5 52q0 13 5 36q-66 -109 -152 -109q-51 0 -83 28.5t-32 74.5q0 21 9 57
l58 222h-80zM190 540l13 52h287l-11 -52h-289z" />
    <glyph glyph-name="Ubreve" unicode="&#x16c;" horiz-adv-x="724" 
d="M342 -12q-102 0 -157 52t-55 138q0 34 9 72l83 358h-93l12 50h233l-12 -50h-83l-83 -361q-8 -37 -8 -67q0 -66 38.5 -104t120.5 -38q79 0 127.5 48t66.5 126l90 396h-93l12 50h233l-12 -50h-83l-93 -405q-22 -99 -85 -157t-168 -58zM477 719q-53 0 -84.5 35t-39.5 89
l37 13q16 -81 95 -81q75 0 124 80l33 -20q-27 -51 -72 -83.5t-93 -32.5z" />
    <glyph glyph-name="ubreve" unicode="&#x16d;" horiz-adv-x="531" 
d="M68 420h132l-71 -272q-7 -26 -7 -51q0 -26 19 -43t51 -17q50 0 100 50t71 133l50 200h52l-79 -315q-7 -28 -7 -40q0 -15 8.5 -24t22.5 -9q31 0 58 66l31 -10q-32 -94 -96 -94q-33 0 -52.5 19t-19.5 52q0 13 5 36q-66 -109 -152 -109q-51 0 -83 28.5t-32 74.5q0 21 9 57
l58 222h-80zM334 509q-53 0 -84.5 35t-39.5 89l37 13q16 -81 95 -81q75 0 124 80l33 -20q-27 -51 -72 -83.5t-93 -32.5z" />
    <glyph glyph-name="Uring" unicode="&#x16e;" horiz-adv-x="724" 
d="M342 -12q-102 0 -157 52t-55 138q0 34 9 72l83 358h-93l12 50h233l-12 -50h-83l-83 -361q-8 -37 -8 -67q0 -66 38.5 -104t120.5 -38q79 0 127.5 48t66.5 126l90 396h-93l12 50h233l-12 -50h-83l-93 -405q-22 -99 -85 -157t-168 -58zM478 707q-38 0 -60 24t-22 61
q0 48 31.5 83.5t77.5 35.5q38 0 60 -24t22 -61q0 -48 -31.5 -83.5t-77.5 -35.5zM482 746q27 0 46 22.5t19 53.5q0 21 -13 35.5t-33 14.5q-27 0 -46 -22.5t-19 -53.5q0 -21 13 -35.5t33 -14.5z" />
    <glyph glyph-name="uring" unicode="&#x16f;" horiz-adv-x="531" 
d="M68 420h132l-71 -272q-7 -26 -7 -51q0 -26 19 -43t51 -17q50 0 100 50t71 133l50 200h52l-79 -315q-7 -28 -7 -40q0 -15 8.5 -24t22.5 -9q31 0 58 66l31 -10q-32 -94 -96 -94q-33 0 -52.5 19t-19.5 52q0 13 5 36q-66 -109 -152 -109q-51 0 -83 28.5t-32 74.5q0 21 9 57
l58 222h-80zM335 497q-38 0 -60 24t-22 61q0 48 31.5 83.5t77.5 35.5q38 0 60 -24t22 -61q0 -48 -31.5 -83.5t-77.5 -35.5zM339 536q27 0 46 22.5t19 53.5q0 21 -13 35.5t-33 14.5q-27 0 -46 -22.5t-19 -53.5q0 -21 13 -35.5t33 -14.5z" />
    <glyph glyph-name="Uhungarumlaut" unicode="&#x170;" horiz-adv-x="724" 
d="M342 -12q-102 0 -157 52t-55 138q0 34 9 72l83 358h-93l12 50h233l-12 -50h-83l-83 -361q-8 -37 -8 -67q0 -66 38.5 -104t120.5 -38q79 0 127.5 48t66.5 126l90 396h-93l12 50h233l-12 -50h-83l-93 -405q-22 -99 -85 -157t-168 -58zM356 717l-12 19l126 115q22 20 38 20
q14 0 24 -9.5t10 -26.5q0 -21 -35 -39zM535 722l-10 20l134 106q22 17 37 17t24 -10t9 -25q0 -25 -38 -40z" />
    <glyph glyph-name="uhungarumlaut" unicode="&#x171;" horiz-adv-x="531" 
d="M68 420h132l-71 -272q-7 -26 -7 -51q0 -26 19 -43t51 -17q50 0 100 50t71 133l50 200h52l-79 -315q-7 -28 -7 -40q0 -15 8.5 -24t22.5 -9q31 0 58 66l31 -10q-32 -94 -96 -94q-33 0 -52.5 19t-19.5 52q0 13 5 36q-66 -109 -152 -109q-51 0 -83 28.5t-32 74.5q0 21 9 57
l58 222h-80zM212 507l-12 19l126 115q22 20 38 20q14 0 24 -9.5t10 -26.5q0 -21 -35 -39zM391 512l-10 20l134 106q22 17 37 17t24 -10t9 -25q0 -25 -38 -40z" />
    <glyph glyph-name="Uogonek" unicode="&#x172;" horiz-adv-x="724" 
d="M248 -131q0 61 74 120q-93 5 -142.5 56t-49.5 133q0 34 9 72l83 358h-93l12 50h233l-12 -50h-83l-83 -361q-8 -37 -8 -67q0 -66 38.5 -104t120.5 -38q79 0 127.5 48t66.5 126l90 396h-93l12 50h233l-12 -50h-83l-93 -405q-21 -92 -77.5 -149t-149.5 -65q-71 -57 -71 -105
q0 -39 46 -39q26 0 49 9l-9 -42q-22 -13 -55 -13q-39 0 -59.5 19t-20.5 51z" />
    <glyph glyph-name="uogonek" unicode="&#x173;" horiz-adv-x="531" 
d="M468 98l31 -10q-12 -38 -34 -63q-11 -12 -43.5 -40t-49.5 -51.5t-17 -49.5q0 -39 46 -39q26 0 49 9l-9 -42q-22 -13 -55 -13q-39 0 -59.5 19t-20.5 51q0 66 84 126q-27 4 -43 22.5t-16 47.5q0 13 5 35q-64 -107 -151 -107q-51 0 -83 28.5t-32 74.5q0 24 8 56l58 222h-80
l12 46h132l-71 -272q-6 -23 -6 -50q0 -26 19 -43t51 -17q50 0 99.5 49.5t70.5 132.5l50 200h52l-79 -315q-7 -28 -7 -40q0 -32 30 -32q32 0 59 65z" />
    <glyph glyph-name="Wcircumflex" unicode="&#x174;" horiz-adv-x="929" 
d="M209 -11l-22 619h-70l12 50h202l-12 -50h-82l14 -516l273 481h24l55 -482l272 517h-80l12 50h201l-12 -50h-66l-329 -619h-32l-58 467l-270 -467h-32zM455 714l-23 30l175 133l106 -140l-26 -23l-91 86z" />
    <glyph glyph-name="wcircumflex" unicode="&#x175;" horiz-adv-x="650" 
d="M140 -17l-34 391h-77l12 46h110l25 -340l172 285h16l67 -298q121 178 131 268q-41 8 -41 46q0 20 13 33.5t33 13.5q21 0 35 -15t14 -39q0 -119 -193 -391h-18l-64 294l-182 -294h-19zM275 504l-23 30l175 133l106 -140l-26 -23l-91 86z" />
    <glyph glyph-name="Ycircumflex" unicode="&#x176;" horiz-adv-x="623" 
d="M122 0l13 50h96l54 219l-114 339h-72l13 50h208l-11 -50h-79l95 -293l239 293h-75l13 50h208l-11 -50h-69l-292 -349l-49 -209h96l-11 -50h-252zM298 714l-23 30l175 133l106 -140l-26 -23l-91 86z" />
    <glyph glyph-name="ycircumflex" unicode="&#x177;" horiz-adv-x="474" 
d="M-18 -200q-23 0 -41.5 14.5t-18.5 35.5q0 18 12 31.5t30 13.5q39 0 42 -46h5q47 0 171 152l-75 373h-78l11 46h114l67 -369q157 205 174 284q-17 5 -29 18t-12 32q0 17 13 30t32 13q21 0 35 -15.5t14 -43.5q0 -54 -48.5 -135t-166.5 -232q-90 -115 -147 -158.5
t-104 -43.5zM185 504l-23 30l175 133l106 -140l-26 -23l-91 86z" />
    <glyph glyph-name="Ydieresis" unicode="&#x178;" horiz-adv-x="623" 
d="M122 0l13 50h96l54 219l-114 339h-72l13 50h208l-11 -50h-79l95 -293l239 293h-75l13 50h208l-11 -50h-69l-292 -349l-49 -209h96l-11 -50h-252zM513 735q-21 0 -35 15t-14 36t14 36t35 15t35 -15t14 -36t-14 -36t-35 -15zM353 735q-21 0 -35 15t-14 36t14 36t35 15
t35 -15t14 -36t-14 -36t-35 -15z" />
    <glyph glyph-name="Zacute" unicode="&#x179;" horiz-adv-x="605" 
d="M8 0v24l550 587h-346l-24 -102h-55l34 149h482v-24l-550 -587h362l24 102h55l-34 -149h-498zM377 715l-11 19l166 120q19 15 38 15q14 0 24 -10.5t10 -23.5q0 -29 -37 -43z" />
    <glyph glyph-name="zacute" unicode="&#x17a;" horiz-adv-x="468" 
d="M28 -7l-19 23l361 360h-223l-21 -82h-48l31 126h330l14 -22l-351 -349q28 11 62 11q26 0 70 -10.5t66 -10.5q29 0 43.5 16.5t31.5 66.5l31 -7q-18 -69 -39 -96t-69 -27q-28 0 -82.5 14t-82.5 14q-56 0 -105 -27zM260 505l-11 19l166 120q19 15 38 15q13 0 23.5 -10.5
t10.5 -23.5q0 -29 -37 -43z" />
    <glyph glyph-name="Zdotaccent" unicode="&#x17b;" horiz-adv-x="605" 
d="M8 0v24l550 587h-346l-24 -102h-55l34 149h482v-24l-550 -587h362l24 102h55l-34 -149h-498zM434 733q-22 0 -36.5 15.5t-14.5 37.5t14.5 37.5t36.5 15.5t36.5 -15.5t14.5 -37.5t-14.5 -37.5t-36.5 -15.5z" />
    <glyph glyph-name="zdotaccent" unicode="&#x17c;" horiz-adv-x="468" 
d="M28 -7l-19 23l361 360h-223l-21 -82h-48l31 126h330l14 -22l-351 -349q28 11 62 11q26 0 70 -10.5t66 -10.5q29 0 43.5 16.5t31.5 66.5l31 -7q-18 -69 -39 -96t-69 -27q-28 0 -82.5 14t-82.5 14q-56 0 -105 -27zM316 523q-22 0 -36.5 15.5t-14.5 37.5t14.5 37.5
t36.5 15.5t36.5 -15.5t14.5 -37.5t-14.5 -37.5t-36.5 -15.5z" />
    <glyph glyph-name="Zcaron" unicode="&#x17d;" horiz-adv-x="605" 
d="M8 0v24l550 587h-346l-24 -102h-55l34 149h482v-24l-550 -587h362l24 102h55l-34 -149h-498zM420 718l-106 140l26 23l91 -86l141 86l23 -30z" />
    <glyph glyph-name="zcaron" unicode="&#x17e;" horiz-adv-x="468" 
d="M28 -7l-19 23l361 360h-223l-21 -82h-48l31 126h330l14 -22l-351 -349q28 11 62 11q26 0 70 -10.5t66 -10.5q29 0 43.5 16.5t31.5 66.5l31 -7q-18 -69 -39 -96t-69 -27q-28 0 -82.5 14t-82.5 14q-56 0 -105 -27zM303 508l-106 140l26 23l91 -86l141 86l23 -30z" />
    <glyph glyph-name="Aringacute" unicode="&#x1fa;" horiz-adv-x="706" 
d="M-26 0l12 50h61l334 558h-78l12 50h86q-33 23 -33 67q0 42 31.5 75.5t77.5 33.5q38 0 59.5 -24t21.5 -61q0 -30 -15.5 -55.5t-39.5 -35.5h84l-12 -50h-76l76 -558h71l-12 -50h-202l12 50h73l-24 186h-275l-110 -186h85l-12 -50h-207zM453 669q27 0 46 22.5t19 53.5
q0 21 -13 35.5t-33 14.5q-27 0 -46 -22.5t-19 -53.5q0 -21 13 -35.5t33 -14.5zM248 286h238l-43 327zM473 891l-11 19l166 120q19 15 38 15q14 0 24 -10.5t10 -23.5q0 -29 -37 -43z" />
    <glyph glyph-name="aringacute" unicode="&#x1fb;" horiz-adv-x="552" 
d="M200 -8q-69 0 -112 47t-43 127q0 107 67 184.5t158 77.5q56 0 92.5 -29t45.5 -80l25 106h52l-78 -320q-7 -28 -7 -40q0 -15 8.5 -24t22.5 -9q31 0 58 66l31 -10q-32 -94 -96 -94q-33 0 -53.5 19t-20.5 48v17q-65 -86 -150 -86zM211 39q52 0 93.5 35t62.5 83.5t21 97.5
q0 58 -30 92t-86 34q-73 0 -122 -64.5t-49 -149.5q0 -60 28.5 -94t81.5 -34zM338 497q-38 0 -60 24t-22 61q0 48 31.5 83.5t77.5 35.5q38 0 60 -24t22 -61q0 -48 -31.5 -83.5t-77.5 -35.5zM362 768l-11 19l166 120q19 15 38 15q13 0 23.5 -10t10.5 -24q0 -29 -37 -43z
M342 536q27 0 46 22.5t19 53.5q0 21 -13 35.5t-33 14.5q-27 0 -46 -22.5t-19 -53.5q0 -21 13 -35.5t33 -14.5z" />
    <glyph glyph-name="AEacute" unicode="&#x1fc;" horiz-adv-x="902" 
d="M-43 0l12 50h83l423 558h-87l12 50h537l-35 -149h-55l23 99h-257l-57 -247h208l-11 -50h-208l-61 -261h257l23 99h55l-34 -149h-453l12 50h83l43 186h-217l-141 -186h97l-12 -50h-240zM290 285h191l76 326h-20zM605 715l-11 19l166 120q19 15 38 15q14 0 24 -10.5
t10 -23.5q0 -29 -37 -43z" />
    <glyph glyph-name="aeacute" unicode="&#x1fd;" horiz-adv-x="784" 
d="M728 196h-317q-2 -18 -2 -27q0 -62 42 -96.5t100 -34.5q65 0 138 39l-12 -54q-62 -31 -135 -31q-68 0 -112 36.5t-59 94.5q-27 -59 -83.5 -95t-122.5 -36q-65 0 -97.5 32t-32.5 71q0 70 61.5 107t170.5 37h101q-1 62 -33 102t-95 40q-28 0 -45 -6q-10 -3 -16 -9
q10 -13 10 -27q0 -16 -12 -28t-28 -12q-17 0 -29 13t-12 32q0 43 52 68q32 16 76 16q136 0 162 -129q32 61 84.5 95t109.5 34q71 0 112 -41t41 -108q0 -37 -17 -83zM166 39q66 0 124.5 45.5t73.5 113.5h-83q-193 0 -193 -102q0 -24 21 -40.5t57 -16.5zM588 381
q-56 0 -102.5 -40t-65.5 -101h268q8 24 8 48q0 39 -27.5 66t-80.5 27zM418 505l-11 19l166 120q19 15 38 15q13 0 23.5 -10.5t10.5 -23.5q0 -29 -37 -43z" />
    <glyph glyph-name="Oslashacute" unicode="&#x1fe;" horiz-adv-x="734" 
d="M347 -12q-135 0 -209 89l-101 -86l-33 40l105 89q-35 64 -35 146q0 99 46.5 191.5t132.5 152.5t188 60q133 0 209 -89l104 89l34 -39l-109 -93q35 -65 35 -146q0 -99 -46.5 -191.5t-132.5 -152.5t-188 -60zM132 268q0 -62 22 -112l454 389q-59 74 -172 74
q-127 0 -215.5 -107.5t-88.5 -243.5zM352 39q127 0 215.5 107.5t88.5 243.5q0 63 -22 111l-454 -388q59 -74 172 -74zM445 715l-11 19l166 120q19 15 38 15q14 0 24 -10.5t10 -23.5q0 -29 -37 -43z" />
    <glyph glyph-name="oslashacute" unicode="&#x1ff;" horiz-adv-x="502" 
d="M227 -8q-80 0 -130 53l-62 -53l-28 36l64 53q-22 40 -22 92q0 103 67.5 179t168.5 76q82 0 132 -55l63 55l29 -35l-67 -57q21 -44 21 -89q0 -103 -68 -179t-168 -76zM102 172q0 -37 10 -61l268 230q-35 40 -96 40q-76 0 -129 -61t-53 -148zM228 39q76 0 129 61.5
t53 147.5q0 32 -9 56l-267 -228q32 -37 94 -37zM286 505l-11 19l166 120q19 15 38 15q13 0 23.5 -10.5t10.5 -23.5q0 -29 -37 -43z" />
    <glyph glyph-name="Scommaaccent" unicode="&#x218;" horiz-adv-x="544" 
d="M265 -12q-93 0 -158 46t-65 97q0 27 15 43.5t38 16.5q19 0 31.5 -12.5t12.5 -27.5q0 -32 -31 -50q17 -26 59 -44.5t102 -18.5q61 0 106.5 37t45.5 92q0 43 -29 73.5t-84 64.5q-39 24 -60.5 39.5t-46.5 39.5t-36 50.5t-11 59.5q0 72 59 124t145 52q77 0 134.5 -38
t57.5 -88q0 -27 -15 -42.5t-35 -15.5q-19 0 -31.5 12.5t-12.5 30.5q0 26 29 43q-44 48 -131 48q-62 0 -102.5 -34.5t-40.5 -87.5q0 -43 28.5 -72t96.5 -71q33 -21 54 -36t43.5 -38t33.5 -50t11 -60q0 -79 -62 -131t-151 -52zM116 -267l-10 20q46 20 73.5 50t29.5 51
q-16 4 -26 17t-10 28q0 19 12.5 32t32.5 13q21 0 35 -15t14 -39q0 -45 -38 -88.5t-113 -68.5z" />
    <glyph glyph-name="scommaaccent" unicode="&#x219;" horiz-adv-x="410" 
d="M198 -8q-42 0 -81.5 15.5t-63.5 39.5q-23 23 -23 49q0 19 12 33t30 14t27.5 -10.5t9.5 -25.5q0 -18 -16 -35q4 -6 18 -14q39 -22 91 -22q38 0 63.5 19t25.5 50q0 28 -21.5 46.5t-63.5 39.5q-31 15 -47 24.5t-35 24.5t-27.5 32.5t-8.5 39.5q0 51 40 83.5t105 32.5
q81 0 125 -44q23 -21 23 -49q0 -20 -12 -33t-28 -13q-17 0 -27.5 10t-10.5 26q0 18 13 35q-6 6 -17 11q-28 13 -70 13q-41 0 -65 -18.5t-24 -45.5q0 -17 13 -32t29 -25t46 -25q37 -18 58.5 -32t39 -38.5t17.5 -54.5q0 -56 -42.5 -88.5t-102.5 -32.5zM53 -267l-10 20
q46 20 73.5 50t29.5 51q-16 4 -26 17t-10 28q0 19 12.5 32t32.5 13q21 0 35 -15t14 -39q0 -45 -38 -88.5t-113 -68.5z" />
    <glyph glyph-name="schwa" unicode="&#x259;" horiz-adv-x="470" 
d="M39 141q0 37 17 83h317q2 18 2 27q0 62 -42 96.5t-100 34.5q-65 0 -138 -39l12 54q62 31 135 31q77 0 131 -47.5t54 -128.5q0 -106 -70.5 -183t-164.5 -77q-71 0 -112 41t-41 108zM196 39q54 0 101 40t67 101h-268q-8 -24 -8 -48q0 -39 27.5 -66t80.5 -27z" />
    <glyph glyph-name="circumflex" unicode="&#x2c6;" horiz-adv-x="500" 
d="M205 504l-23 30l175 133l106 -140l-26 -23l-91 86z" />
    <glyph glyph-name="caron" unicode="&#x2c7;" horiz-adv-x="500" 
d="M317 508l-106 140l26 23l91 -86l141 86l23 -30z" />
    <glyph glyph-name="breve" unicode="&#x2d8;" horiz-adv-x="500" 
d="M319 509q-53 0 -84.5 35t-39.5 89l37 13q16 -81 95 -81q75 0 124 80l33 -20q-27 -51 -72 -83.5t-93 -32.5z" />
    <glyph glyph-name="dotaccent" unicode="&#x2d9;" horiz-adv-x="500" 
d="M334 523q-22 0 -36.5 15.5t-14.5 37.5t14.5 37.5t36.5 15.5t36.5 -15.5t14.5 -37.5t-14.5 -37.5t-36.5 -15.5z" />
    <glyph glyph-name="ring" unicode="&#x2da;" horiz-adv-x="500" 
d="M326 497q-38 0 -60 24t-22 61q0 48 31.5 83.5t77.5 35.5q38 0 60 -24t22 -61q0 -48 -31.5 -83.5t-77.5 -35.5zM330 536q27 0 46 22.5t19 53.5q0 21 -13 35.5t-33 14.5q-27 0 -46 -22.5t-19 -53.5q0 -21 13 -35.5t33 -14.5z" />
    <glyph glyph-name="ogonek" unicode="&#x2db;" horiz-adv-x="502" 
d="M262 36l32 -7q-130 -79 -130 -145q0 -39 46 -39q26 0 49 9l-9 -42q-22 -13 -55 -13q-39 0 -59.5 19t-20.5 51q0 45 40.5 88.5t106.5 78.5z" />
    <glyph glyph-name="tilde" unicode="&#x2dc;" horiz-adv-x="500" 
d="M398 504q-42 0 -80 40q-27 27 -48 27q-35 0 -57 -61l-37 12q9 43 37.5 73t60.5 30q42 0 80 -40q26 -27 48 -27q35 0 57 61l37 -12q-9 -43 -37.5 -73t-60.5 -30z" />
    <glyph glyph-name="hungarumlaut" unicode="&#x2dd;" horiz-adv-x="500" 
d="M146 507l-12 19l126 115q22 20 38 20q14 0 24 -9.5t10 -26.5q0 -21 -35 -39zM325 512l-10 20l134 106q22 17 37 17t24 -10t9 -25q0 -25 -38 -40z" />
    <glyph glyph-name="commaaccent" unicode="&#x326;" horiz-adv-x="210" 
d="M28 -267l-10 20q46 20 73.5 50t29.5 51q-16 4 -26 17t-10 28q0 19 12.5 32t32.5 13q21 0 35 -15t14 -39q0 -45 -38 -88.5t-113 -68.5z" />
    <glyph glyph-name="Wgrave" unicode="&#x1e80;" horiz-adv-x="929" 
d="M209 -11l-22 619h-70l12 50h202l-12 -50h-82l14 -516l273 481h24l55 -482l272 517h-80l12 50h201l-12 -50h-66l-329 -619h-32l-58 467l-270 -467h-32zM613 714l-118 76q-28 19 -28 42q0 15 11 26t26 11q22 0 42 -27l83 -112z" />
    <glyph glyph-name="wgrave" unicode="&#x1e81;" horiz-adv-x="650" 
d="M140 -17l-34 391h-77l12 46h110l25 -340l172 285h16l67 -298q121 178 131 268q-41 8 -41 46q0 20 13 33.5t33 13.5q21 0 35 -15t14 -39q0 -119 -193 -391h-18l-64 294l-182 -294h-19zM434 504l-118 76q-28 19 -28 42q0 15 11 26t26 11q22 0 42 -27l83 -112z" />
    <glyph glyph-name="Wacute" unicode="&#x1e82;" horiz-adv-x="929" 
d="M209 -11l-22 619h-70l12 50h202l-12 -50h-82l14 -516l273 481h24l55 -482l272 517h-80l12 50h201l-12 -50h-66l-329 -619h-32l-58 467l-270 -467h-32zM532 715l-11 19l166 120q19 15 38 15q13 0 23.5 -10.5t10.5 -23.5q0 -29 -37 -43z" />
    <glyph glyph-name="wacute" unicode="&#x1e83;" horiz-adv-x="650" 
d="M140 -17l-34 391h-77l12 46h110l25 -340l172 285h16l67 -298q121 178 131 268q-41 8 -41 46q0 20 13 33.5t33 13.5q21 0 35 -15t14 -39q0 -119 -193 -391h-18l-64 294l-182 -294h-19zM353 505l-11 19l166 120q19 15 38 15q14 0 24 -10.5t10 -23.5q0 -29 -37 -43z" />
    <glyph glyph-name="Wdieresis" unicode="&#x1e84;" horiz-adv-x="929" 
d="M209 -11l-22 619h-70l12 50h202l-12 -50h-82l14 -516l273 481h24l55 -482l272 517h-80l12 50h201l-12 -50h-66l-329 -619h-32l-58 467l-270 -467h-32zM669 735q-21 0 -35 15t-14 36t14 36t35 15t35 -15t14 -36t-14 -36t-35 -15zM509 735q-21 0 -35 15t-14 36t14 36t35 15
t35 -15t14 -36t-14 -36t-35 -15z" />
    <glyph glyph-name="wdieresis" unicode="&#x1e85;" horiz-adv-x="650" 
d="M140 -17l-34 391h-77l12 46h110l25 -340l172 285h16l67 -298q121 178 131 268q-41 8 -41 46q0 20 13 33.5t33 13.5q21 0 35 -15t14 -39q0 -119 -193 -391h-18l-64 294l-182 -294h-19zM330 525q-21 0 -35 15t-14 36t14 36t35 15t35 -15t14 -36t-14 -36t-35 -15zM490 525
q-21 0 -35 15t-14 36t14 36t35 15t35 -15t14 -36t-14 -36t-35 -15z" />
    <glyph glyph-name="Ygrave" unicode="&#x1ef2;" horiz-adv-x="623" 
d="M122 0l13 50h96l54 219l-114 339h-72l13 50h208l-11 -50h-79l95 -293l239 293h-75l13 50h208l-11 -50h-69l-292 -349l-49 -209h96l-11 -50h-252zM457 714l-118 76q-28 19 -28 42q0 15 11 26t26 11q22 0 42 -27l83 -112z" />
    <glyph glyph-name="ygrave" unicode="&#x1ef3;" horiz-adv-x="474" 
d="M-18 -200q-23 0 -41.5 14.5t-18.5 35.5q0 18 12 31.5t30 13.5q39 0 42 -46h5q47 0 171 152l-75 373h-78l11 46h114l67 -369q157 205 174 284q-17 5 -29 18t-12 32q0 17 13 30t32 13q21 0 35 -15.5t14 -43.5q0 -54 -48.5 -135t-166.5 -232q-90 -115 -147 -158.5
t-104 -43.5zM344 504l-118 76q-28 19 -28 42q0 15 11 26t26 11q22 0 42 -27l83 -112z" />
    <glyph glyph-name="enspace" unicode="&#x2002;" horiz-adv-x="500" 
 />
    <glyph glyph-name="emspace" unicode="&#x2003;" horiz-adv-x="1000" 
 />
    <glyph glyph-name="threeperemspace" unicode="&#x2004;" horiz-adv-x="333" 
 />
    <glyph glyph-name="fourperemspace" unicode="&#x2005;" horiz-adv-x="250" 
 />
    <glyph glyph-name="figurespace" unicode="&#x2007;" horiz-adv-x="530" 
 />
    <glyph glyph-name="thinspace" unicode="&#x2009;" horiz-adv-x="133" 
 />
    <glyph glyph-name="hairspace" unicode="&#x200a;" horiz-adv-x="75" 
 />
    <glyph glyph-name="endash" unicode="&#x2013;" horiz-adv-x="395" 
d="M23 250l13 52h350l-11 -52h-352z" />
    <glyph glyph-name="emdash" unicode="&#x2014;" horiz-adv-x="617" 
d="M23 250l13 52h572l-11 -52h-574z" />
    <glyph glyph-name="quoteleft" unicode="&#x2018;" horiz-adv-x="195" 
d="M155 425q-24 0 -39 17t-15 44q0 50 48.5 103.5t125.5 85.5l11 -22q-51 -30 -79 -64t-35 -60q37 -14 37 -50q0 -22 -15.5 -38t-38.5 -16z" />
    <glyph glyph-name="quoteright" unicode="&#x2019;" horiz-adv-x="195" 
d="M75 424l-11 22q51 30 79 64t35 60q-37 14 -37 50q0 22 15.5 38t38.5 16q24 0 39 -17t15 -44q0 -50 -48.5 -103.5t-125.5 -85.5z" />
    <glyph glyph-name="quotesinglbase" unicode="&#x201a;" horiz-adv-x="194" 
d="M-42 -135l-11 22q51 23 81.5 56.5t33.5 56.5q-18 4 -29.5 19t-11.5 31q0 21 14.5 35.5t36.5 14.5q23 0 38.5 -17t15.5 -43q0 -50 -42 -98.5t-126 -76.5z" />
    <glyph glyph-name="quotedblleft" unicode="&#x201c;" horiz-adv-x="379" 
d="M339 425q-24 0 -39 17t-15 44q0 50 48.5 103.5t125.5 85.5l11 -22q-51 -30 -79 -64t-35 -60q37 -14 37 -50q0 -22 -15.5 -38t-38.5 -16zM155 425q-24 0 -39 17t-15 44q0 50 48.5 103.5t125.5 85.5l11 -22q-51 -30 -79 -64t-35 -60q37 -14 37 -50q0 -22 -15.5 -38
t-38.5 -16z" />
    <glyph glyph-name="quotedblright" unicode="&#x201d;" horiz-adv-x="379" 
d="M259 424l-11 22q51 30 79 64t35 60q-37 14 -37 50q0 22 15.5 38t38.5 16q24 0 39 -17t15 -44q0 -50 -48.5 -103.5t-125.5 -85.5zM75 424l-11 22q51 30 79 64t35 60q-37 14 -37 50q0 22 15.5 38t38.5 16q24 0 39 -17t15 -44q0 -50 -48.5 -103.5t-125.5 -85.5z" />
    <glyph glyph-name="quotedblbase" unicode="&#x201e;" horiz-adv-x="375" 
d="M139 -135l-11 22q51 23 81.5 56.5t33.5 56.5q-18 4 -29.5 19t-11.5 31q0 21 14.5 35.5t36.5 14.5q23 0 38.5 -17t15.5 -43q0 -50 -42 -98.5t-126 -76.5zM-42 -135l-11 22q51 23 81.5 56.5t33.5 56.5q-18 4 -29.5 19t-11.5 31q0 21 14.5 35.5t36.5 14.5q23 0 38.5 -17
t15.5 -43q0 -50 -42 -98.5t-126 -76.5z" />
    <glyph glyph-name="dagger" unicode="&#x2020;" horiz-adv-x="448" 
d="M136 -2l85 399l-85 9q2 -25 -11.5 -41.5t-33.5 -16.5t-31.5 13.5t-11.5 31.5q0 22 15.5 37t41.5 15q10 0 30 -4l109 -20l10 163q3 52 41 52q28 0 34.5 -23t-5.5 -48l-57 -148l109 24q22 4 28 4q24 0 37.5 -14.5t13.5 -37.5q0 -18 -11.5 -31.5t-31.5 -13.5t-33.5 16.5
t-11.5 41.5l-91 -14l-110 -394h-30z" />
    <glyph glyph-name="daggerdbl" unicode="&#x2021;" horiz-adv-x="468" 
d="M204 64l-9 -134q-3 -52 -41 -52q-28 0 -34.5 23t5.5 48l45 115l-79 -19q-20 -4 -30 -4q-25 0 -42 14.5t-17 35.5q0 17 12.5 30.5t32.5 13.5t33.5 -15.5t11.5 -39.5l74 10l52 169l18 165l-72 10q2 -24 -11.5 -39.5t-33.5 -15.5t-32.5 13.5t-12.5 30.5q0 21 17 35.5
t42 14.5q10 0 30 -4l89 -19l9 134q3 52 41 52q28 0 34.5 -23t-5.5 -48l-45 -115l79 19q20 4 30 4q25 0 42 -14.5t17 -35.5q0 -17 -12.5 -30.5t-32.5 -13.5t-33.5 15.5t-11.5 39.5l-74 -10l-52 -169l-18 -165l72 -10q-2 24 11.5 39.5t33.5 15.5t32.5 -13.5t12.5 -30.5
q0 -21 -17 -35.5t-42 -14.5q-10 0 -30 4z" />
    <glyph glyph-name="bullet" unicode="&#x2022;" horiz-adv-x="269" 
d="M148 182q-36 0 -59.5 25t-23.5 61t23.5 61.5t59.5 25.5t59.5 -25.5t23.5 -61.5t-23.5 -61t-59.5 -25z" />
    <glyph glyph-name="ellipsis" unicode="&#x2026;" horiz-adv-x="566" 
d="M435 -8q-22 0 -37 15.5t-15 38.5t15 38.5t37 15.5t37 -15.5t15 -38.5t-15 -38.5t-37 -15.5zM244 -8q-22 0 -37 15.5t-15 38.5t15 38.5t37 15.5t37 -15.5t15 -38.5t-15 -38.5t-37 -15.5zM53 -8q-22 0 -37 15.5t-15 38.5t15 38.5t37 15.5t37 -15.5t15 -38.5t-15 -38.5
t-37 -15.5z" />
    <glyph glyph-name="perthousand" unicode="&#x2030;" horiz-adv-x="830" 
d="M166 270q-44 0 -69.5 28t-25.5 71q0 54 37.5 97.5t91.5 43.5q44 0 69.5 -28t25.5 -71q0 -54 -37.5 -97.5t-91.5 -43.5zM424 -8q-44 0 -69.5 28t-25.5 71q0 54 37.5 97.5t91.5 43.5q44 0 69.5 -28t25.5 -71q0 -54 -37.5 -97.5t-91.5 -43.5zM677 -8q-44 0 -69.5 28
t-25.5 71q0 54 37.5 97.5t91.5 43.5q44 0 69.5 -28t25.5 -71q0 -54 -37.5 -97.5t-91.5 -43.5zM69 -9l-28 31l252 240l260 247l28 -31l-259 -246zM425 28q32 0 59 32t27 75q0 27 -15 44t-39 17q-32 0 -59 -32t-27 -75q0 -27 15 -44t39 -17zM678 28q32 0 59 32t27 75
q0 27 -15 44t-39 17q-32 0 -59 -32t-27 -75q0 -27 15 -44t39 -17zM167 306q32 0 59 32t27 75q0 27 -15 44t-39 17q-32 0 -59 -32t-27 -75q0 -27 15 -44t39 -17z" />
    <glyph glyph-name="guilsinglleft" unicode="&#x2039;" horiz-adv-x="280" 
d="M174 114l-130 160l200 157l28 -32l-158 -135l93 -125z" />
    <glyph glyph-name="guilsinglright" unicode="&#x203a;" horiz-adv-x="280" 
d="M69 113l-28 32l158 135l-93 125l33 25l130 -160z" />
    <glyph glyph-name="fraction" unicode="&#x2044;" horiz-adv-x="500" 
d="M-6 -12l-27 23q18 22 119 141t150 177q30 36 264 319l27 -23q-18 -22 -119 -141t-150 -177q-30 -36 -264 -319z" />
    <glyph glyph-name="zero.sup" unicode="&#x2070;" horiz-adv-x="353" 
d="M241 424q-52 0 -81.5 37t-29.5 100q0 95 46.5 166t117.5 71q52 0 81.5 -37t29.5 -100q0 -95 -46.5 -166t-117.5 -71zM244 463q49 0 82.5 61t33.5 134q0 101 -69 101q-49 0 -82.5 -61t-33.5 -134q0 -101 69 -101z" />
    <glyph glyph-name="four.sup" unicode="&#x2074;" horiz-adv-x="353" 
d="M267 465l17 71h-166l-5 19l241 247l27 -25l-205 -207h117l19 77l44 17l-21 -92h61l-9 -36h-61l-16 -71h49l-8 -35h-156l8 35h64z" />
    <glyph glyph-name="five.sup" unicode="&#x2075;" horiz-adv-x="353" 
d="M225 423q-42 0 -74.5 20t-32.5 46q0 14 8.5 23.5t21.5 9.5q12 0 20 -7.5t8 -19.5q0 -10 -7 -17q19 -17 60 -17q45 0 76 28t31 65q0 31 -18.5 48.5t-53.5 17.5q-42 0 -79 -17l-21 16l56 173h191l-9 -41h-156l-35 -107q32 13 67 13q43 0 72.5 -27t29.5 -72q0 -54 -45 -94.5
t-110 -40.5z" />
    <glyph glyph-name="six.sup" unicode="&#x2076;" horiz-adv-x="353" 
d="M171 455q-35 35 -35 100q0 56 21.5 109.5t58.5 87.5q50 47 109 47q38 0 64.5 -19t26.5 -44q0 -14 -9 -23.5t-22 -9.5q-11 0 -19.5 8t-8.5 20q0 11 9 19q-12 12 -40 12q-44 0 -82 -36q-48 -45 -63 -124q40 56 103 56q48 0 78 -28.5t30 -71.5q0 -54 -41 -94.5t-98 -40.5
q-50 0 -82 32zM254 462q39 0 66 27.5t27 65.5q0 29 -19.5 47.5t-51.5 18.5q-38 0 -66.5 -28t-28.5 -62q0 -29 20 -49t53 -20z" />
    <glyph glyph-name="seven.sup" unicode="&#x2077;" horiz-adv-x="353" 
d="M165 430l220 325h-162l-14 -61h-41l24 98h241l10 -20l-228 -342h-50z" />
    <glyph glyph-name="eight.sup" unicode="&#x2078;" horiz-adv-x="353" 
d="M253 424q-55 0 -90.5 29t-35.5 69t28 68t68 34q-50 23 -50 74q0 39 35 69t91 30q50 0 83 -26t33 -68q0 -34 -23.5 -58t-61.5 -33q55 -24 55 -79q0 -46 -37 -77.5t-95 -31.5zM290 635q34 0 57 19t23 47q0 25 -20 41.5t-53 16.5t-56 -18t-23 -46q0 -26 21 -43t51 -17z
M252 463q37 0 62.5 20.5t25.5 50.5q0 28 -22 46.5t-57 18.5q-39 0 -64 -20.5t-25 -51.5q0 -27 22 -45.5t58 -18.5z" />
    <glyph glyph-name="nine.sup" unicode="&#x2079;" horiz-adv-x="353" 
d="M154 664q0 54 41 94.5t98 40.5q50 0 82 -32q35 -35 35 -100q0 -56 -21.5 -109.5t-58.5 -87.5q-50 -47 -109 -47q-38 0 -64.5 19t-26.5 44q0 14 9 23.5t22 9.5q11 0 19.5 -8t8.5 -20q0 -11 -9 -19q12 -12 40 -12q44 0 82 36q49 47 63 123q-40 -55 -103 -55q-48 0 -78 28.5
t-30 71.5zM292 760q-39 0 -66 -27.5t-27 -65.5q0 -29 19.5 -47.5t51.5 -18.5q38 0 66.5 28t28.5 62q0 29 -20 49t-53 20z" />
    <glyph glyph-name="zero.inf" unicode="&#x2080;" horiz-adv-x="353" 
d="M109 -146q-52 0 -81.5 37t-29.5 100q0 95 46.5 166t117.5 71q52 0 81.5 -37t29.5 -100q0 -95 -46.5 -166t-117.5 -71zM112 -107q49 0 82.5 61t33.5 134q0 101 -69 101q-49 0 -82.5 -61t-33.5 -134q0 -101 69 -101z" />
    <glyph glyph-name="one.inf" unicode="&#x2081;" horiz-adv-x="353" 
d="M-18 -140l9 39h102l65 279l-103 -20v40l135 29l20 -10l-73 -318h100l-9 -39h-246z" />
    <glyph glyph-name="two.inf" unicode="&#x2082;" horiz-adv-x="353" 
d="M-19 -140l-8 20q22 54 61.5 91t106.5 73q47 25 68 46t21 47q0 23 -18.5 37.5t-48.5 14.5q-55 0 -74 -28q12 -12 12 -25t-8.5 -21.5t-21.5 -8.5q-14 0 -22.5 9.5t-8.5 25.5q0 31 35.5 59.5t90.5 28.5q49 0 79.5 -25.5t30.5 -66.5q0 -39 -28.5 -66t-89.5 -60
q-99 -55 -129 -114h159l13 57h39l-21 -94h-238z" />
    <glyph glyph-name="three.inf" unicode="&#x2083;" horiz-adv-x="353" 
d="M109 -145q-48 0 -83 23t-35 55q0 14 9 24.5t22 10.5q12 0 20 -8t8 -20q0 -15 -14 -22q19 -25 75 -25q40 0 64 19t24 49q0 27 -27 47t-68 20h-14l9 39h15q50 0 79.5 19t29.5 48q0 27 -21 41t-53 14q-39 0 -53 -17q10 -5 10 -18q0 -12 -8.5 -20t-20.5 -8q-13 0 -21.5 9
t-8.5 24q0 27 30.5 48t80.5 21q48 0 79.5 -25.5t31.5 -64.5t-29 -63t-73 -30q35 -9 56 -31.5t21 -53.5q0 -48 -39.5 -76.5t-95.5 -28.5z" />
    <glyph glyph-name="four.inf" unicode="&#x2084;" horiz-adv-x="353" 
d="M135 -105l17 71h-166l-5 19l241 247l27 -25l-205 -207h117l19 77l44 17l-21 -92h61l-9 -36h-61l-16 -71h49l-8 -35h-156l8 35h64z" />
    <glyph glyph-name="five.inf" unicode="&#x2085;" horiz-adv-x="353" 
d="M93 -147q-42 0 -74.5 20t-32.5 46q0 14 8.5 23.5t21.5 9.5q12 0 20 -7.5t8 -19.5q0 -10 -7 -17q19 -17 60 -17q45 0 76 28t31 65q0 31 -18.5 48.5t-53.5 17.5q-42 0 -79 -17l-21 16l56 173h191l-9 -41h-156l-35 -107q32 13 67 13q43 0 72.5 -27t29.5 -72q0 -54 -45 -94.5
t-110 -40.5z" />
    <glyph glyph-name="six.inf" unicode="&#x2086;" horiz-adv-x="353" 
d="M39 -115q-35 35 -35 100q0 56 21.5 109.5t58.5 87.5q50 47 109 47q38 0 64.5 -19t26.5 -44q0 -14 -9 -23.5t-22 -9.5q-11 0 -19.5 8t-8.5 20q0 11 9 19q-12 12 -40 12q-44 0 -82 -36q-48 -45 -63 -124q40 56 103 56q48 0 78 -28.5t30 -71.5q0 -54 -41 -94.5t-98 -40.5
q-50 0 -82 32zM122 -108q39 0 66 27.5t27 65.5q0 29 -19.5 47.5t-51.5 18.5q-38 0 -66.5 -28t-28.5 -62q0 -29 20 -49t53 -20z" />
    <glyph glyph-name="seven.inf" unicode="&#x2087;" horiz-adv-x="353" 
d="M33 -140l220 325h-162l-14 -61h-41l24 98h241l10 -20l-228 -342h-50z" />
    <glyph glyph-name="eight.inf" unicode="&#x2088;" horiz-adv-x="353" 
d="M121 -146q-55 0 -90.5 29t-35.5 69t28 68t68 34q-50 23 -50 74q0 39 35 69t91 30q50 0 83 -26t33 -68q0 -34 -23.5 -58t-61.5 -33q55 -24 55 -79q0 -46 -37 -77.5t-95 -31.5zM158 65q34 0 57 19t23 47q0 25 -20 41.5t-53 16.5t-56 -18t-23 -46q0 -26 21 -43t51 -17z
M120 -107q37 0 62.5 20.5t25.5 50.5q0 28 -22 46.5t-57 18.5q-39 0 -64 -20.5t-25 -51.5q0 -27 22 -45.5t58 -18.5z" />
    <glyph glyph-name="nine.inf" unicode="&#x2089;" horiz-adv-x="353" 
d="M22 94q0 54 41 94.5t98 40.5q50 0 82 -32q35 -35 35 -100q0 -56 -21.5 -109.5t-58.5 -87.5q-50 -47 -109 -47q-38 0 -64.5 19t-26.5 44q0 14 9 23.5t22 9.5q11 0 19.5 -8t8.5 -20q0 -11 -9 -19q12 -12 40 -12q44 0 82 36q49 47 63 123q-40 -55 -103 -55q-48 0 -78 28.5
t-30 71.5zM160 190q-39 0 -66 -27.5t-27 -65.5q0 -29 19.5 -47.5t51.5 -18.5q38 0 66.5 28t28.5 62q0 29 -20 49t-53 20z" />
    <glyph glyph-name="Euro" unicode="&#x20ac;" horiz-adv-x="566" 
d="M30 210h58q0 41 12 80h-60l10 43h67q35 76 105 125t152 49q88 0 133.5 -41.5t45.5 -88.5q0 -23 -14 -41t-36 -18q-16 0 -26.5 10t-10.5 29q0 10 8.5 23t20.5 17q-27 62 -123 62q-62 0 -115 -35t-84 -91h197l-10 -43h-206q-14 -40 -14 -80h210l-10 -43h-197
q12 -61 57 -94.5t107 -33.5q86 0 162 58l27 -39q-93 -67 -197 -67q-79 0 -137 46.5t-71 129.5h-71z" />
    <glyph glyph-name="published" unicode="&#x2117;" horiz-adv-x="598" 
d="M299 -8q-108 0 -179.5 75t-71.5 183q0 109 71.5 184t179.5 75t179.5 -75t71.5 -184q0 -108 -71.5 -183t-179.5 -75zM299 24q92 0 153 66t61 161t-61 161t-153 66t-153 -66t-61 -161t61 -161t153 -66zM214 115v31h33v202h-33v31h103q43 0 70.5 -23t27.5 -61q0 -41 -27 -64
t-73 -23q-27 0 -34 1v-63h35v-31h-102zM317 238q29 0 46 15.5t17 41.5q0 24 -18 38.5t-46 14.5h-35v-109q2 0 14 -0.5t22 -0.5z" />
    <glyph glyph-name="servicemark" unicode="&#x2120;" horiz-adv-x="633" 
d="M202 409q-37 0 -63.5 18t-26.5 44q0 14 8 23t20 9q24 0 24 -24q0 -14 -10 -22q15 -17 50 -17q22 0 35.5 9.5t13.5 24.5t-10.5 25t-36.5 24q-28 15 -43 31t-15 41q0 27 23.5 47t62.5 20q36 0 59 -17.5t23 -37.5q0 -33 -27 -33q-25 0 -25 23q0 12 10 22q-10 12 -41 12
q-21 0 -34 -10t-13 -23q0 -15 11 -24.5t37 -24.5q57 -31 57 -71q0 -29 -23.5 -49t-65.5 -20zM312 413l7 31h36l52 183h-37l7 31h77l35 -159l110 159h83l-7 -31h-38l-35 -183h38l-7 -31h-101l7 31h30l33 165l-115 -166h-17l-38 166l-44 -165h31l-7 -31h-100z" />
    <glyph glyph-name="trademark" unicode="&#x2122;" horiz-adv-x="633" 
d="M312 413l7 31h36l52 183h-37l7 31h77l35 -159l110 159h83l-7 -31h-38l-35 -183h38l-7 -31h-101l7 31h30l33 165l-115 -166h-17l-38 166l-44 -165h31l-7 -31h-100zM116 413l7 31h38l44 185h-63l-10 -39h-34l16 68h229l-16 -68h-35l10 39h-62l-44 -185h37l-7 -31h-110z" />
    <glyph glyph-name="onethird" unicode="&#x2153;" horiz-adv-x="795" 
d="M73 280l9 39h102l65 279l-103 -20v40l135 29l20 -10l-73 -318h100l-9 -39h-246zM590 -5q-48 0 -83 23t-35 55q0 14 9 24.5t22 10.5q12 0 20 -8t8 -20q0 -15 -14 -22q19 -25 75 -25q40 0 64 19t24 49q0 27 -27 47t-68 20h-14l9 39h15q50 0 79.5 19t29.5 48q0 27 -21 41
t-53 14q-39 0 -53 -17q10 -5 10 -18q0 -12 -8.5 -20t-20.5 -8q-13 0 -21.5 9t-8.5 24q0 27 30.5 48t80.5 21q48 0 79.5 -25.5t31.5 -64.5t-29 -63t-73 -30q35 -9 56 -31.5t21 -53.5q0 -48 -39.5 -76.5t-95.5 -28.5zM178 -12l-27 23q18 22 119 141t150 177q30 36 264 319
l27 -23q-18 -22 -119 -141t-150 -177q-30 -36 -264 -319z" />
    <glyph glyph-name="twothirds" unicode="&#x2154;" horiz-adv-x="795" 
d="M74 280l-8 20q22 54 61.5 91t106.5 73q47 25 68 46t21 47q0 23 -18.5 37.5t-48.5 14.5q-55 0 -74 -28q12 -12 12 -25t-8.5 -21.5t-21.5 -8.5q-14 0 -22.5 9.5t-8.5 25.5q0 31 35.5 59.5t90.5 28.5q49 0 79.5 -25.5t30.5 -66.5q0 -39 -28.5 -66t-89.5 -60
q-99 -55 -129 -114h159l13 57h39l-21 -94h-238zM588 -5q-48 0 -83 23t-35 55q0 14 9 24.5t22 10.5q12 0 20 -8t8 -20q0 -15 -14 -22q19 -25 75 -25q40 0 64 19t24 49q0 27 -27 47t-68 20h-14l9 39h15q50 0 79.5 19t29.5 48q0 27 -21 41t-53 14q-39 0 -53 -17q10 -5 10 -18
q0 -12 -8.5 -20t-20.5 -8q-13 0 -21.5 9t-8.5 24q0 27 30.5 48t80.5 21q48 0 79.5 -25.5t31.5 -64.5t-29 -63t-73 -30q35 -9 56 -31.5t21 -53.5q0 -48 -39.5 -76.5t-95.5 -28.5zM177 -12l-27 23q18 22 119 141t150 177q30 36 264 319l27 -23q-18 -22 -119 -141t-150 -177
q-30 -36 -264 -319z" />
    <glyph glyph-name="onefifth" unicode="&#x2155;" horiz-adv-x="795" 
d="M69 280l9 39h102l65 279l-103 -20v40l135 29l20 -10l-73 -318h100l-9 -39h-246zM571 -7q-42 0 -74.5 20t-32.5 46q0 14 8.5 23.5t21.5 9.5q12 0 20 -7.5t8 -19.5q0 -10 -7 -17q19 -17 60 -17q45 0 76 28t31 65q0 31 -18.5 48.5t-53.5 17.5q-42 0 -79 -17l-21 16l56 173
h191l-9 -41h-156l-35 -107q32 13 67 13q43 0 72.5 -27t29.5 -72q0 -54 -45 -94.5t-110 -40.5zM173 -12l-27 23q18 22 119 141t150 177q30 36 264 319l27 -23q-18 -22 -119 -141t-150 -177q-30 -36 -264 -319z" />
    <glyph glyph-name="twofifths" unicode="&#x2156;" horiz-adv-x="795" 
d="M93 280l-8 20q22 54 61.5 91t106.5 73q47 25 68 46t21 47q0 23 -18.5 37.5t-48.5 14.5q-55 0 -74 -28q12 -12 12 -25t-8.5 -21.5t-21.5 -8.5q-14 0 -22.5 9.5t-8.5 25.5q0 31 35.5 59.5t90.5 28.5q49 0 79.5 -25.5t30.5 -66.5q0 -39 -28.5 -66t-89.5 -60
q-99 -55 -129 -114h159l13 57h39l-21 -94h-238zM575 -7q-42 0 -74.5 20t-32.5 46q0 14 8.5 23.5t21.5 9.5q12 0 20 -7.5t8 -19.5q0 -10 -7 -17q19 -17 60 -17q45 0 76 28t31 65q0 31 -18.5 48.5t-53.5 17.5q-42 0 -79 -17l-21 16l56 173h191l-9 -41h-156l-35 -107
q32 13 67 13q43 0 72.5 -27t29.5 -72q0 -54 -45 -94.5t-110 -40.5zM189 -12l-27 23q18 22 119 141t150 177q30 36 264 319l27 -23q-18 -22 -119 -141t-150 -177q-30 -36 -264 -319z" />
    <glyph glyph-name="threefifths" unicode="&#x2157;" horiz-adv-x="795" 
d="M206 275q-48 0 -83 23t-35 55q0 14 9 24.5t22 10.5q12 0 20 -8t8 -20q0 -15 -14 -22q19 -25 75 -25q40 0 64 19t24 49q0 27 -27 47t-68 20h-14l9 39h15q50 0 79.5 19t29.5 48q0 27 -21 41t-53 14q-39 0 -53 -17q10 -5 10 -18q0 -12 -8.5 -20t-20.5 -8q-13 0 -21.5 9
t-8.5 24q0 27 30.5 48t80.5 21q48 0 79.5 -25.5t31.5 -64.5t-29 -63t-73 -30q35 -9 56 -31.5t21 -53.5q0 -48 -39.5 -76.5t-95.5 -28.5zM567 -7q-42 0 -74.5 20t-32.5 46q0 14 8.5 23.5t21.5 9.5q12 0 20 -7.5t8 -19.5q0 -10 -7 -17q19 -17 60 -17q45 0 76 28t31 65
q0 31 -18.5 48.5t-53.5 17.5q-42 0 -79 -17l-21 16l56 173h191l-9 -41h-156l-35 -107q32 13 67 13q43 0 72.5 -27t29.5 -72q0 -54 -45 -94.5t-110 -40.5zM167 -12l-27 23q18 22 119 141t150 177q30 36 264 319l27 -23q-18 -22 -119 -141t-150 -177q-30 -36 -264 -319z" />
    <glyph glyph-name="fourfifths" unicode="&#x2158;" horiz-adv-x="795" 
d="M576 -7q-42 0 -74.5 20t-32.5 46q0 14 8.5 23.5t21.5 9.5q12 0 20 -7.5t8 -19.5q0 -10 -7 -17q19 -17 60 -17q45 0 76 28t31 65q0 31 -18.5 48.5t-53.5 17.5q-42 0 -79 -17l-21 16l56 173h191l-9 -41h-156l-35 -107q32 13 67 13q43 0 72.5 -27t29.5 -72q0 -54 -45 -94.5
t-110 -40.5zM234 315l17 71h-166l-5 19l241 247l27 -25l-205 -207h117l19 77l44 17l-21 -92h61l-9 -36h-61l-16 -71h49l-8 -35h-156l8 35h64zM177 -12l-27 23q18 22 119 141t150 177q30 36 264 319l27 -23q-18 -22 -119 -141t-150 -177q-30 -36 -264 -319z" />
    <glyph glyph-name="onesixth" unicode="&#x2159;" horiz-adv-x="795" 
d="M504 25q-35 35 -35 100q0 56 21.5 109.5t58.5 87.5q50 47 109 47q38 0 64.5 -19t26.5 -44q0 -14 -9 -23.5t-22 -9.5q-11 0 -19.5 8t-8.5 20q0 11 9 19q-12 12 -40 12q-44 0 -82 -36q-48 -45 -63 -124q40 56 103 56q48 0 78 -28.5t30 -71.5q0 -54 -41 -94.5t-98 -40.5
q-50 0 -82 32zM63 280l9 39h102l65 279l-103 -20v40l135 29l20 -10l-73 -318h100l-9 -39h-246zM169 -12l-27 23q18 22 119 141t150 177q30 36 264 319l27 -23q-18 -22 -119 -141t-150 -177q-30 -36 -264 -319zM587 32q39 0 66 27.5t27 65.5q0 29 -19.5 47.5t-51.5 18.5
q-38 0 -66.5 -28t-28.5 -62q0 -29 20 -49t53 -20z" />
    <glyph glyph-name="fivesixths" unicode="&#x215a;" horiz-adv-x="795" 
d="M498 25q-35 35 -35 100q0 56 21.5 109.5t58.5 87.5q50 47 109 47q38 0 64.5 -19t26.5 -44q0 -14 -9 -23.5t-22 -9.5q-11 0 -19.5 8t-8.5 20q0 11 9 19q-12 12 -40 12q-44 0 -82 -36q-48 -45 -63 -124q40 56 103 56q48 0 78 -28.5t30 -71.5q0 -54 -41 -94.5t-98 -40.5
q-50 0 -82 32zM186 273q-42 0 -74.5 20t-32.5 46q0 14 8.5 23.5t21.5 9.5q12 0 20 -7.5t8 -19.5q0 -10 -7 -17q19 -17 60 -17q45 0 76 28t31 65q0 31 -18.5 48.5t-53.5 17.5q-42 0 -79 -17l-21 16l56 173h191l-9 -41h-156l-35 -107q32 13 67 13q43 0 72.5 -27t29.5 -72
q0 -54 -45 -94.5t-110 -40.5zM159 -12l-27 23q18 22 119 141t150 177q30 36 264 319l27 -23q-18 -22 -119 -141t-150 -177q-30 -36 -264 -319zM581 32q39 0 66 27.5t27 65.5q0 29 -19.5 47.5t-51.5 18.5q-38 0 -66.5 -28t-28.5 -62q0 -29 20 -49t53 -20z" />
    <glyph glyph-name="oneeighth" unicode="&#x215b;" horiz-adv-x="795" 
d="M66 280l9 39h102l65 279l-103 -20v40l135 29l20 -10l-73 -318h100l-9 -39h-246zM588 -6q-55 0 -90.5 29t-35.5 69t28 68t68 34q-50 23 -50 74q0 39 35 69t91 30q50 0 83 -26t33 -68q0 -34 -23.5 -58t-61.5 -33q55 -24 55 -79q0 -46 -37 -77.5t-95 -31.5zM625 205
q34 0 57 19t23 47q0 25 -20 41.5t-53 16.5t-56 -18t-23 -46q0 -26 21 -43t51 -17zM587 33q37 0 62.5 20.5t25.5 50.5q0 28 -22 46.5t-57 18.5q-39 0 -64 -20.5t-25 -51.5q0 -27 22 -45.5t58 -18.5zM162 -12l-27 23q18 22 119 141t150 177q30 36 264 319l27 -23
q-18 -22 -119 -141t-150 -177q-30 -36 -264 -319z" />
    <glyph glyph-name="threeeighths" unicode="&#x215c;" horiz-adv-x="795" 
d="M206 275q-48 0 -83 23t-35 55q0 14 9 24.5t22 10.5q12 0 20 -8t8 -20q0 -15 -14 -22q19 -25 75 -25q40 0 64 19t24 49q0 27 -27 47t-68 20h-14l9 39h15q50 0 79.5 19t29.5 48q0 27 -21 41t-53 14q-39 0 -53 -17q10 -5 10 -18q0 -12 -8.5 -20t-20.5 -8q-13 0 -21.5 9
t-8.5 24q0 27 30.5 48t80.5 21q48 0 79.5 -25.5t31.5 -64.5t-29 -63t-73 -30q35 -9 56 -31.5t21 -53.5q0 -48 -39.5 -76.5t-95.5 -28.5zM596 -6q-55 0 -90.5 29t-35.5 69t28 68t68 34q-50 23 -50 74q0 39 35 69t91 30q50 0 83 -26t33 -68q0 -34 -23.5 -58t-61.5 -33
q55 -24 55 -79q0 -46 -37 -77.5t-95 -31.5zM633 205q34 0 57 19t23 47q0 25 -20 41.5t-53 16.5t-56 -18t-23 -46q0 -26 21 -43t51 -17zM595 33q37 0 62.5 20.5t25.5 50.5q0 28 -22 46.5t-57 18.5q-39 0 -64 -20.5t-25 -51.5q0 -27 22 -45.5t58 -18.5zM165 -12l-27 23
q18 22 119 141t150 177q30 36 264 319l27 -23q-18 -22 -119 -141t-150 -177q-30 -36 -264 -319z" />
    <glyph glyph-name="fiveeighths" unicode="&#x215d;" horiz-adv-x="795" 
d="M189 273q-42 0 -74.5 20t-32.5 46q0 14 8.5 23.5t21.5 9.5q12 0 20 -7.5t8 -19.5q0 -10 -7 -17q19 -17 60 -17q45 0 76 28t31 65q0 31 -18.5 48.5t-53.5 17.5q-42 0 -79 -17l-21 16l56 173h191l-9 -41h-156l-35 -107q32 13 67 13q43 0 72.5 -27t29.5 -72q0 -54 -45 -94.5
t-110 -40.5zM581 -6q-55 0 -90.5 29t-35.5 69t28 68t68 34q-50 23 -50 74q0 39 35 69t91 30q50 0 83 -26t33 -68q0 -34 -23.5 -58t-61.5 -33q55 -24 55 -79q0 -46 -37 -77.5t-95 -31.5zM618 205q34 0 57 19t23 47q0 25 -20 41.5t-53 16.5t-56 -18t-23 -46q0 -26 21 -43
t51 -17zM580 33q37 0 62.5 20.5t25.5 50.5q0 28 -22 46.5t-57 18.5q-39 0 -64 -20.5t-25 -51.5q0 -27 22 -45.5t58 -18.5zM154 -12l-27 23q18 22 119 141t150 177q30 36 264 319l27 -23q-18 -22 -119 -141t-150 -177q-30 -36 -264 -319z" />
    <glyph glyph-name="seveneighths" unicode="&#x215e;" horiz-adv-x="795" 
d="M141 280l220 325h-162l-14 -61h-41l24 98h241l10 -20l-228 -342h-50zM580 -6q-55 0 -90.5 29t-35.5 69t28 68t68 34q-50 23 -50 74q0 39 35 69t91 30q50 0 83 -26t33 -68q0 -34 -23.5 -58t-61.5 -33q55 -24 55 -79q0 -46 -37 -77.5t-95 -31.5zM617 205q34 0 57 19t23 47
q0 25 -20 41.5t-53 16.5t-56 -18t-23 -46q0 -26 21 -43t51 -17zM579 33q37 0 62.5 20.5t25.5 50.5q0 28 -22 46.5t-57 18.5q-39 0 -64 -20.5t-25 -51.5q0 -27 22 -45.5t58 -18.5zM129 -12l-27 23q18 22 119 141t150 177q30 36 264 319l27 -23q-18 -22 -119 -141t-150 -177
q-30 -36 -264 -319z" />
    <glyph glyph-name="minus" unicode="&#x2212;" horiz-adv-x="399" 
d="M47 241l11 48h320l-11 -48h-320z" />
    <glyph glyph-name="Q.alt" horiz-adv-x="734" 
d="M347 -12q-127 0 -200 79t-73 199q0 99 46.5 191.5t132.5 152.5t188 60q127 0 200 -79t73 -199q0 -106 -54 -204.5t-144 -152.5l48 -131l-48 -15l-44 124q-59 -25 -125 -25zM352 40q56 0 102 21l-47 131l48 15l43 -122q71 48 114 131t43 174q0 98 -56 163t-163 65
q-126 0 -214.5 -107t-88.5 -243q0 -98 56 -163t163 -65z" />
    <glyph glyph-name="zero.lin" horiz-adv-x="618" 
d="M286 -12q-95 0 -155.5 67t-60.5 176q0 114 42 215t115.5 162.5t159.5 61.5q95 0 155.5 -67t60.5 -176q0 -114 -42 -215t-115.5 -162.5t-159.5 -61.5zM291 40q70 0 129 58t91 145t32 179q0 87 -41.5 141.5t-119.5 54.5q-70 0 -129 -58t-91 -145t-32 -179
q0 -87 41.5 -141.5t119.5 -54.5z" />
    <glyph glyph-name="one.lin" horiz-adv-x="424" 
d="M0 0l12 50h139l127 550l-140 -34v53l185 46l24 -12l-139 -603h136l-12 -50h-332z" />
    <glyph glyph-name="two.lin" horiz-adv-x="544" 
d="M16 0l-9 25q41 98 102.5 163t190.5 135q96 53 136 94.5t40 91.5q0 48 -36.5 78.5t-93.5 30.5q-58 0 -98 -20t-54 -44q23 -21 23 -42q0 -19 -13 -32t-33 -13q-19 0 -32.5 14.5t-13.5 36.5q0 53 64 102.5t160 49.5q84 0 136 -45.5t52 -112.5q0 -70 -49.5 -119.5
t-164.5 -113.5q-106 -59 -159.5 -111t-83.5 -118h307l22 99h56l-34 -149h-415z" />
    <glyph glyph-name="three.lin" horiz-adv-x="512" 
d="M223 -8q-80 0 -142.5 39.5t-62.5 86.5q0 22 13.5 39.5t35.5 17.5q20 0 31 -11.5t11 -27.5q0 -12 -9 -23.5t-23 -15.5q15 -20 55.5 -37t93.5 -17q78 0 125 38.5t47 98.5q0 62 -54.5 99.5t-137.5 37.5h-13l11 50h18q102 0 160 40t58 99q0 52 -39 81.5t-100 29.5
q-87 0 -119 -42q27 -10 27 -37q0 -17 -13.5 -27.5t-29.5 -10.5q-18 0 -31.5 13.5t-13.5 34.5q0 49 55 85t135 36t134.5 -45.5t54.5 -112.5q0 -71 -53.5 -115t-129.5 -57q62 -17 101.5 -58t39.5 -100q0 -83 -68.5 -136t-166.5 -53z" />
    <glyph glyph-name="four.lin" horiz-adv-x="541" 
d="M446 424l-41 -179h116l-11 -49h-117l-33 -146h96l-11 -50h-273l11 50h120l33 146h-302l-4 22l442 454l38 -34l-384 -393h222l35 153z" />
    <glyph glyph-name="five.lin" horiz-adv-x="509" 
d="M201 -12q-66 0 -121.5 34t-55.5 76q0 20 12.5 35t32.5 15q17 0 28.5 -10.5t11.5 -27.5q0 -22 -18 -33q35 -39 116 -39q88 0 143.5 56t55.5 130q0 64 -37.5 98.5t-99.5 34.5q-71 0 -135 -28l-23 20l103 309h312l-12 -54h-266l-73 -217q44 21 102 21q84 0 136 -49.5
t52 -130.5q0 -94 -73.5 -167t-190.5 -73z" />
    <glyph glyph-name="six.lin" horiz-adv-x="553" 
d="M129 44q-61 61 -61 184q0 97 40.5 197t112.5 167q83 78 185 78q62 0 107 -31t45 -72q0 -24 -14.5 -38t-33.5 -14q-16 0 -29 11t-13 31q0 22 20 36q-23 28 -83 28q-80 0 -150 -65q-45 -41 -80 -110.5t-48 -143.5q30 44 80.5 76.5t116.5 32.5q87 0 140 -51.5t53 -127.5
q0 -92 -73 -168t-172 -76q-87 0 -143 56zM275 39q72 0 127 57t55 134q0 59 -37.5 95t-102.5 36q-75 0 -131.5 -56.5t-56.5 -126.5q0 -59 41 -100q41 -39 105 -39z" />
    <glyph glyph-name="seven.lin" horiz-adv-x="490" 
d="M66 0l405 608h-295l-23 -99h-55l35 149h412l10 -19l-422 -639h-67z" />
    <glyph glyph-name="eight.lin" horiz-adv-x="543" 
d="M270 -10q-92 0 -154.5 52.5t-62.5 127.5q0 74 50 122t122 60q-41 19 -68 59t-27 85q0 68 59 120t152 52q84 0 143.5 -47.5t59.5 -118.5q0 -126 -156 -168q44 -17 75.5 -58.5t31.5 -93.5q0 -81 -64.5 -136.5t-160.5 -55.5zM331 367q65 0 110.5 38.5t45.5 93.5q0 50 -39 84
t-107 34q-66 0 -110.5 -36t-44.5 -90q0 -52 42 -88t103 -36zM269 41q70 0 120 40.5t50 99.5t-44 97.5t-114 38.5q-76 0 -123.5 -41t-47.5 -104q0 -54 44 -92.5t115 -38.5z" />
    <glyph glyph-name="nine.lin" horiz-adv-x="553" 
d="M90 426q0 92 73 168t172 76q87 0 143 -56q61 -61 61 -184q0 -97 -40.5 -197t-112.5 -167q-83 -78 -185 -78q-62 0 -107 31t-45 72q0 24 14.5 38t33.5 14q16 0 29 -11t13 -31q0 -22 -20 -36q23 -28 83 -28q80 0 150 65q45 41 80 110.5t47 142.5q-30 -44 -80.5 -76
t-115.5 -32q-87 0 -140 51.5t-53 127.5zM478 480q0 59 -41 100q-41 39 -105 39q-72 0 -127 -57t-55 -134q0 -59 37.5 -95t102.5 -36q75 0 131.5 56.5t56.5 126.5z" />
    <glyph glyph-name="bullet.alt" horiz-adv-x="626" 
d="M314 -47q-112 0 -183.5 75.5t-71.5 186.5t71.5 186.5t183.5 75.5q113 0 184.5 -75.5t71.5 -186.5t-71.5 -186.5t-184.5 -75.5z" />
    <glyph glyph-name="hyphen.lin" horiz-adv-x="244" 
d="M56 314l13 52h179l-11 -52h-181z" />
    <glyph glyph-name="endash.lin" horiz-adv-x="395" 
d="M46 314l13 52h350l-11 -52h-352z" />
    <glyph glyph-name="emdash.lin" horiz-adv-x="617" 
d="M46 314l13 52h572l-11 -52h-574z" />
    <glyph glyph-name="parenleft.lin" horiz-adv-x="340" 
d="M270 -159q-190 157 -190 398q0 181 98.5 335t255.5 238l25 -39q-147 -83 -234.5 -227.5t-87.5 -306.5q0 -218 161 -362z" />
    <glyph glyph-name="parenright.lin" horiz-adv-x="340" 
d="M-43 -159l-25 39q147 83 234.5 227.5t87.5 306.5q0 218 -161 362l28 36q190 -157 190 -398q0 -181 -98.5 -335t-255.5 -238z" />
    <glyph glyph-name="bracketleft.lin" horiz-adv-x="331" 
d="M32 -140l217 932h216l-11 -47h-160l-196 -838h160l-11 -47h-215z" />
    <glyph glyph-name="bracketright.lin" horiz-adv-x="331" 
d="M-80 -140l11 47h160l196 838h-160l11 47h215l-217 -932h-216z" />
    <glyph glyph-name="braceleft.lin" horiz-adv-x="318" 
d="M209 -153q-74 9 -113 52.5t-39 104.5q0 68 79 141q21 19 30.5 29.5t19.5 26t10 29.5q0 27 -20 48.5t-64 21.5h-37l14 57h37q50 0 80 25.5t30 61.5q0 34 -24 85q-28 62 -28 106q0 71 62 121t181 52l-10 -41q-91 -5 -136 -44t-45 -87q0 -38 26 -97q25 -57 25 -95
q0 -49 -30.5 -80t-78.5 -38q70 -21 70 -93q0 -52 -71 -117q-67 -61 -67 -109q0 -93 109 -120z" />
    <glyph glyph-name="braceright.lin" horiz-adv-x="318" 
d="M-53 -151l10 41q91 5 136 44t45 87q0 38 -26 97q-25 57 -25 95q0 49 30.5 80t78.5 38q-70 21 -70 93q0 52 71 117q67 61 67 109q0 93 -109 120l10 40q74 -9 113 -52.5t39 -104.5q0 -68 -79 -141q-60 -54 -60 -85q0 -27 20 -48.5t64 -21.5h37l-14 -57h-37q-50 0 -80 -25.5
t-30 -61.5q0 -34 24 -85q28 -62 28 -106q0 -71 -62 -121t-181 -52z" />
    <glyph glyph-name="registered.alt" horiz-adv-x="598" 
d="M299 -8q-108 0 -179.5 75t-71.5 183q0 109 71.5 184t179.5 75t179.5 -75t71.5 -184q0 -108 -71.5 -183t-179.5 -75zM299 24q92 0 153 66t61 161t-61 161t-153 66t-153 -66t-61 -161t61 -161t153 -66zM197 124v31h33v202h-33v30h100q46 0 72.5 -20.5t26.5 -56.5
q0 -53 -55 -72l51 -83h31v-31h-54l-61 105h-44v-74h34v-31h-101zM264 258h30q30 0 48.5 13.5t18.5 37.5q0 48 -65 48h-32v-99z" />
    <glyph glyph-name="copyright.lin" horiz-adv-x="782" 
d="M391 -12q-140 0 -237 99.5t-97 241.5t97 241.5t237 99.5t237 -99.5t97 -241.5t-97 -241.5t-237 -99.5zM391 21q123 0 209.5 90.5t86.5 217.5t-86.5 217.5t-209.5 90.5t-209.5 -90.5t-86.5 -217.5t86.5 -217.5t209.5 -90.5zM405 164q-75 0 -123 48.5t-48 120.5
q0 74 49.5 123t119.5 49q51 0 87.5 -25t36.5 -56q0 -15 -9 -25t-22 -10t-21.5 8t-8.5 21t10 19q-19 28 -74 28q-53 0 -88.5 -38t-35.5 -93q0 -54 35.5 -92.5t91.5 -38.5q54 0 99 43l27 -30q-50 -52 -126 -52z" />
    <glyph glyph-name="published.lin" horiz-adv-x="782" 
d="M391 -12q-140 0 -237 99.5t-97 241.5t97 241.5t237 99.5t237 -99.5t97 -241.5t-97 -241.5t-237 -99.5zM391 21q123 0 209.5 90.5t86.5 217.5t-86.5 217.5t-209.5 90.5t-209.5 -90.5t-86.5 -217.5t86.5 -217.5t209.5 -90.5zM278 165v38h41v253h-41v38h129q53 0 87.5 -29
t34.5 -76q0 -52 -34 -80t-91 -28h-42v-78h44v-38h-128zM407 318q37 0 57.5 19t20.5 52q0 31 -22 49t-57 18h-44v-137q3 0 18 -0.5t27 -0.5z" />
    <glyph glyph-name="registered.lin" horiz-adv-x="782" 
d="M391 -12q-140 0 -237 99.5t-97 241.5t97 241.5t237 99.5t237 -99.5t97 -241.5t-97 -241.5t-237 -99.5zM391 21q123 0 209.5 90.5t86.5 217.5t-86.5 217.5t-209.5 90.5t-209.5 -90.5t-86.5 -217.5t86.5 -217.5t209.5 -90.5zM266 171v38h41v253h-41v38h125q56 0 89.5 -25.5
t33.5 -70.5q0 -33 -18.5 -56.5t-49.5 -33.5l63 -105h39v-38h-65l-75 131h-59v-93h43v-38h-126zM349 339h38q37 0 60 17t23 46q0 60 -81 60h-40v-123z" />
    <glyph glyph-name="dollar.lin" horiz-adv-x="544" 
d="M153 -90l29 101q-65 17 -107 56t-42 76q0 27 15 43.5t38 16.5q18 0 31 -12.5t13 -27.5q0 -32 -31 -50q25 -40 103 -56l81 261q-67 34 -103 70.5t-36 98.5q0 71 60 121t153 50q9 0 31 -2l27 93l46 -13l-26 -90q54 -15 89 -46.5t35 -67.5q0 -27 -15 -42.5t-35 -15.5
q-19 0 -31.5 12.5t-12.5 30.5q0 26 29 43q-30 27 -79 40l-76 -248q35 -18 55.5 -30.5t45 -34t36.5 -48.5t12 -61q0 -82 -61.5 -130t-160.5 -48q-25 0 -36 2l-31 -105zM431 174q0 42 -28 69.5t-83 55.5l-76 -248q8 -1 26 -1q72 0 116.5 33t44.5 91zM201 491q0 -41 25.5 -67.5
t74.5 -52.5l72 236q-4 0 -12.5 0.5t-11.5 0.5q-62 -1 -105 -33.5t-43 -83.5z" />
    <glyph glyph-name="sterling.lin" horiz-adv-x="549" 
d="M405 257h-160q-3 -118 -89 -173q40 -6 78 -19q6 -2 19 -7t19 -7t18 -5t26 -4t32 -1q50 0 103 37l28 -39q-57 -51 -142 -51q-13 0 -26 1.5t-21 2.5t-21.5 5.5l-18 6t-19.5 7t-18 6.5q-51 19 -100 20q-15 -22 -39 -36t-42 -14q-41 0 -41 34q0 53 107 60q51 39 72 80t22 96
h-107l11 46h93q-11 105 -11 122q0 107 59 176t157 69q56 0 101.5 -32.5t45.5 -74.5q0 -26 -13.5 -41t-34.5 -15q-20 0 -33 12.5t-13 31.5q0 27 19 38q-5 10 -26.5 19.5t-47.5 9.5q-73 0 -116.5 -56t-43.5 -136q0 -23 5 -66.5t6 -56.5h173z" />
    <glyph glyph-name="Euro.lin" horiz-adv-x="732" 
d="M492 376h-275q-13 -51 -15 -106h266l-12 -48h-252q9 -81 62 -131.5t139 -50.5q111 0 205 94l37 -36q-108 -110 -247 -110q-104 0 -173.5 66t-80.5 168h-110l12 48h96q2 55 16 106h-88l11 48h93q43 108 129.5 176.5t192.5 68.5q54 0 96.5 -16.5t66.5 -42t36 -51.5t12 -48
q0 -31 -15.5 -48.5t-36.5 -17.5t-33.5 11.5t-12.5 29.5q0 29 33 47q-8 33 -45 59t-103 26q-86 0 -155.5 -53.5t-106.5 -140.5h269z" />
    <glyph glyph-name="yen.lin" horiz-adv-x="623" 
d="M114 266l11 48h144l-105 294h-73l12 50h209l-12 -50h-77l102 -293l232 293h-76l12 50h209l-12 -50h-67l-240 -294h136l-11 -48h-168l-16 -71h168l-11 -48h-168l-22 -97h97l-12 -50h-252l12 50h97l22 97h-168l11 48h168l16 71h-168z" />
    <glyph glyph-name="cent.lin" horiz-adv-x="464" 
d="M233 121q-20 0 -29 2l-41 -139l-40 11l41 138q-51 18 -81 62t-30 104q0 98 70 176t167 82l34 115l40 -11l-31 -107q52 -8 84 -39t32 -64q0 -22 -13.5 -37t-33.5 -15q-13 0 -23.5 9t-10.5 28q0 8 6.5 19t16.5 14q-22 34 -74 40l-100 -339q16 -2 25 -2q86 0 149 60l-3 -55
q-66 -52 -155 -52zM106 300q0 -86 72 -119l98 327q-71 -10 -120.5 -71t-49.5 -137z" />
    <glyph glyph-name="numbersign.lin" horiz-adv-x="578" 
d="M524 657l-53 -191h128l-13 -46h-128l-53 -190h133l-13 -46h-133l-51 -184h-52l51 184h-129l-51 -184h-52l51 184h-128l13 46h128l53 190h-133l13 46h133l53 191h52l-54 -191h130l53 191h52zM276 420l-52 -190h129l53 190h-130z" />
    <glyph glyph-name="paragraph.lin" horiz-adv-x="667" 
d="M211 0l12 50h83l45 195h-34q-115 0 -173 48t-58 134q0 101 77.5 166t198.5 65h352l-11 -50h-89l-129 -558h89l-12 -50h-351zM363 47h65l130 564h-65z" />
    <glyph glyph-name="section.lin" horiz-adv-x="499" 
d="M71 333q0 44 44 75t112 45q-61 36 -61 95q0 53 50.5 87.5t124.5 34.5q93 0 142 -51q26 -28 26 -55q0 -21 -12 -35.5t-32 -14.5q-19 0 -31 12.5t-12 28.5q0 20 17 37q-4 8 -20 15q-34 15 -81 15q-51 0 -83 -21t-32 -49q0 -34 29.5 -54.5t91.5 -43.5q36 -13 56.5 -22.5
t43.5 -25t33 -35.5t10 -46q0 -44 -43 -75t-113 -46q61 -37 61 -94q0 -53 -50.5 -87.5t-124.5 -34.5q-96 0 -144 53q-24 25 -24 53q0 21 12 35.5t32 14.5q19 0 31 -12.5t12 -28.5q0 -20 -17 -37q1 -5 16 -13q34 -17 85 -17t83 21t32 49q0 34 -29.5 54.5t-91.5 43.5
q-36 13 -56.5 22.5t-43.5 25t-33 35.5t-10 46zM316 414q-31 11 -38 14q-65 -9 -107 -36t-42 -60q0 -30 29 -49t84 -39q33 -12 37 -14q65 9 107.5 36t42.5 60q0 30 -30 49.5t-83 38.5z" />
    <glyph glyph-name="ordfeminine.lin" horiz-adv-x="339" 
d="M170 483q-43 0 -70 28.5t-27 77.5q0 65 42 111.5t97 46.5q64 0 83 -56l13 53h38l-45 -188q-3 -14 -3 -23q0 -17 15 -17q18 0 35 39l24 -11q-21 -60 -63 -60q-47 0 -49 48q-37 -49 -90 -49zM178 520q43 0 71.5 38t28.5 81q0 32 -17.5 51.5t-48.5 19.5q-40 0 -68.5 -36
t-28.5 -83q0 -33 16.5 -52t46.5 -19zM46 380l10 37h265l-10 -37h-265z" />
    <glyph glyph-name="ordmasculine.lin" horiz-adv-x="332" 
d="M205 484q-50 0 -78.5 31t-28.5 78q0 62 40.5 107.5t100.5 45.5q50 0 78.5 -31t28.5 -78q0 -62 -40.5 -107.5t-100.5 -45.5zM61 380l10 37h228l-10 -37h-228zM207 521q42 0 70.5 33.5t28.5 80.5q0 32 -19 53t-50 21q-42 0 -70.5 -33.5t-28.5 -80.5q0 -32 19 -53t50 -21z
" />
    <glyph glyph-name="degree.lin" horiz-adv-x="322" 
d="M208 496q-46 0 -73 30t-27 74q0 56 39 101t95 45q46 0 73 -30t27 -74q0 -56 -39 -101t-95 -45zM211 535q37 0 64 32t27 71q0 30 -18 49.5t-45 19.5q-37 0 -64 -32t-27 -71q0 -30 18 -49.5t45 -19.5z" />
    <glyph glyph-name="percent.lin" horiz-adv-x="681" 
d="M225 382q-53 0 -84.5 34.5t-31.5 85.5q0 65 45 116.5t109 51.5q53 0 84.5 -34.5t31.5 -85.5q0 -65 -45 -116.5t-109 -51.5zM475 -8q-53 0 -84.5 34.5t-31.5 85.5q0 65 45 116.5t109 51.5q53 0 84.5 -34.5t31.5 -85.5q0 -65 -45 -116.5t-109 -51.5zM71 -9l-34 30l315 325
l315 325l34 -30l-315 -325zM478 37q43 0 73.5 36.5t30.5 82.5q0 35 -20 57t-52 22q-43 0 -73.5 -36.5t-30.5 -82.5q0 -35 20 -57t52 -22zM228 427q43 0 73.5 36.5t30.5 82.5q0 35 -20 57t-52 22q-43 0 -73.5 -36.5t-30.5 -82.5q0 -35 20 -57t52 -22z" />
    <glyph glyph-name="perthousand.lin" horiz-adv-x="1014" 
d="M225 382q-53 0 -84.5 34.5t-31.5 85.5q0 65 45 116.5t109 51.5q53 0 84.5 -34.5t31.5 -85.5q0 -65 -45 -116.5t-109 -51.5zM475 -8q-53 0 -84.5 34.5t-31.5 85.5q0 65 45 116.5t109 51.5q53 0 84.5 -34.5t31.5 -85.5q0 -65 -45 -116.5t-109 -51.5zM808 -8
q-53 0 -84.5 34.5t-31.5 85.5q0 65 45 116.5t109 51.5q53 0 84.5 -34.5t31.5 -85.5q0 -65 -45 -116.5t-109 -51.5zM71 -9l-34 30l315 325l315 325l34 -30l-315 -325zM478 37q43 0 73.5 36.5t30.5 82.5q0 35 -20 57t-52 22q-43 0 -73.5 -36.5t-30.5 -82.5q0 -35 20 -57
t52 -22zM811 37q43 0 73.5 36.5t30.5 82.5q0 35 -20 57t-52 22q-43 0 -73.5 -36.5t-30.5 -82.5q0 -35 20 -57t52 -22zM228 427q43 0 73.5 36.5t30.5 82.5q0 35 -20 57t-52 22q-43 0 -73.5 -36.5t-30.5 -82.5q0 -35 20 -57t52 -22z" />
    <glyph glyph-name="quotedbl.lin" horiz-adv-x="281" 
d="M231 515l26 180q7 50 43 50q18 0 28 -10.5t10 -26.5q0 -12 -6 -26l-82 -167h-19zM103 515l26 180q7 50 43 50q18 0 28 -10.5t10 -26.5q0 -12 -6 -26l-82 -167h-19z" />
    <glyph glyph-name="quotesingle.lin" horiz-adv-x="153" 
d="M103 515l26 180q7 50 43 50q18 0 28 -10.5t10 -26.5q0 -12 -6 -26l-82 -167h-19z" />
    <glyph glyph-name="plus.lin" horiz-adv-x="399" 
d="M290 495l-30 -131h135l-11 -48h-135l-35 -151h-50l35 151h-135l11 48h135l30 131h50z" />
    <glyph glyph-name="minus.lin" horiz-adv-x="399" 
d="M64 316l11 48h320l-11 -48h-320z" />
    <glyph glyph-name="divide.lin" horiz-adv-x="399" 
d="M64 316l11 48h320l-11 -48h-320zM260 428q-17 0 -29.5 13t-12.5 30t12.5 30t29.5 13q16 0 28.5 -13t12.5 -30t-12.5 -30t-28.5 -13zM199 166q-17 0 -29.5 13t-12.5 30t12.5 30t29.5 13q16 0 28.5 -13t12.5 -30t-12.5 -30t-28.5 -13z" />
    <glyph glyph-name="equal.lin" horiz-adv-x="399" 
d="M99 381l11 48h280l-11 -48h-280zM64 232l11 48h280l-11 -48h-280z" />
    <glyph glyph-name="multiply.lin" horiz-adv-x="399" 
d="M139 484l82 -107l126 101l32 -40l-126 -102l83 -106l-42 -34l-83 107l-125 -101l-32 40l126 101l-83 107z" />
    <glyph glyph-name="less.lin" horiz-adv-x="399" 
d="M276 159l-212 163l5 20l279 159l24 -38l-236 -134l171 -132z" />
    <glyph glyph-name="greater.lin" horiz-adv-x="399" 
d="M98 163l-24 38l236 134l-171 132l31 38l212 -163l-5 -20z" />
    <glyph glyph-name="plusminus.lin" horiz-adv-x="399" 
d="M300 538l-32 -136h136l-11 -48h-136l-31 -136h-50l31 136h-134l11 48h134l32 136h50zM13 91l11 48h319l-11 -48h-319z" />
    <glyph glyph-name="zero.tab" horiz-adv-x="530" 
d="M524 436q0 -117 -39 -221t-106 -166t-144 -62q-82 0 -128.5 64t-46.5 170q0 117 39 221t106 166t144 62q82 0 128.5 -64t46.5 -170zM120 226q0 -83 31 -134.5t91 -51.5t112 59t81 149t29 183q0 83 -31 134.5t-91 51.5t-112 -59t-81 -149t-29 -183z" />
    <glyph glyph-name="one.tab" horiz-adv-x="530" 
d="M23 0l12 50h169l130 550l-168 -41v52l213 54l24 -12l-142 -603h166l-12 -50h-392z" />
    <glyph glyph-name="two.tab" horiz-adv-x="530" 
d="M89 50h293l22 99h56l-34 -149h-401l-9 25q39 98 99 163.5t183 134.5q91 51 128.5 93t37.5 93q0 48 -34.5 78.5t-89.5 30.5t-92.5 -20t-51.5 -45q23 -21 23 -42q0 -19 -13 -32t-33 -13q-19 0 -32.5 14.5t-13.5 36.5q0 53 61.5 103t154.5 50q82 0 132 -45t50 -113
q0 -70 -47.5 -119.5t-156.5 -113.5q-100 -58 -152 -111t-80 -118z" />
    <glyph glyph-name="three.tab" horiz-adv-x="530" 
d="M326 339q64 -18 103.5 -58.5t39.5 -99.5q0 -83 -69.5 -136t-167.5 -53q-82 0 -144 40t-62 90q0 22 13.5 39.5t35.5 17.5q20 0 31 -11.5t11 -27.5q0 -12 -9 -23.5t-23 -15.5q16 -22 56.5 -40t93.5 -18q79 0 126.5 38.5t47.5 98.5q0 63 -52.5 100t-137.5 37h-20l11 50h25
q104 0 160 39.5t56 99.5q0 51 -40.5 81t-100.5 30q-43 0 -75.5 -13.5t-46.5 -32.5q27 -10 27 -37q0 -17 -13.5 -27.5t-29.5 -10.5q-18 0 -31.5 13.5t-13.5 34.5q0 50 56 87.5t137 37.5q80 0 135.5 -45.5t55.5 -112.5q0 -71 -53.5 -114.5t-131.5 -57.5z" />
    <glyph glyph-name="four.tab" horiz-adv-x="530" 
d="M438 424l-41 -179h113l-11 -49h-114l-33 -146h96l-11 -50h-273l11 50h120l33 146h-294l-4 22l431 454l38 -34l-377 -393h218l35 153z" />
    <glyph glyph-name="five.tab" horiz-adv-x="530" 
d="M211 -12q-69 0 -124.5 35t-55.5 79q0 20 12.5 35t32.5 15q17 0 28.5 -10.5t11.5 -27.5q0 -22 -18 -33q37 -43 119 -43q92 0 149 56.5t57 132.5q0 62 -38.5 96t-102.5 34q-75 0 -143 -28l-23 20l103 309h323l-12 -54h-277l-73 -217q48 21 107 21q88 0 141.5 -48.5
t53.5 -128.5q0 -96 -75.5 -169.5t-195.5 -73.5z" />
    <glyph glyph-name="six.tab" horiz-adv-x="530" 
d="M493 515q-16 0 -29 11t-13 31q0 22 20 36q-21 28 -78 28q-77 0 -142 -65q-42 -41 -75.5 -109.5t-45.5 -141.5q29 43 77 74.5t110 31.5q84 0 134.5 -51.5t50.5 -127.5q0 -92 -70 -168t-165 -76q-85 0 -137 56q-59 60 -59 184q0 97 38.5 197t108.5 167q80 78 177 78
q60 0 103 -31t43 -72q0 -24 -14.5 -38t-33.5 -14zM269 39q67 0 119 57t52 134q0 59 -34.5 95t-92.5 36q-73 0 -127 -56.5t-54 -126.5q0 -59 39 -100q37 -39 98 -39z" />
    <glyph glyph-name="seven.tab" horiz-adv-x="530" 
d="M89 0l411 608h-315l-23 -99h-55l35 149h432l10 -19l-428 -639h-67z" />
    <glyph glyph-name="eight.tab" horiz-adv-x="530" 
d="M475 499q0 50 -37.5 84t-102.5 34q-64 0 -106.5 -35.5t-42.5 -90.5q0 -52 40 -88t99 -36q63 0 106.5 38.5t43.5 93.5zM483 182q0 -81 -62.5 -136.5t-155.5 -55.5q-94 0 -153 51t-59 129q0 74 49.5 122t119.5 60q-40 19 -66 59t-26 85q0 68 57 120t148 52
q82 0 139.5 -47.5t57.5 -118.5q0 -66 -42 -107.5t-110 -60.5q42 -17 72.5 -58.5t30.5 -93.5zM427 181q0 59 -42 97.5t-110 38.5q-73 0 -119 -41t-46 -104q0 -55 42 -93t113 -38q66 0 114 40.5t48 99.5z" />
    <glyph glyph-name="nine.tab" horiz-adv-x="530" 
d="M101 143q16 0 29 -11t13 -31q0 -22 -20 -36q21 -28 78 -28q77 0 142 65q42 41 75 109.5t45 140.5q-29 -43 -76.5 -74t-109.5 -31q-83 0 -134 51.5t-51 127.5q0 92 70 168t165 76q85 0 137 -56q59 -60 59 -184q0 -97 -38.5 -197t-108.5 -167q-80 -78 -177 -78
q-60 0 -103 31t-43 72q0 24 14.5 38t33.5 14zM325 619q-67 0 -119 -57t-52 -134q0 -59 35 -95t96 -36q70 0 123.5 56.5t53.5 126.5q0 59 -39 100q-37 39 -98 39z" />
    <glyph glyph-name="period.tab" horiz-adv-x="265" 
d="M109 -10q-24 0 -39.5 16.5t-15.5 40.5t15.5 40.5t39.5 16.5t39.5 -16.5t15.5 -40.5t-15.5 -40.5t-39.5 -16.5z" />
    <glyph glyph-name="comma.tab" horiz-adv-x="265" 
d="M-6 -138l-11 22q51 22 81.5 56.5t33.5 58.5q-19 4 -31 19t-12 32q0 22 15 37t38 15q24 0 40.5 -17.5t16.5 -44.5q0 -50 -43.5 -100t-127.5 -78z" />
    <glyph glyph-name="colon.tab" horiz-adv-x="265" 
d="M109 -10q-24 0 -39.5 16.5t-15.5 40.5t15.5 40.5t39.5 16.5t39.5 -16.5t15.5 -40.5t-15.5 -40.5t-39.5 -16.5zM169 252q-24 0 -39.5 16.5t-15.5 40.5t15.5 40.5t39.5 16.5t39.5 -16.5t15.5 -40.5t-15.5 -40.5t-39.5 -16.5z" />
    <glyph glyph-name="semicolon.tab" horiz-adv-x="265" 
d="M-6 -138l-11 22q51 22 81.5 56.5t33.5 58.5q-19 4 -31 19t-12 32q0 22 15 37t38 15q24 0 40.5 -17.5t16.5 -44.5q0 -50 -43.5 -100t-127.5 -78zM169 252q-24 0 -39.5 16.5t-15.5 40.5t15.5 40.5t39.5 16.5t39.5 -16.5t15.5 -40.5t-15.5 -40.5t-39.5 -16.5z" />
    <glyph glyph-name="twodotleader.tab" horiz-adv-x="530" 
d="M109 -10q-24 0 -39.5 16.5t-15.5 40.5t15.5 40.5t39.5 16.5t39.5 -16.5t15.5 -40.5t-15.5 -40.5t-39.5 -16.5zM374 -10q-24 0 -39.5 16.5t-15.5 40.5t15.5 40.5t39.5 16.5t39.5 -16.5t15.5 -40.5t-15.5 -40.5t-39.5 -16.5z" />
    <glyph glyph-name="periodcentered.tab" horiz-adv-x="265" 
d="M146 217q-24 0 -39.5 16.5t-15.5 40.5t15.5 40.5t39.5 16.5t39.5 -16.5t15.5 -40.5t-15.5 -40.5t-39.5 -16.5z" />
    <glyph glyph-name="slash.tab" horiz-adv-x="530" 
d="M-38 -210l-43 30l649 922l43 -30z" />
    <glyph glyph-name="bar.tab" horiz-adv-x="265" 
d="M109 -200v932h48v-932h-48z" />
    <glyph glyph-name="underscore.tab" horiz-adv-x="530" 
d="M-37 -140l13 52h549l-11 -52h-551z" />
    <glyph glyph-name="dollar.tab" horiz-adv-x="530" 
d="M33 143q0 27 15 43.5t38 16.5q18 0 31 -12.5t13 -27.5q0 -32 -31 -50q24 -38 96 -56l81 261q-62 34 -97 73t-35 101q0 70 58 118t148 48q21 0 31 -2l27 93l46 -13l-26 -90q51 -16 84 -47.5t33 -66.5q0 -27 -15 -42.5t-35 -15.5q-19 0 -31.5 12.5t-12.5 30.5q0 26 29 43
q-25 25 -72 39l-76 -247q33 -18 53 -31.5t43 -35t34.5 -49.5t11.5 -63q0 -79 -59.5 -126t-155.5 -47q-14 0 -36 2l-31 -105l-46 13l29 102q-62 18 -102 56t-40 75zM417 169q0 44 -27 72.5t-77 56.5l-76 -247q8 -1 26 -1q69 0 111.5 32t42.5 87zM201 496q0 -41 24.5 -69.5
t68.5 -54.5l72 235q-8 1 -24 1q-60 -1 -100.5 -31.5t-40.5 -80.5z" />
    <glyph glyph-name="sterling.tab" horiz-adv-x="530" 
d="M230 432q0 -18 2 -39t6 -48.5t6 -41.5h161l-11 -46h-148q-3 -116 -89 -173q29 -4 72 -19q5 -2 16.5 -6.5t16.5 -6l15 -4.5t18 -4t20 -2t25 -1q47 0 100 37l28 -39q-57 -51 -139 -51q-42 0 -121 29q-51 19 -94 20q-15 -22 -39 -36t-42 -14q-41 0 -41 34q0 53 107 60
q51 39 72 80t22 96h-107l11 46h93q-14 112 -14 128q0 107 57.5 173t153.5 66q55 0 99 -32.5t44 -74.5q0 -26 -13.5 -41t-34.5 -15q-20 0 -33 12.5t-13 31.5q0 27 19 38q-5 10 -25.5 19.5t-45.5 9.5q-71 0 -112.5 -53.5t-41.5 -132.5z" />
    <glyph glyph-name="Euro.tab" horiz-adv-x="530" 
d="M339 375h-151q-13 -52 -17 -101h144l-12 -48h-133q1 -87 32.5 -137t91.5 -50q77 0 135 91l40 -33q-77 -110 -183 -110q-81 0 -128.5 63t-47.5 176h-76l12 48h65q4 44 16 101h-60l11 48h62q36 110 103.5 178.5t148.5 68.5q66 0 104 -42t38 -101q0 -31 -15.5 -48.5
t-36.5 -17.5t-33 12t-12 31q0 15 10.5 28.5t26.5 19.5q-18 66 -87 66q-58 0 -107 -54.5t-78 -140.5h148z" />
    <glyph glyph-name="yen.tab" horiz-adv-x="530" 
d="M88 266l11 48h126l-77 294h-63l12 50h209l-12 -50h-87l71 -289l203 289h-86l12 50h209l-12 -50h-57l-215 -294h121l-11 -48h-148l-16 -71h148l-11 -48h-148l-22 -97h97l-12 -50h-252l12 50h97l22 97h-148l11 48h148l16 71h-148z" />
    <glyph glyph-name="cent.tab" horiz-adv-x="530" 
d="M438 228l-3 -55q-69 -52 -166 -52q-19 0 -28 1l-41 -138l-40 11l40 136q-55 18 -87.5 62.5t-32.5 105.5q0 98 73 175.5t174 82.5l34 115l40 -11l-31 -106q57 -8 91.5 -39.5t34.5 -64.5q0 -22 -13.5 -37t-33.5 -15q-13 0 -23.5 9t-10.5 28q0 8 6.5 19t16.5 14
q-25 36 -84 40l-100 -340q8 -1 24 -1q92 0 160 60zM133 300q0 -43 22 -74.5t60 -46.5l98 329q-75 -11 -127.5 -72t-52.5 -136z" />
    <glyph glyph-name="numbersign.tab" horiz-adv-x="530" 
d="M494 657l-53 -191h114l-13 -46h-114l-53 -190h119l-13 -46h-119l-51 -184h-52l51 184h-117l-51 -184h-52l51 184h-114l13 46h114l53 190h-119l13 46h119l53 191h52l-54 -191h118l53 191h52zM258 420l-52 -190h117l53 190h-118z" />
    <glyph glyph-name="paragraph.tab" horiz-adv-x="530" 
d="M232 50l46 195h-8q-90 0 -145.5 49.5t-55.5 132.5q0 101 77.5 166t198.5 65h252l-11 -50h-74l-129 -558h74l-11 -50h-308l11 50h83zM282 47h49l131 564h-49z" />
    <glyph glyph-name="section.tab" horiz-adv-x="530" 
d="M74 333q0 44 46 74.5t117 44.5q-68 35 -68 96q0 53 54 87.5t134 34.5q101 0 154 -51q27 -27 27 -56q0 -20 -12 -34.5t-32 -14.5q-19 0 -31 12.5t-12 28.5q0 20 18 38q-10 8 -24 14q-37 15 -90 15q-57 0 -93 -21t-36 -49q0 -34 32.5 -54.5t100.5 -43.5q40 -14 62 -23
t47 -24.5t36.5 -35.5t11.5 -46q0 -43 -44.5 -73.5t-118.5 -46.5q68 -37 68 -95q0 -53 -54 -87.5t-134 -34.5q-106 0 -156 52q-25 25 -25 54q0 21 12 35.5t32 14.5q19 0 31 -12.5t12 -28.5q0 -20 -17 -37q3 -6 19 -13q38 -17 95 -17q56 0 92 21t36 49q0 34 -32.5 54.5
t-100.5 43.5q-40 13 -62.5 22.5t-47.5 25t-36 35.5t-11 46zM333 414q-18 5 -42 14q-69 -9 -114 -36t-45 -60q0 -30 32.5 -49t92.5 -39l41 -14q70 9 115 36t45 60q0 21 -20.5 38.5t-43.5 27.5t-61 22z" />
    <glyph glyph-name="degree.tab" horiz-adv-x="530" 
d="M302 387q-69 0 -110 43t-41 107q0 82 58.5 146t144.5 64q69 0 110 -43t41 -107q0 -82 -58.5 -146t-144.5 -64zM304 426q65 0 110.5 51.5t45.5 117.5q0 50 -30.5 81.5t-77.5 31.5q-65 0 -110.5 -51.5t-45.5 -117.5q0 -50 30.5 -81.5t77.5 -31.5z" />
    <glyph glyph-name="percent.tab" horiz-adv-x="530" 
d="M188 382q-42 0 -68 29t-26 76q0 74 40 128.5t97 54.5q41 0 67 -29t26 -76q0 -74 -39.5 -128.5t-96.5 -54.5zM358 -8q-42 0 -68 29t-26 76q0 74 40 128.5t97 54.5q41 0 67 -29t26 -76q0 -74 -39.5 -128.5t-96.5 -54.5zM56 -9l-34 30l510 650l34 -30zM194 426
q34 0 58.5 41.5t24.5 90.5q0 30 -13.5 49t-39.5 19q-34 0 -58.5 -41.5t-24.5 -89.5q0 -69 53 -69zM364 36q34 0 58.5 41.5t24.5 90.5q0 30 -13.5 49t-39.5 19q-34 0 -58.5 -41.5t-24.5 -89.5q0 -69 53 -69z" />
    <glyph glyph-name="quotedbl.tab" horiz-adv-x="530" 
d="M197 477l30 213q3 28 17.5 41.5t30.5 13.5q38 0 38 -39q0 -14 -7 -31l-89 -198h-20zM383 477l30 213q3 28 17.5 41.5t30.5 13.5q38 0 38 -39q0 -14 -7 -31l-89 -198h-20z" />
    <glyph glyph-name="quotesingle.tab" horiz-adv-x="265" 
d="M157 477l30 213q3 28 17.5 41.5t30.5 13.5q38 0 38 -39q0 -14 -7 -31l-89 -198h-20z" />
    <glyph glyph-name="plus.tab" horiz-adv-x="530" 
d="M361 515l-36 -151h156l-11 -48h-156l-39 -171h-50l39 171h-154l11 48h154l36 151h50z" />
    <glyph glyph-name="minus.tab" horiz-adv-x="530" 
d="M110 316l11 48h360l-11 -48h-360z" />
    <glyph glyph-name="divide.tab" horiz-adv-x="530" 
d="M110 316l11 48h360l-11 -48h-360zM331 448q-17 0 -29.5 13t-12.5 30t12.5 30t29.5 13q16 0 28.5 -13t12.5 -30t-12.5 -30t-28.5 -13zM260 146q-17 0 -29.5 13t-12.5 30t12.5 30t29.5 13q16 0 28.5 -13t12.5 -30t-12.5 -30t-28.5 -13z" />
    <glyph glyph-name="equal.tab" horiz-adv-x="530" 
d="M147 391l11 48h320l-11 -48h-320zM108 222l11 48h320l-11 -48h-320z" />
    <glyph glyph-name="multiply.tab" horiz-adv-x="530" 
d="M187 506l101 -129l147 119l32 -40l-148 -119l101 -129l-42 -34l-101 128l-147 -118l-32 40l147 119l-100 129z" />
    <glyph glyph-name="less.tab" horiz-adv-x="530" 
d="M349 137l-246 186l3 14l328 185l24 -38l-273 -157l195 -152z" />
    <glyph glyph-name="greater.tab" horiz-adv-x="530" 
d="M237 527l246 -186l-3 -14l-328 -185l-24 38l273 157l-195 152z" />
    <glyph glyph-name="plusminus.tab" horiz-adv-x="530" 
d="M372 568l-36 -156h156l-11 -48h-156l-36 -156h-50l36 156h-154l11 48h154l36 156h50zM53 76l11 48h359l-11 -48h-359z" />
    <glyph glyph-name="zero.idx_P2D" horiz-adv-x="1100" 
d="M550 792q134 0 247 -66t179 -179t66 -247t-66 -247t-179 -179t-247 -66t-247 66t-179 179t-66 247t66 247t179 179t247 66zM550 758q-189 0 -321 -134t-132 -324t132 -324t321 -134t321 134t132 324t-132 324t-321 134zM549 64q-78 0 -131 68t-53 174q0 108 53.5 175.5
t132.5 67.5q78 0 131 -68t53 -174q0 -108 -53.5 -175.5t-132.5 -67.5zM550 113q60 0 95.5 53.5t35.5 139.5q0 87 -35.5 140.5t-95.5 53.5q-59 0 -95 -53.5t-36 -139.5q0 -87 36 -140.5t95 -53.5z" />
    <glyph glyph-name="one.idx_P2D" horiz-adv-x="1100" 
d="M550 792q134 0 247 -66t179 -179t66 -247t-66 -247t-179 -179t-247 -66t-247 66t-179 179t-66 247t66 247t179 179t247 66zM550 758q-189 0 -321 -134t-132 -324t132 -324t321 -134t321 134t132 324t-132 324t-321 134zM686 73h-269v47h110v365l-104 -23l-11 47l142 33
h25v-422h107v-47z" />
    <glyph glyph-name="two.idx_P2D" horiz-adv-x="1100" 
d="M550 792q134 0 247 -66t179 -179t66 -247t-66 -247t-179 -179t-247 -66t-247 66t-179 179t-66 247t66 247t179 179t247 66zM550 758q-189 0 -321 -134t-132 -324t132 -324t321 -134t321 134t132 324t-132 324t-321 134zM403 439q0 23 15 46q18 28 54 46t83 18
q60 0 103.5 -36.5t43.5 -92.5q0 -52 -27.5 -84t-90.5 -76q-104 -72 -129 -142h208v73h47v-118h-305l-14 23q20 66 61.5 112.5t101.5 88.5q50 35 72 60.5t22 62.5q0 35 -28.5 58.5t-67.5 23.5q-54 0 -82 -26q-8 -6 -11 -15q23 -11 23 -34q0 -16 -11 -26.5t-26 -10.5
q-20 0 -31 13t-11 36z" />
    <glyph glyph-name="three.idx_P2D" horiz-adv-x="1100" 
d="M550 792q134 0 247 -66t179 -179t66 -247t-66 -247t-179 -179t-247 -66t-247 66t-179 179t-66 247t66 247t179 179t247 66zM550 758q-189 0 -321 -134t-132 -324t132 -324t321 -134t321 134t132 324t-132 324t-321 134zM393 166q0 18 11.5 31.5t27.5 13.5q15 0 25.5 -11
t10.5 -25q0 -19 -17 -29q10 -14 37 -23.5t58 -9.5q49 0 79.5 25t30.5 61q0 52 -53 77q-33 16 -87 16h-18v47h21q55 0 90 26q34 26 34 63q0 35 -26 53.5t-70 18.5q-59 0 -83 -27q18 -11 18 -29q0 -15 -11 -25.5t-26 -10.5t-27 12.5t-12 32.5q0 22 16 42q41 52 128 52
q62 0 104 -32.5t42 -85.5q0 -58 -53 -91q-23 -15 -50 -21q26 -4 50 -17q64 -35 64 -101q0 -58 -45.5 -95.5t-115.5 -37.5q-87 0 -132 50q-21 24 -21 50z" />
    <glyph glyph-name="four.idx_P2D" horiz-adv-x="1100" 
d="M550 792q134 0 247 -66t179 -179t66 -247t-66 -247t-179 -179t-247 -66t-247 66t-179 179t-66 247t66 247t179 179t247 66zM550 758q-189 0 -321 -134t-132 -324t132 -324t321 -134t321 134t132 324t-132 324t-321 134zM494 73v45h84v93h-215l-11 22l244 319l40 -29
l-208 -269h150v99l52 22v-121h79v-44h-79v-92h64v-45h-200z" />
    <glyph glyph-name="five.idx_P2D" horiz-adv-x="1100" 
d="M550 792q134 0 247 -66t179 -179t66 -247t-66 -247t-179 -179t-247 -66t-247 66t-179 179t-66 247t66 247t179 179t247 66zM550 758q-189 0 -321 -134t-132 -324t132 -324t321 -134t321 134t132 324t-132 324t-321 134zM547 64q-61 0 -108 26t-47 59q0 17 10.5 28.5
t28.5 11.5q15 0 25.5 -11t10.5 -25q0 -15 -9 -22q8 -8 34.5 -14t54.5 -6q49 0 77.5 31t28.5 80q0 43 -26.5 71t-77.5 28q-64 0 -114 -23l-23 12l23 230h242v-50h-199l-14 -133q34 12 91 12q66 0 108.5 -39.5t42.5 -106.5q0 -73 -45 -116t-114 -43z" />
    <glyph glyph-name="six.idx_P2D" horiz-adv-x="1100" 
d="M550 792q134 0 247 -66t179 -179t66 -247t-66 -247t-179 -179t-247 -66t-247 66t-179 179t-66 247t66 247t179 179t247 66zM550 758q-189 0 -321 -134t-132 -324t132 -324t321 -134t321 134t132 324t-132 324t-321 134zM656 428q-17 0 -27 10.5t-10 25.5q0 12 7 22
q-16 16 -53 16q-58 0 -97 -58t-41 -151q17 29 51 48.5t73 19.5q69 0 113.5 -42t44.5 -105t-45.5 -106.5t-114.5 -43.5q-72 0 -119 47q-54 54 -54 165q0 134 56.5 203.5t134.5 69.5q47 0 81 -22q37 -24 37 -59q0 -19 -10.5 -29.5t-26.5 -10.5zM443 214q0 -41 34 -72t81 -31
q45 0 75.5 29t30.5 73t-30.5 72.5t-77.5 28.5q-48 0 -80.5 -29t-32.5 -71z" />
    <glyph glyph-name="seven.idx_P2D" horiz-adv-x="1100" 
d="M550 792q134 0 247 -66t179 -179t66 -247t-66 -247t-179 -179t-247 -66t-247 66t-179 179t-66 247t66 247t179 179t247 66zM550 758q-189 0 -321 -134t-132 -324t132 -324t321 -134t321 134t132 324t-132 324t-321 134zM521 73h-55l195 422h-204v-76h-49v121h308l10 -21z
" />
    <glyph glyph-name="eight.idx_P2D" horiz-adv-x="1100" 
d="M550 792q134 0 247 -66t179 -179t66 -247t-66 -247t-179 -179t-247 -66t-247 66t-179 179t-66 247t66 247t179 179t247 66zM550 758q-189 0 -321 -134t-132 -324t132 -324t321 -134t321 134t132 324t-132 324t-321 134zM550 66q-72 0 -117.5 37t-45.5 96q0 41 28.5 74
t66.5 43q-37 12 -61 41.5t-24 63.5q0 58 44 92t109 34t108.5 -34t43.5 -92q0 -34 -24 -63.5t-61 -41.5q38 -10 66.5 -43t28.5 -74q0 -58 -45.5 -95.5t-116.5 -37.5zM550 336q41 0 70 24.5t29 58.5q0 35 -28 58.5t-71 23.5t-71.5 -23.5t-28.5 -58.5q0 -34 29.5 -58.5
t70.5 -24.5zM550 113q48 0 78.5 25t30.5 64q0 37 -32 63.5t-77 26.5q-46 0 -78 -26.5t-32 -63.5q0 -39 30.5 -64t79.5 -25z" />
    <glyph glyph-name="nine.idx_P2D" horiz-adv-x="1100" 
d="M550 792q134 0 247 -66t179 -179t66 -247t-66 -247t-179 -179t-247 -66t-247 66t-179 179t-66 247t66 247t179 179t247 66zM550 758q-189 0 -321 -134t-132 -324t132 -324t321 -134t321 134t132 324t-132 324t-321 134zM406 145q0 19 10.5 29.5t25.5 10.5
q16 0 26.5 -10.5t10.5 -25.5q0 -14 -7 -21q15 -17 58 -17q58 0 96.5 54.5t39.5 149.5q-17 -29 -51 -47.5t-73 -18.5q-69 0 -113 41t-44 107q0 65 45.5 108.5t114.5 43.5q71 0 117 -46q55 -55 55 -168q0 -136 -53.5 -203.5t-135.5 -67.5q-64 0 -102 38q-20 20 -20 43z
M658 395q0 45 -33 76q-34 32 -81 32q-45 0 -76 -29.5t-31 -74.5q0 -47 30.5 -75.5t78.5 -28.5q47 0 79.5 29t32.5 71z" />
    <glyph glyph-name="space.tab" horiz-adv-x="265" 
 />
    <glyph glyph-name="NUL" 
 />
    <glyph glyph-name="hfjslug" horiz-adv-x="694" 
d="M644 -200h-208l-8 14h-163l-8 -14h-207v303q14 0 23 9.5t9 22.5t-9.5 22.5t-22.5 9.5v554h100l30 79h334l29 -79h101v-921zM400 563v-172h15v78h38v14h-38v66h43v14h-58zM184 563v-172h15v79h47v-79h15v172h-15v-79h-47v79h-15zM460 394q10 -4 21 -4q31 0 31 36v137h-16
v-137q0 -22 -16 -22q-8 0 -20 5v-15zM371 465l-13 3q-4 -18 -8 -30h-1l-16 31q23 21 23 42q0 12 -7 21.5t-20 9.5q-12 0 -20 -9.5t-8 -21.5q0 -13 14 -39q-23 -18 -23 -47q0 -16 8 -26.5t21 -10.5q19 0 29 24h1l12 -24l12 6l-17 32q6 14 13 39zM523 323v-46h8v12l8 8l15 -20
h10l-20 26l18 20h-10l-20 -24h-1v24h-8zM488 292l10 -15h9l-12 17q10 4 10 14q0 15 -17 15h-20v-46h8v15h12zM426 276q10 0 17 7t7 17q0 9 -7 16.5t-17 7.5t-17 -7.5t-7 -16.5q0 -10 7 -17t17 -7zM370 301l-13 22h-9l18 -29v-17h8v17l18 29h-9zM193 323v-46h34v7h-26v13h23
v7h-23v12h26v7h-34zM132 323v-46h8v32l25 -32h7v46h-8v-32l-25 32h-7zM241 323l14 -47h8l11 34h1l11 -34h8l14 47h-8l-10 -35h-1l-11 35h-7l-11 -35h-1l-10 35h-8zM327 479q-12 22 -12 32q0 19 14 19q13 0 13 -19q0 -15 -15 -32zM342 423q-8 -21 -20 -21q-16 0 -16 25
q0 19 16 35zM487 299h-11v17h11q10 0 10 -8q0 -9 -10 -9zM426 283q-16 0 -16 17q0 6 4.5 11.5t11.5 5.5t11.5 -5.5t4.5 -11.5q0 -17 -16 -17z" />
    <glyph glyph-name="i.dot" horiz-adv-x="282" 
d="M201 512q-18 0 -30.5 13t-12.5 31t12.5 31t30.5 13q17 0 29.5 -13t12.5 -31t-12.5 -31t-29.5 -13zM142 -6q-33 0 -54.5 20t-21.5 51q0 17 8 45l74 264h-84l12 46h137l-88 -315q-7 -25 -7 -40t8.5 -24t22.5 -9q31 0 58 66l31 -10q-32 -94 -96 -94z" />
    <glyph glyph-name="zero.num" horiz-adv-x="353" 
d="M180 274q-52 0 -81.5 37t-29.5 100q0 95 46.5 166t117.5 71q52 0 81.5 -37t29.5 -100q0 -95 -46.5 -166t-117.5 -71zM183 313q49 0 82.5 61t33.5 134q0 101 -69 101q-49 0 -82.5 -61t-33.5 -134q0 -101 69 -101z" />
    <glyph glyph-name="one.num" horiz-adv-x="353" 
d="M53 280l9 39h102l65 279l-103 -20v40l135 29l20 -10l-73 -318h100l-9 -39h-246z" />
    <glyph glyph-name="two.num" horiz-adv-x="353" 
d="M52 280l-8 20q22 54 61.5 91t106.5 73q47 25 68 46t21 47q0 23 -18.5 37.5t-48.5 14.5q-55 0 -74 -28q12 -12 12 -25t-8.5 -21.5t-21.5 -8.5q-14 0 -22.5 9.5t-8.5 25.5q0 31 35.5 59.5t90.5 28.5q49 0 79.5 -25.5t30.5 -66.5q0 -39 -28.5 -66t-89.5 -60
q-99 -55 -129 -114h159l13 57h39l-21 -94h-238z" />
    <glyph glyph-name="three.num" horiz-adv-x="353" 
d="M180 275q-48 0 -83 23t-35 55q0 14 9 24.5t22 10.5q12 0 20 -8t8 -20q0 -15 -14 -22q19 -25 75 -25q40 0 64 19t24 49q0 27 -27 47t-68 20h-14l9 39h15q50 0 79.5 19t29.5 48q0 27 -21 41t-53 14q-39 0 -53 -17q10 -5 10 -18q0 -12 -8.5 -20t-20.5 -8q-13 0 -21.5 9
t-8.5 24q0 27 30.5 48t80.5 21q48 0 79.5 -25.5t31.5 -64.5t-29 -63t-73 -30q35 -9 56 -31.5t21 -53.5q0 -48 -39.5 -76.5t-95.5 -28.5z" />
    <glyph glyph-name="four.num" horiz-adv-x="353" 
d="M206 315l17 71h-166l-5 19l241 247l27 -25l-205 -207h117l19 77l44 17l-21 -92h61l-9 -36h-61l-16 -71h49l-8 -35h-156l8 35h64z" />
    <glyph glyph-name="five.num" horiz-adv-x="353" 
d="M164 273q-42 0 -74.5 20t-32.5 46q0 14 8.5 23.5t21.5 9.5q12 0 20 -7.5t8 -19.5q0 -10 -7 -17q19 -17 60 -17q45 0 76 28t31 65q0 31 -18.5 48.5t-53.5 17.5q-42 0 -79 -17l-21 16l56 173h191l-9 -41h-156l-35 -107q32 13 67 13q43 0 72.5 -27t29.5 -72q0 -54 -45 -94.5
t-110 -40.5z" />
    <glyph glyph-name="six.num" horiz-adv-x="353" 
d="M110 305q-35 35 -35 100q0 56 21.5 109.5t58.5 87.5q50 47 109 47q38 0 64.5 -19t26.5 -44q0 -14 -9 -23.5t-22 -9.5q-11 0 -19.5 8t-8.5 20q0 11 9 19q-12 12 -40 12q-44 0 -82 -36q-48 -45 -63 -124q40 56 103 56q48 0 78 -28.5t30 -71.5q0 -54 -41 -94.5t-98 -40.5
q-50 0 -82 32zM193 312q39 0 66 27.5t27 65.5q0 29 -19.5 47.5t-51.5 18.5q-38 0 -66.5 -28t-28.5 -62q0 -29 20 -49t53 -20z" />
    <glyph glyph-name="seven.num" horiz-adv-x="353" 
d="M104 280l220 325h-162l-14 -61h-41l24 98h241l10 -20l-228 -342h-50z" />
    <glyph glyph-name="eight.num" horiz-adv-x="353" 
d="M192 274q-55 0 -90.5 29t-35.5 69t28 68t68 34q-50 23 -50 74q0 39 35 69t91 30q50 0 83 -26t33 -68q0 -34 -23.5 -58t-61.5 -33q55 -24 55 -79q0 -46 -37 -77.5t-95 -31.5zM229 485q34 0 57 19t23 47q0 25 -20 41.5t-53 16.5t-56 -18t-23 -46q0 -26 21 -43t51 -17z
M191 313q37 0 62.5 20.5t25.5 50.5q0 28 -22 46.5t-57 18.5q-39 0 -64 -20.5t-25 -51.5q0 -27 22 -45.5t58 -18.5z" />
    <glyph glyph-name="nine.num" horiz-adv-x="353" 
d="M93 514q0 54 41 94.5t98 40.5q50 0 82 -32q35 -35 35 -100q0 -56 -21.5 -109.5t-58.5 -87.5q-50 -47 -109 -47q-38 0 -64.5 19t-26.5 44q0 14 9 23.5t22 9.5q11 0 19.5 -8t8.5 -20q0 -11 -9 -19q12 -12 40 -12q44 0 82 36q49 47 63 123q-40 -55 -103 -55q-48 0 -78 28.5
t-30 71.5zM231 610q-39 0 -66 -27.5t-27 -65.5q0 -29 19.5 -47.5t51.5 -18.5q38 0 66.5 28t28.5 62q0 29 -20 49t-53 20z" />
    <glyph glyph-name="zero.den" horiz-adv-x="353" 
d="M115 -6q-52 0 -81.5 37t-29.5 100q0 95 46.5 166t117.5 71q52 0 81.5 -37t29.5 -100q0 -95 -46.5 -166t-117.5 -71zM118 33q49 0 82.5 61t33.5 134q0 101 -69 101q-49 0 -82.5 -61t-33.5 -134q0 -101 69 -101z" />
    <glyph glyph-name="one.den" horiz-adv-x="353" 
d="M-12 0l9 39h102l65 279l-103 -20v40l135 29l20 -10l-73 -318h100l-9 -39h-246z" />
    <glyph glyph-name="two.den" horiz-adv-x="353" 
d="M-13 0l-8 20q22 54 61.5 91t106.5 73q47 25 68 46t21 47q0 23 -18.5 37.5t-48.5 14.5q-55 0 -74 -28q12 -12 12 -25t-8.5 -21.5t-21.5 -8.5q-14 0 -22.5 9.5t-8.5 25.5q0 31 35.5 59.5t90.5 28.5q49 0 79.5 -25.5t30.5 -66.5q0 -39 -28.5 -66t-89.5 -60
q-99 -55 -129 -114h159l13 57h39l-21 -94h-238z" />
    <glyph glyph-name="three.den" horiz-adv-x="353" 
d="M115 -5q-49 0 -83.5 23t-34.5 55q0 14 9 24.5t22 10.5q12 0 20 -8t8 -20q0 -15 -14 -22q19 -25 75 -25q40 0 64 19t24 49q0 27 -27 47t-68 20h-14l9 39h15q50 0 79.5 19t29.5 48q0 27 -21 41t-53 14q-39 0 -53 -17q10 -5 10 -18q0 -12 -8.5 -20t-20.5 -8q-13 0 -21.5 9
t-8.5 24q0 27 30.5 48t80.5 21q48 0 79.5 -25.5t31.5 -64.5t-29 -63t-73 -30q35 -9 56 -31.5t21 -53.5q0 -48 -39.5 -76.5t-95.5 -28.5z" />
    <glyph glyph-name="four.den" horiz-adv-x="353" 
d="M141 35l17 71h-166l-5 19l241 247l27 -25l-205 -207h117l19 77l44 17l-21 -92h61l-9 -36h-61l-16 -71h49l-8 -35h-156l8 35h64z" />
    <glyph glyph-name="five.den" horiz-adv-x="353" 
d="M99 -7q-42 0 -74.5 20t-32.5 46q0 14 8.5 23.5t21.5 9.5q12 0 20 -7.5t8 -19.5q0 -10 -7 -17q19 -17 60 -17q45 0 76 28t31 65q0 31 -18.5 48.5t-53.5 17.5q-42 0 -79 -17l-21 16l56 173h191l-9 -41h-156l-35 -107q32 13 67 13q43 0 72.5 -27t29.5 -72q0 -54 -45 -94.5
t-110 -40.5z" />
    <glyph glyph-name="six.den" horiz-adv-x="353" 
d="M45 25q-35 35 -35 100q0 56 21.5 109.5t58.5 87.5q50 47 109 47q38 0 64.5 -19t26.5 -44q0 -14 -9 -23.5t-22 -9.5q-11 0 -19.5 8t-8.5 20q0 11 9 19q-12 12 -40 12q-44 0 -82 -36q-48 -45 -63 -124q40 56 103 56q48 0 78 -28.5t30 -71.5q0 -54 -41 -94.5t-98 -40.5
q-50 0 -82 32zM128 32q39 0 66 27.5t27 65.5q0 29 -19.5 47.5t-51.5 18.5q-38 0 -66.5 -28t-28.5 -62q0 -29 20 -49t53 -20z" />
    <glyph glyph-name="seven.den" horiz-adv-x="353" 
d="M39 0l220 325h-162l-14 -61h-41l24 98h241l10 -20l-228 -342h-50z" />
    <glyph glyph-name="eight.den" horiz-adv-x="353" 
d="M127 -6q-55 0 -90.5 29t-35.5 69t28 68t68 34q-50 23 -50 74q0 39 35 69t91 30q50 0 83 -26t33 -68q0 -34 -23.5 -58t-61.5 -33q55 -24 55 -79q0 -46 -37 -77.5t-95 -31.5zM164 205q34 0 57 19t23 47q0 25 -20 41.5t-53 16.5t-56 -18t-23 -46q0 -26 21 -43t51 -17z
M126 33q37 0 62.5 20.5t25.5 50.5q0 28 -22 46.5t-57 18.5q-39 0 -64 -20.5t-25 -51.5q0 -27 22 -45.5t58 -18.5z" />
    <glyph glyph-name="nine.den" horiz-adv-x="353" 
d="M28 234q0 54 41 94.5t98 40.5q50 0 82 -32q35 -35 35 -100q0 -56 -21.5 -109.5t-58.5 -87.5q-50 -47 -109 -47q-38 0 -64.5 19t-26.5 44q0 14 9 23.5t22 9.5q11 0 19.5 -8t8.5 -20q0 -11 -9 -19q12 -12 40 -12q44 0 82 36q49 47 63 123q-40 -55 -103 -55q-48 0 -78 28.5
t-30 71.5zM166 330q-39 0 -66 -27.5t-27 -65.5q0 -29 19.5 -47.5t51.5 -18.5q38 0 66.5 28t28.5 62q0 29 -20 49t-53 20z" />
    <glyph glyph-name="caron.alt" horiz-adv-x="500" 
d="M189 514l-15 16q47 51 59 96q3 13 4 35t2 29q5 38 38 38t33 -34q0 -38 -31 -86q-29 -45 -90 -94z" />
    <glyph glyph-name="g.sc" 
 />
    <glyph glyph-name="gbreve.sc" 
 />
    <glyph glyph-name="i.sc" 
 />
    <glyph glyph-name="iacute.sc" 
 />
    <glyph glyph-name="ibreve.sc" 
 />
    <glyph glyph-name="icircumflex.sc" 
 />
    <glyph glyph-name="idieresis.sc" 
 />
    <glyph glyph-name="igrave.sc" 
 />
    <glyph glyph-name="imacron.sc" 
 />
    <glyph glyph-name="iogonek.sc" 
 />
    <glyph glyph-name="S.sc" 
 />
    <glyph glyph-name="Sacute.sc" 
 />
    <glyph glyph-name="Aring.sc" 
 />
    <glyph glyph-name="Aringacute.sc" 
 />
    <glyph glyph-name="E.sc" 
 />
    <glyph glyph-name="Eacute.sc" 
 />
    <glyph glyph-name="Ebreve.sc" 
 />
    <glyph glyph-name="Ecircumflex.sc" 
 />
    <glyph glyph-name="Edieresis.sc" 
 />
    <glyph glyph-name="Egrave.sc" 
 />
    <glyph glyph-name="Emacron.sc" 
 />
    <glyph glyph-name="Eogonek.sc" 
 />
    <glyph glyph-name="N.sc" 
 />
    <glyph glyph-name="Nacute.sc" 
 />
    <glyph glyph-name="Ntilde.sc" 
 />
    <glyph glyph-name="a.sc" 
 />
    <glyph glyph-name="aogonek.sc" 
 />
    <glyph glyph-name="L.sc" 
 />
    <glyph glyph-name="Lacute.sc" 
 />
    <glyph glyph-name="s.sc" 
 />
    <glyph glyph-name="sacute.sc" 
 />
    <glyph glyph-name="aring.sc" 
 />
    <glyph glyph-name="aringacute.sc" 
 />
    <glyph glyph-name="C.sc" 
 />
    <glyph glyph-name="Cacute.sc" 
 />
    <glyph glyph-name="e.sc" 
 />
    <glyph glyph-name="eacute.sc" 
 />
    <glyph glyph-name="ebreve.sc" 
 />
    <glyph glyph-name="ecircumflex.sc" 
 />
    <glyph glyph-name="edieresis.sc" 
 />
    <glyph glyph-name="egrave.sc" 
 />
    <glyph glyph-name="emacron.sc" 
 />
    <glyph glyph-name="eogonek.sc" 
 />
    <glyph glyph-name="n.sc" 
 />
    <glyph glyph-name="nacute.sc" 
 />
    <glyph glyph-name="ntilde.sc" 
 />
    <glyph glyph-name="l.sc" 
 />
    <glyph glyph-name="lacute.sc" 
 />
    <glyph glyph-name="c.sc" 
 />
    <glyph glyph-name="cacute.sc" 
 />
    <glyph glyph-name="R.sc" 
 />
    <glyph glyph-name="Racute.sc" 
 />
    <glyph glyph-name="G.sc" 
 />
    <glyph glyph-name="Gbreve.sc" 
 />
    <glyph glyph-name="I.sc" 
 />
    <glyph glyph-name="Iacute.sc" 
 />
    <glyph glyph-name="Ibreve.sc" 
 />
    <glyph glyph-name="Icircumflex.sc" 
 />
    <glyph glyph-name="Idieresis.sc" 
 />
    <glyph glyph-name="Igrave.sc" 
 />
    <glyph glyph-name="Imacron.sc" 
 />
    <glyph glyph-name="Iogonek.sc" 
 />
    <glyph glyph-name="r.sc" 
 />
    <glyph glyph-name="racute.sc" 
 />
    <glyph glyph-name="A.sc" 
 />
    <glyph glyph-name="Aogonek.sc" 
 />
    </font>
</defs>
</svg>
