<?xml version="1.0" standalone="no"?>
<!DOCTYPE svg PUBLIC "-//W3C//DTD SVG 1.1//EN" "http://www.w3.org/Graphics/SVG/1.1/DTD/svg11.dtd" >
<svg>
<metadata>
Created by FontForge 20110222 at Fri May  9 16:44:55 2014
 By Orthosie Webhosting
Copyright (C) 2000, 2007 Hoefler &#38; Frere-Jones. http://www.typography.com
</metadata>
<defs>
<font id="ArcherBook" horiz-adv-x="610" >
  <font-face 
    font-family="ArcherBook"
    font-weight="325"
    font-stretch="normal"
    units-per-em="1000"
    panose-1="2 0 0 0 0 0 0 0 0 0"
    ascent="800"
    descent="-200"
    x-height="420"
    cap-height="658"
    bbox="-53 -262 1411 1022"
    underline-thickness="50"
    underline-position="-50"
    unicode-range="U+0020-FB04"
  />
<missing-glyph horiz-adv-x="500" 
d="M0 -200v1000h500v-1000h-500zM71 750l179 -390l179 390h-358zM50 -76l172 376l-172 376v-752zM450 676l-172 -376l172 -376v752zM250 240l-179 -390h358z" />
    <glyph glyph-name="f_f" unicode="ff" horiz-adv-x="594" 
d="M169 420h236v147q0 97 40 137q36 36 87 36q31 0 50.5 -13t19.5 -37q0 -17 -10.5 -28t-26.5 -11q-36 0 -46 41q-24 -3 -38 -20q-25 -28 -25 -89v-163h109v-46h-109v-328h82v-46h-203v46h70v328h-236v-328h82v-46h-203v46h70v328h-76v46h76v127q0 97 40 137q36 36 87 36
q31 0 50.5 -13t19.5 -37q0 -17 -10.5 -28t-26.5 -11q-35 0 -46 42q-22 -3 -37 -20q-26 -28 -26 -90v-143z" />
    <glyph glyph-name="fi" unicode="fi" horiz-adv-x="551" 
d="M441 420v-374h75v-46h-198v46h72v328h-221v-328h80v-46h-201v46h70v328h-76v46h76v132q0 106 52 152q39 36 95 36q41 0 66.5 -19.5t25.5 -46.5q0 -18 -11 -29.5t-29 -11.5q-19 0 -30.5 16.5t-8.5 37.5q-10 5 -22 5q-31 0 -57 -30q-30 -35 -30 -94v-148h272z" />
    <glyph glyph-name="fl" unicode="fl" horiz-adv-x="560" 
d="M325 46h74v328h-230v-328h82v-46h-203v46h70v328h-76v46h76v135q0 90 49 139q46 46 122 46q71 0 113 -44l19 40h29v-690h75v-46h-200v46zM284 694q-48 0 -80 -32q-35 -35 -35 -103v-139h230v139q0 10 -1 15q-15 2 -25 14.5t-10 28.5q0 17 12 31q-4 7 -11 14
q-32 32 -80 32z" />
    <glyph glyph-name="f_f_i" unicode="ffi" horiz-adv-x="832" 
d="M638 674q0 -18 -11 -29.5t-29 -11.5q-19 0 -30.5 16.5t-8.5 37.5q-10 5 -21 5q-29 0 -54 -25q-34 -36 -34 -99v-148h272v-374h75v-46h-198v46h72v328h-221v-328h80v-46h-201v46h70v328h-230v-328h82v-46h-203v46h70v328h-76v46h76v129q0 86 43 130q41 41 104 41
q34 0 61 -11q49 -20 49 -61q0 -38 -36 -38q-21 0 -33 17t-9 41q-19 7 -34 7q-46 0 -71 -33q-23 -33 -23 -93v-129h230v132q0 106 52 152q39 36 95 36q41 0 66.5 -19.5t25.5 -46.5z" />
    <glyph glyph-name="f_f_l" unicode="ffl" horiz-adv-x="841" 
d="M169 549v-129h230v135q0 90 49 139q46 46 122 46q69 0 113 -44l19 40h29v-690h75v-46h-200v46h74v328h-230v-328h82v-46h-203v46h70v328h-230v-328h82v-46h-203v46h70v328h-76v46h76v129q0 86 43 130q41 41 104 41q34 0 61 -11q49 -20 49 -61q0 -38 -36 -38q-21 0 -33 17
t-9 41q-19 7 -34 7q-46 0 -71 -33q-23 -33 -23 -93zM450 559v-139h230v139q0 10 -1 15q-15 2 -25 14.5t-10 28.5q0 17 12 31q-5 7 -11 14q-32 32 -80 32t-80 -32q-35 -35 -35 -103z" />
    <glyph glyph-name="f_b" unicode="fb" horiz-adv-x="857" 
d="M399 0v374h-230v-328h82v-46h-203v46h70v328h-76v46h76v135q0 90 49 139q46 46 122 46q71 0 113 -44l19 40h29v-375q67 67 153 67q84 0 144 -61.5t60 -157.5q0 -92 -60.5 -154.5t-155.5 -62.5q-83 0 -143 53l-20 -45h-29zM593 38q69 0 114.5 48t45.5 123q0 76 -44 124.5
t-112 48.5q-83 0 -147 -71v-221q63 -52 143 -52zM363 617q0 17 12 31q-4 7 -11 14q-32 32 -80 32t-80 -32q-35 -35 -35 -103v-139h230v139q0 10 -1 15q-15 2 -25 14.5t-10 28.5z" />
    <glyph glyph-name="f_h" unicode="fh" horiz-adv-x="848" 
d="M399 46v328h-230v-328h82v-46h-203v46h70v328h-76v46h76v135q0 90 49 139q46 46 122 46q71 0 113 -44l19 40h29v-397q32 40 75 64.5t86 24.5q74 0 109 -45q28 -37 28 -98v-239h70v-46h-191v46h70v232q0 48 -21 73q-23 29 -74 29q-82 0 -152 -86v-248h70v-46h-191v46h70z
M363 617q0 17 12 31q-4 7 -11 14q-32 32 -80 32t-80 -32q-35 -35 -35 -103v-139h230v139q0 10 -1 15q-15 2 -25 14.5t-10 28.5z" />
    <glyph glyph-name="f_j" unicode="fj" horiz-adv-x="522" 
d="M390 374h-221v-328h80v-46h-201v46h70v328h-76v46h76v132q0 106 52 152q39 36 95 36q41 0 66.5 -19.5t25.5 -46.5q0 -18 -11 -29.5t-29 -11.5q-19 0 -30.5 16.5t-8.5 37.5q-10 5 -22 5q-31 0 -57 -30q-30 -35 -30 -94v-148h272v-409q0 -71 -16 -121q-30 -90 -115 -90
q-37 0 -60 17t-23 42q0 16 10.5 28.5t27.5 12.5q16 0 25.5 -10t9.5 -26q0 -11 -4 -20q6 -2 17 -2q48 0 66 65q11 38 11 96v371z" />
    <glyph glyph-name="f_k" unicode="fk" horiz-adv-x="807" 
d="M450 736v-534l200 174h-93v44h233v-46h-73l-149 -128l141 -200h81v-46h-109l-150 219l-81 -69v-104h75v-46h-196v46h70v328h-230v-328h82v-46h-203v46h70v328h-76v46h76v135q0 90 49 139q46 46 122 46q71 0 113 -44l19 40h29zM169 559v-139h230v139q0 10 -1 15
q-15 2 -25 14.5t-10 28.5q0 17 12 31q-4 7 -11 14q-32 32 -80 32t-80 -32q-35 -35 -35 -103z" />
    <glyph glyph-name="f_f_b" unicode="ffb" horiz-adv-x="1138" 
d="M680 0v374h-230v-328h82v-46h-203v46h70v328h-230v-328h82v-46h-203v46h70v328h-76v46h76v129q0 86 43 130q41 41 104 41q34 0 61 -11q49 -20 49 -61q0 -38 -36 -38q-21 0 -33 17t-9 41q-19 7 -34 7q-46 0 -71 -33q-23 -33 -23 -93v-129h230v135q0 90 49 139
q46 46 122 46q69 0 113 -44l19 40h29v-375q67 67 153 67q84 0 144 -61.5t60 -157.5q0 -92 -60.5 -154.5t-155.5 -62.5q-83 0 -143 53l-20 -45h-29zM874 38q69 0 114.5 48t45.5 123q0 76 -44 124.5t-112 48.5q-83 0 -147 -71v-221q63 -52 143 -52zM644 617q0 17 12 31
q-5 7 -11 14q-32 32 -80 32t-80 -32q-35 -35 -35 -103v-139h230v139q0 10 -1 15q-15 2 -25 14.5t-10 28.5z" />
    <glyph glyph-name="f_f_h" unicode="ffh" horiz-adv-x="1129" 
d="M731 736v-397q32 40 75 64.5t86 24.5q74 0 109 -45q28 -37 28 -98v-239h70v-46h-191v46h70v232q0 48 -21 73q-23 29 -74 29q-82 0 -152 -86v-248h70v-46h-191v46h70v328h-230v-328h82v-46h-203v46h70v328h-230v-328h82v-46h-203v46h70v328h-76v46h76v129q0 86 43 130
q41 41 104 41q34 0 61 -11q49 -20 49 -61q0 -38 -36 -38q-21 0 -33 17t-9 41q-19 7 -34 7q-46 0 -71 -33q-23 -33 -23 -93v-129h230v135q0 90 49 139q46 46 122 46q69 0 113 -44l19 40h29zM450 559v-139h230v139q0 10 -1 15q-15 2 -25 14.5t-10 28.5q0 17 12 31q-5 7 -11 14
q-32 32 -80 32t-80 -32q-35 -35 -35 -103z" />
    <glyph glyph-name="f_f_j" unicode="ffj" horiz-adv-x="803" 
d="M722 420v-409q0 -71 -16 -121q-30 -90 -115 -90q-37 0 -60 17t-23 42q0 16 10.5 28.5t27.5 12.5q16 0 25.5 -10t9.5 -26q0 -11 -4 -20q6 -2 17 -2q48 0 66 65q11 38 11 96v371h-221v-328h80v-46h-201v46h70v328h-230v-328h82v-46h-203v46h70v328h-76v46h76v129
q0 86 43 130q41 41 104 41q34 0 61 -11q49 -20 49 -61q0 -38 -36 -38q-21 0 -33 17t-9 41q-19 7 -34 7q-46 0 -71 -33q-23 -33 -23 -93v-129h230v132q0 106 52 152q39 36 95 36q41 0 66.5 -19.5t25.5 -46.5q0 -18 -11 -29.5t-29 -11.5q-19 0 -30.5 16.5t-8.5 37.5
q-10 5 -21 5q-29 0 -54 -25q-34 -36 -34 -99v-148h272z" />
    <glyph glyph-name="f_f_k" unicode="ffk" horiz-adv-x="1088" 
d="M731 736v-534l200 174h-93v44h233v-46h-73l-149 -128l141 -200h81v-46h-109l-150 219l-81 -69v-104h75v-46h-196v46h70v328h-230v-328h82v-46h-203v46h70v328h-230v-328h82v-46h-203v46h70v328h-76v46h76v129q0 86 43 130q41 41 104 41q34 0 61 -11q49 -20 49 -61
q0 -38 -36 -38q-21 0 -33 17t-9 41q-19 7 -34 7q-46 0 -71 -33q-23 -33 -23 -93v-129h230v135q0 90 49 139q46 46 122 46q69 0 113 -44l19 40h29zM450 559v-139h230v139q0 10 -1 15q-15 2 -25 14.5t-10 28.5q0 17 12 31q-5 7 -11 14q-32 32 -80 32t-80 -32q-35 -35 -35 -103
z" />
    <glyph glyph-name=".notdef" horiz-adv-x="500" 
d="M0 -200v1000h500v-1000h-500zM71 750l179 -390l179 390h-358zM50 -76l172 376l-172 376v-752zM450 676l-172 -376l172 -376v752zM250 240l-179 -390h358z" />
    <glyph glyph-name=".null" horiz-adv-x="0" 
 />
    <glyph glyph-name="nonmarkingreturn" horiz-adv-x="333" 
 />
    <glyph glyph-name="space" unicode=" " horiz-adv-x="230" 
 />
    <glyph glyph-name="exclam" unicode="!" horiz-adv-x="244" 
d="M108 174l-20 483h68l-20 -483h-28zM122 -8q-21 0 -35.5 15t-14.5 36t14.5 36.5t35.5 15.5t35.5 -15.5t14.5 -36.5t-14.5 -36t-35.5 -15z" />
    <glyph glyph-name="quotedbl" unicode="&#x22;" horiz-adv-x="299" 
d="M214 440l-29 169q-5 27 6.5 44t32.5 17q22 0 33 -16.5t6 -44.5l-30 -169h-19zM64 440l-29 169q-5 27 6.5 44t32.5 17q22 0 33 -16.5t6 -44.5l-30 -169h-19z" />
    <glyph glyph-name="numbersign" unicode="#" horiz-adv-x="491" 
d="M44 328v46h105l20 127h46l-20 -127h138l20 127h46l-20 -127h99v-46h-106l-24 -152h99v-46h-106l-20 -130h-46l20 130h-138l-20 -130h-46l20 130h-98v46h105l24 152h-98zM188 328l-24 -152h138l24 152h-138z" />
    <glyph glyph-name="dollar" unicode="$" horiz-adv-x="435" 
d="M269 569l-5 -70q54 -7 89 -31t35 -54q0 -18 -10 -29t-26 -11q-17 0 -28.5 11t-11.5 28q0 13 7 26q-13 10 -61 17l-13 -177q70 -25 107.5 -56.5t37.5 -88.5q0 -65 -47 -98.5t-117 -35.5l-8 -105l-44 3l7 104q-61 6 -102 31.5t-41 64.5q0 17 11 29t27 12q18 0 28.5 -10.5
t10.5 -26.5q0 -14 -9 -29q19 -23 82 -29l14 199q-67 22 -103 50.5t-36 81.5q0 55 45 89.5t112 36.5l5 71zM340 135q0 34 -25.5 55.5t-73.5 38.5l-13 -187q49 2 80.5 25.5t31.5 67.5zM113 375q0 -29 24 -47.5t69 -34.5l12 166q-47 -2 -76 -23.5t-29 -60.5z" />
    <glyph glyph-name="percent" unicode="%" horiz-adv-x="622" 
d="M166 274q-48 0 -81.5 34.5t-33.5 83.5t33.5 83.5t81.5 34.5t81.5 -34.5t33.5 -83.5t-33.5 -83.5t-81.5 -34.5zM456 228q48 0 81.5 -34.5t33.5 -83.5t-33.5 -83.5t-81.5 -34.5t-81.5 34.5t-33.5 83.5t33.5 83.5t81.5 34.5zM130 -25l-33 26l193 252q177 230 193 253l34 -25
l-195 -255zM166 315q30 0 50.5 22.5t20.5 54.5t-20.5 54.5t-50.5 22.5t-50.5 -22.5t-20.5 -54.5t20.5 -54.5t50.5 -22.5zM456 187q-30 0 -50.5 -22.5t-20.5 -54.5t20.5 -54.5t50.5 -22.5t50.5 22.5t20.5 54.5t-20.5 54.5t-50.5 22.5z" />
    <glyph glyph-name="ampersand" unicode="&#x26;" horiz-adv-x="596" 
d="M573 264h-60q-28 -83 -65 -139q86 -83 112 -103l-34 -35q-35 30 -107 99q-82 -94 -209 -94q-86 0 -133.5 46t-47.5 109q0 57 32.5 99t105.5 89q-39 46 -52 75.5t-13 66.5q0 55 40 100t108 45q54 0 91.5 -34.5t37.5 -86.5q0 -42 -30 -81.5t-110 -91.5q22 -25 73 -72
q48 -47 103 -99q30 46 52 107h-58v46h164v-46zM210 40q103 0 175 79l-107 103q-33 31 -81 79q-63 -41 -88 -75.5t-25 -79.5q0 -43 33 -74.5t93 -31.5zM155 475q0 -49 54 -114q72 46 94.5 76.5t22.5 63.5t-21.5 54t-54.5 21q-42 0 -68.5 -28.5t-26.5 -72.5z" />
    <glyph glyph-name="quotesingle" unicode="'" horiz-adv-x="149" 
d="M64 440l-29 169q-5 27 6.5 44t32.5 17q22 0 33 -16.5t6 -44.5l-30 -169h-19z" />
    <glyph glyph-name="parenleft" unicode="(" horiz-adv-x="330" 
d="M334 -226q-130 78 -198 208.5t-68 277.5t68 277.5t198 208.5l29 -41q-115 -70 -177.5 -190.5t-62.5 -254.5q0 -133 62.5 -254t177.5 -191z" />
    <glyph glyph-name="parenright" unicode=")" horiz-adv-x="330" 
d="M-4 -226l-29 41q115 70 177.5 190.5t62.5 254.5q0 133 -62.5 254t-177.5 191l29 41q130 -78 198 -208.5t68 -277.5t-68 -277.5t-198 -208.5z" />
    <glyph glyph-name="asterisk" unicode="*" horiz-adv-x="380" 
d="M307 549l-101 -10l73 -68q16 -14 16.5 -31t-12.5 -25q-13 -10 -28.5 -4.5t-23.5 24.5l-41 94l-41 -94q-8 -19 -23.5 -24.5t-28.5 4.5q-13 8 -12.5 25t16.5 31l73 68l-101 10q-20 2 -29.5 15.5t-4.5 28.5q5 14 21 18.5t33 -5.5l88 -48l-21 98q-4 20 5 33.5t25 13.5
t25 -13.5t5 -33.5l-21 -98l88 48q17 10 33 5.5t21 -18.5q5 -15 -4.5 -28.5t-29.5 -15.5z" />
    <glyph glyph-name="plus" unicode="+" horiz-adv-x="394" 
d="M172 105v136h-135v48h135v136h50v-136h135v-48h-135v-136h-50z" />
    <glyph glyph-name="comma" unicode="," horiz-adv-x="184" 
d="M12 -141l-13 21q84 61 86 118q-18 2 -32.5 17.5t-14.5 33.5q0 21 15 35.5t35 14.5q24 0 40 -18t16 -50q0 -44 -32 -90.5t-100 -81.5z" />
    <glyph glyph-name="hyphen" unicode="-" horiz-adv-x="274" 
d="M32 250v52h210v-52h-210z" />
    <glyph glyph-name="period" unicode="." horiz-adv-x="184" 
d="M92 -8q-22 0 -37 15.5t-15 38.5t15 38.5t37 15.5t37 -15.5t15 -38.5t-15 -38.5t-37 -15.5z" />
    <glyph glyph-name="slash" unicode="/" horiz-adv-x="445" 
d="M14 -207l-48 21l410 926l48 -21z" />
    <glyph glyph-name="zero" unicode="0" horiz-adv-x="542" 
d="M271 -8q-97 0 -159.5 74t-62.5 185q0 112 62 185t160 73q96 0 159 -73.5t63 -184.5q0 -112 -62.5 -185.5t-159.5 -73.5zM271 40q75 0 121 59t46 152q0 92 -46.5 151t-120.5 59t-120.5 -58.5t-46.5 -151.5t46.5 -152t120.5 -59z" />
    <glyph glyph-name="one" unicode="1" horiz-adv-x="397" 
d="M65 0v46h120v398l-109 -29l-12 46l153 43h21v-458h118v-46h-291z" />
    <glyph glyph-name="two" unicode="2" horiz-adv-x="480" 
d="M225 461q-69 0 -106 -44q-6 -8 -8 -12q12 -3 21 -13.5t9 -23.5q0 -17 -11.5 -29.5t-28.5 -12.5q-20 0 -32.5 15t-12.5 39q0 25 18 53q22 33 64 54.5t91 21.5q83 0 128.5 -42t45.5 -102q0 -29 -11 -54t-35.5 -48.5t-44 -37.5t-56.5 -39q-54 -35 -90.5 -66.5t-60.5 -73.5
h266v88h49v-134h-375l-4 26q14 34 34.5 63t49 54.5t51.5 42t59 40.5q41 28 60.5 43t37.5 41t18 55q0 43 -33.5 69.5t-92.5 26.5z" />
    <glyph glyph-name="three" unicode="3" horiz-adv-x="487" 
d="M43 1q0 22 14 37.5t33 15.5q17 0 27.5 -11t10.5 -26q0 -31 -30 -40q3 -7 12 -16q39 -37 121 -37q67 0 110 35.5t43 87.5q0 75 -77 111q-49 23 -117 23h-19v47h22q65 0 118 32q64 39 64 95q0 49 -36.5 76.5t-99.5 27.5q-78 0 -113 -40q-8 -10 -9 -14q13 -3 22 -14.5
t9 -22.5q0 -17 -12 -27.5t-28 -10.5q-18 0 -31.5 15t-13.5 37q0 26 18 53q22 33 64.5 53.5t97.5 20.5q81 0 132 -45t51 -109q0 -37 -23.5 -71t-60.5 -55q-32 -18 -65 -22q25 -3 62 -19q44 -21 70 -57t26 -81q0 -78 -59 -126.5t-146 -48.5q-55 0 -101 20t-69 53
q-17 25 -17 53z" />
    <glyph glyph-name="four" unicode="4" horiz-adv-x="491" 
d="M307 -120v183h-286l-8 19l316 426l40 -29l-274 -370h212v154l50 21v-175h118v-46h-118v-183h-50z" />
    <glyph glyph-name="five" unicode="5" horiz-adv-x="471" 
d="M44 -22q0 20 13 35t32 15q17 0 28.5 -10.5t11.5 -27.5q0 -22 -20 -35q8 -8 14 -12q33 -22 97 -22q66 0 110 42t44 106t-41.5 104.5t-107.5 40.5q-72 0 -139 -28l-22 13l35 302h295v-50h-253l-24 -208q53 17 110 17q88 0 144.5 -53.5t56.5 -137.5t-59.5 -139t-146.5 -55
q-100 0 -150 45q-28 25 -28 58z" />
    <glyph glyph-name="six" unicode="6" horiz-adv-x="517" 
d="M293 589q-77 0 -129.5 -79t-56.5 -218q21 40 66 66t98 26q85 0 141.5 -55t56.5 -132q0 -87 -57.5 -146t-145.5 -59q-90 0 -145 57q-65 68 -65 212q0 99 21.5 174.5t57.5 118t77.5 63t85.5 20.5q76 0 119 -45q24 -24 24 -54q0 -25 -14 -38.5t-32 -13.5t-29 11.5t-11 29.5
q0 22 18 32q-25 30 -80 30zM266 40q68 0 108.5 43.5t40.5 113.5q0 61 -39.5 100t-104.5 39q-69 0 -113 -45.5t-44 -106.5q0 -60 42 -102t110 -42z" />
    <glyph glyph-name="seven" unicode="7" horiz-adv-x="442" 
d="M138 -122l-48 20l252 558h-263v-95h-50v140h375l8 -16z" />
    <glyph glyph-name="eight" unicode="8" horiz-adv-x="487" 
d="M243 -8q-84 0 -140.5 50t-56.5 125q0 53 35.5 96.5t86.5 60.5q-49 19 -79 61.5t-30 81.5q0 75 53.5 122.5t130.5 47.5q78 0 131 -47.5t53 -122.5q0 -43 -30 -83t-79 -60q51 -17 87 -60.5t36 -96.5q0 -75 -56.5 -125t-141.5 -50zM243 346q54 0 92.5 35.5t38.5 84.5
q0 52 -38 87.5t-93 35.5t-92.5 -35.5t-37.5 -87.5q0 -49 38.5 -84.5t91.5 -35.5zM243 40q60 0 100.5 36.5t40.5 91.5q0 57 -41 94t-100 37q-58 0 -99 -37t-41 -94q0 -55 41 -91.5t99 -36.5z" />
    <glyph glyph-name="nine" unicode="9" horiz-adv-x="517" 
d="M210 -125q-77 0 -121 47q-22 24 -22 52q0 25 14 38.5t32 13.5t29 -11.5t11 -29.5q0 -22 -18 -32q25 -30 80 -30q82 0 135.5 75t57.5 209q-21 -38 -65.5 -62.5t-97.5 -24.5q-86 0 -142 53.5t-56 130.5q0 87 57.5 146t145.5 59t145 -57q65 -65 65 -212q0 -100 -23 -174.5
t-61 -114t-79.5 -58t-86.5 -18.5zM360 419q-42 42 -110 42t-108.5 -43.5t-40.5 -113.5q0 -60 39 -98t105 -38q69 0 113 44t44 105q0 60 -42 102z" />
    <glyph glyph-name="colon" unicode=":" horiz-adv-x="202" 
d="M102 259q-22 0 -37 15.5t-15 38.5t15 38.5t37 15.5t37 -15.5t15 -38.5t-15 -38.5t-37 -15.5zM102 -8q-22 0 -37 15.5t-15 38.5t15 38.5t37 15.5t37 -15.5t15 -38.5t-15 -38.5t-37 -15.5z" />
    <glyph glyph-name="semicolon" unicode=";" horiz-adv-x="202" 
d="M102 259q-22 0 -37 15.5t-15 38.5t15 38.5t37 15.5t37 -15.5t15 -38.5t-15 -38.5t-37 -15.5zM22 -141l-13 21q84 61 86 118q-18 2 -32.5 17.5t-14.5 33.5q0 21 15 35.5t35 14.5q24 0 40 -18t16 -50q0 -44 -32 -90.5t-100 -81.5z" />
    <glyph glyph-name="less" unicode="&#x3c;" horiz-adv-x="374" 
d="M284 84l-248 163v20l248 163l26 -39l-204 -134l204 -134z" />
    <glyph glyph-name="equal" unicode="=" horiz-adv-x="394" 
d="M37 306v48h320v-48h-320zM37 157v48h320v-48h-320z" />
    <glyph glyph-name="greater" unicode="&#x3e;" horiz-adv-x="374" 
d="M90 84l-26 39l204 134l-204 134l26 39l248 -163v-20z" />
    <glyph glyph-name="question" unicode="?" horiz-adv-x="427" 
d="M20 533q0 35 24 67t66 51t92 19q90 0 144 -49t54 -124q0 -66 -50 -119.5t-133 -75.5l-11 -128h-27l-14 161q87 19 134 60.5t47 99.5q0 59 -38 92.5t-105 33.5q-83 0 -117 -47q-5 -6 -9 -16q37 -8 37 -42q0 -17 -12.5 -29.5t-29.5 -12.5q-20 0 -36 17t-16 42zM194 -8
q-21 0 -35.5 15t-14.5 36t14.5 36.5t35.5 15.5t35.5 -15.5t14.5 -36.5t-14.5 -36t-35.5 -15z" />
    <glyph glyph-name="at" unicode="@" horiz-adv-x="802" 
d="M330 -174q-127 0 -204.5 83.5t-77.5 208.5q0 202 127.5 343t301.5 141q129 0 205 -77t76 -205q0 -117 -55 -199.5t-132 -82.5q-44 0 -64.5 25.5t-15.5 58.5q-20 -39 -56 -61.5t-78 -22.5q-56 0 -93 38.5t-37 102.5q0 84 56 146t130 62q49 0 77.5 -25t34.5 -60l20 82h47
l-55 -221q-11 -41 -1.5 -63t37.5 -22q59 0 101.5 74t42.5 169q0 107 -65.5 175.5t-175.5 68.5q-158 0 -272.5 -130.5t-114.5 -317.5q0 -105 67 -179.5t175 -74.5q87 0 161 40l17 -33q-80 -44 -179 -44zM367 83q60 0 101 51.5t41 112.5q0 45 -25.5 70t-69.5 25
q-57 0 -95.5 -48.5t-38.5 -113.5q0 -46 22.5 -71.5t64.5 -25.5z" />
    <glyph glyph-name="A" unicode="A" horiz-adv-x="710" 
d="M20 0v50h66l211 558h-76v50h268v-50h-76l211 -558h66v-50h-205v50h77l-69 186h-279l-69 -186h80v-50h-205zM232 285h243l-121 328z" />
    <glyph glyph-name="B" unicode="B" horiz-adv-x="609" 
d="M52 0v50h88v558h-88v50h264q108 0 160.5 -47.5t52.5 -116.5q0 -58 -33.5 -99t-90.5 -58q143 -37 143 -159q0 -78 -59.5 -128t-160.5 -50h-276zM197 50h133q77 0 119.5 36.5t42.5 92.5q0 65 -50 99t-140 34h-105v-262zM197 360h105q84 0 127.5 35t43.5 95q0 56 -41 87
t-118 31h-117v-248z" />
    <glyph glyph-name="C" unicode="C" horiz-adv-x="702" 
d="M393 -12q-146 0 -239.5 101.5t-93.5 234.5q0 150 98 248t231 98q96 0 169 -51.5t73 -112.5q0 -24 -15 -40.5t-37 -16.5q-19 0 -32 13t-13 32q0 16 10 28t23 15q-16 30 -64.5 56t-113.5 26q-117 0 -194 -88t-77 -206q0 -113 78.5 -199.5t196.5 -86.5q115 0 210 84l31 -41
q-98 -94 -241 -94z" />
    <glyph glyph-name="D" unicode="D" horiz-adv-x="735" 
d="M52 0v50h88v558h-88v50h245q170 0 274 -88.5t104 -233.5q0 -150 -101.5 -243t-274.5 -93h-247zM197 50h107q152 0 232.5 78.5t80.5 209.5q0 123 -87 196.5t-234 73.5h-99v-558z" />
    <glyph glyph-name="E" unicode="E" horiz-adv-x="593" 
d="M52 0v50h88v558h-88v50h472v-149h-55v99h-272v-247h223v-50h-223v-261h272v99h55v-149h-472z" />
    <glyph glyph-name="F" unicode="F" horiz-adv-x="571" 
d="M52 0v50h88v558h-88v50h464v-149h-55v99h-264v-259h219v-50h-219v-249h93v-50h-238z" />
    <glyph glyph-name="G" unicode="G" horiz-adv-x="742" 
d="M382 -12q-85 0 -157.5 39t-118.5 116.5t-46 178.5q0 153 100.5 250.5t238.5 97.5q103 0 173 -47.5t70 -101.5q0 -24 -13.5 -38.5t-34.5 -14.5q-19 0 -32 13t-13 32q0 25 22 39q-23 27 -70 47t-104 20q-123 0 -201 -86t-78 -211t77.5 -204.5t190.5 -79.5q111 0 211 72v152
h-190v49h246v-311h-54v60q-99 -72 -217 -72z" />
    <glyph glyph-name="H" unicode="H" horiz-adv-x="786" 
d="M52 0v50h88v558h-88v50h233v-50h-88v-244h392v244h-88v50h233v-50h-88v-558h88v-50h-233v50h88v263h-392v-263h88v-50h-233z" />
    <glyph glyph-name="I" unicode="I" horiz-adv-x="349" 
d="M53 0v50h93v558h-93v50h243v-50h-93v-558h93v-50h-243z" />
    <glyph glyph-name="J" unicode="J" horiz-adv-x="524" 
d="M208 -12q-73 0 -125 46t-52 113q0 32 16 52.5t41 20.5q17 0 30.5 -12.5t13.5 -31.5q0 -17 -11 -30t-31 -15q-2 -29 31.5 -59t86.5 -30q58 0 96 38q42 42 42 146v382h-103v50h242v-50h-82v-383q0 -127 -57 -184q-53 -53 -138 -53z" />
    <glyph glyph-name="K" unicode="K" horiz-adv-x="672" 
d="M52 0v50h88v558h-88v50h233v-50h-88v-315l314 315h-94v50h238v-50h-75l-227 -228l228 -330h81v-50h-119l-231 343l-115 -115v-178h88v-50h-233z" />
    <glyph glyph-name="L" unicode="L" horiz-adv-x="557" 
d="M52 0v50h88v558h-88v50h238v-50h-93v-558h249v104h55v-154h-449z" />
    <glyph glyph-name="M" unicode="M" horiz-adv-x="891" 
d="M47 0v50h89l25 558h-91v50h152l221 -483l222 483h150v-50h-91l25 -558h89v-50h-230v50h86l-18 514l-223 -479h-22l-223 479l-18 -514h86v-50h-229z" />
    <glyph glyph-name="N" unicode="N" horiz-adv-x="773" 
d="M617 -3l-423 564v-511h88v-50h-230v50h88v558h-88v50h138l405 -541v491h-88v50h227v-50h-85v-611h-32z" />
    <glyph glyph-name="O" unicode="O" horiz-adv-x="782" 
d="M389 -12q-140 0 -234.5 98.5t-94.5 241.5q0 145 95 243.5t238 98.5q140 0 234.5 -98.5t94.5 -241.5q0 -145 -95 -243.5t-238 -98.5zM391 40q119 0 196 83t77 205q0 123 -77 206.5t-196 83.5t-196 -83t-77 -205q0 -123 77 -206.5t196 -83.5z" />
    <glyph glyph-name="P" unicode="P" horiz-adv-x="581" 
d="M52 0v50h88v558h-88v50h247q104 0 172.5 -56t68.5 -148q0 -95 -64.5 -151.5t-172.5 -56.5q-62 0 -106 2v-198h93v-50h-238zM305 296q82 0 130 42t48 115q0 72 -51 113.5t-129 41.5h-106v-310q48 -2 108 -2z" />
    <glyph glyph-name="Q" unicode="Q" horiz-adv-x="782" 
d="M666 -139q-32 0 -65 11t-53 23t-51 34t-43 29q-42 26 -105 36q-109 18 -176 76q-53 45 -83 113.5t-30 144.5q0 145 95 243.5t238 98.5q140 0 234.5 -98.5t94.5 -241.5q0 -122 -69 -212.5t-185 -113.5q26 -9 65 -35q46 -30 73.5 -42.5t59.5 -12.5q39 0 76 23l22 -47
q-46 -29 -98 -29zM391 40q119 0 196 83t77 205q0 123 -77 206.5t-196 83.5t-196 -83t-77 -205q0 -136 91 -221q75 -69 182 -69z" />
    <glyph glyph-name="R" unicode="R" horiz-adv-x="617" 
d="M52 0v50h88v558h-88v50h247q106 0 168.5 -51.5t62.5 -135.5q0 -67 -40.5 -114t-108.5 -67l154 -240h81v-50h-120l-175 278q-24 -2 -38 -2q-42 0 -86 2v-228h88v-50h-233zM285 326q83 0 135.5 37.5t52.5 106.5q0 66 -47.5 102t-129.5 36h-99v-280q48 -2 88 -2z" />
    <glyph glyph-name="S" unicode="S" horiz-adv-x="547" 
d="M273 -11q-90 0 -150.5 41t-60.5 88q0 25 13.5 40.5t32.5 15.5t31 -12t12 -29q0 -24 -20 -46q18 -20 56.5 -33.5t87.5 -13.5q70 0 110.5 35t40.5 93q0 50 -36.5 80t-107.5 58q-48 19 -78 34t-59.5 38t-43.5 53t-14 70q0 75 53.5 122t142.5 47q75 0 130.5 -38t55.5 -87
q0 -23 -13 -36.5t-32 -13.5t-32 12.5t-13 31.5q0 21 18 41q-13 17 -48.5 28t-67.5 11q-63 0 -100.5 -32t-37.5 -82q0 -52 37.5 -82t117.5 -62q45 -18 73.5 -32.5t56.5 -36.5t41 -51.5t13 -68.5q0 -83 -59 -133t-150 -50z" />
    <glyph glyph-name="T" unicode="T" horiz-adv-x="637" 
d="M197 0v50h93v560h-185v-106h-55v154h537v-154h-55v106h-185v-560h93v-50h-243z" />
    <glyph glyph-name="U" unicode="U" horiz-adv-x="718" 
d="M357 -12q-112 0 -172.5 61.5t-60.5 171.5v387h-88v50h233v-50h-90v-382q0 -93 46 -139.5t133 -46.5t134 46t47 138v384h-90v50h233v-50h-88v-383q0 -112 -62.5 -174.5t-174.5 -62.5z" />
    <glyph glyph-name="V" unicode="V" horiz-adv-x="700" 
d="M333 -11l-246 619h-67v50h205v-50h-77l204 -527l204 527h-81v50h205v-50h-67l-246 -619h-34z" />
    <glyph glyph-name="W" unicode="W" horiz-adv-x="975" 
d="M289 -12l-190 620h-79v50h219v-50h-81l152 -513l166 478h32l167 -477l150 512h-84v50h218v-50h-79l-187 -620h-34l-167 475l-169 -475h-34z" />
    <glyph glyph-name="X" unicode="X" horiz-adv-x="727" 
d="M47 0v50h68l214 286l-200 272h-70v50h208v-48h-73l170 -239l173 239h-77v48h208v-50h-69l-202 -272l215 -286h68v-50h-208v48h75l-184 255l-186 -255h78v-48h-208z" />
    <glyph glyph-name="Y" unicode="Y" horiz-adv-x="641" 
d="M194 0v50h97v219l-198 339h-72v50h209v-50h-72l163 -290l165 290h-75v50h209v-50h-73l-198 -338v-220h97v-50h-252z" />
    <glyph glyph-name="Z" unicode="Z" horiz-adv-x="597" 
d="M45 0v24l417 587h-340v-102h-55v149h478v-24l-417 -587h369v102h55v-149h-507z" />
    <glyph glyph-name="bracketleft" unicode="[" horiz-adv-x="341" 
d="M106 -200v932h215v-50h-160v-832h160v-50h-215z" />
    <glyph glyph-name="backslash" unicode="\" horiz-adv-x="445" 
d="M431 -207l-410 926l48 21l410 -926z" />
    <glyph glyph-name="bracketright" unicode="]" horiz-adv-x="341" 
d="M20 -200v50h160v832h-160v50h215v-932h-215z" />
    <glyph glyph-name="asciicircum" unicode="^" horiz-adv-x="440" 
d="M101 373l-25 30l144 134l144 -134l-25 -30l-119 91z" />
    <glyph glyph-name="underscore" unicode="_" horiz-adv-x="515" 
d="M-5 -140v52h525v-52h-525z" />
    <glyph glyph-name="grave" unicode="`" horiz-adv-x="500" 
d="M295 509l-152 76q-35 18 -35 39q0 18 11 28.5t25 10.5q16 0 38 -20l125 -115z" />
    <glyph glyph-name="a" unicode="a" horiz-adv-x="485" 
d="M190 -8q-63 0 -102 34.5t-39 87.5q0 56 45 91.5t114 35.5q32 0 71.5 -8t56.5 -16v70q0 37 -20 60q-32 35 -96 35q-44 0 -76 -22q7 -14 7 -27q0 -16 -10.5 -27t-27.5 -11q-18 0 -28.5 11.5t-10.5 28.5q0 37 42 65t110 28q85 0 128 -46q31 -32 31 -83v-253h70v-46h-117v57
q-28 -28 -67.5 -46.5t-80.5 -18.5zM200 37q76 0 136 69v71q-65 21 -126 21q-53 0 -81.5 -22.5t-28.5 -58.5q0 -35 26 -57.5t74 -22.5z" />
    <glyph glyph-name="b" unicode="b" horiz-adv-x="543" 
d="M277 -8q-83 0 -143 53l-20 -45h-29v686h-70v46h121v-371q67 67 153 67q84 0 144 -61.5t60 -157.5q0 -92 -60.5 -154.5t-155.5 -62.5zM279 38q69 0 114.5 48t45.5 123q0 76 -44 124.5t-112 48.5q-83 0 -147 -71v-221q63 -52 143 -52z" />
    <glyph glyph-name="c" unicode="c" horiz-adv-x="461" 
d="M265 -8q-94 0 -156.5 62.5t-62.5 152.5t61.5 155.5t146.5 65.5q65 0 114 -36t49 -83q0 -20 -13.5 -35t-33.5 -15q-14 0 -25 9.5t-11 28.5q0 22 24 34q-9 24 -39.5 37.5t-64.5 13.5q-58 0 -106 -47.5t-48 -128.5q0 -73 47 -120t125 -47q67 0 136 47l-5 -52
q-57 -42 -138 -42z" />
    <glyph glyph-name="d" unicode="d" horiz-adv-x="545" 
d="M250 -8q-85 0 -143.5 60t-58.5 155q0 92 58 156.5t154 64.5q80 0 137 -54v312h-87v46h138v-686h70v-46h-119v65q-61 -73 -149 -73zM253 38q80 0 144 71v219q-61 54 -139 54q-69 0 -112 -50t-44 -124q-1 -75 42 -122.5t109 -47.5z" />
    <glyph glyph-name="e" unicode="e" horiz-adv-x="478" 
d="M431 198h-333q6 -78 51 -118.5t122 -40.5q40 0 71 11t74 36l-5 -52q-65 -42 -147 -42q-99 0 -159.5 60.5t-60.5 156.5q0 90 55.5 154.5t147.5 64.5q87 0 137 -58t50 -139q0 -19 -3 -33zM242 382q-56 0 -96 -38t-47 -101h283q-5 64 -40.5 101.5t-99.5 37.5z" />
    <glyph glyph-name="f" unicode="f" horiz-adv-x="307" 
d="M278 651q-36 0 -46 41q-24 -3 -38 -20q-25 -28 -25 -89v-163h109v-46h-109v-328h82v-46h-203v46h70v328h-76v46h76v147q0 97 40 137q36 36 87 36q31 0 50.5 -13t19.5 -37q0 -17 -10.5 -28t-26.5 -11z" />
    <glyph glyph-name="g" unicode="g" horiz-adv-x="555" 
d="M452 374v-394q0 -76 -38 -120q-50 -60 -162 -60q-90 0 -132 42q-21 21 -21 46q0 21 12.5 34t32.5 13q15 0 24.5 -10.5t9.5 -26.5t-12 -33q24 -19 92 -19q79 0 116 44q27 34 27 85v92q-63 -67 -149 -67q-85 0 -144.5 60.5t-59.5 150.5q0 87 59 152t155 65q82 0 141 -57v49
h119v-46h-70zM260 382q-69 0 -113.5 -50t-44.5 -120q0 -71 43.5 -118.5t109.5 -47.5q82 0 146 71v211q-61 54 -141 54z" />
    <glyph glyph-name="h" unicode="h" horiz-adv-x="552" 
d="M103 686h-70v46h121v-393q32 40 75 64.5t86 24.5q74 0 109 -45q28 -37 28 -98v-239h70v-46h-191v46h70v232q0 48 -21 73q-23 29 -74 29q-82 0 -152 -86v-248h70v-46h-191v46h70v640z" />
    <glyph glyph-name="i" unicode="i" horiz-adv-x="283" 
d="M139 548q-19 0 -33 14t-14 34t14 34t33 14t32.5 -14t13.5 -34t-13.5 -34t-32.5 -14zM48 0v46h74v328h-74v46h125v-374h75v-46h-200z" />
    <glyph glyph-name="j" unicode="j" horiz-adv-x="242" 
d="M-53 -141q0 16 10.5 28.5t27.5 12.5q16 0 25.5 -10t9.5 -26q0 -11 -4 -20q6 -2 17 -2q48 0 66 65q11 38 11 96v371h-81v46h132v-409q0 -71 -16 -121q-30 -90 -115 -90q-37 0 -60 17t-23 42zM127 548q-19 0 -33 14t-14 34t14 34t33 14t32.5 -14t13.5 -34t-13.5 -34
t-32.5 -14z" />
    <glyph glyph-name="k" unicode="k" horiz-adv-x="511" 
d="M33 0v46h70v640h-70v46h121v-530l200 174h-93v44h233v-46h-73l-149 -128l141 -200h81v-46h-109l-150 219l-81 -69v-104h75v-46h-196z" />
    <glyph glyph-name="l" unicode="l" horiz-adv-x="271" 
d="M36 0v46h74v640h-74v46h125v-686h75v-46h-200z" />
    <glyph glyph-name="m" unicode="m" horiz-adv-x="829" 
d="M45 0v46h70v328h-70v46h119v-83q30 40 72.5 65.5t85.5 25.5q79 0 107 -52q8 -14 13 -37q84 89 161 89q85 0 112 -61q14 -32 14 -82v-239h70v-46h-191v46h70v232q0 38 -9 60q-17 42 -74 42q-70 0 -147 -84v-250h69v-46h-191v46h71v232q0 38 -9 60q-17 42 -74 42
q-73 0 -148 -86v-248h70v-46h-191z" />
    <glyph glyph-name="n" unicode="n" horiz-adv-x="559" 
d="M164 420v-83q31 39 75 65t87 26q81 0 113 -54q20 -34 20 -89v-239h70v-46h-191v46h70v232q0 39 -11 61q-21 41 -79 41q-82 0 -152 -86v-248h70v-46h-191v46h70v328h-70v46h119z" />
    <glyph glyph-name="o" unicode="o" horiz-adv-x="522" 
d="M261 -8q-94 0 -153.5 63t-59.5 155t59.5 155t153.5 63t153.5 -63t59.5 -155t-59.5 -155t-153.5 -63zM261 38q70 0 114.5 48t44.5 124q0 75 -44.5 123.5t-114.5 48.5t-114.5 -48.5t-44.5 -123.5q0 -76 44.5 -124t114.5 -48z" />
    <glyph glyph-name="p" unicode="p" horiz-adv-x="553" 
d="M33 -196v46h70v524h-70v46h119v-65q61 73 149 73q85 0 143.5 -60t58.5 -155q0 -92 -58 -156.5t-154 -64.5q-79 0 -137 52v-194h87v-46h-208zM293 38q69 0 112 50t44 124q1 75 -42 122.5t-109 47.5q-80 0 -144 -71v-221q59 -52 139 -52z" />
    <glyph glyph-name="q" unicode="q" horiz-adv-x="531" 
d="M318 -196v46h87v209q-67 -67 -153 -67q-84 0 -144 61.5t-60 157.5q0 92 60.5 154.5t155.5 62.5q83 0 143 -53l20 45h29v-570h70v-46h-208zM258 38q83 0 147 71v221q-63 52 -143 52q-69 0 -114.5 -48t-45.5 -123q0 -76 44 -124.5t112 -48.5z" />
    <glyph glyph-name="r" unicode="r" horiz-adv-x="355" 
d="M289 428q27 0 42 -14t15 -34q0 -17 -12 -30t-29 -13q-16 0 -28 10t-17 24q-24 -7 -50.5 -33t-43.5 -60v-232h82v-46h-203v46h70v328h-70v46h119v-95q23 44 58.5 73.5t66.5 29.5z" />
    <glyph glyph-name="s" unicode="s" horiz-adv-x="428" 
d="M362 341q0 -18 -10 -29t-26 -11q-17 0 -28.5 11t-11.5 28q0 16 7 26q-26 18 -81 18q-46 0 -74 -21t-28 -49q0 -29 26.5 -43t89.5 -30q28 -7 46 -12.5t41 -16t36 -22.5t22.5 -31.5t9.5 -44.5q0 -55 -47.5 -88.5t-116.5 -33.5q-100 0 -147 47q-23 23 -23 51q0 17 10.5 29
t26.5 12q18 0 28.5 -10.5t10.5 -26.5q0 -14 -9 -29q10 -11 38 -20t64 -9q50 0 82.5 20.5t32.5 54.5q0 31 -27 47t-80 29q-85 21 -125 45.5t-40 79.5q0 48 43 82t111 34q87 0 128 -41q21 -21 21 -46z" />
    <glyph glyph-name="t" unicode="t" horiz-adv-x="317" 
d="M188 -8q-62 0 -83 46q-10 20 -10 54v282h-76v46h76v109l51 18v-127h130v-46h-130v-277q0 -21 6 -34q12 -22 52 -22q33 0 77 27l-8 -53q-44 -23 -85 -23z" />
    <glyph glyph-name="u" unicode="u" horiz-adv-x="547" 
d="M233 -8q-82 0 -114 56q-19 35 -19 87v239h-70v46h121v-278q0 -37 13 -63q20 -39 77 -39q73 0 152 86v248h-70v46h121v-374h70v-46h-119v83q-31 -39 -75 -65t-87 -26z" />
    <glyph glyph-name="v" unicode="v" horiz-adv-x="515" 
d="M248 -17l-182 391h-58v46h186v-46h-70l135 -305l135 305h-73v46h186v-46h-58l-182 -391h-19z" />
    <glyph glyph-name="w" unicode="w" horiz-adv-x="682" 
d="M191 -18l-121 392h-62v46h184v-44h-70l85 -294l125 289h20l125 -288l85 293h-72v44h184v-46h-63l-120 -392h-20l-130 300l-130 -300h-20z" />
    <glyph glyph-name="x" unicode="x" horiz-adv-x="489" 
d="M24 0v46h57l136 168l-126 160h-62v46h171v-43h-54l99 -134l100 134h-56v43h171v-46h-62l-126 -158l135 -170h58v-46h-176v43h63l-108 144l-110 -144h66v-43h-176z" />
    <glyph glyph-name="y" unicode="y" horiz-adv-x="504" 
d="M202 -122q-50 -78 -107 -78q-26 0 -45.5 13.5t-19.5 36.5q0 17 10.5 28t26.5 11t28 -12t16 -28q29 11 58 58q15 25 38 72l22 46l-162 349h-60v46h186v-46h-68q8 -19 21.5 -49t42 -94.5t47.5 -106.5l18 -43l131 293h-71v46h183v-46h-60l-200 -431q-19 -40 -35 -65z" />
    <glyph glyph-name="z" unicode="z" horiz-adv-x="444" 
d="M40 0v16l277 360h-212v-84h-47v128h343v-16l-277 -360h234v84h47v-128h-365z" />
    <glyph glyph-name="braceleft" unicode="{" horiz-adv-x="328" 
d="M273 -217q-97 2 -153.5 44.5t-56.5 108.5q0 36 16.5 61.5t59.5 70.5q49 51 49 83q0 40 -37 64.5t-88 24.5h-14v48h14q51 0 88 24.5t37 64.5q0 32 -49 83q-43 45 -59.5 70.5t-16.5 61.5q0 66 56.5 108.5t153.5 44.5v-43q-79 -3 -118 -35.5t-39 -74.5q0 -35 62 -102
q63 -69 63 -112q0 -34 -26.5 -67t-88.5 -47q62 -14 88.5 -47t26.5 -67q0 -43 -63 -112q-62 -67 -62 -102q0 -42 39 -74.5t118 -35.5v-43z" />
    <glyph glyph-name="bar" unicode="|" horiz-adv-x="264" 
d="M108 -200v932h48v-932h-48z" />
    <glyph glyph-name="braceright" unicode="}" horiz-adv-x="328" 
d="M55 -217v43q79 3 118 35.5t39 74.5q0 35 -62 102q-63 69 -63 112q0 34 26.5 67t88.5 47q-62 14 -88.5 47t-26.5 67q0 43 63 112q62 67 62 102q0 42 -39 74.5t-118 35.5v43q97 -2 153.5 -44.5t56.5 -108.5q0 -36 -16.5 -61.5t-59.5 -70.5q-49 -51 -49 -83q0 -40 37 -64.5
t88 -24.5h14v-48h-14q-51 0 -88 -24.5t-37 -64.5q0 -32 49 -83q43 -45 59.5 -70.5t16.5 -61.5q0 -66 -56.5 -108.5t-153.5 -44.5z" />
    <glyph glyph-name="asciitilde" unicode="~" horiz-adv-x="420" 
d="M278 194q-41 0 -87 40q-30 26 -47 26q-35 0 -44 -57l-45 10q2 42 28 71.5t59 29.5q41 0 87 -40q30 -26 47 -26q35 0 44 57l45 -10q-2 -42 -28 -71.5t-59 -29.5z" />
    <glyph glyph-name="uni00A0" unicode="&#xa0;" horiz-adv-x="230" 
 />
    <glyph glyph-name="exclamdown" unicode="&#xa1;" horiz-adv-x="244" 
d="M122 562q-21 0 -35.5 15.5t-14.5 36.5t14.5 36t35.5 15t35.5 -15t14.5 -36t-14.5 -36.5t-35.5 -15.5zM88 0l20 483h28l20 -483h-68z" />
    <glyph glyph-name="cent" unicode="&#xa2;" horiz-adv-x="481" 
d="M437 348q0 -18 -13.5 -34t-33.5 -16q-14 0 -25 9.5t-11 28.5q0 6 6.5 17.5t17.5 16.5q-17 38 -86 49l-30 -340q8 -1 25 -1q72 0 141 47l-5 -52q-56 -41 -138 -41q-18 0 -27 1l-12 -138l-44 4l12 142q-75 21 -121.5 78.5t-46.5 129.5q0 84 60.5 148t144.5 69l10 107l44 -4
l-9 -104q58 -9 99.5 -43t41.5 -74zM100 248q0 -58 31 -101t87 -60l29 334q-58 -8 -102.5 -54t-44.5 -119z" />
    <glyph glyph-name="sterling" unicode="&#xa3;" horiz-adv-x="448" 
d="M337 126h-165q0 -4 0.5 -11t0.5 -11q0 -80 -55 -135q47 -4 103 -23q56 -20 100 -20q32 0 50 12t33 41l40 -23q-40 -78 -121 -78q-54 0 -120 26q-50 20 -90 20q-16 0 -23 -1q-34 -45 -77 -45q-16 0 -27 8.5t-11 20.5q0 23 24 40t69 22q58 58 58 135q0 15 -1 22h-98v44h88
l-10 34q-21 69 -21 122q0 75 48.5 129t126.5 54q61 0 106.5 -30t45.5 -69q0 -25 -12.5 -38.5t-28.5 -13.5t-26.5 10.5t-10.5 27.5q0 24 16 35q-26 33 -91 33q-56 0 -90.5 -40.5t-34.5 -97.5q0 -52 20 -116l12 -40h172v-44z" />
    <glyph glyph-name="yen" unicode="&#xa5;" horiz-adv-x="481" 
d="M80 229v43h112l-116 183h-57v46h164v-46h-54l112 -181l110 181h-55v46h164v-46h-58l-117 -183h114v-43h-137v-67h137v-43h-137v-75h77v-44h-198v44h77v75h-138v43h138v67h-138z" />
    <glyph glyph-name="section" unicode="&#xa7;" horiz-adv-x="451" 
d="M234 508q56 0 97.5 -22.5t41.5 -56.5q0 -17 -9.5 -28.5t-25.5 -11.5q-17 0 -27 11t-10 28q0 9 3 18q-9 7 -30 13t-40 6q-42 0 -64.5 -14.5t-22.5 -35.5t22.5 -34.5t81.5 -29.5q68 -17 102.5 -40.5t34.5 -62.5q0 -57 -79 -86q53 -27 53 -76q0 -39 -39.5 -68t-104.5 -29
q-57 0 -98.5 22.5t-41.5 56.5q0 16 9.5 27.5t25.5 11.5q17 0 27.5 -10.5t10.5 -27.5q0 -10 -4 -18q21 -19 70 -19q41 0 64 14t23 35t-22 34.5t-82 29.5q-68 18 -102.5 41t-34.5 60q0 30 22 53t57 35q-53 26 -53 77q0 38 40 67.5t105 29.5zM227 189l34 -9q69 23 69 61
q0 24 -22.5 38t-83.5 29l-35 9q-68 -24 -68 -61q0 -24 22.5 -38.5t83.5 -28.5z" />
    <glyph glyph-name="dieresis" unicode="&#xa8;" horiz-adv-x="500" 
d="M330 525q-21 0 -35 15t-14 36t14 36t35 15t35 -15t14 -36t-14 -36t-35 -15zM170 525q-21 0 -35 15t-14 36t14 36t35 15t35 -15t14 -36t-14 -36t-35 -15z" />
    <glyph glyph-name="copyright" unicode="&#xa9;" horiz-adv-x="598" 
d="M299 -8q-108 0 -179.5 75t-71.5 183q0 109 71.5 184t179.5 75t179.5 -75t71.5 -184q0 -108 -71.5 -183t-179.5 -75zM299 24q92 0 153 66t61 161t-61 161t-153 66t-153 -66t-61 -161t61 -161t153 -66zM307 356q-39 0 -65.5 -29.5t-26.5 -70.5q0 -42 27.5 -71.5t69.5 -29.5
t77 33l21 -25q-37 -41 -99 -41q-59 0 -96.5 37.5t-37.5 94.5q0 58 39 96t91 38q43 0 71 -20t28 -42q0 -11 -7 -19.5t-17 -8.5t-16.5 6.5t-6.5 16.5t5 15q-14 20 -57 20z" />
    <glyph glyph-name="ordfeminine" unicode="&#xaa;" horiz-adv-x="339" 
d="M124 410q-37 0 -60 20t-23 52q0 34 27 55t69 21t73 -12v36q0 28 -19 42q-17 12 -47 12q-27 0 -40 -10q3 -6 3 -15q0 -11 -7 -18t-18 -7q-12 0 -19 7.5t-7 18.5q0 23 25 40.5t68 17.5q39 0 65 -16q34 -22 34 -66v-140h40v-33h-77v32q-39 -37 -87 -37zM50 305v37h238v-37
h-238zM134 442q42 0 76 36v42q-36 10 -69 10q-29 0 -45 -12.5t-16 -32.5q0 -19 14 -31t40 -12z" />
    <glyph glyph-name="guillemotleft" unicode="&#xab;" horiz-adv-x="449" 
d="M362 114l-160 158l160 158l33 -31l-125 -127l125 -127zM193 114l-160 158l160 158l33 -31l-125 -127l125 -127z" />
    <glyph glyph-name="registered" unicode="&#xae;" horiz-adv-x="386" 
d="M193 336q-75 0 -126.5 52t-51.5 126q0 75 51.5 127t126.5 52q74 0 126 -52t52 -127q0 -74 -52.5 -126t-125.5 -52zM193 663q-61 0 -102.5 -43t-41.5 -106q0 -62 41.5 -105t102.5 -43q59 0 101.5 43.5t42.5 104.5q0 63 -41.5 106t-102.5 43zM124 431v26h20v121h-20v26h68
q30 0 49 -13.5t19 -38.5q0 -33 -33 -47l27 -48h20v-26h-40l-36 66h-25v-40h23v-26h-72zM173 522h18q39 0 39 29q0 27 -39 27h-18v-56z" />
    <glyph glyph-name="macron" unicode="&#xaf;" horiz-adv-x="500" 
d="M105 540v52h290v-52h-290z" />
    <glyph glyph-name="degree" unicode="&#xb0;" horiz-adv-x="300" 
d="M150 417q-55 0 -90.5 37t-35.5 90t35.5 90t90.5 37q54 0 88.5 -37t34.5 -90t-34.5 -90t-88.5 -37zM150 452q36 0 59.5 26.5t23.5 65.5t-23.5 65.5t-59.5 26.5q-38 0 -61.5 -26t-23.5 -66t23.5 -66t61.5 -26z" />
    <glyph glyph-name="plusminus" unicode="&#xb1;" horiz-adv-x="394" 
d="M172 143v136h-135v48h135v136h50v-136h135v-48h-135v-136h-50zM37 18v48h320v-48h-320z" />
    <glyph glyph-name="two.sup" unicode="&#xb2;" horiz-adv-x="353" 
d="M61 431l-12 20q26 83 128 155q37 27 54 46.5t17 46.5t-21.5 45t-51.5 18q-28 0 -47.5 -11t-22.5 -21q17 -7 17 -27q0 -12 -8.5 -21t-21.5 -9q-33 0 -33 40q0 33 33 60t85 27q48 0 82.5 -28.5t34.5 -72.5q0 -27 -13.5 -50.5t-29.5 -36.5t-48 -35q-81 -55 -101 -109h159v57
h39v-94h-239z" />
    <glyph glyph-name="three.sup" unicode="&#xb3;" horiz-adv-x="353" 
d="M171 425q-50 0 -87.5 23t-37.5 56q0 15 9.5 25.5t23.5 10.5q13 0 21 -8.5t8 -21.5q0 -15 -12 -22q7 -8 27.5 -17t47.5 -9q37 0 61.5 19.5t24.5 47.5q0 32 -27.5 51t-75.5 19h-22v39h24q40 0 66.5 18.5t26.5 47.5q0 27 -21.5 42t-55.5 15q-47 0 -65 -22q12 -8 12 -22
q0 -12 -8 -20.5t-20 -8.5q-13 0 -23 10t-10 26q0 27 31.5 50.5t84.5 23.5q52 0 85.5 -26.5t33.5 -65.5q0 -31 -25 -55t-60 -31q38 -7 66 -33t28 -59q0 -45 -37.5 -74t-93.5 -29z" />
    <glyph glyph-name="acute" unicode="&#xb4;" horiz-adv-x="500" 
d="M205 509l-12 19l125 115q22 20 38 20q14 0 25 -10.5t11 -28.5q0 -21 -35 -39z" />
    <glyph glyph-name="paragraph" unicode="&#xb6;" horiz-adv-x="562" 
d="M211 0v44h80v149q-17 -1 -80 -1q-78 0 -127.5 42.5t-49.5 114.5q0 66 51.5 109t128.5 43h305v-46h-76v-409h76v-46h-308zM338 44h58v413h-58v-413z" />
    <glyph glyph-name="periodcentered" unicode="&#xb7;" horiz-adv-x="264" 
d="M132 196q-22 0 -37 15.5t-15 38.5t15 38.5t37 15.5t37 -15.5t15 -38.5t-15 -38.5t-37 -15.5z" />
    <glyph glyph-name="cedilla" unicode="&#xb8;" horiz-adv-x="500" 
d="M273 -199q-56 0 -106 26l14 32q42 -19 87 -19q44 0 44 31q0 33 -50 33q-13 0 -22 -3l-17 12l30 109l30 -6l-8 -66q43 -1 65.5 -22t22.5 -52q0 -32 -23.5 -53.5t-66.5 -21.5z" />
    <glyph glyph-name="one.sup" unicode="&#xb9;" horiz-adv-x="353" 
d="M66 431v39h97v277l-93 -22l-9 39l124 31h21v-325h96v-39h-236z" />
    <glyph glyph-name="ordmasculine" unicode="&#xba;" horiz-adv-x="352" 
d="M62 305v37h228v-37h-228zM177 409q-57 0 -93.5 38t-36.5 93t36.5 93t93.5 38t92.5 -38t35.5 -93t-36 -93t-92 -38zM177 443q39 0 63 27.5t24 69.5t-24 69.5t-63 27.5t-64 -27.5t-25 -69.5t25 -69.5t64 -27.5z" />
    <glyph glyph-name="guillemotright" unicode="&#xbb;" horiz-adv-x="449" 
d="M256 114l-33 31l125 127l-125 127l33 31l160 -158zM87 114l-33 31l125 127l-125 127l33 31l160 -158z" />
    <glyph glyph-name="onequarter" unicode="&#xbc;" horiz-adv-x="795" 
d="M572 -1v37h67v69h-169l-9 19l190 247l32 -25l-160 -205h116v75l41 17v-92h60v-36h-60v-69h48v-37h-156zM240 -12l-33 20l196 323l193 317l33 -20l-193 -317zM54 281v39h97v277l-93 -22l-9 39l124 31h21v-325h96v-39h-236z" />
    <glyph glyph-name="onehalf" unicode="&#xbd;" horiz-adv-x="795" 
d="M502 -1l-12 20q26 83 128 155q37 27 54 46.5t17 46.5t-21.5 45t-51.5 18q-28 0 -47.5 -11t-22.5 -21q17 -7 17 -27q0 -12 -8.5 -21t-21.5 -9q-33 0 -33 40q0 33 33 60t85 27q48 0 82.5 -28.5t34.5 -72.5q0 -27 -13.5 -50.5t-29.5 -36.5t-48 -35q-81 -55 -101 -109h159v57
h39v-94h-239zM230 -12l-33 20l196 323l193 317l33 -20l-193 -317zM53 281v39h97v277l-93 -22l-9 39l124 31h21v-325h96v-39h-236z" />
    <glyph glyph-name="threequarters" unicode="&#xbe;" horiz-adv-x="795" 
d="M186 275q-50 0 -87.5 23t-37.5 56q0 15 9.5 25.5t23.5 10.5q13 0 21 -8.5t8 -21.5q0 -15 -12 -22q7 -8 27.5 -17t47.5 -9q37 0 61.5 19.5t24.5 47.5q0 32 -27.5 51t-75.5 19h-22v39h24q40 0 66.5 18.5t26.5 47.5q0 27 -21.5 42t-55.5 15q-47 0 -65 -22q12 -8 12 -22
q0 -12 -8 -20.5t-20 -8.5q-13 0 -23 10t-10 26q0 27 31.5 50.5t84.5 23.5q52 0 85.5 -26.5t33.5 -65.5q0 -31 -25 -55t-60 -31q38 -7 66 -33t28 -59q0 -45 -37.5 -74t-93.5 -29zM569 -1v37h67v69h-169l-9 19l190 247l32 -25l-160 -205h116v75l41 17v-92h60v-36h-60v-69h48
v-37h-156zM242 -12l-33 20l196 323l193 317l33 -20l-193 -317z" />
    <glyph glyph-name="questiondown" unicode="&#xbf;" horiz-adv-x="427" 
d="M407 125q0 -35 -24 -67t-66 -51t-92 -19q-90 0 -144 49t-54 124q0 66 50 119.5t133 75.5l11 128h27l14 -161q-87 -19 -134 -60.5t-47 -99.5q0 -59 38 -92.5t105 -33.5q83 0 117 47q5 7 9 16q-37 8 -37 42q0 17 12.5 29.5t29.5 12.5q20 0 36 -17t16 -42zM233 666
q21 0 35.5 -15t14.5 -36t-14.5 -36.5t-35.5 -15.5t-35.5 15.5t-14.5 36.5t14.5 36t35.5 15z" />
    <glyph glyph-name="Agrave" unicode="&#xc0;" horiz-adv-x="710" 
d="M20 0v50h66l211 558h-76v50h268v-50h-76l211 -558h66v-50h-205v50h77l-69 186h-279l-69 -186h80v-50h-205zM232 285h243l-121 328zM392 719l-152 76q-35 18 -35 39q0 18 11 28.5t25 10.5q16 0 38 -20l125 -115z" />
    <glyph glyph-name="Aacute" unicode="&#xc1;" horiz-adv-x="710" 
d="M20 0v50h66l211 558h-76v50h268v-50h-76l211 -558h66v-50h-205v50h77l-69 186h-279l-69 -186h80v-50h-205zM232 285h243l-121 328zM318 719l-12 19l125 115q22 20 38 20q14 0 25 -10.5t11 -28.5q0 -21 -35 -39z" />
    <glyph glyph-name="Acircumflex" unicode="&#xc2;" horiz-adv-x="710" 
d="M20 0v50h66l211 558h-76v50h268v-50h-76l211 -558h66v-50h-205v50h77l-69 186h-279l-69 -186h80v-50h-205zM232 285h243l-121 328zM236 713l-25 30l144 134l144 -134l-25 -30l-119 91z" />
    <glyph glyph-name="Atilde" unicode="&#xc3;" horiz-adv-x="710" 
d="M20 0v50h66l211 558h-76v50h268v-50h-76l211 -558h66v-50h-205v50h77l-69 186h-279l-69 -186h80v-50h-205zM232 285h243l-121 328zM426 720q-41 0 -88 39q-31 25 -47 25q-36 0 -43 -58l-45 9q1 42 26.5 72.5t58.5 30.5q41 0 88 -39q31 -25 47 -25q36 0 43 58l45 -9
q-1 -42 -26.5 -72.5t-58.5 -30.5z" />
    <glyph glyph-name="Adieresis" unicode="&#xc4;" horiz-adv-x="710" 
d="M20 0v50h66l211 558h-76v50h268v-50h-76l211 -558h66v-50h-205v50h77l-69 186h-279l-69 -186h80v-50h-205zM232 285h243l-121 328zM435 735q-21 0 -35 15t-14 36t14 36t35 15t35 -15t14 -36t-14 -36t-35 -15zM275 735q-21 0 -35 15t-14 36t14 36t35 15t35 -15t14 -36
t-14 -36t-35 -15z" />
    <glyph glyph-name="Aring" unicode="&#xc5;" horiz-adv-x="710" 
d="M453 730q0 -44 -33 -72h69v-50h-76l211 -558h66v-50h-205v50h77l-69 186h-279l-69 -186h80v-50h-205v50h66l211 558h-76v50h66q-32 30 -32 72q0 39 29 68t70 29t70 -29t29 -68zM232 285h243l-121 328zM354 664q25 0 41 17.5t16 43.5t-16 43.5t-41 17.5t-41 -17.5
t-16 -43.5t16 -43.5t41 -17.5z" />
    <glyph glyph-name="AE" unicode="&#xc6;" horiz-adv-x="875" 
d="M-8 0v50h77l279 558h-68v50h526v-149h-55v99h-272v-247h223v-50h-223v-261h272v99h55v-149h-462v50h78v186h-204l-93 -186h72v-50h-205zM242 285h180v323h-18z" />
    <glyph glyph-name="Ccedilla" unicode="&#xc7;" horiz-adv-x="702" 
d="M390 -199q-56 0 -106 26l14 32q42 -19 87 -19q44 0 44 31q0 33 -50 33q-13 0 -22 -3l-17 12l21 76q-134 12 -217.5 111t-83.5 224q0 150 98 248t231 98q96 0 169 -51.5t73 -112.5q0 -24 -15 -40.5t-37 -16.5q-19 0 -32 13t-13 32q0 16 10 28t23 15q-16 30 -64.5 56
t-113.5 26q-117 0 -194 -88t-77 -206q0 -113 78.5 -199.5t196.5 -86.5q115 0 210 84l31 -41q-97 -92 -238 -94l-4 -38q43 -1 65.5 -22t22.5 -52q0 -32 -23.5 -53.5t-66.5 -21.5z" />
    <glyph glyph-name="Egrave" unicode="&#xc8;" horiz-adv-x="593" 
d="M52 0v50h88v558h-88v50h472v-149h-55v99h-272v-247h223v-50h-223v-261h272v99h55v-149h-472zM325 719l-152 76q-35 18 -35 39q0 18 11 28.5t25 10.5q16 0 38 -20l125 -115z" />
    <glyph glyph-name="Eacute" unicode="&#xc9;" horiz-adv-x="593" 
d="M52 0v50h88v558h-88v50h472v-149h-55v99h-272v-247h223v-50h-223v-261h272v99h55v-149h-472zM251 719l-12 19l125 115q22 20 38 20q14 0 25 -10.5t11 -28.5q0 -21 -35 -39z" />
    <glyph glyph-name="Ecircumflex" unicode="&#xca;" horiz-adv-x="593" 
d="M52 0v50h88v558h-88v50h472v-149h-55v99h-272v-247h223v-50h-223v-261h272v99h55v-149h-472zM169 713l-25 30l144 134l144 -134l-25 -30l-119 91z" />
    <glyph glyph-name="Edieresis" unicode="&#xcb;" horiz-adv-x="593" 
d="M52 0v50h88v558h-88v50h472v-149h-55v99h-272v-247h223v-50h-223v-261h272v99h55v-149h-472zM368 735q-21 0 -35 15t-14 36t14 36t35 15t35 -15t14 -36t-14 -36t-35 -15zM208 735q-21 0 -35 15t-14 36t14 36t35 15t35 -15t14 -36t-14 -36t-35 -15z" />
    <glyph glyph-name="Igrave" unicode="&#xcc;" horiz-adv-x="349" 
d="M53 0v50h93v558h-93v50h243v-50h-93v-558h93v-50h-243zM211 719l-152 76q-35 18 -35 39q0 18 11 28.5t25 10.5q16 0 38 -20l125 -115z" />
    <glyph glyph-name="Iacute" unicode="&#xcd;" horiz-adv-x="349" 
d="M53 0v50h93v558h-93v50h243v-50h-93v-558h93v-50h-243zM137 719l-12 19l125 115q22 20 38 20q14 0 25 -10.5t11 -28.5q0 -21 -35 -39z" />
    <glyph glyph-name="Icircumflex" unicode="&#xce;" horiz-adv-x="349" 
d="M53 0v50h93v558h-93v50h243v-50h-93v-558h93v-50h-243zM55 713l-25 30l144 134l144 -134l-25 -30l-119 91z" />
    <glyph glyph-name="Idieresis" unicode="&#xcf;" horiz-adv-x="349" 
d="M53 0v50h93v558h-93v50h243v-50h-93v-558h93v-50h-243zM254 735q-21 0 -35 15t-14 36t14 36t35 15t35 -15t14 -36t-14 -36t-35 -15zM94 735q-21 0 -35 15t-14 36t14 36t35 15t35 -15t14 -36t-14 -36t-35 -15z" />
    <glyph glyph-name="Eth" unicode="&#xd0;" horiz-adv-x="740" 
d="M145 312h-68v50h68v246h-88v50h245q170 0 274 -88.5t104 -233.5q0 -150 -101.5 -243t-274.5 -93h-247v50h88v262zM202 50h107q152 0 232.5 78.5t80.5 209.5q0 123 -87 196.5t-234 73.5h-99v-246h155v-50h-155v-262z" />
    <glyph glyph-name="Ntilde" unicode="&#xd1;" horiz-adv-x="773" 
d="M617 -3l-423 564v-511h88v-50h-230v50h88v558h-88v50h138l405 -541v491h-88v50h227v-50h-85v-611h-32zM456 720q-41 0 -88 39q-31 25 -47 25q-36 0 -43 -58l-45 9q1 42 26.5 72.5t58.5 30.5q41 0 88 -39q31 -25 47 -25q36 0 43 58l45 -9q-1 -42 -26.5 -72.5t-58.5 -30.5z
" />
    <glyph glyph-name="Ograve" unicode="&#xd2;" horiz-adv-x="782" 
d="M389 -12q-140 0 -234.5 98.5t-94.5 241.5q0 145 95 243.5t238 98.5q140 0 234.5 -98.5t94.5 -241.5q0 -145 -95 -243.5t-238 -98.5zM391 40q119 0 196 83t77 205q0 123 -77 206.5t-196 83.5t-196 -83t-77 -205q0 -123 77 -206.5t196 -83.5zM428 719l-152 76
q-35 18 -35 39q0 18 11 28.5t25 10.5q16 0 38 -20l125 -115z" />
    <glyph glyph-name="Oacute" unicode="&#xd3;" horiz-adv-x="782" 
d="M389 -12q-140 0 -234.5 98.5t-94.5 241.5q0 145 95 243.5t238 98.5q140 0 234.5 -98.5t94.5 -241.5q0 -145 -95 -243.5t-238 -98.5zM391 40q119 0 196 83t77 205q0 123 -77 206.5t-196 83.5t-196 -83t-77 -205q0 -123 77 -206.5t196 -83.5zM354 719l-12 19l125 115
q22 20 38 20q14 0 25 -10.5t11 -28.5q0 -21 -35 -39z" />
    <glyph glyph-name="Ocircumflex" unicode="&#xd4;" horiz-adv-x="782" 
d="M389 -12q-140 0 -234.5 98.5t-94.5 241.5q0 145 95 243.5t238 98.5q140 0 234.5 -98.5t94.5 -241.5q0 -145 -95 -243.5t-238 -98.5zM391 40q119 0 196 83t77 205q0 123 -77 206.5t-196 83.5t-196 -83t-77 -205q0 -123 77 -206.5t196 -83.5zM272 713l-25 30l144 134
l144 -134l-25 -30l-119 91z" />
    <glyph glyph-name="Otilde" unicode="&#xd5;" horiz-adv-x="782" 
d="M389 -12q-140 0 -234.5 98.5t-94.5 241.5q0 145 95 243.5t238 98.5q140 0 234.5 -98.5t94.5 -241.5q0 -145 -95 -243.5t-238 -98.5zM391 40q119 0 196 83t77 205q0 123 -77 206.5t-196 83.5t-196 -83t-77 -205q0 -123 77 -206.5t196 -83.5zM462 720q-41 0 -88 39
q-31 25 -47 25q-36 0 -43 -58l-45 9q1 42 26.5 72.5t58.5 30.5q41 0 88 -39q31 -25 47 -25q36 0 43 58l45 -9q-1 -42 -26.5 -72.5t-58.5 -30.5z" />
    <glyph glyph-name="Odieresis" unicode="&#xd6;" horiz-adv-x="782" 
d="M389 -12q-140 0 -234.5 98.5t-94.5 241.5q0 145 95 243.5t238 98.5q140 0 234.5 -98.5t94.5 -241.5q0 -145 -95 -243.5t-238 -98.5zM391 40q119 0 196 83t77 205q0 123 -77 206.5t-196 83.5t-196 -83t-77 -205q0 -123 77 -206.5t196 -83.5zM471 735q-21 0 -35 15t-14 36
t14 36t35 15t35 -15t14 -36t-14 -36t-35 -15zM311 735q-21 0 -35 15t-14 36t14 36t35 15t35 -15t14 -36t-14 -36t-35 -15z" />
    <glyph glyph-name="multiply" unicode="&#xd7;" horiz-adv-x="394" 
d="M302 124l-106 107l-105 -106l-34 34l106 105l-107 106l35 35l106 -107l105 106l34 -34l-106 -105l107 -106z" />
    <glyph glyph-name="Oslash" unicode="&#xd8;" horiz-adv-x="782" 
d="M389 -12q-118 0 -205 71l-83 -97l-36 31l85 98q-90 98 -90 237q0 145 95 243.5t238 98.5q111 0 197 -65l79 92l36 -31l-80 -92q97 -99 97 -244t-95 -243.5t-238 -98.5zM391 40q119 0 196 83t77 205q0 127 -75 208l-372 -437q72 -59 174 -59zM118 330q0 -120 69 -202
l370 437q-72 53 -166 53q-119 0 -196 -83t-77 -205z" />
    <glyph glyph-name="Ugrave" unicode="&#xd9;" horiz-adv-x="718" 
d="M357 -12q-112 0 -172.5 61.5t-60.5 171.5v387h-88v50h233v-50h-90v-382q0 -93 46 -139.5t133 -46.5t134 46t47 138v384h-90v50h233v-50h-88v-383q0 -112 -62.5 -174.5t-174.5 -62.5zM396 719l-152 76q-35 18 -35 39q0 18 11 28.5t25 10.5q16 0 38 -20l125 -115z" />
    <glyph glyph-name="Uacute" unicode="&#xda;" horiz-adv-x="718" 
d="M357 -12q-112 0 -172.5 61.5t-60.5 171.5v387h-88v50h233v-50h-90v-382q0 -93 46 -139.5t133 -46.5t134 46t47 138v384h-90v50h233v-50h-88v-383q0 -112 -62.5 -174.5t-174.5 -62.5zM322 719l-12 19l125 115q22 20 38 20q14 0 25 -10.5t11 -28.5q0 -21 -35 -39z" />
    <glyph glyph-name="Ucircumflex" unicode="&#xdb;" horiz-adv-x="718" 
d="M357 -12q-112 0 -172.5 61.5t-60.5 171.5v387h-88v50h233v-50h-90v-382q0 -93 46 -139.5t133 -46.5t134 46t47 138v384h-90v50h233v-50h-88v-383q0 -112 -62.5 -174.5t-174.5 -62.5zM240 713l-25 30l144 134l144 -134l-25 -30l-119 91z" />
    <glyph glyph-name="Udieresis" unicode="&#xdc;" horiz-adv-x="718" 
d="M357 -12q-112 0 -172.5 61.5t-60.5 171.5v387h-88v50h233v-50h-90v-382q0 -93 46 -139.5t133 -46.5t134 46t47 138v384h-90v50h233v-50h-88v-383q0 -112 -62.5 -174.5t-174.5 -62.5zM439 735q-21 0 -35 15t-14 36t14 36t35 15t35 -15t14 -36t-14 -36t-35 -15zM279 735
q-21 0 -35 15t-14 36t14 36t35 15t35 -15t14 -36t-14 -36t-35 -15z" />
    <glyph glyph-name="Yacute" unicode="&#xdd;" horiz-adv-x="641" 
d="M194 0v50h97v219l-198 339h-72v50h209v-50h-72l163 -290l165 290h-75v50h209v-50h-73l-198 -338v-220h97v-50h-252zM283 719l-12 19l125 115q22 20 38 20q14 0 25 -10.5t11 -28.5q0 -21 -35 -39z" />
    <glyph glyph-name="Thorn" unicode="&#xde;" horiz-adv-x="595" 
d="M52 0v50h88v558h-88v50h233v-48h-88v-83q32 2 109 2q103 0 168.5 -53t65.5 -141q0 -91 -62.5 -144.5t-169.5 -53.5q-67 0 -111 2v-91h93v-48h-238zM310 187q82 0 127.5 39t45.5 108t-48 107t-125 38t-113 -2v-288q48 -2 113 -2z" />
    <glyph glyph-name="germandbls" unicode="&#xdf;" horiz-adv-x="532" 
d="M341 -8q-44 0 -72 20t-28 49q0 18 11 29.5t27 11.5q15 0 25.5 -10.5t10.5 -25.5t-7 -22q12 -8 33 -8q46 0 76 27.5t30 74.5q0 67 -84 112q-55 30 -78 55.5t-23 68.5q0 55 54 108q52 51 52 116q0 40 -30 67.5t-71 27.5q-55 0 -82 -47q-16 -29 -16 -68v-578h-121v46h70v328
h-76v46h76v152q0 61 27 104q42 64 128 64q62 0 104 -40.5t42 -101.5q0 -83 -64 -146q-26 -25 -34.5 -41.5t-8.5 -36.5q0 -22 17 -39.5t61 -42.5q107 -60 107 -154q0 -65 -44.5 -105.5t-111.5 -40.5z" />
    <glyph glyph-name="agrave" unicode="&#xe0;" horiz-adv-x="485" 
d="M190 -8q-63 0 -102 34.5t-39 87.5q0 56 45 91.5t114 35.5q32 0 71.5 -8t56.5 -16v70q0 37 -20 60q-32 35 -96 35q-44 0 -76 -22q7 -14 7 -27q0 -16 -10.5 -27t-27.5 -11q-18 0 -28.5 11.5t-10.5 28.5q0 37 42 65t110 28q85 0 128 -46q31 -32 31 -83v-253h70v-46h-117v57
q-28 -28 -67.5 -46.5t-80.5 -18.5zM200 37q76 0 136 69v71q-65 21 -126 21q-53 0 -81.5 -22.5t-28.5 -58.5q0 -35 26 -57.5t74 -22.5zM272 509l-152 76q-35 18 -35 39q0 18 11 28.5t25 10.5q16 0 38 -20l125 -115z" />
    <glyph glyph-name="aacute" unicode="&#xe1;" horiz-adv-x="485" 
d="M190 -8q-63 0 -102 34.5t-39 87.5q0 56 45 91.5t114 35.5q32 0 71.5 -8t56.5 -16v70q0 37 -20 60q-32 35 -96 35q-44 0 -76 -22q7 -14 7 -27q0 -16 -10.5 -27t-27.5 -11q-18 0 -28.5 11.5t-10.5 28.5q0 37 42 65t110 28q85 0 128 -46q31 -32 31 -83v-253h70v-46h-117v57
q-28 -28 -67.5 -46.5t-80.5 -18.5zM200 37q76 0 136 69v71q-65 21 -126 21q-53 0 -81.5 -22.5t-28.5 -58.5q0 -35 26 -57.5t74 -22.5zM198 509l-12 19l125 115q22 20 38 20q14 0 25 -10.5t11 -28.5q0 -21 -35 -39z" />
    <glyph glyph-name="acircumflex" unicode="&#xe2;" horiz-adv-x="485" 
d="M190 -8q-63 0 -102 34.5t-39 87.5q0 56 45 91.5t114 35.5q32 0 71.5 -8t56.5 -16v70q0 37 -20 60q-32 35 -96 35q-44 0 -76 -22q7 -14 7 -27q0 -16 -10.5 -27t-27.5 -11q-18 0 -28.5 11.5t-10.5 28.5q0 37 42 65t110 28q85 0 128 -46q31 -32 31 -83v-253h70v-46h-117v57
q-28 -28 -67.5 -46.5t-80.5 -18.5zM200 37q76 0 136 69v71q-65 21 -126 21q-53 0 -81.5 -22.5t-28.5 -58.5q0 -35 26 -57.5t74 -22.5zM116 503l-25 30l144 134l144 -134l-25 -30l-119 91z" />
    <glyph glyph-name="atilde" unicode="&#xe3;" horiz-adv-x="485" 
d="M190 -8q-63 0 -102 34.5t-39 87.5q0 56 45 91.5t114 35.5q32 0 71.5 -8t56.5 -16v70q0 37 -20 60q-32 35 -96 35q-44 0 -76 -22q7 -14 7 -27q0 -16 -10.5 -27t-27.5 -11q-18 0 -28.5 11.5t-10.5 28.5q0 37 42 65t110 28q85 0 128 -46q31 -32 31 -83v-253h70v-46h-117v57
q-28 -28 -67.5 -46.5t-80.5 -18.5zM200 37q76 0 136 69v71q-65 21 -126 21q-53 0 -81.5 -22.5t-28.5 -58.5q0 -35 26 -57.5t74 -22.5zM306 510q-41 0 -88 39q-31 25 -47 25q-36 0 -43 -58l-45 9q1 42 26.5 72.5t58.5 30.5q41 0 88 -39q31 -25 47 -25q36 0 43 58l45 -9
q-1 -42 -26.5 -72.5t-58.5 -30.5z" />
    <glyph glyph-name="adieresis" unicode="&#xe4;" horiz-adv-x="485" 
d="M190 -8q-63 0 -102 34.5t-39 87.5q0 56 45 91.5t114 35.5q32 0 71.5 -8t56.5 -16v70q0 37 -20 60q-32 35 -96 35q-44 0 -76 -22q7 -14 7 -27q0 -16 -10.5 -27t-27.5 -11q-18 0 -28.5 11.5t-10.5 28.5q0 37 42 65t110 28q85 0 128 -46q31 -32 31 -83v-253h70v-46h-117v57
q-28 -28 -67.5 -46.5t-80.5 -18.5zM200 37q76 0 136 69v71q-65 21 -126 21q-53 0 -81.5 -22.5t-28.5 -58.5q0 -35 26 -57.5t74 -22.5zM315 525q-21 0 -35 15t-14 36t14 36t35 15t35 -15t14 -36t-14 -36t-35 -15zM155 525q-21 0 -35 15t-14 36t14 36t35 15t35 -15t14 -36
t-14 -36t-35 -15z" />
    <glyph glyph-name="aring" unicode="&#xe5;" horiz-adv-x="485" 
d="M190 -8q-63 0 -102 34.5t-39 87.5q0 56 45 91.5t114 35.5q32 0 71.5 -8t56.5 -16v70q0 37 -20 60q-32 35 -96 35q-44 0 -76 -22q7 -14 7 -27q0 -16 -10.5 -27t-27.5 -11q-18 0 -28.5 11.5t-10.5 28.5q0 37 42 65t110 28q85 0 128 -46q31 -32 31 -83v-253h70v-46h-117v57
q-28 -28 -67.5 -46.5t-80.5 -18.5zM200 37q76 0 136 69v71q-65 21 -126 21q-53 0 -81.5 -22.5t-28.5 -58.5q0 -35 26 -57.5t74 -22.5zM235 498q-41 0 -70 30t-29 72t29 72t70 30t70 -30t29 -72t-29 -72t-70 -30zM235 539q25 0 41 17.5t16 43.5t-16 43.5t-41 17.5t-41 -17.5
t-16 -43.5t16 -43.5t41 -17.5z" />
    <glyph glyph-name="ae" unicode="&#xe6;" horiz-adv-x="756" 
d="M220 381q-45 0 -76 -21q7 -14 7 -27q0 -16 -10.5 -27t-27.5 -11q-18 0 -28.5 11.5t-10.5 28.5q0 37 42 65t110 28q85 0 126 -51q13 -19 18 -32q56 83 157 83q87 0 137 -58t50 -139q0 -19 -3 -33h-333q5 -80 49.5 -119.5t123.5 -39.5q40 0 71 11t74 36l-5 -52
q-65 -42 -147 -42q-119 0 -174 82q-82 -82 -180 -82q-63 0 -102 34.5t-39 87.5q0 56 45 91.5t114 35.5q32 0 71.5 -8t56.5 -16v65q0 37 -21 61q-31 38 -95 38zM200 37q76 0 154 68q-13 31 -18 71q-64 22 -126 22q-53 0 -81.5 -22.5t-28.5 -58.5q0 -35 26 -57.5t74 -22.5z
M522 382q-56 0 -96 -38t-47 -101h283q-5 64 -40.5 101.5t-99.5 37.5z" />
    <glyph glyph-name="ccedilla" unicode="&#xe7;" horiz-adv-x="500" 
d="M260 -199q-56 0 -106 26l14 32q42 -19 87 -19q44 0 44 31q0 33 -50 33q-13 0 -22 -3l-17 12l22 82q-82 10 -134 70t-52 142q0 90 61.5 155.5t146.5 65.5q65 0 114 -36t49 -83q0 -20 -13.5 -35t-33.5 -15q-14 0 -25 9.5t-11 28.5q0 22 24 34q-9 24 -39.5 37.5t-64.5 13.5
q-58 0 -106 -47.5t-48 -128.5q0 -73 47 -120t125 -47q67 0 136 47l-5 -52q-54 -40 -136 -42l-5 -42q43 -1 65.5 -22t22.5 -52q0 -32 -23.5 -53.5t-66.5 -21.5z" />
    <glyph glyph-name="egrave" unicode="&#xe8;" horiz-adv-x="478" 
d="M431 198h-333q6 -78 51 -118.5t122 -40.5q40 0 71 11t74 36l-5 -52q-65 -42 -147 -42q-99 0 -159.5 60.5t-60.5 156.5q0 90 55.5 154.5t147.5 64.5q87 0 137 -58t50 -139q0 -19 -3 -33zM242 382q-56 0 -96 -38t-47 -101h283q-5 64 -40.5 101.5t-99.5 37.5zM276 509
l-152 76q-35 18 -35 39q0 18 11 28.5t25 10.5q16 0 38 -20l125 -115z" />
    <glyph glyph-name="eacute" unicode="&#xe9;" horiz-adv-x="478" 
d="M431 198h-333q6 -78 51 -118.5t122 -40.5q40 0 71 11t74 36l-5 -52q-65 -42 -147 -42q-99 0 -159.5 60.5t-60.5 156.5q0 90 55.5 154.5t147.5 64.5q87 0 137 -58t50 -139q0 -19 -3 -33zM242 382q-56 0 -96 -38t-47 -101h283q-5 64 -40.5 101.5t-99.5 37.5zM202 509
l-12 19l125 115q22 20 38 20q14 0 25 -10.5t11 -28.5q0 -21 -35 -39z" />
    <glyph glyph-name="ecircumflex" unicode="&#xea;" horiz-adv-x="478" 
d="M431 198h-333q6 -78 51 -118.5t122 -40.5q40 0 71 11t74 36l-5 -52q-65 -42 -147 -42q-99 0 -159.5 60.5t-60.5 156.5q0 90 55.5 154.5t147.5 64.5q87 0 137 -58t50 -139q0 -19 -3 -33zM242 382q-56 0 -96 -38t-47 -101h283q-5 64 -40.5 101.5t-99.5 37.5zM120 503
l-25 30l144 134l144 -134l-25 -30l-119 91z" />
    <glyph glyph-name="edieresis" unicode="&#xeb;" horiz-adv-x="478" 
d="M431 198h-333q6 -78 51 -118.5t122 -40.5q40 0 71 11t74 36l-5 -52q-65 -42 -147 -42q-99 0 -159.5 60.5t-60.5 156.5q0 90 55.5 154.5t147.5 64.5q87 0 137 -58t50 -139q0 -19 -3 -33zM242 382q-56 0 -96 -38t-47 -101h283q-5 64 -40.5 101.5t-99.5 37.5zM319 525
q-21 0 -35 15t-14 36t14 36t35 15t35 -15t14 -36t-14 -36t-35 -15zM159 525q-21 0 -35 15t-14 36t14 36t35 15t35 -15t14 -36t-14 -36t-35 -15z" />
    <glyph glyph-name="igrave" unicode="&#xec;" horiz-adv-x="283" 
d="M48 0v46h74v328h-74v46h125v-374h75v-46h-200zM181 509l-152 76q-35 18 -35 39q0 18 11 28.5t25 10.5q16 0 38 -20l125 -115z" />
    <glyph glyph-name="iacute" unicode="&#xed;" horiz-adv-x="283" 
d="M48 0v46h74v328h-74v46h125v-374h75v-46h-200zM107 509l-12 19l125 115q22 20 38 20q14 0 25 -10.5t11 -28.5q0 -21 -35 -39z" />
    <glyph glyph-name="icircumflex" unicode="&#xee;" horiz-adv-x="283" 
d="M48 0v46h74v328h-74v46h125v-374h75v-46h-200zM25 503l-25 30l144 134l144 -134l-25 -30l-119 91z" />
    <glyph glyph-name="idieresis" unicode="&#xef;" horiz-adv-x="283" 
d="M48 0v46h74v328h-74v46h125v-374h75v-46h-200zM224 525q-21 0 -35 15t-14 36t14 36t35 15t35 -15t14 -36t-14 -36t-35 -15zM64 525q-21 0 -35 15t-14 36t14 36t35 15t35 -15t14 -36t-14 -36t-35 -15z" />
    <glyph glyph-name="eth" unicode="&#xf0;" horiz-adv-x="521" 
d="M177 462l-30 36l124 112q-71 68 -126 78q0 -16 -11.5 -28t-28.5 -12t-29.5 12.5t-12.5 32.5q0 19 16 32.5t41 13.5q34 0 78 -21q59 -30 107 -76l99 89l30 -35l-97 -88q136 -156 136 -361q0 -132 -68 -200q-55 -55 -144 -55q-94 0 -153.5 60t-59.5 147q0 88 59.5 148
t153.5 60q50 0 95 -25.5t67 -65.5q-11 137 -120 261zM420 209q0 65 -44.5 108.5t-114.5 43.5t-114.5 -45.5t-44.5 -116.5t44.5 -116t114.5 -45q66 0 110 46q49 52 49 125z" />
    <glyph glyph-name="ntilde" unicode="&#xf1;" horiz-adv-x="559" 
d="M164 420v-83q31 39 75 65t87 26q81 0 113 -54q20 -34 20 -89v-239h70v-46h-191v46h70v232q0 39 -11 61q-21 41 -79 41q-82 0 -152 -86v-248h70v-46h-191v46h70v328h-70v46h119zM358 510q-41 0 -88 39q-31 25 -47 25q-36 0 -43 -58l-45 9q1 42 26.5 72.5t58.5 30.5
q41 0 88 -39q31 -25 47 -25q36 0 43 58l45 -9q-1 -42 -26.5 -72.5t-58.5 -30.5z" />
    <glyph glyph-name="ograve" unicode="&#xf2;" horiz-adv-x="522" 
d="M261 -8q-94 0 -153.5 63t-59.5 155t59.5 155t153.5 63t153.5 -63t59.5 -155t-59.5 -155t-153.5 -63zM261 38q70 0 114.5 48t44.5 124q0 75 -44.5 123.5t-114.5 48.5t-114.5 -48.5t-44.5 -123.5q0 -76 44.5 -124t114.5 -48zM298 509l-152 76q-35 18 -35 39q0 18 11 28.5
t25 10.5q16 0 38 -20l125 -115z" />
    <glyph glyph-name="oacute" unicode="&#xf3;" horiz-adv-x="522" 
d="M261 -8q-94 0 -153.5 63t-59.5 155t59.5 155t153.5 63t153.5 -63t59.5 -155t-59.5 -155t-153.5 -63zM261 38q70 0 114.5 48t44.5 124q0 75 -44.5 123.5t-114.5 48.5t-114.5 -48.5t-44.5 -123.5q0 -76 44.5 -124t114.5 -48zM224 509l-12 19l125 115q22 20 38 20
q14 0 25 -10.5t11 -28.5q0 -21 -35 -39z" />
    <glyph glyph-name="ocircumflex" unicode="&#xf4;" horiz-adv-x="522" 
d="M261 -8q-94 0 -153.5 63t-59.5 155t59.5 155t153.5 63t153.5 -63t59.5 -155t-59.5 -155t-153.5 -63zM261 38q70 0 114.5 48t44.5 124q0 75 -44.5 123.5t-114.5 48.5t-114.5 -48.5t-44.5 -123.5q0 -76 44.5 -124t114.5 -48zM142 503l-25 30l144 134l144 -134l-25 -30
l-119 91z" />
    <glyph glyph-name="otilde" unicode="&#xf5;" horiz-adv-x="522" 
d="M261 -8q-94 0 -153.5 63t-59.5 155t59.5 155t153.5 63t153.5 -63t59.5 -155t-59.5 -155t-153.5 -63zM261 38q70 0 114.5 48t44.5 124q0 75 -44.5 123.5t-114.5 48.5t-114.5 -48.5t-44.5 -123.5q0 -76 44.5 -124t114.5 -48zM332 510q-41 0 -88 39q-31 25 -47 25
q-36 0 -43 -58l-45 9q1 42 26.5 72.5t58.5 30.5q41 0 88 -39q31 -25 47 -25q36 0 43 58l45 -9q-1 -42 -26.5 -72.5t-58.5 -30.5z" />
    <glyph glyph-name="odieresis" unicode="&#xf6;" horiz-adv-x="522" 
d="M261 -8q-94 0 -153.5 63t-59.5 155t59.5 155t153.5 63t153.5 -63t59.5 -155t-59.5 -155t-153.5 -63zM261 38q70 0 114.5 48t44.5 124q0 75 -44.5 123.5t-114.5 48.5t-114.5 -48.5t-44.5 -123.5q0 -76 44.5 -124t114.5 -48zM341 525q-21 0 -35 15t-14 36t14 36t35 15
t35 -15t14 -36t-14 -36t-35 -15zM181 525q-21 0 -35 15t-14 36t14 36t35 15t35 -15t14 -36t-14 -36t-35 -15z" />
    <glyph glyph-name="divide" unicode="&#xf7;" horiz-adv-x="394" 
d="M357 241h-320v48h320v-48zM197 353q-17 0 -29.5 13t-12.5 30t12.5 30t29.5 13q16 0 28.5 -13t12.5 -30t-12.5 -30t-28.5 -13zM197 91q-17 0 -29.5 13t-12.5 30t12.5 30t29.5 13q16 0 28.5 -13t12.5 -30t-12.5 -30t-28.5 -13z" />
    <glyph glyph-name="oslash" unicode="&#xf8;" horiz-adv-x="522" 
d="M261 -8q-69 0 -123 40l-50 -59l-36 30l51 60q-55 61 -55 147q0 92 59.5 155t153.5 63q70 0 125 -41l49 58l36 -30l-51 -60q54 -62 54 -145q0 -92 -59.5 -155t-153.5 -63zM102 210q0 -68 36 -115l218 256q-40 31 -95 31q-70 0 -114.5 -48.5t-44.5 -123.5zM261 38
q70 0 114.5 48t44.5 124q0 64 -35 112l-218 -255q42 -29 94 -29z" />
    <glyph glyph-name="ugrave" unicode="&#xf9;" horiz-adv-x="547" 
d="M233 -8q-82 0 -114 56q-19 35 -19 87v239h-70v46h121v-278q0 -37 13 -63q20 -39 77 -39q73 0 152 86v248h-70v46h121v-374h70v-46h-119v83q-31 -39 -75 -65t-87 -26zM306 509l-152 76q-35 18 -35 39q0 18 11 28.5t25 10.5q16 0 38 -20l125 -115z" />
    <glyph glyph-name="uacute" unicode="&#xfa;" horiz-adv-x="547" 
d="M233 -8q-82 0 -114 56q-19 35 -19 87v239h-70v46h121v-278q0 -37 13 -63q20 -39 77 -39q73 0 152 86v248h-70v46h121v-374h70v-46h-119v83q-31 -39 -75 -65t-87 -26zM232 509l-12 19l125 115q22 20 38 20q14 0 25 -10.5t11 -28.5q0 -21 -35 -39z" />
    <glyph glyph-name="ucircumflex" unicode="&#xfb;" horiz-adv-x="547" 
d="M233 -8q-82 0 -114 56q-19 35 -19 87v239h-70v46h121v-278q0 -37 13 -63q20 -39 77 -39q73 0 152 86v248h-70v46h121v-374h70v-46h-119v83q-31 -39 -75 -65t-87 -26zM150 503l-25 30l144 134l144 -134l-25 -30l-119 91z" />
    <glyph glyph-name="udieresis" unicode="&#xfc;" horiz-adv-x="547" 
d="M233 -8q-82 0 -114 56q-19 35 -19 87v239h-70v46h121v-278q0 -37 13 -63q20 -39 77 -39q73 0 152 86v248h-70v46h121v-374h70v-46h-119v83q-31 -39 -75 -65t-87 -26zM349 525q-21 0 -35 15t-14 36t14 36t35 15t35 -15t14 -36t-14 -36t-35 -15zM189 525q-21 0 -35 15
t-14 36t14 36t35 15t35 -15t14 -36t-14 -36t-35 -15z" />
    <glyph glyph-name="yacute" unicode="&#xfd;" horiz-adv-x="504" 
d="M202 -122q-50 -78 -107 -78q-26 0 -45.5 13.5t-19.5 36.5q0 17 10.5 28t26.5 11t28 -12t16 -28q29 11 58 58q15 25 38 72l22 46l-162 349h-60v46h186v-46h-68q8 -19 21.5 -49t42 -94.5t47.5 -106.5l18 -43l131 293h-71v46h183v-46h-60l-200 -431q-19 -40 -35 -65z
M215 509l-12 19l125 115q22 20 38 20q14 0 25 -10.5t11 -28.5q0 -21 -35 -39z" />
    <glyph glyph-name="thorn" unicode="&#xfe;" horiz-adv-x="523" 
d="M3 -196v46h70v836h-70v46h121v-372q65 68 147 68q85 0 143.5 -60t58.5 -155q0 -92 -58 -156.5t-154 -64.5q-77 0 -137 49v-191h87v-46h-208zM263 38q69 0 112 50t44 124q1 75 -42 122.5t-109 47.5q-80 0 -144 -71v-219q61 -54 139 -54z" />
    <glyph glyph-name="ydieresis" unicode="&#xff;" horiz-adv-x="504" 
d="M202 -122q-50 -78 -107 -78q-26 0 -45.5 13.5t-19.5 36.5q0 17 10.5 28t26.5 11t28 -12t16 -28q29 11 58 58q15 25 38 72l22 46l-162 349h-60v46h186v-46h-68q8 -19 21.5 -49t42 -94.5t47.5 -106.5l18 -43l131 293h-71v46h183v-46h-60l-200 -431q-19 -40 -35 -65z
M172 525q-21 0 -35 15t-14 36t14 36t35 15t35 -15t14 -36t-14 -36t-35 -15zM332 525q-21 0 -35 15t-14 36t14 36t35 15t35 -15t14 -36t-14 -36t-35 -15z" />
    <glyph glyph-name="Amacron" unicode="&#x100;" horiz-adv-x="710" 
d="M20 0v50h66l211 558h-76v50h268v-50h-76l211 -558h66v-50h-205v50h77l-69 186h-279l-69 -186h80v-50h-205zM232 285h243l-121 328zM210 750v52h290v-52h-290z" />
    <glyph glyph-name="amacron" unicode="&#x101;" horiz-adv-x="485" 
d="M190 -8q-63 0 -102 34.5t-39 87.5q0 56 45 91.5t114 35.5q32 0 71.5 -8t56.5 -16v70q0 37 -20 60q-32 35 -96 35q-44 0 -76 -22q7 -14 7 -27q0 -16 -10.5 -27t-27.5 -11q-18 0 -28.5 11.5t-10.5 28.5q0 37 42 65t110 28q85 0 128 -46q31 -32 31 -83v-253h70v-46h-117v57
q-28 -28 -67.5 -46.5t-80.5 -18.5zM200 37q76 0 136 69v71q-65 21 -126 21q-53 0 -81.5 -22.5t-28.5 -58.5q0 -35 26 -57.5t74 -22.5zM90 540v52h290v-52h-290z" />
    <glyph glyph-name="Abreve" unicode="&#x102;" horiz-adv-x="710" 
d="M20 0v50h66l211 558h-76v50h268v-50h-76l211 -558h66v-50h-205v50h77l-69 186h-279l-69 -186h80v-50h-205zM232 285h243l-121 328zM355 719q-51 0 -90.5 33.5t-57.5 85.5l40 19q14 -38 44 -59.5t64 -21.5q36 0 65 22.5t43 58.5l40 -19q-18 -52 -57.5 -85.5t-90.5 -33.5z
" />
    <glyph glyph-name="abreve" unicode="&#x103;" horiz-adv-x="485" 
d="M190 -8q-63 0 -102 34.5t-39 87.5q0 56 45 91.5t114 35.5q32 0 71.5 -8t56.5 -16v70q0 37 -20 60q-32 35 -96 35q-44 0 -76 -22q7 -14 7 -27q0 -16 -10.5 -27t-27.5 -11q-18 0 -28.5 11.5t-10.5 28.5q0 37 42 65t110 28q85 0 128 -46q31 -32 31 -83v-253h70v-46h-117v57
q-28 -28 -67.5 -46.5t-80.5 -18.5zM200 37q76 0 136 69v71q-65 21 -126 21q-53 0 -81.5 -22.5t-28.5 -58.5q0 -35 26 -57.5t74 -22.5zM235 509q-51 0 -90.5 33.5t-57.5 85.5l40 19q14 -38 44 -59.5t64 -21.5q36 0 65 22.5t43 58.5l40 -19q-18 -52 -57.5 -85.5t-90.5 -33.5z
" />
    <glyph glyph-name="Aogonek" unicode="&#x104;" horiz-adv-x="710" 
d="M593 -201q-50 0 -76 24t-26 65q0 66 70 112h-76v50h77l-69 186h-279l-69 -186h80v-50h-205v50h66l211 558h-76v50h268v-50h-76l211 -558h66v-50h-63q-86 -39 -86 -102q0 -54 57 -54q41 0 81 20l-3 -42q-32 -23 -83 -23zM232 285h243l-121 328z" />
    <glyph glyph-name="aogonek" unicode="&#x105;" horiz-adv-x="485" 
d="M368 -201q-50 0 -76 24t-26 65q0 68 72 113v56q-28 -28 -67.5 -46.5t-80.5 -18.5q-63 0 -102 34.5t-39 87.5q0 56 45 91.5t114 35.5q32 0 71.5 -8t56.5 -16v70q0 37 -20 60q-32 35 -96 35q-44 0 -76 -22q7 -14 7 -27q0 -16 -10.5 -27t-27.5 -11q-18 0 -28.5 11.5
t-10.5 28.5q0 37 42 65t110 28q85 0 128 -46q31 -32 31 -83v-253h70v-46h-53q-86 -39 -86 -102q0 -54 57 -54q41 0 81 20l-3 -42q-32 -23 -83 -23zM200 37q76 0 136 69v71q-65 21 -126 21q-53 0 -81.5 -22.5t-28.5 -58.5q0 -35 26 -57.5t74 -22.5z" />
    <glyph glyph-name="Cacute" unicode="&#x106;" horiz-adv-x="702" 
d="M393 -12q-146 0 -239.5 101.5t-93.5 234.5q0 150 98 248t231 98q96 0 169 -51.5t73 -112.5q0 -24 -15 -40.5t-37 -16.5q-19 0 -32 13t-13 32q0 16 10 28t23 15q-16 30 -64.5 56t-113.5 26q-117 0 -194 -88t-77 -206q0 -113 78.5 -199.5t196.5 -86.5q115 0 210 84l31 -41
q-98 -94 -241 -94zM358 719l-12 19l125 115q22 20 38 20q14 0 25 -10.5t11 -28.5q0 -21 -35 -39z" />
    <glyph glyph-name="cacute" unicode="&#x107;" horiz-adv-x="461" 
d="M265 -8q-94 0 -156.5 62.5t-62.5 152.5t61.5 155.5t146.5 65.5q65 0 114 -36t49 -83q0 -20 -13.5 -35t-33.5 -15q-14 0 -25 9.5t-11 28.5q0 22 24 34q-9 24 -39.5 37.5t-64.5 13.5q-58 0 -106 -47.5t-48 -128.5q0 -73 47 -120t125 -47q67 0 136 47l-5 -52
q-57 -42 -138 -42zM212 509l-12 19l125 115q22 20 38 20q14 0 25 -10.5t11 -28.5q0 -21 -35 -39z" />
    <glyph glyph-name="Cdotaccent" unicode="&#x10a;" horiz-adv-x="702" 
d="M393 -12q-146 0 -239.5 101.5t-93.5 234.5q0 150 98 248t231 98q96 0 169 -51.5t73 -112.5q0 -24 -15 -40.5t-37 -16.5q-19 0 -32 13t-13 32q0 16 10 28t23 15q-16 30 -64.5 56t-113.5 26q-117 0 -194 -88t-77 -206q0 -113 78.5 -199.5t196.5 -86.5q115 0 210 84l31 -41
q-98 -94 -241 -94zM395 733q-22 0 -36.5 15.5t-14.5 37.5t14.5 37.5t36.5 15.5t36.5 -15.5t14.5 -37.5t-14.5 -37.5t-36.5 -15.5z" />
    <glyph glyph-name="cdotaccent" unicode="&#x10b;" horiz-adv-x="461" 
d="M265 -8q-94 0 -156.5 62.5t-62.5 152.5t61.5 155.5t146.5 65.5q65 0 114 -36t49 -83q0 -20 -13.5 -35t-33.5 -15q-14 0 -25 9.5t-11 28.5q0 22 24 34q-9 24 -39.5 37.5t-64.5 13.5q-58 0 -106 -47.5t-48 -128.5q0 -73 47 -120t125 -47q67 0 136 47l-5 -52
q-57 -42 -138 -42zM249 523q-22 0 -36.5 15.5t-14.5 37.5t14.5 37.5t36.5 15.5t36.5 -15.5t14.5 -37.5t-14.5 -37.5t-36.5 -15.5z" />
    <glyph glyph-name="Ccaron" unicode="&#x10c;" horiz-adv-x="702" 
d="M393 -12q-146 0 -239.5 101.5t-93.5 234.5q0 150 98 248t231 98q96 0 169 -51.5t73 -112.5q0 -24 -15 -40.5t-37 -16.5q-19 0 -32 13t-13 32q0 16 10 28t23 15q-16 30 -64.5 56t-113.5 26q-117 0 -194 -88t-77 -206q0 -113 78.5 -199.5t196.5 -86.5q115 0 210 84l31 -41
q-98 -94 -241 -94zM514 881l25 -30l-144 -134l-144 134l25 30l119 -91z" />
    <glyph glyph-name="ccaron" unicode="&#x10d;" horiz-adv-x="461" 
d="M265 -8q-94 0 -156.5 62.5t-62.5 152.5t61.5 155.5t146.5 65.5q65 0 114 -36t49 -83q0 -20 -13.5 -35t-33.5 -15q-14 0 -25 9.5t-11 28.5q0 22 24 34q-9 24 -39.5 37.5t-64.5 13.5q-58 0 -106 -47.5t-48 -128.5q0 -73 47 -120t125 -47q67 0 136 47l-5 -52
q-57 -42 -138 -42zM368 671l25 -30l-144 -134l-144 134l25 30l119 -91z" />
    <glyph glyph-name="Dcaron" unicode="&#x10e;" horiz-adv-x="735" 
d="M52 0v50h88v558h-88v50h245q170 0 274 -88.5t104 -233.5q0 -150 -101.5 -243t-274.5 -93h-247zM197 50h107q152 0 232.5 78.5t80.5 209.5q0 123 -87 196.5t-234 73.5h-99v-558zM464 881l25 -30l-144 -134l-144 134l25 30l119 -91z" />
    <glyph glyph-name="dcaron" unicode="&#x10f;" horiz-adv-x="545" 
d="M250 -8q-85 0 -143.5 60t-58.5 155q0 92 58 156.5t154 64.5q80 0 137 -54v312h-87v46h138v-686h70v-46h-119v65q-61 -73 -149 -73zM253 38q80 0 144 71v219q-61 54 -139 54q-69 0 -112 -50t-44 -124q-1 -75 42 -122.5t109 -47.5zM504 525l-18 14q34 49 34 99
q0 13 -2.5 31t-2.5 27q0 17 9.5 27.5t26.5 10.5q36 0 36 -41q0 -81 -83 -168z" />
    <glyph glyph-name="Dcroat" unicode="&#x110;" horiz-adv-x="740" 
d="M145 312h-68v50h68v246h-88v50h245q170 0 274 -88.5t104 -233.5q0 -150 -101.5 -243t-274.5 -93h-247v50h88v262zM202 50h107q152 0 232.5 78.5t80.5 209.5q0 123 -87 196.5t-234 73.5h-99v-246h155v-50h-155v-262z" />
    <glyph glyph-name="dcroat" unicode="&#x111;" horiz-adv-x="545" 
d="M238 531v47h159v108h-87v46h138v-154h70v-47h-70v-485h70v-46h-119v65q-61 -73 -149 -73q-85 0 -143.5 60t-58.5 155q0 92 58 156.5t154 64.5q80 0 137 -54v157h-159zM253 38q80 0 144 71v219q-61 54 -139 54q-69 0 -112 -50t-44 -124q-1 -75 42 -122.5t109 -47.5z" />
    <glyph glyph-name="Emacron" unicode="&#x112;" horiz-adv-x="593" 
d="M52 0v50h88v558h-88v50h472v-149h-55v99h-272v-247h223v-50h-223v-261h272v99h55v-149h-472zM143 750v52h290v-52h-290z" />
    <glyph glyph-name="emacron" unicode="&#x113;" horiz-adv-x="478" 
d="M431 198h-333q6 -78 51 -118.5t122 -40.5q40 0 71 11t74 36l-5 -52q-65 -42 -147 -42q-99 0 -159.5 60.5t-60.5 156.5q0 90 55.5 154.5t147.5 64.5q87 0 137 -58t50 -139q0 -19 -3 -33zM242 382q-56 0 -96 -38t-47 -101h283q-5 64 -40.5 101.5t-99.5 37.5zM94 540v52h290
v-52h-290z" />
    <glyph glyph-name="Ebreve" unicode="&#x114;" horiz-adv-x="593" 
d="M52 0v50h88v558h-88v50h472v-149h-55v99h-272v-247h223v-50h-223v-261h272v99h55v-149h-472zM288 719q-51 0 -90.5 33.5t-57.5 85.5l40 19q14 -38 44 -59.5t64 -21.5q36 0 65 22.5t43 58.5l40 -19q-18 -52 -57.5 -85.5t-90.5 -33.5z" />
    <glyph glyph-name="ebreve" unicode="&#x115;" horiz-adv-x="478" 
d="M431 198h-333q6 -78 51 -118.5t122 -40.5q40 0 71 11t74 36l-5 -52q-65 -42 -147 -42q-99 0 -159.5 60.5t-60.5 156.5q0 90 55.5 154.5t147.5 64.5q87 0 137 -58t50 -139q0 -19 -3 -33zM242 382q-56 0 -96 -38t-47 -101h283q-5 64 -40.5 101.5t-99.5 37.5zM239 509
q-51 0 -90.5 33.5t-57.5 85.5l40 19q14 -38 44 -59.5t64 -21.5q36 0 65 22.5t43 58.5l40 -19q-18 -52 -57.5 -85.5t-90.5 -33.5z" />
    <glyph glyph-name="Edotaccent" unicode="&#x116;" horiz-adv-x="593" 
d="M52 0v50h88v558h-88v50h472v-149h-55v99h-272v-247h223v-50h-223v-261h272v99h55v-149h-472zM288 733q-22 0 -36.5 15.5t-14.5 37.5t14.5 37.5t36.5 15.5t36.5 -15.5t14.5 -37.5t-14.5 -37.5t-36.5 -15.5z" />
    <glyph glyph-name="edotaccent" unicode="&#x117;" horiz-adv-x="478" 
d="M431 198h-333q6 -78 51 -118.5t122 -40.5q40 0 71 11t74 36l-5 -52q-65 -42 -147 -42q-99 0 -159.5 60.5t-60.5 156.5q0 90 55.5 154.5t147.5 64.5q87 0 137 -58t50 -139q0 -19 -3 -33zM242 382q-56 0 -96 -38t-47 -101h283q-5 64 -40.5 101.5t-99.5 37.5zM239 523
q-22 0 -36.5 15.5t-14.5 37.5t14.5 37.5t36.5 15.5t36.5 -15.5t14.5 -37.5t-14.5 -37.5t-36.5 -15.5z" />
    <glyph glyph-name="Eogonek" unicode="&#x118;" horiz-adv-x="593" 
d="M52 0v50h88v558h-88v50h472v-149h-55v99h-272v-247h223v-50h-223v-261h272v99h55v-149h-53q-86 -39 -86 -102q0 -54 57 -54q41 0 81 20l-3 -42q-32 -23 -83 -23q-50 0 -76 24t-26 65q0 66 70 112h-353z" />
    <glyph glyph-name="eogonek" unicode="&#x119;" horiz-adv-x="478" 
d="M431 198h-333q6 -78 51 -118.5t122 -40.5q40 0 71 11t74 36l-5 -51q-4 -3 -36.5 -21t-43 -25.5t-31 -24t-28 -32.5t-7.5 -34q0 -54 57 -54q41 0 81 20l-3 -42q-32 -23 -83 -23q-50 0 -76 24t-26 65q0 62 57 104h-8q-99 0 -159.5 60.5t-60.5 156.5q0 90 55.5 154.5
t147.5 64.5q87 0 137 -58t50 -139q0 -19 -3 -33zM242 382q-56 0 -96 -38t-47 -101h283q-5 64 -40.5 101.5t-99.5 37.5z" />
    <glyph glyph-name="Ecaron" unicode="&#x11a;" horiz-adv-x="593" 
d="M52 0v50h88v558h-88v50h472v-149h-55v99h-272v-247h223v-50h-223v-261h272v99h55v-149h-472zM407 881l25 -30l-144 -134l-144 134l25 30l119 -91z" />
    <glyph glyph-name="ecaron" unicode="&#x11b;" horiz-adv-x="478" 
d="M431 198h-333q6 -78 51 -118.5t122 -40.5q40 0 71 11t74 36l-5 -52q-65 -42 -147 -42q-99 0 -159.5 60.5t-60.5 156.5q0 90 55.5 154.5t147.5 64.5q87 0 137 -58t50 -139q0 -19 -3 -33zM242 382q-56 0 -96 -38t-47 -101h283q-5 64 -40.5 101.5t-99.5 37.5zM358 671
l25 -30l-144 -134l-144 134l25 30l119 -91z" />
    <glyph glyph-name="Gbreve" unicode="&#x11e;" horiz-adv-x="742" 
d="M382 -12q-85 0 -157.5 39t-118.5 116.5t-46 178.5q0 153 100.5 250.5t238.5 97.5q103 0 173 -47.5t70 -101.5q0 -24 -13.5 -38.5t-34.5 -14.5q-19 0 -32 13t-13 32q0 25 22 39q-23 27 -70 47t-104 20q-123 0 -201 -86t-78 -211t77.5 -204.5t190.5 -79.5q111 0 211 72v152
h-190v49h246v-311h-54v60q-99 -72 -217 -72zM382 719q-51 0 -90.5 33.5t-57.5 85.5l40 19q14 -38 44 -59.5t64 -21.5q36 0 65 22.5t43 58.5l40 -19q-18 -52 -57.5 -85.5t-90.5 -33.5z" />
    <glyph glyph-name="gbreve" unicode="&#x11f;" horiz-adv-x="555" 
d="M452 374v-394q0 -76 -38 -120q-50 -60 -162 -60q-90 0 -132 42q-21 21 -21 46q0 21 12.5 34t32.5 13q15 0 24.5 -10.5t9.5 -26.5t-12 -33q24 -19 92 -19q79 0 116 44q27 34 27 85v92q-63 -67 -149 -67q-85 0 -144.5 60.5t-59.5 150.5q0 87 59 152t155 65q82 0 141 -57v49
h119v-46h-70zM260 382q-69 0 -113.5 -50t-44.5 -120q0 -71 43.5 -118.5t109.5 -47.5q82 0 146 71v211q-61 54 -141 54zM285 509q-51 0 -90.5 33.5t-57.5 85.5l40 19q14 -38 44 -59.5t64 -21.5q36 0 65 22.5t43 58.5l40 -19q-18 -52 -57.5 -85.5t-90.5 -33.5z" />
    <glyph glyph-name="Gdotaccent" unicode="&#x120;" horiz-adv-x="742" 
d="M382 -12q-85 0 -157.5 39t-118.5 116.5t-46 178.5q0 153 100.5 250.5t238.5 97.5q103 0 173 -47.5t70 -101.5q0 -24 -13.5 -38.5t-34.5 -14.5q-19 0 -32 13t-13 32q0 25 22 39q-23 27 -70 47t-104 20q-123 0 -201 -86t-78 -211t77.5 -204.5t190.5 -79.5q111 0 211 72v152
h-190v49h246v-311h-54v60q-99 -72 -217 -72zM382 733q-22 0 -36.5 15.5t-14.5 37.5t14.5 37.5t36.5 15.5t36.5 -15.5t14.5 -37.5t-14.5 -37.5t-36.5 -15.5z" />
    <glyph glyph-name="gdotaccent" unicode="&#x121;" horiz-adv-x="555" 
d="M452 374v-394q0 -76 -38 -120q-50 -60 -162 -60q-90 0 -132 42q-21 21 -21 46q0 21 12.5 34t32.5 13q15 0 24.5 -10.5t9.5 -26.5t-12 -33q24 -19 92 -19q79 0 116 44q27 34 27 85v92q-63 -67 -149 -67q-85 0 -144.5 60.5t-59.5 150.5q0 87 59 152t155 65q82 0 141 -57v49
h119v-46h-70zM260 382q-69 0 -113.5 -50t-44.5 -120q0 -71 43.5 -118.5t109.5 -47.5q82 0 146 71v211q-61 54 -141 54zM285 523q-22 0 -36.5 15.5t-14.5 37.5t14.5 37.5t36.5 15.5t36.5 -15.5t14.5 -37.5t-14.5 -37.5t-36.5 -15.5z" />
    <glyph glyph-name="Gcommaaccent" unicode="&#x122;" horiz-adv-x="742" 
d="M382 -12q-85 0 -157.5 39t-118.5 116.5t-46 178.5q0 153 100.5 250.5t238.5 97.5q103 0 173 -47.5t70 -101.5q0 -24 -13.5 -38.5t-34.5 -14.5q-19 0 -32 13t-13 32q0 25 22 39q-23 27 -70 47t-104 20q-123 0 -201 -86t-78 -211t77.5 -204.5t190.5 -79.5q111 0 211 72v152
h-190v49h246v-311h-54v60q-99 -72 -217 -72zM317 -262l-11 18q71 53 73 101q-17 2 -28.5 14.5t-11.5 28.5q0 19 12.5 31.5t29.5 12.5q21 0 34.5 -15.5t13.5 -43.5q0 -37 -27 -77t-85 -70z" />
    <glyph glyph-name="gcommaaccent" unicode="&#x123;" horiz-adv-x="555" 
d="M452 374v-394q0 -76 -38 -120q-50 -60 -162 -60q-90 0 -132 42q-21 21 -21 46q0 21 12.5 34t32.5 13q15 0 24.5 -10.5t9.5 -26.5t-12 -33q24 -19 92 -19q79 0 116 44q27 34 27 85v92q-63 -67 -149 -67q-85 0 -144.5 60.5t-59.5 150.5q0 87 59 152t155 65q82 0 141 -57v49
h119v-46h-70zM260 382q-69 0 -113.5 -50t-44.5 -120q0 -71 43.5 -118.5t109.5 -47.5q82 0 146 71v211q-61 54 -141 54zM338 740l11 -18q-71 -53 -73 -101q17 -2 28.5 -14.5t11.5 -28.5q0 -19 -12.5 -31.5t-29.5 -12.5q-21 0 -34.5 15.5t-13.5 43.5q0 37 27 77t85 70z" />
    <glyph glyph-name="Hbar" unicode="&#x126;" horiz-adv-x="786" 
d="M72 468v48h68v92h-88v50h233v-50h-88v-92h392v92h-88v50h233v-50h-88v-92h68v-48h-68v-418h88v-50h-233v50h88v263h-392v-263h88v-50h-233v50h88v418h-68zM197 364h392v104h-392v-104z" />
    <glyph glyph-name="hbar" unicode="&#x127;" horiz-adv-x="552" 
d="M103 686h-70v46h121v-154h159v-47h-159v-192q32 40 75 64.5t86 24.5q74 0 109 -45q28 -37 28 -98v-239h70v-46h-191v46h70v232q0 48 -21 73q-23 29 -74 29q-82 0 -152 -86v-248h70v-46h-191v46h70v485h-70v47h70v108z" />
    <glyph glyph-name="Imacron" unicode="&#x12a;" horiz-adv-x="349" 
d="M53 0v50h93v558h-93v50h243v-50h-93v-558h93v-50h-243zM29 750v52h290v-52h-290z" />
    <glyph glyph-name="imacron" unicode="&#x12b;" horiz-adv-x="283" 
d="M48 0v46h74v328h-74v46h125v-374h75v-46h-200zM-1 540v52h290v-52h-290z" />
    <glyph glyph-name="Ibreve" unicode="&#x12c;" horiz-adv-x="349" 
d="M53 0v50h93v558h-93v50h243v-50h-93v-558h93v-50h-243zM174 719q-51 0 -90.5 33.5t-57.5 85.5l40 19q14 -38 44 -59.5t64 -21.5q36 0 65 22.5t43 58.5l40 -19q-18 -52 -57.5 -85.5t-90.5 -33.5z" />
    <glyph glyph-name="ibreve" unicode="&#x12d;" horiz-adv-x="283" 
d="M48 0v46h74v328h-74v46h125v-374h75v-46h-200zM144 509q-51 0 -90.5 33.5t-57.5 85.5l40 19q14 -38 44 -59.5t64 -21.5q36 0 65 22.5t43 58.5l40 -19q-18 -52 -57.5 -85.5t-90.5 -33.5z" />
    <glyph glyph-name="Iogonek" unicode="&#x12e;" horiz-adv-x="349" 
d="M53 0v50h93v558h-93v50h243v-50h-93v-558h93v-50h-75q-86 -39 -86 -102q0 -54 57 -54q41 0 81 20l-3 -42q-32 -23 -83 -23q-50 0 -76 24t-26 65q0 66 70 112h-102z" />
    <glyph glyph-name="iogonek" unicode="&#x12f;" horiz-adv-x="283" 
d="M48 0v46h74v328h-74v46h125v-374h75v-46h-65q-86 -39 -86 -102q0 -54 57 -54q41 0 81 20l-3 -42q-32 -23 -83 -23q-50 0 -76 24t-26 65q0 66 70 112h-69zM139 548q-19 0 -33 14t-14 34t14 34t33 14t32.5 -14t13.5 -34t-13.5 -34t-32.5 -14z" />
    <glyph glyph-name="Idotaccent" unicode="&#x130;" horiz-adv-x="349" 
d="M53 0v50h93v558h-93v50h243v-50h-93v-558h93v-50h-243zM174 733q-22 0 -36.5 15.5t-14.5 37.5t14.5 37.5t36.5 15.5t36.5 -15.5t14.5 -37.5t-14.5 -37.5t-36.5 -15.5z" />
    <glyph glyph-name="dotlessi" unicode="&#x131;" horiz-adv-x="283" 
d="M48 0v46h74v328h-74v46h125v-374h75v-46h-200z" />
    <glyph glyph-name="Kcommaaccent" unicode="&#x136;" horiz-adv-x="672" 
d="M52 0v50h88v558h-88v50h233v-50h-88v-315l314 315h-94v50h238v-50h-75l-227 -228l228 -330h81v-50h-119l-231 343l-115 -115v-178h88v-50h-233zM292 -262l-11 18q71 53 73 101q-17 2 -28.5 14.5t-11.5 28.5q0 19 12.5 31.5t29.5 12.5q21 0 34.5 -15.5t13.5 -43.5
q0 -37 -27 -77t-85 -70z" />
    <glyph glyph-name="kcommaaccent" unicode="&#x137;" horiz-adv-x="511" 
d="M33 0v46h70v640h-70v46h121v-530l200 174h-93v44h233v-46h-73l-149 -128l141 -200h81v-46h-109l-150 219l-81 -69v-104h75v-46h-196zM198 -262l-11 18q71 53 73 101q-17 2 -28.5 14.5t-11.5 28.5q0 19 12.5 31.5t29.5 12.5q21 0 34.5 -15.5t13.5 -43.5q0 -37 -27 -77
t-85 -70z" />
    <glyph glyph-name="Lacute" unicode="&#x139;" horiz-adv-x="557" 
d="M52 0v50h88v558h-88v50h238v-50h-93v-558h249v104h55v-154h-449zM149 734l-12 19l125 115q22 20 38 20q14 0 25 -10.5t11 -28.5q0 -21 -35 -39z" />
    <glyph glyph-name="lacute" unicode="&#x13a;" horiz-adv-x="271" 
d="M36 0v46h74v640h-74v46h125v-686h75v-46h-200zM119 764l-12 19l125 115q22 20 38 20q14 0 25 -10.5t11 -28.5q0 -21 -35 -39z" />
    <glyph glyph-name="Lcommaaccent" unicode="&#x13b;" horiz-adv-x="557" 
d="M52 0v50h88v558h-88v50h238v-50h-93v-558h249v104h55v-154h-449zM211 -262l-11 18q71 53 73 101q-17 2 -28.5 14.5t-11.5 28.5q0 19 12.5 31.5t29.5 12.5q21 0 34.5 -15.5t13.5 -43.5q0 -37 -27 -77t-85 -70z" />
    <glyph glyph-name="lcommaaccent" unicode="&#x13c;" horiz-adv-x="271" 
d="M36 0v46h74v640h-74v46h125v-686h75v-46h-200zM71 -262l-11 18q71 53 73 101q-17 2 -28.5 14.5t-11.5 28.5q0 19 12.5 31.5t29.5 12.5q21 0 34.5 -15.5t13.5 -43.5q0 -37 -27 -77t-85 -70z" />
    <glyph glyph-name="Lcaron" unicode="&#x13d;" horiz-adv-x="557" 
d="M52 0v50h88v558h-88v50h238v-50h-93v-558h249v104h55v-154h-449zM339 451l-18 14q34 49 34 99q0 13 -2.5 31t-2.5 27q0 17 9.5 27.5t26.5 10.5q36 0 36 -41q0 -81 -83 -168z" />
    <glyph glyph-name="lcaron" unicode="&#x13e;" horiz-adv-x="271" 
d="M36 0v46h74v640h-74v46h125v-686h75v-46h-200zM216 525l-18 14q34 49 34 99q0 13 -2.5 31t-2.5 27q0 17 9.5 27.5t26.5 10.5q36 0 36 -41q0 -81 -83 -168z" />
    <glyph glyph-name="Ldot" unicode="&#x13f;" horiz-adv-x="557" 
d="M52 0v50h88v558h-88v50h238v-50h-93v-558h249v104h55v-154h-449zM447 294q-22 0 -36.5 15.5t-14.5 37.5t14.5 37.5t36.5 15.5t36.5 -15.5t14.5 -37.5t-14.5 -37.5t-36.5 -15.5z" />
    <glyph glyph-name="ldot" unicode="&#x140;" horiz-adv-x="291" 
d="M36 0v46h74v640h-74v46h125v-686h75v-46h-200zM281 284q-22 0 -36.5 15.5t-14.5 37.5t14.5 37.5t36.5 15.5t36.5 -15.5t14.5 -37.5t-14.5 -37.5t-36.5 -15.5z" />
    <glyph glyph-name="Lslash" unicode="&#x141;" horiz-adv-x="566" 
d="M61 0v50h88v219l-82 -49l-25 42l107 63v283h-88v50h238v-50h-93v-249l155 93l25 -41l-180 -108v-253h249v104h55v-154h-449z" />
    <glyph glyph-name="lslash" unicode="&#x142;" horiz-adv-x="291" 
d="M46 0v46h74v321l-92 -55l-23 39l115 69v266h-74v46h125v-282l80 47l23 -38l-103 -62v-351h75v-46h-200z" />
    <glyph glyph-name="Nacute" unicode="&#x143;" horiz-adv-x="773" 
d="M617 -3l-423 564v-511h88v-50h-230v50h88v558h-88v50h138l405 -541v491h-88v50h227v-50h-85v-611h-32zM348 719l-12 19l125 115q22 20 38 20q14 0 25 -10.5t11 -28.5q0 -21 -35 -39z" />
    <glyph glyph-name="nacute" unicode="&#x144;" horiz-adv-x="559" 
d="M164 420v-83q31 39 75 65t87 26q81 0 113 -54q20 -34 20 -89v-239h70v-46h-191v46h70v232q0 39 -11 61q-21 41 -79 41q-82 0 -152 -86v-248h70v-46h-191v46h70v328h-70v46h119zM250 509l-12 19l125 115q22 20 38 20q14 0 25 -10.5t11 -28.5q0 -21 -35 -39z" />
    <glyph glyph-name="Ncommaaccent" unicode="&#x145;" horiz-adv-x="773" 
d="M617 -3l-423 564v-511h88v-50h-230v50h88v558h-88v50h138l405 -541v491h-88v50h227v-50h-85v-611h-32zM320 -262l-11 18q71 53 73 101q-17 2 -28.5 14.5t-11.5 28.5q0 19 12.5 31.5t29.5 12.5q21 0 34.5 -15.5t13.5 -43.5q0 -37 -27 -77t-85 -70z" />
    <glyph glyph-name="ncommaaccent" unicode="&#x146;" horiz-adv-x="559" 
d="M164 420v-83q31 39 75 65t87 26q81 0 113 -54q20 -34 20 -89v-239h70v-46h-191v46h70v232q0 39 -11 61q-21 41 -79 41q-82 0 -152 -86v-248h70v-46h-191v46h70v328h-70v46h119zM222 -262l-11 18q71 53 73 101q-17 2 -28.5 14.5t-11.5 28.5q0 19 12.5 31.5t29.5 12.5
q21 0 34.5 -15.5t13.5 -43.5q0 -37 -27 -77t-85 -70z" />
    <glyph glyph-name="Ncaron" unicode="&#x147;" horiz-adv-x="773" 
d="M617 -3l-423 564v-511h88v-50h-230v50h88v558h-88v50h138l405 -541v491h-88v50h227v-50h-85v-611h-32zM504 881l25 -30l-144 -134l-144 134l25 30l119 -91z" />
    <glyph glyph-name="ncaron" unicode="&#x148;" horiz-adv-x="559" 
d="M164 420v-83q31 39 75 65t87 26q81 0 113 -54q20 -34 20 -89v-239h70v-46h-191v46h70v232q0 39 -11 61q-21 41 -79 41q-82 0 -152 -86v-248h70v-46h-191v46h70v328h-70v46h119zM406 671l25 -30l-144 -134l-144 134l25 30l119 -91z" />
    <glyph glyph-name="Omacron" unicode="&#x14c;" horiz-adv-x="782" 
d="M389 -12q-140 0 -234.5 98.5t-94.5 241.5q0 145 95 243.5t238 98.5q140 0 234.5 -98.5t94.5 -241.5q0 -145 -95 -243.5t-238 -98.5zM391 40q119 0 196 83t77 205q0 123 -77 206.5t-196 83.5t-196 -83t-77 -205q0 -123 77 -206.5t196 -83.5zM246 750v52h290v-52h-290z" />
    <glyph glyph-name="omacron" unicode="&#x14d;" horiz-adv-x="522" 
d="M261 -8q-94 0 -153.5 63t-59.5 155t59.5 155t153.5 63t153.5 -63t59.5 -155t-59.5 -155t-153.5 -63zM261 38q70 0 114.5 48t44.5 124q0 75 -44.5 123.5t-114.5 48.5t-114.5 -48.5t-44.5 -123.5q0 -76 44.5 -124t114.5 -48zM116 540v52h290v-52h-290z" />
    <glyph glyph-name="Obreve" unicode="&#x14e;" horiz-adv-x="782" 
d="M389 -12q-140 0 -234.5 98.5t-94.5 241.5q0 145 95 243.5t238 98.5q140 0 234.5 -98.5t94.5 -241.5q0 -145 -95 -243.5t-238 -98.5zM391 40q119 0 196 83t77 205q0 123 -77 206.5t-196 83.5t-196 -83t-77 -205q0 -123 77 -206.5t196 -83.5zM391 719q-51 0 -90.5 33.5
t-57.5 85.5l40 19q14 -38 44 -59.5t64 -21.5q36 0 65 22.5t43 58.5l40 -19q-18 -52 -57.5 -85.5t-90.5 -33.5z" />
    <glyph glyph-name="obreve" unicode="&#x14f;" horiz-adv-x="522" 
d="M261 -8q-94 0 -153.5 63t-59.5 155t59.5 155t153.5 63t153.5 -63t59.5 -155t-59.5 -155t-153.5 -63zM261 38q70 0 114.5 48t44.5 124q0 75 -44.5 123.5t-114.5 48.5t-114.5 -48.5t-44.5 -123.5q0 -76 44.5 -124t114.5 -48zM261 509q-51 0 -90.5 33.5t-57.5 85.5l40 19
q14 -38 44 -59.5t64 -21.5q36 0 65 22.5t43 58.5l40 -19q-18 -52 -57.5 -85.5t-90.5 -33.5z" />
    <glyph glyph-name="Ohungarumlaut" unicode="&#x150;" horiz-adv-x="782" 
d="M389 -12q-140 0 -234.5 98.5t-94.5 241.5q0 145 95 243.5t238 98.5q140 0 234.5 -98.5t94.5 -241.5q0 -145 -95 -243.5t-238 -98.5zM391 40q119 0 196 83t77 205q0 123 -77 206.5t-196 83.5t-196 -83t-77 -205q0 -123 77 -206.5t196 -83.5zM271 721l-12 19l126 115
q22 20 38 20q14 0 24 -9.5t10 -26.5q0 -21 -35 -39zM450 726l-10 20l134 106q22 17 37 17t24 -10t9 -25q0 -25 -38 -40z" />
    <glyph glyph-name="ohungarumlaut" unicode="&#x151;" horiz-adv-x="522" 
d="M261 -8q-94 0 -153.5 63t-59.5 155t59.5 155t153.5 63t153.5 -63t59.5 -155t-59.5 -155t-153.5 -63zM261 38q70 0 114.5 48t44.5 124q0 75 -44.5 123.5t-114.5 48.5t-114.5 -48.5t-44.5 -123.5q0 -76 44.5 -124t114.5 -48zM141 511l-12 19l126 115q22 20 38 20
q14 0 24 -9.5t10 -26.5q0 -21 -35 -39zM320 516l-10 20l134 106q22 17 37 17t24 -10t9 -25q0 -25 -38 -40z" />
    <glyph glyph-name="OE" unicode="&#x152;" horiz-adv-x="931" 
d="M418 0q-156 0 -257 89t-101 233q0 149 98 242.5t258 93.5h446v-149h-55v99h-272v-247h223v-50h-223v-261h272v99h55v-149h-444zM419 50h59v558h-67q-139 0 -216 -79t-77 -209q0 -122 84 -196t217 -74z" />
    <glyph glyph-name="oe" unicode="&#x153;" horiz-adv-x="842" 
d="M639 39q40 0 71 11t74 36l-5 -52q-65 -42 -147 -42q-68 0 -116.5 30t-73.5 83q-24 -52 -71 -82.5t-110 -30.5q-94 0 -153.5 63t-59.5 155t59.5 155t153.5 63q64 0 111 -31t70 -83q23 52 67 83t106 31q87 0 137 -58t50 -139q0 -19 -3 -33h-333q6 -78 51 -118.5t122 -40.5z
M261 38q70 0 114.5 48t44.5 124q0 75 -44.5 123.5t-114.5 48.5t-114.5 -48.5t-44.5 -123.5q0 -76 44.5 -124t114.5 -48zM610 382q-56 0 -96 -38t-47 -101h283q-5 64 -40.5 101.5t-99.5 37.5z" />
    <glyph glyph-name="Racute" unicode="&#x154;" horiz-adv-x="617" 
d="M52 0v50h88v558h-88v50h247q106 0 168.5 -51.5t62.5 -135.5q0 -67 -40.5 -114t-108.5 -67l154 -240h81v-50h-120l-175 278q-24 -2 -38 -2q-42 0 -86 2v-228h88v-50h-233zM285 326q83 0 135.5 37.5t52.5 106.5q0 66 -47.5 102t-129.5 36h-99v-280q48 -2 88 -2zM274 719
l-12 19l125 115q22 20 38 20q14 0 25 -10.5t11 -28.5q0 -21 -35 -39z" />
    <glyph glyph-name="racute" unicode="&#x155;" horiz-adv-x="355" 
d="M289 428q27 0 42 -14t15 -34q0 -17 -12 -30t-29 -13q-16 0 -28 10t-17 24q-24 -7 -50.5 -33t-43.5 -60v-232h82v-46h-203v46h70v328h-70v46h119v-95q23 44 58.5 73.5t66.5 29.5zM158 509l-12 19l125 115q22 20 38 20q14 0 25 -10.5t11 -28.5q0 -21 -35 -39z" />
    <glyph glyph-name="Rcommaaccent" unicode="&#x156;" horiz-adv-x="617" 
d="M52 0v50h88v558h-88v50h247q106 0 168.5 -51.5t62.5 -135.5q0 -67 -40.5 -114t-108.5 -67l154 -240h81v-50h-120l-175 278q-24 -2 -38 -2q-42 0 -86 2v-228h88v-50h-233zM285 326q83 0 135.5 37.5t52.5 106.5q0 66 -47.5 102t-129.5 36h-99v-280q48 -2 88 -2zM246 -262
l-11 18q71 53 73 101q-17 2 -28.5 14.5t-11.5 28.5q0 19 12.5 31.5t29.5 12.5q21 0 34.5 -15.5t13.5 -43.5q0 -37 -27 -77t-85 -70z" />
    <glyph glyph-name="rcommaaccent" unicode="&#x157;" horiz-adv-x="355" 
d="M289 428q27 0 42 -14t15 -34q0 -17 -12 -30t-29 -13q-16 0 -28 10t-17 24q-24 -7 -50.5 -33t-43.5 -60v-232h82v-46h-203v46h70v328h-70v46h119v-95q23 44 58.5 73.5t66.5 29.5zM72 -262l-11 18q71 53 73 101q-17 2 -28.5 14.5t-11.5 28.5q0 19 12.5 31.5t29.5 12.5
q21 0 34.5 -15.5t13.5 -43.5q0 -37 -27 -77t-85 -70z" />
    <glyph glyph-name="Rcaron" unicode="&#x158;" horiz-adv-x="617" 
d="M52 0v50h88v558h-88v50h247q106 0 168.5 -51.5t62.5 -135.5q0 -67 -40.5 -114t-108.5 -67l154 -240h81v-50h-120l-175 278q-24 -2 -38 -2q-42 0 -86 2v-228h88v-50h-233zM285 326q83 0 135.5 37.5t52.5 106.5q0 66 -47.5 102t-129.5 36h-99v-280q48 -2 88 -2zM430 881
l25 -30l-144 -134l-144 134l25 30l119 -91z" />
    <glyph glyph-name="rcaron" unicode="&#x159;" horiz-adv-x="355" 
d="M289 428q27 0 42 -14t15 -34q0 -17 -12 -30t-29 -13q-16 0 -28 10t-17 24q-24 -7 -50.5 -33t-43.5 -60v-232h82v-46h-203v46h70v328h-70v46h119v-95q23 44 58.5 73.5t66.5 29.5zM314 671l25 -30l-144 -134l-144 134l25 30l119 -91z" />
    <glyph glyph-name="Sacute" unicode="&#x15a;" horiz-adv-x="547" 
d="M273 -11q-90 0 -150.5 41t-60.5 88q0 25 13.5 40.5t32.5 15.5t31 -12t12 -29q0 -24 -20 -46q18 -20 56.5 -33.5t87.5 -13.5q70 0 110.5 35t40.5 93q0 50 -36.5 80t-107.5 58q-48 19 -78 34t-59.5 38t-43.5 53t-14 70q0 75 53.5 122t142.5 47q75 0 130.5 -38t55.5 -87
q0 -23 -13 -36.5t-32 -13.5t-32 12.5t-13 31.5q0 21 18 41q-13 17 -48.5 28t-67.5 11q-63 0 -100.5 -32t-37.5 -82q0 -52 37.5 -82t117.5 -62q45 -18 73.5 -32.5t56.5 -36.5t41 -51.5t13 -68.5q0 -83 -59 -133t-150 -50zM246 719l-12 19l125 115q22 20 38 20q14 0 25 -10.5
t11 -28.5q0 -21 -35 -39z" />
    <glyph glyph-name="sacute" unicode="&#x15b;" horiz-adv-x="428" 
d="M362 341q0 -18 -10 -29t-26 -11q-17 0 -28.5 11t-11.5 28q0 16 7 26q-26 18 -81 18q-46 0 -74 -21t-28 -49q0 -29 26.5 -43t89.5 -30q28 -7 46 -12.5t41 -16t36 -22.5t22.5 -31.5t9.5 -44.5q0 -55 -47.5 -88.5t-116.5 -33.5q-100 0 -147 47q-23 23 -23 51q0 17 10.5 29
t26.5 12q18 0 28.5 -10.5t10.5 -26.5q0 -14 -9 -29q10 -11 38 -20t64 -9q50 0 82.5 20.5t32.5 54.5q0 31 -27 47t-80 29q-85 21 -125 45.5t-40 79.5q0 48 43 82t111 34q87 0 128 -41q21 -21 21 -46zM177 509l-12 19l125 115q22 20 38 20q14 0 25 -10.5t11 -28.5
q0 -21 -35 -39z" />
    <glyph glyph-name="Scedilla" unicode="&#x15e;" horiz-adv-x="547" 
d="M274 -199q-56 0 -106 26l14 32q42 -19 87 -19q44 0 44 31q0 33 -50 33q-13 0 -22 -3l-17 12l21 77q-80 7 -131.5 46t-51.5 82q0 25 13.5 40.5t32.5 15.5t31 -12t12 -29q0 -24 -20 -46q18 -20 56.5 -33.5t87.5 -13.5q70 0 110.5 35t40.5 93q0 50 -36.5 80t-107.5 58
q-48 19 -78 34t-59.5 38t-43.5 53t-14 70q0 75 53.5 122t142.5 47q75 0 130.5 -38t55.5 -87q0 -23 -13 -36.5t-32 -13.5t-32 12.5t-13 31.5q0 21 18 41q-13 17 -48.5 28t-67.5 11q-63 0 -100.5 -32t-37.5 -82q0 -52 37.5 -82t117.5 -62q45 -18 73.5 -32.5t56.5 -36.5
t41 -51.5t13 -68.5q0 -81 -56.5 -131t-145.5 -52l-4 -39q43 -1 65.5 -22t22.5 -52q0 -32 -23.5 -53.5t-66.5 -21.5z" />
    <glyph glyph-name="scedilla" unicode="&#x15f;" horiz-adv-x="428" 
d="M222 -199q-56 0 -106 26l14 32q42 -19 87 -19q44 0 44 31q0 33 -50 33q-13 0 -22 -3l-17 12l22 80q-86 7 -124 46q-23 23 -23 51q0 17 10.5 29t26.5 12q18 0 28.5 -10.5t10.5 -26.5q0 -14 -9 -29q10 -11 38 -20t64 -9q50 0 82.5 20.5t32.5 54.5q0 31 -27 47t-80 29
q-85 21 -125 45.5t-40 79.5q0 48 43 82t111 34q87 0 128 -41q21 -21 21 -46q0 -18 -10 -29t-26 -11q-17 0 -28.5 11t-11.5 28q0 16 7 26q-26 18 -81 18q-46 0 -74 -21t-28 -49q0 -29 26.5 -43t89.5 -30q28 -7 46 -12.5t41 -16t36 -22.5t22.5 -31.5t9.5 -44.5
q0 -53 -44 -85.5t-108 -35.5l-5 -43q43 -1 65.5 -22t22.5 -52q0 -32 -23.5 -53.5t-66.5 -21.5z" />
    <glyph glyph-name="Scaron" unicode="&#x160;" horiz-adv-x="547" 
d="M273 -11q-90 0 -150.5 41t-60.5 88q0 25 13.5 40.5t32.5 15.5t31 -12t12 -29q0 -24 -20 -46q18 -20 56.5 -33.5t87.5 -13.5q70 0 110.5 35t40.5 93q0 50 -36.5 80t-107.5 58q-48 19 -78 34t-59.5 38t-43.5 53t-14 70q0 75 53.5 122t142.5 47q75 0 130.5 -38t55.5 -87
q0 -23 -13 -36.5t-32 -13.5t-32 12.5t-13 31.5q0 21 18 41q-13 17 -48.5 28t-67.5 11q-63 0 -100.5 -32t-37.5 -82q0 -52 37.5 -82t117.5 -62q45 -18 73.5 -32.5t56.5 -36.5t41 -51.5t13 -68.5q0 -83 -59 -133t-150 -50zM402 881l25 -30l-144 -134l-144 134l25 30l119 -91z
" />
    <glyph glyph-name="scaron" unicode="&#x161;" horiz-adv-x="428" 
d="M362 341q0 -18 -10 -29t-26 -11q-17 0 -28.5 11t-11.5 28q0 16 7 26q-26 18 -81 18q-46 0 -74 -21t-28 -49q0 -29 26.5 -43t89.5 -30q28 -7 46 -12.5t41 -16t36 -22.5t22.5 -31.5t9.5 -44.5q0 -55 -47.5 -88.5t-116.5 -33.5q-100 0 -147 47q-23 23 -23 51q0 17 10.5 29
t26.5 12q18 0 28.5 -10.5t10.5 -26.5q0 -14 -9 -29q10 -11 38 -20t64 -9q50 0 82.5 20.5t32.5 54.5q0 31 -27 47t-80 29q-85 21 -125 45.5t-40 79.5q0 48 43 82t111 34q87 0 128 -41q21 -21 21 -46zM333 671l25 -30l-144 -134l-144 134l25 30l119 -91z" />
    <glyph glyph-name="Tcommaaccent" unicode="&#x162;" horiz-adv-x="637" 
d="M197 0v50h93v560h-185v-106h-55v154h537v-154h-55v106h-185v-560h93v-50h-243zM253 -262l-11 18q71 53 73 101q-17 2 -28.5 14.5t-11.5 28.5q0 19 12.5 31.5t29.5 12.5q21 0 34.5 -15.5t13.5 -43.5q0 -37 -27 -77t-85 -70z" />
    <glyph glyph-name="tcommaaccent" unicode="&#x163;" horiz-adv-x="317" 
d="M188 -8q-62 0 -83 46q-10 20 -10 54v282h-76v46h76v109l51 18v-127h130v-46h-130v-277q0 -21 6 -34q12 -22 52 -22q33 0 77 27l-8 -53q-44 -23 -85 -23zM114 -262l-11 18q71 53 73 101q-17 2 -28.5 14.5t-11.5 28.5q0 19 12.5 31.5t29.5 12.5q21 0 34.5 -15.5t13.5 -43.5
q0 -37 -27 -77t-85 -70z" />
    <glyph glyph-name="Tcaron" unicode="&#x164;" horiz-adv-x="637" 
d="M197 0v50h93v560h-185v-106h-55v154h537v-154h-55v106h-185v-560h93v-50h-243zM437 881l25 -30l-144 -134l-144 134l25 30l119 -91z" />
    <glyph glyph-name="tcaron" unicode="&#x165;" horiz-adv-x="317" 
d="M188 -8q-62 0 -83 46q-10 20 -10 54v282h-76v46h76v109l51 18v-127h130v-46h-130v-277q0 -21 6 -34q12 -22 52 -22q33 0 77 27l-8 -53q-44 -23 -85 -23zM211 474l-18 14q34 49 34 99q0 13 -2.5 31t-2.5 27q0 17 9.5 27.5t26.5 10.5q36 0 36 -41q0 -81 -83 -168z" />
    <glyph glyph-name="Umacron" unicode="&#x16a;" horiz-adv-x="718" 
d="M357 -12q-112 0 -172.5 61.5t-60.5 171.5v387h-88v50h233v-50h-90v-382q0 -93 46 -139.5t133 -46.5t134 46t47 138v384h-90v50h233v-50h-88v-383q0 -112 -62.5 -174.5t-174.5 -62.5zM214 750v52h290v-52h-290z" />
    <glyph glyph-name="umacron" unicode="&#x16b;" horiz-adv-x="547" 
d="M233 -8q-82 0 -114 56q-19 35 -19 87v239h-70v46h121v-278q0 -37 13 -63q20 -39 77 -39q73 0 152 86v248h-70v46h121v-374h70v-46h-119v83q-31 -39 -75 -65t-87 -26zM124 540v52h290v-52h-290z" />
    <glyph glyph-name="Ubreve" unicode="&#x16c;" horiz-adv-x="718" 
d="M357 -12q-112 0 -172.5 61.5t-60.5 171.5v387h-88v50h233v-50h-90v-382q0 -93 46 -139.5t133 -46.5t134 46t47 138v384h-90v50h233v-50h-88v-383q0 -112 -62.5 -174.5t-174.5 -62.5zM359 719q-51 0 -90.5 33.5t-57.5 85.5l40 19q14 -38 44 -59.5t64 -21.5q36 0 65 22.5
t43 58.5l40 -19q-18 -52 -57.5 -85.5t-90.5 -33.5z" />
    <glyph glyph-name="ubreve" unicode="&#x16d;" horiz-adv-x="547" 
d="M233 -8q-82 0 -114 56q-19 35 -19 87v239h-70v46h121v-278q0 -37 13 -63q20 -39 77 -39q73 0 152 86v248h-70v46h121v-374h70v-46h-119v83q-31 -39 -75 -65t-87 -26zM269 509q-51 0 -90.5 33.5t-57.5 85.5l40 19q14 -38 44 -59.5t64 -21.5q36 0 65 22.5t43 58.5l40 -19
q-18 -52 -57.5 -85.5t-90.5 -33.5z" />
    <glyph glyph-name="Uring" unicode="&#x16e;" horiz-adv-x="718" 
d="M357 -12q-112 0 -172.5 61.5t-60.5 171.5v387h-88v50h233v-50h-90v-382q0 -93 46 -139.5t133 -46.5t134 46t47 138v384h-90v50h233v-50h-88v-383q0 -112 -62.5 -174.5t-174.5 -62.5zM359 708q-41 0 -70 30t-29 72t29 72t70 30t70 -30t29 -72t-29 -72t-70 -30zM359 749
q25 0 41 17.5t16 43.5t-16 43.5t-41 17.5t-41 -17.5t-16 -43.5t16 -43.5t41 -17.5z" />
    <glyph glyph-name="uring" unicode="&#x16f;" horiz-adv-x="547" 
d="M233 -8q-82 0 -114 56q-19 35 -19 87v239h-70v46h121v-278q0 -37 13 -63q20 -39 77 -39q73 0 152 86v248h-70v46h121v-374h70v-46h-119v83q-31 -39 -75 -65t-87 -26zM269 498q-41 0 -70 30t-29 72t29 72t70 30t70 -30t29 -72t-29 -72t-70 -30zM269 539q25 0 41 17.5
t16 43.5t-16 43.5t-41 17.5t-41 -17.5t-16 -43.5t16 -43.5t41 -17.5z" />
    <glyph glyph-name="Uhungarumlaut" unicode="&#x170;" horiz-adv-x="718" 
d="M357 -12q-112 0 -172.5 61.5t-60.5 171.5v387h-88v50h233v-50h-90v-382q0 -93 46 -139.5t133 -46.5t134 46t47 138v384h-90v50h233v-50h-88v-383q0 -112 -62.5 -174.5t-174.5 -62.5zM239 721l-12 19l126 115q22 20 38 20q14 0 24 -9.5t10 -26.5q0 -21 -35 -39zM418 726
l-10 20l134 106q22 17 37 17t24 -10t9 -25q0 -25 -38 -40z" />
    <glyph glyph-name="uhungarumlaut" unicode="&#x171;" horiz-adv-x="547" 
d="M233 -8q-82 0 -114 56q-19 35 -19 87v239h-70v46h121v-278q0 -37 13 -63q20 -39 77 -39q73 0 152 86v248h-70v46h121v-374h70v-46h-119v83q-31 -39 -75 -65t-87 -26zM149 511l-12 19l126 115q22 20 38 20q14 0 24 -9.5t10 -26.5q0 -21 -35 -39zM328 516l-10 20l134 106
q22 17 37 17t24 -10t9 -25q0 -25 -38 -40z" />
    <glyph glyph-name="Uogonek" unicode="&#x172;" horiz-adv-x="718" 
d="M385 -201q-50 0 -76 24t-26 65q0 57 54 101q-103 5 -158 65.5t-55 166.5v387h-88v50h233v-50h-90v-382q0 -93 46 -139.5t133 -46.5t134 46t47 138v384h-90v50h233v-50h-88v-383q0 -101 -50.5 -162t-142.5 -72q-68 -38 -68 -93q0 -54 57 -54q41 0 81 20l-3 -42
q-32 -23 -83 -23z" />
    <glyph glyph-name="uogonek" unicode="&#x173;" horiz-adv-x="547" 
d="M425 -201q-50 0 -76 24t-26 65q0 68 72 113v82q-31 -39 -75 -65t-87 -26q-82 0 -114 56q-19 35 -19 87v239h-70v46h121v-278q0 -37 13 -63q20 -39 77 -39q73 0 152 86v248h-70v46h121v-374h70v-46h-55q-86 -39 -86 -102q0 -54 57 -54q41 0 81 20l-3 -42q-32 -23 -83 -23z
" />
    <glyph glyph-name="Wcircumflex" unicode="&#x174;" horiz-adv-x="975" 
d="M289 -12l-190 620h-79v50h219v-50h-81l152 -513l166 478h32l167 -477l150 512h-84v50h218v-50h-79l-187 -620h-34l-167 475l-169 -475h-34zM370 713l-25 30l144 134l144 -134l-25 -30l-119 91z" />
    <glyph glyph-name="wcircumflex" unicode="&#x175;" horiz-adv-x="682" 
d="M191 -18l-121 392h-62v46h184v-44h-70l85 -294l125 289h20l125 -288l85 293h-72v44h184v-46h-63l-120 -392h-20l-130 300l-130 -300h-20zM222 503l-25 30l144 134l144 -134l-25 -30l-119 91z" />
    <glyph glyph-name="Ycircumflex" unicode="&#x176;" horiz-adv-x="641" 
d="M194 0v50h97v219l-198 339h-72v50h209v-50h-72l163 -290l165 290h-75v50h209v-50h-73l-198 -338v-220h97v-50h-252zM201 713l-25 30l144 134l144 -134l-25 -30l-119 91z" />
    <glyph glyph-name="ycircumflex" unicode="&#x177;" horiz-adv-x="504" 
d="M202 -122q-50 -78 -107 -78q-26 0 -45.5 13.5t-19.5 36.5q0 17 10.5 28t26.5 11t28 -12t16 -28q29 11 58 58q15 25 38 72l22 46l-162 349h-60v46h186v-46h-68q8 -19 21.5 -49t42 -94.5t47.5 -106.5l18 -43l131 293h-71v46h183v-46h-60l-200 -431q-19 -40 -35 -65z
M133 503l-25 30l144 134l144 -134l-25 -30l-119 91z" />
    <glyph glyph-name="Ydieresis" unicode="&#x178;" horiz-adv-x="641" 
d="M194 0v50h97v219l-198 339h-72v50h209v-50h-72l163 -290l165 290h-75v50h209v-50h-73l-198 -338v-220h97v-50h-252zM400 735q-21 0 -35 15t-14 36t14 36t35 15t35 -15t14 -36t-14 -36t-35 -15zM240 735q-21 0 -35 15t-14 36t14 36t35 15t35 -15t14 -36t-14 -36t-35 -15z
" />
    <glyph glyph-name="Zacute" unicode="&#x179;" horiz-adv-x="597" 
d="M45 0v24l417 587h-340v-102h-55v149h478v-24l-417 -587h369v102h55v-149h-507zM261 719l-12 19l125 115q22 20 38 20q14 0 25 -10.5t11 -28.5q0 -21 -35 -39z" />
    <glyph glyph-name="zacute" unicode="&#x17a;" horiz-adv-x="444" 
d="M40 0v16l277 360h-212v-84h-47v128h343v-16l-277 -360h234v84h47v-128h-365zM185 509l-12 19l125 115q22 20 38 20q14 0 25 -10.5t11 -28.5q0 -21 -35 -39z" />
    <glyph glyph-name="Zdotaccent" unicode="&#x17b;" horiz-adv-x="597" 
d="M45 0v24l417 587h-340v-102h-55v149h478v-24l-417 -587h369v102h55v-149h-507zM298 733q-22 0 -36.5 15.5t-14.5 37.5t14.5 37.5t36.5 15.5t36.5 -15.5t14.5 -37.5t-14.5 -37.5t-36.5 -15.5z" />
    <glyph glyph-name="zdotaccent" unicode="&#x17c;" horiz-adv-x="444" 
d="M40 0v16l277 360h-212v-84h-47v128h343v-16l-277 -360h234v84h47v-128h-365zM222 523q-22 0 -36.5 15.5t-14.5 37.5t14.5 37.5t36.5 15.5t36.5 -15.5t14.5 -37.5t-14.5 -37.5t-36.5 -15.5z" />
    <glyph glyph-name="Zcaron" unicode="&#x17d;" horiz-adv-x="597" 
d="M45 0v24l417 587h-340v-102h-55v149h478v-24l-417 -587h369v102h55v-149h-507zM417 881l25 -30l-144 -134l-144 134l25 30l119 -91z" />
    <glyph glyph-name="zcaron" unicode="&#x17e;" horiz-adv-x="444" 
d="M40 0v16l277 360h-212v-84h-47v128h343v-16l-277 -360h234v84h47v-128h-365zM341 671l25 -30l-144 -134l-144 134l25 30l119 -91z" />
    <glyph glyph-name="Aringacute" unicode="&#x1fa;" horiz-adv-x="710" 
d="M453 730q0 -44 -33 -72h69v-50h-76l211 -558h66v-50h-205v50h77l-69 186h-279l-69 -186h80v-50h-205v50h66l211 558h-76v50h66q-32 30 -32 72q0 39 29 68t70 29t70 -29t29 -68zM232 285h243l-121 328zM354 664q25 0 41 17.5t16 43.5t-16 43.5t-41 17.5t-41 -17.5
t-16 -43.5t16 -43.5t41 -17.5zM317 868l-12 19l125 115q22 20 38 20q14 0 25 -10.5t11 -28.5q0 -21 -35 -39z" />
    <glyph glyph-name="aringacute" unicode="&#x1fb;" horiz-adv-x="485" 
d="M190 -8q-63 0 -102 34.5t-39 87.5q0 56 45 91.5t114 35.5q32 0 71.5 -8t56.5 -16v70q0 37 -20 60q-32 35 -96 35q-44 0 -76 -22q7 -14 7 -27q0 -16 -10.5 -27t-27.5 -11q-18 0 -28.5 11.5t-10.5 28.5q0 37 42 65t110 28q85 0 128 -46q31 -32 31 -83v-253h70v-46h-117v57
q-28 -28 -67.5 -46.5t-80.5 -18.5zM200 37q76 0 136 69v71q-65 21 -126 21q-53 0 -81.5 -22.5t-28.5 -58.5q0 -35 26 -57.5t74 -22.5zM243 498q-41 0 -70 30t-29 72t29 72t70 30t70 -30t29 -72t-29 -72t-70 -30zM243 539q25 0 41 17.5t16 43.5t-16 43.5t-41 17.5t-41 -17.5
t-16 -43.5t16 -43.5t41 -17.5zM206 753l-12 19l125 115q22 20 38 20q14 0 25 -10.5t11 -28.5q0 -21 -35 -39z" />
    <glyph glyph-name="AEacute" unicode="&#x1fc;" horiz-adv-x="875" 
d="M-8 0v50h77l279 558h-68v50h526v-149h-55v99h-272v-247h223v-50h-223v-261h272v99h55v-149h-462v50h78v186h-204l-93 -186h72v-50h-205zM242 285h180v323h-18zM449 719l-12 19l125 115q22 20 38 20q14 0 25 -10.5t11 -28.5q0 -21 -35 -39z" />
    <glyph glyph-name="aeacute" unicode="&#x1fd;" horiz-adv-x="756" 
d="M220 381q-45 0 -76 -21q7 -14 7 -27q0 -16 -10.5 -27t-27.5 -11q-18 0 -28.5 11.5t-10.5 28.5q0 37 42 65t110 28q85 0 126 -51q13 -19 18 -32q56 83 157 83q87 0 137 -58t50 -139q0 -19 -3 -33h-333q5 -80 49.5 -119.5t123.5 -39.5q40 0 71 11t74 36l-5 -52
q-65 -42 -147 -42q-119 0 -174 82q-82 -82 -180 -82q-63 0 -102 34.5t-39 87.5q0 56 45 91.5t114 35.5q32 0 71.5 -8t56.5 -16v65q0 37 -21 61q-31 38 -95 38zM200 37q76 0 154 68q-13 31 -18 71q-64 22 -126 22q-53 0 -81.5 -22.5t-28.5 -58.5q0 -35 26 -57.5t74 -22.5z
M522 382q-56 0 -96 -38t-47 -101h283q-5 64 -40.5 101.5t-99.5 37.5zM344 509l-12 19l125 115q22 20 38 20q14 0 25 -10.5t11 -28.5q0 -21 -35 -39z" />
    <glyph glyph-name="Oslashacute" unicode="&#x1fe;" horiz-adv-x="782" 
d="M389 -12q-118 0 -205 71l-83 -97l-36 31l85 98q-90 98 -90 237q0 145 95 243.5t238 98.5q111 0 197 -65l79 92l36 -31l-80 -92q97 -99 97 -244t-95 -243.5t-238 -98.5zM391 40q119 0 196 83t77 205q0 127 -75 208l-372 -437q72 -59 174 -59zM118 330q0 -120 69 -202
l370 437q-72 53 -166 53q-119 0 -196 -83t-77 -205zM354 719l-12 19l125 115q22 20 38 20q14 0 25 -10.5t11 -28.5q0 -21 -35 -39z" />
    <glyph glyph-name="oslashacute" unicode="&#x1ff;" horiz-adv-x="522" 
d="M261 -8q-69 0 -123 40l-50 -59l-36 30l51 60q-55 61 -55 147q0 92 59.5 155t153.5 63q70 0 125 -41l49 58l36 -30l-51 -60q54 -62 54 -145q0 -92 -59.5 -155t-153.5 -63zM102 210q0 -68 36 -115l218 256q-40 31 -95 31q-70 0 -114.5 -48.5t-44.5 -123.5zM261 38
q70 0 114.5 48t44.5 124q0 64 -35 112l-218 -255q42 -29 94 -29zM224 509l-12 19l125 115q22 20 38 20q14 0 25 -10.5t11 -28.5q0 -21 -35 -39z" />
    <glyph glyph-name="Scommaaccent" unicode="&#x218;" horiz-adv-x="547" 
d="M273 -11q-90 0 -150.5 41t-60.5 88q0 25 13.5 40.5t32.5 15.5t31 -12t12 -29q0 -24 -20 -46q18 -20 56.5 -33.5t87.5 -13.5q70 0 110.5 35t40.5 93q0 50 -36.5 80t-107.5 58q-48 19 -78 34t-59.5 38t-43.5 53t-14 70q0 75 53.5 122t142.5 47q75 0 130.5 -38t55.5 -87
q0 -23 -13 -36.5t-32 -13.5t-32 12.5t-13 31.5q0 21 18 41q-13 17 -48.5 28t-67.5 11q-63 0 -100.5 -32t-37.5 -82q0 -52 37.5 -82t117.5 -62q45 -18 73.5 -32.5t56.5 -36.5t41 -51.5t13 -68.5q0 -83 -59 -133t-150 -50zM218 -262l-11 18q71 53 73 101q-17 2 -28.5 14.5
t-11.5 28.5q0 19 12.5 31.5t29.5 12.5q21 0 34.5 -15.5t13.5 -43.5q0 -37 -27 -77t-85 -70z" />
    <glyph glyph-name="scommaaccent" unicode="&#x219;" horiz-adv-x="428" 
d="M362 341q0 -18 -10 -29t-26 -11q-17 0 -28.5 11t-11.5 28q0 16 7 26q-26 18 -81 18q-46 0 -74 -21t-28 -49q0 -29 26.5 -43t89.5 -30q28 -7 46 -12.5t41 -16t36 -22.5t22.5 -31.5t9.5 -44.5q0 -55 -47.5 -88.5t-116.5 -33.5q-100 0 -147 47q-23 23 -23 51q0 17 10.5 29
t26.5 12q18 0 28.5 -10.5t10.5 -26.5q0 -14 -9 -29q10 -11 38 -20t64 -9q50 0 82.5 20.5t32.5 54.5q0 31 -27 47t-80 29q-85 21 -125 45.5t-40 79.5q0 48 43 82t111 34q87 0 128 -41q21 -21 21 -46zM149 -262l-11 18q71 53 73 101q-17 2 -28.5 14.5t-11.5 28.5
q0 19 12.5 31.5t29.5 12.5q21 0 34.5 -15.5t13.5 -43.5q0 -37 -27 -77t-85 -70z" />
    <glyph glyph-name="schwa" unicode="&#x259;" horiz-adv-x="478" 
d="M231 -8q-87 0 -137 58t-50 139q0 19 3 33h332q-5 78 -50.5 118.5t-121.5 40.5q-40 0 -71 -11t-74 -36l5 52q64 42 147 42q99 0 159.5 -60.5t60.5 -156.5q0 -90 -55.5 -154.5t-147.5 -64.5zM236 38q55 0 95 38t47 101h-282q5 -64 40.5 -101.5t99.5 -37.5z" />
    <glyph glyph-name="circumflex" unicode="&#x2c6;" horiz-adv-x="500" 
d="M131 503l-25 30l144 134l144 -134l-25 -30l-119 91z" />
    <glyph glyph-name="caron" unicode="&#x2c7;" horiz-adv-x="500" 
d="M369 671l25 -30l-144 -134l-144 134l25 30l119 -91z" />
    <glyph glyph-name="breve" unicode="&#x2d8;" horiz-adv-x="500" 
d="M250 509q-51 0 -90.5 33.5t-57.5 85.5l40 19q14 -38 44 -59.5t64 -21.5q36 0 65 22.5t43 58.5l40 -19q-18 -52 -57.5 -85.5t-90.5 -33.5z" />
    <glyph glyph-name="dotaccent" unicode="&#x2d9;" horiz-adv-x="500" 
d="M250 523q-22 0 -36.5 15.5t-14.5 37.5t14.5 37.5t36.5 15.5t36.5 -15.5t14.5 -37.5t-14.5 -37.5t-36.5 -15.5z" />
    <glyph glyph-name="ring" unicode="&#x2da;" horiz-adv-x="500" 
d="M250 498q-41 0 -70 30t-29 72t29 72t70 30t70 -30t29 -72t-29 -72t-70 -30zM250 539q25 0 41 17.5t16 43.5t-16 43.5t-41 17.5t-41 -17.5t-16 -43.5t16 -43.5t41 -17.5z" />
    <glyph glyph-name="ogonek" unicode="&#x2db;" horiz-adv-x="506" 
d="M254 -201q-50 0 -76 24t-26 65q0 47 38.5 85.5t93.5 55.5l48 -14q-57 -15 -93.5 -46.5t-36.5 -70.5q0 -54 57 -54q41 0 81 20l-3 -42q-32 -23 -83 -23z" />
    <glyph glyph-name="tilde" unicode="&#x2dc;" horiz-adv-x="500" 
d="M319 510q-41 0 -88 39q-31 25 -47 25q-36 0 -43 -58l-45 9q1 42 26.5 72.5t58.5 30.5q41 0 88 -39q31 -25 47 -25q36 0 43 58l45 -9q-1 -42 -26.5 -72.5t-58.5 -30.5z" />
    <glyph glyph-name="hungarumlaut" unicode="&#x2dd;" horiz-adv-x="500" 
d="M60 511l-12 19l126 115q22 20 38 20q14 0 24 -9.5t10 -26.5q0 -21 -35 -39zM239 516l-10 20l134 106q22 17 37 17t24 -10t9 -25q0 -25 -38 -40z" />
    <glyph glyph-name="commaaccent" unicode="&#x326;" horiz-adv-x="230" 
d="M66 -262l-11 18q71 53 73 101q-17 2 -28.5 14.5t-11.5 28.5q0 19 12.5 31.5t29.5 12.5q21 0 34.5 -15.5t13.5 -43.5q0 -37 -27 -77t-85 -70z" />
    <glyph glyph-name="Wgrave" unicode="&#x1e80;" horiz-adv-x="975" 
d="M289 -12l-190 620h-79v50h219v-50h-81l152 -513l166 478h32l167 -477l150 512h-84v50h218v-50h-79l-187 -620h-34l-167 475l-169 -475h-34zM526 719l-152 76q-35 18 -35 39q0 18 11 28.5t25 10.5q16 0 38 -20l125 -115z" />
    <glyph glyph-name="wgrave" unicode="&#x1e81;" horiz-adv-x="682" 
d="M191 -18l-121 392h-62v46h184v-44h-70l85 -294l125 289h20l125 -288l85 293h-72v44h184v-46h-63l-120 -392h-20l-130 300l-130 -300h-20zM378 509l-152 76q-35 18 -35 39q0 18 11 28.5t25 10.5q16 0 38 -20l125 -115z" />
    <glyph glyph-name="Wacute" unicode="&#x1e82;" horiz-adv-x="975" 
d="M289 -12l-190 620h-79v50h219v-50h-81l152 -513l166 478h32l167 -477l150 512h-84v50h218v-50h-79l-187 -620h-34l-167 475l-169 -475h-34zM452 719l-12 19l125 115q22 20 38 20q14 0 25 -10.5t11 -28.5q0 -21 -35 -39z" />
    <glyph glyph-name="wacute" unicode="&#x1e83;" horiz-adv-x="682" 
d="M191 -18l-121 392h-62v46h184v-44h-70l85 -294l125 289h20l125 -288l85 293h-72v44h184v-46h-63l-120 -392h-20l-130 300l-130 -300h-20zM304 509l-12 19l125 115q22 20 38 20q14 0 25 -10.5t11 -28.5q0 -21 -35 -39z" />
    <glyph glyph-name="Wdieresis" unicode="&#x1e84;" horiz-adv-x="975" 
d="M289 -12l-190 620h-79v50h219v-50h-81l152 -513l166 478h32l167 -477l150 512h-84v50h218v-50h-79l-187 -620h-34l-167 475l-169 -475h-34zM569 735q-21 0 -35 15t-14 36t14 36t35 15t35 -15t14 -36t-14 -36t-35 -15zM409 735q-21 0 -35 15t-14 36t14 36t35 15t35 -15
t14 -36t-14 -36t-35 -15z" />
    <glyph glyph-name="wdieresis" unicode="&#x1e85;" horiz-adv-x="682" 
d="M191 -18l-121 392h-62v46h184v-44h-70l85 -294l125 289h20l125 -288l85 293h-72v44h184v-46h-63l-120 -392h-20l-130 300l-130 -300h-20zM421 525q-21 0 -35 15t-14 36t14 36t35 15t35 -15t14 -36t-14 -36t-35 -15zM261 525q-21 0 -35 15t-14 36t14 36t35 15t35 -15
t14 -36t-14 -36t-35 -15z" />
    <glyph glyph-name="Ygrave" unicode="&#x1ef2;" horiz-adv-x="641" 
d="M194 0v50h97v219l-198 339h-72v50h209v-50h-72l163 -290l165 290h-75v50h209v-50h-73l-198 -338v-220h97v-50h-252zM357 719l-152 76q-35 18 -35 39q0 18 11 28.5t25 10.5q16 0 38 -20l125 -115z" />
    <glyph glyph-name="ygrave" unicode="&#x1ef3;" horiz-adv-x="504" 
d="M202 -122q-50 -78 -107 -78q-26 0 -45.5 13.5t-19.5 36.5q0 17 10.5 28t26.5 11t28 -12t16 -28q29 11 58 58q15 25 38 72l22 46l-162 349h-60v46h186v-46h-68q8 -19 21.5 -49t42 -94.5t47.5 -106.5l18 -43l131 293h-71v46h183v-46h-60l-200 -431q-19 -40 -35 -65z
M289 509l-152 76q-35 18 -35 39q0 18 11 28.5t25 10.5q16 0 38 -20l125 -115z" />
    <glyph glyph-name="enspace" unicode="&#x2002;" horiz-adv-x="500" 
 />
    <glyph glyph-name="emspace" unicode="&#x2003;" horiz-adv-x="1000" 
 />
    <glyph glyph-name="threeperemspace" unicode="&#x2004;" horiz-adv-x="333" 
 />
    <glyph glyph-name="fourperemspace" unicode="&#x2005;" horiz-adv-x="250" 
 />
    <glyph glyph-name="figurespace" unicode="&#x2007;" horiz-adv-x="530" 
 />
    <glyph glyph-name="thinspace" unicode="&#x2009;" horiz-adv-x="133" 
 />
    <glyph glyph-name="hairspace" unicode="&#x200a;" horiz-adv-x="75" 
 />
    <glyph glyph-name="endash" unicode="&#x2013;" horiz-adv-x="424" 
d="M22 250v52h380v-52h-380z" />
    <glyph glyph-name="emdash" unicode="&#x2014;" horiz-adv-x="709" 
d="M22 250v52h665v-52h-665z" />
    <glyph glyph-name="quoteleft" unicode="&#x2018;" horiz-adv-x="191" 
d="M90 433q-25 0 -42 19t-17 53q0 47 34 100.5t101 87.5l13 -21q-45 -31 -65 -68t-21 -65q19 -2 34.5 -18t15.5 -35q0 -22 -16 -37.5t-37 -15.5z" />
    <glyph glyph-name="quoteright" unicode="&#x2019;" horiz-adv-x="191" 
d="M25 419l-13 21q45 31 65 68t21 65q-19 2 -34.5 18t-15.5 35q0 22 16 37.5t37 15.5q25 0 42 -19t17 -53q0 -47 -34 -100.5t-101 -87.5z" />
    <glyph glyph-name="quotesinglbase" unicode="&#x201a;" horiz-adv-x="184" 
d="M12 -141l-13 21q84 61 86 118q-18 2 -32.5 17.5t-14.5 33.5q0 21 15 35.5t35 14.5q24 0 40 -18t16 -50q0 -44 -32 -90.5t-100 -81.5z" />
    <glyph glyph-name="quotedblleft" unicode="&#x201c;" horiz-adv-x="366" 
d="M265 433q-25 0 -42 19t-17 53q0 47 34 100.5t101 87.5l13 -21q-45 -31 -65 -68t-21 -65q19 -2 34.5 -18t15.5 -35q0 -22 -16 -37.5t-37 -15.5zM90 433q-25 0 -42 19t-17 53q0 47 34 100.5t101 87.5l13 -21q-45 -31 -65 -68t-21 -65q19 -2 34.5 -18t15.5 -35
q0 -22 -16 -37.5t-37 -15.5z" />
    <glyph glyph-name="quotedblright" unicode="&#x201d;" horiz-adv-x="366" 
d="M200 419l-13 21q45 31 65 68t21 65q-19 2 -34.5 18t-15.5 35q0 22 16 37.5t37 15.5q25 0 42 -19t17 -53q0 -47 -34 -100.5t-101 -87.5zM25 419l-13 21q45 31 65 68t21 65q-19 2 -34.5 18t-15.5 35q0 22 16 37.5t37 15.5q25 0 42 -19t17 -53q0 -47 -34 -100.5t-101 -87.5z
" />
    <glyph glyph-name="quotedblbase" unicode="&#x201e;" horiz-adv-x="360" 
d="M188 -141l-13 21q84 61 86 118q-18 2 -32.5 17.5t-14.5 33.5q0 21 15 35.5t35 14.5q24 0 40 -18t16 -50q0 -44 -32 -90.5t-100 -81.5zM12 -141l-13 21q84 61 86 118q-18 2 -32.5 17.5t-14.5 33.5q0 21 15 35.5t35 14.5q24 0 40 -18t16 -50q0 -44 -32 -90.5t-100 -81.5z
" />
    <glyph glyph-name="dagger" unicode="&#x2020;" horiz-adv-x="444" 
d="M207 -2l-10 396l-90 12q2 -25 -11.5 -41.5t-33.5 -16.5t-31.5 13.5t-11.5 31.5q0 22 15.5 37t41.5 15q10 0 30 -4l103 -22l-23 156q-4 28 5.5 45t30.5 17t30.5 -17t5.5 -45l-23 -156l103 22q20 4 30 4q26 0 41.5 -15t15.5 -37q0 -18 -11.5 -31.5t-31.5 -13.5t-33.5 16.5
t-11.5 41.5l-90 -12l-10 -396h-30z" />
    <glyph glyph-name="daggerdbl" unicode="&#x2021;" horiz-adv-x="444" 
d="M222 -122q-21 0 -30.5 17t-5.5 45l20 125l-85 -19q-20 -4 -30 -4q-25 0 -42 14.5t-17 35.5q0 17 12.5 30.5t32.5 13.5t33.5 -15.5t11.5 -39.5l73 10l15 166l-15 167l-73 10q2 -24 -11.5 -39.5t-33.5 -15.5t-32.5 13.5t-12.5 30.5q0 21 17 35.5t42 14.5q10 0 30 -4l85 -19
l-20 125q-4 28 5.5 45t30.5 17t31 -17t5 -45l-20 -125l85 19q20 4 30 4q25 0 42 -14.5t17 -35.5q0 -17 -12.5 -30.5t-32.5 -13.5t-33.5 15.5t-11.5 39.5l-73 -10l-15 -167l15 -166l73 -10q-2 24 11.5 39.5t33.5 15.5t32.5 -13.5t12.5 -30.5q0 -21 -17 -35.5t-42 -14.5
q-10 0 -30 4l-85 19l20 -125q5 -28 -5 -45t-31 -17z" />
    <glyph glyph-name="bullet" unicode="&#x2022;" horiz-adv-x="264" 
d="M132 182q-36 0 -59.5 25t-23.5 61t23.5 61.5t59.5 25.5t59.5 -25.5t23.5 -61.5t-23.5 -61t-59.5 -25z" />
    <glyph glyph-name="ellipsis" unicode="&#x2026;" horiz-adv-x="592" 
d="M490 -8q-22 0 -37 15.5t-15 38.5t15 38.5t37 15.5t37 -15.5t15 -38.5t-15 -38.5t-37 -15.5zM296 -8q-22 0 -37 15.5t-15 38.5t15 38.5t37 15.5t37 -15.5t15 -38.5t-15 -38.5t-37 -15.5zM102 -8q-22 0 -37 15.5t-15 38.5t15 38.5t37 15.5t37 -15.5t15 -38.5t-15 -38.5
t-37 -15.5z" />
    <glyph glyph-name="perthousand" unicode="&#x2030;" horiz-adv-x="889" 
d="M166 274q-48 0 -81.5 34.5t-33.5 83.5t33.5 83.5t81.5 34.5t81.5 -34.5t33.5 -83.5t-33.5 -83.5t-81.5 -34.5zM456 -8q-48 0 -81.5 34.5t-33.5 83.5t33.5 83.5t81.5 34.5t81.5 -34.5t33.5 -83.5t-33.5 -83.5t-81.5 -34.5zM723 -8q-48 0 -81.5 34.5t-33.5 83.5t33.5 83.5
t81.5 34.5t81.5 -34.5t33.5 -83.5t-33.5 -83.5t-81.5 -34.5zM130 -25l-33 26l193 252q177 230 193 253l34 -25l-195 -255zM723 33q30 0 50.5 22.5t20.5 54.5t-20.5 54.5t-50.5 22.5t-50.5 -22.5t-20.5 -54.5t20.5 -54.5t50.5 -22.5zM166 315q30 0 50.5 22.5t20.5 54.5
t-20.5 54.5t-50.5 22.5t-50.5 -22.5t-20.5 -54.5t20.5 -54.5t50.5 -22.5zM456 33q30 0 50.5 22.5t20.5 54.5t-20.5 54.5t-50.5 22.5t-50.5 -22.5t-20.5 -54.5t20.5 -54.5t50.5 -22.5z" />
    <glyph glyph-name="guilsinglleft" unicode="&#x2039;" horiz-adv-x="280" 
d="M193 114l-160 158l160 158l33 -31l-125 -127l125 -127z" />
    <glyph glyph-name="guilsinglright" unicode="&#x203a;" horiz-adv-x="280" 
d="M87 114l-33 31l125 127l-125 127l33 31l160 -158z" />
    <glyph glyph-name="fraction" unicode="&#x2044;" horiz-adv-x="500" 
d="M72 -12l-33 20l196 323l193 317l33 -20l-193 -317z" />
    <glyph glyph-name="zero.sup" unicode="&#x2070;" horiz-adv-x="353" 
d="M176 424q-60 0 -98 51.5t-38 134.5q0 85 38 136.5t99 51.5q60 0 98 -51.5t38 -134.5q0 -85 -38 -136.5t-99 -51.5zM176 464q41 0 66.5 40.5t25.5 105.5q0 66 -25.5 107t-66.5 41q-40 0 -65.5 -40.5t-25.5 -105.5q0 -66 25 -107t66 -41z" />
    <glyph glyph-name="four.sup" unicode="&#x2074;" horiz-adv-x="353" 
d="M145 431v37h67v69h-169l-9 19l190 247l32 -25l-160 -205h116v75l41 17v-92h60v-36h-60v-69h48v-37h-156z" />
    <glyph glyph-name="five.sup" unicode="&#x2075;" horiz-adv-x="353" 
d="M165 424q-51 0 -83.5 20t-32.5 47q0 14 9 23.5t23 9.5t22 -8.5t8 -20.5q0 -11 -6 -17q17 -15 59 -15q43 0 67.5 23.5t24.5 61.5q0 32 -23.5 53t-65.5 21q-43 0 -81 -19l-20 10l18 180h193v-42h-156l-10 -99q29 9 59 9q58 0 94 -30.5t36 -82.5q0 -56 -39 -90t-96 -34z" />
    <glyph glyph-name="six.sup" unicode="&#x2076;" horiz-adv-x="353" 
d="M289 736q0 -15 -8.5 -23.5t-21.5 -8.5q-30 0 -30 28q0 10 5 17q-11 13 -38 13q-46 0 -76 -44.5t-31 -116.5q5 9 16 20q33 33 84 33q53 0 86.5 -32t33.5 -81q0 -50 -35 -83.5t-91 -33.5q-58 0 -97 39t-39 125q0 104 43.5 158t106.5 54q47 0 75 -26q17 -17 17 -38zM183 463
q36 0 59 22t23 55q0 34 -22 55t-60 21q-37 0 -61.5 -21.5t-24.5 -53.5t22 -54q24 -24 64 -24z" />
    <glyph glyph-name="seven.sup" unicode="&#x2077;" horiz-adv-x="353" 
d="M107 431l149 325h-156v-61h-40v98h239l9 -19l-155 -343h-46z" />
    <glyph glyph-name="eight.sup" unicode="&#x2078;" horiz-adv-x="353" 
d="M177 425q-56 0 -92.5 28.5t-36.5 70.5q0 32 24 59t60 36q-36 11 -55.5 34.5t-19.5 51.5q0 41 34.5 67t85.5 26t85.5 -26t34.5 -67q0 -28 -20 -51.5t-56 -34.5q36 -9 60 -36t24 -59q0 -42 -36 -70.5t-92 -28.5zM177 636q31 0 53 18t22 44q0 27 -21.5 44.5t-53.5 17.5
q-33 0 -54.5 -17.5t-21.5 -44.5q0 -26 22 -44t54 -18zM177 464q36 0 59.5 19t23.5 48q0 28 -24.5 48.5t-58.5 20.5q-35 0 -59 -20.5t-24 -48.5q0 -29 23.5 -48t59.5 -19z" />
    <glyph glyph-name="nine.sup" unicode="&#x2079;" horiz-adv-x="353" 
d="M64 488q0 15 8.5 23.5t21.5 8.5q30 0 30 -28q0 -10 -6 -18q10 -12 39 -12q46 0 76 44.5t31 116.5q-10 -14 -16 -20q-33 -33 -84 -33q-53 0 -86.5 32t-33.5 81q0 50 35 83.5t91 33.5q58 0 97 -39t39 -125q0 -104 -43.5 -158t-106.5 -54q-47 0 -75 26q-17 17 -17 38z
M170 761q-36 0 -59 -22t-23 -55q0 -34 22 -55t60 -21q37 0 61.5 21.5t24.5 53.5t-22 54q-24 24 -64 24z" />
    <glyph glyph-name="zero.inf" unicode="&#x2080;" horiz-adv-x="353" 
d="M176 -146q-60 0 -98 51.5t-38 134.5q0 85 38 136.5t99 51.5q60 0 98 -51.5t38 -134.5q0 -85 -38 -136.5t-99 -51.5zM176 -106q41 0 66.5 40.5t25.5 105.5q0 66 -25.5 107t-66.5 41q-40 0 -65.5 -40.5t-25.5 -105.5q0 -66 25 -107t66 -41z" />
    <glyph glyph-name="one.inf" unicode="&#x2081;" horiz-adv-x="353" 
d="M66 -139v39h97v277l-93 -22l-9 39l124 31h21v-325h96v-39h-236z" />
    <glyph glyph-name="two.inf" unicode="&#x2082;" horiz-adv-x="353" 
d="M61 -139l-12 20q26 83 128 155q37 27 54 46.5t17 46.5t-21.5 45t-51.5 18q-28 0 -47.5 -11t-22.5 -21q17 -7 17 -27q0 -12 -8.5 -21t-21.5 -9q-33 0 -33 40q0 33 33 60t85 27q48 0 82.5 -28.5t34.5 -72.5q0 -27 -13.5 -50.5t-29.5 -36.5t-48 -35q-81 -55 -101 -109h159
v57h39v-94h-239z" />
    <glyph glyph-name="three.inf" unicode="&#x2083;" horiz-adv-x="353" 
d="M171 -145q-50 0 -87.5 23t-37.5 56q0 15 9.5 25.5t23.5 10.5q13 0 21 -8.5t8 -21.5q0 -15 -12 -22q7 -8 27.5 -17t47.5 -9q37 0 61.5 19.5t24.5 47.5q0 32 -27.5 51t-75.5 19h-22v39h24q40 0 66.5 18.5t26.5 47.5q0 27 -21.5 42t-55.5 15q-47 0 -65 -22q12 -8 12 -22
q0 -12 -8 -20.5t-20 -8.5q-13 0 -23 10t-10 26q0 27 31.5 50.5t84.5 23.5q52 0 85.5 -26.5t33.5 -65.5q0 -31 -25 -55t-60 -31q38 -7 66 -33t28 -59q0 -45 -37.5 -74t-93.5 -29z" />
    <glyph glyph-name="four.inf" unicode="&#x2084;" horiz-adv-x="353" 
d="M145 -139v37h67v69h-169l-9 19l190 247l32 -25l-160 -205h116v75l41 17v-92h60v-36h-60v-69h48v-37h-156z" />
    <glyph glyph-name="five.inf" unicode="&#x2085;" horiz-adv-x="353" 
d="M165 -146q-51 0 -83.5 20t-32.5 47q0 14 9 23.5t23 9.5t22 -8.5t8 -20.5q0 -11 -6 -17q17 -15 59 -15q43 0 67.5 23.5t24.5 61.5q0 32 -23.5 53t-65.5 21q-43 0 -81 -19l-20 10l18 180h193v-42h-156l-10 -99q29 9 59 9q58 0 94 -30.5t36 -82.5q0 -56 -39 -90t-96 -34z
" />
    <glyph glyph-name="six.inf" unicode="&#x2086;" horiz-adv-x="353" 
d="M289 166q0 -15 -8.5 -23.5t-21.5 -8.5q-30 0 -30 28q0 10 5 17q-11 13 -38 13q-46 0 -76 -44.5t-31 -116.5q5 9 16 20q33 33 84 33q53 0 86.5 -32t33.5 -81q0 -50 -35 -83.5t-91 -33.5q-58 0 -97 39t-39 125q0 104 43.5 158t106.5 54q47 0 75 -26q17 -17 17 -38z
M183 -107q36 0 59 22t23 55q0 34 -22 55t-60 21q-37 0 -61.5 -21.5t-24.5 -53.5t22 -54q24 -24 64 -24z" />
    <glyph glyph-name="seven.inf" unicode="&#x2087;" horiz-adv-x="353" 
d="M107 -139l149 325h-156v-61h-40v98h239l9 -19l-155 -343h-46z" />
    <glyph glyph-name="eight.inf" unicode="&#x2088;" horiz-adv-x="353" 
d="M177 -145q-56 0 -92.5 28.5t-36.5 70.5q0 32 24 59t60 36q-36 11 -55.5 34.5t-19.5 51.5q0 41 34.5 67t85.5 26t85.5 -26t34.5 -67q0 -28 -20 -51.5t-56 -34.5q36 -9 60 -36t24 -59q0 -42 -36 -70.5t-92 -28.5zM177 66q31 0 53 18t22 44q0 27 -21.5 44.5t-53.5 17.5
q-33 0 -54.5 -17.5t-21.5 -44.5q0 -26 22 -44t54 -18zM177 -106q36 0 59.5 19t23.5 48q0 28 -24.5 48.5t-58.5 20.5q-35 0 -59 -20.5t-24 -48.5q0 -29 23.5 -48t59.5 -19z" />
    <glyph glyph-name="nine.inf" unicode="&#x2089;" horiz-adv-x="353" 
d="M64 -82q0 15 8.5 23.5t21.5 8.5q30 0 30 -28q0 -8 -6 -18q10 -12 39 -12q46 0 76 44.5t31 116.5q-10 -14 -16 -20q-33 -33 -84 -33q-53 0 -86.5 32t-33.5 81q0 50 35 83.5t91 33.5q58 0 97 -39t39 -125q0 -104 -43.5 -158t-106.5 -54q-47 0 -75 26q-17 17 -17 38z
M170 191q-36 0 -59 -22t-23 -55q0 -34 22 -55t60 -21q37 0 61.5 21.5t24.5 53.5t-22 54q-24 24 -64 24z" />
    <glyph glyph-name="Euro" unicode="&#x20ac;" horiz-adv-x="562" 
d="M37 287v43h65q25 80 90.5 129t145.5 49q74 0 128 -38t54 -85q0 -20 -12.5 -34t-31.5 -14q-16 0 -26.5 10.5t-10.5 26.5q0 12 6.5 22t14.5 12q-11 20 -44 36.5t-78 16.5q-63 0 -111 -36.5t-70 -94.5h200v-43h-211q-3 -19 -3 -39q0 -22 3 -41h211v-43h-197q23 -56 71 -91
t110 -35q84 0 152 65l31 -38q-76 -74 -183 -74q-87 0 -150.5 48.5t-87.5 124.5h-66v43h56q-3 19 -3 40t3 40h-56z" />
    <glyph glyph-name="published" unicode="&#x2117;" horiz-adv-x="598" 
d="M299 -8q-108 0 -179.5 75t-71.5 183q0 109 71.5 184t179.5 75t179.5 -75t71.5 -184q0 -108 -71.5 -183t-179.5 -75zM299 24q92 0 153 66t61 161t-61 161t-153 66t-153 -66t-61 -161t61 -161t153 -66zM315 208q-27 0 -34 1v-63h35v-31h-102v31h33v202h-33v31h103
q43 0 70.5 -23t27.5 -61q0 -41 -27 -64t-73 -23zM317 238q29 0 46 15.5t17 41.5q0 24 -18 38.5t-46 14.5h-35v-109q2 0 14 -0.5t22 -0.5z" />
    <glyph glyph-name="servicemark" unicode="&#x2120;" horiz-adv-x="553" 
d="M224 413v33h36l9 179h-37v33h80l72 -159l73 159h80v-33h-38l8 -179h38v-33h-101v33h30l-6 163l-76 -166h-17l-77 166l-5 -163h31v-33h-100zM98 409q-37 0 -63.5 17t-26.5 39q0 26 23 26q11 0 17 -6.5t6 -14.5q0 -7 -4 -15q16 -14 48 -14q52 0 52 38q0 24 -53 42
q-40 13 -59.5 28t-19.5 45q0 29 23 48.5t60 19.5q35 0 59 -15t24 -37q0 -24 -23 -24q-25 0 -25 21q0 6 6 12q-15 11 -41 11q-48 0 -48 -34q0 -11 9 -19.5t19 -13t28 -10.5q40 -13 59 -28t19 -44q0 -33 -25 -52.5t-64 -19.5z" />
    <glyph glyph-name="trademark" unicode="&#x2122;" horiz-adv-x="594" 
d="M265 413v33h36l9 179h-37v33h80l72 -159l73 159h80v-33h-38l8 -179h38v-33h-101v33h30l-6 163l-76 -166h-17l-77 166l-5 -163h31v-33h-100zM69 413v33h38v181h-65v-37h-34v68h233v-68h-35v37h-64v-181h37v-33h-110z" />
    <glyph glyph-name="onethird" unicode="&#x2153;" horiz-adv-x="795" 
d="M617 -7q-50 0 -87.5 23t-37.5 56q0 15 9.5 25.5t23.5 10.5q13 0 21 -8.5t8 -21.5q0 -15 -12 -22q7 -8 27.5 -17t47.5 -9q37 0 61.5 19.5t24.5 47.5q0 32 -27.5 51t-75.5 19h-22v39h24q40 0 66.5 18.5t26.5 47.5q0 27 -21.5 42t-55.5 15q-47 0 -65 -22q12 -8 12 -22
q0 -12 -8 -20.5t-20 -8.5q-13 0 -23 10t-10 26q0 27 31.5 50.5t84.5 23.5q52 0 85.5 -26.5t33.5 -65.5q0 -31 -25 -55t-60 -31q38 -7 66 -33t28 -59q0 -45 -37.5 -74t-93.5 -29zM226 -12l-33 20l196 323l193 317l33 -20l-193 -317zM53 281v39h97v277l-93 -22l-9 39l124 31
h21v-325h96v-39h-236z" />
    <glyph glyph-name="twothirds" unicode="&#x2154;" horiz-adv-x="795" 
d="M58 281l-12 20q26 83 128 155q37 27 54 46.5t17 46.5t-21.5 45t-51.5 18q-28 0 -47.5 -11t-22.5 -21q17 -7 17 -27q0 -12 -8.5 -21t-21.5 -9q-33 0 -33 40q0 33 33 60t85 27q48 0 82.5 -28.5t34.5 -72.5q0 -27 -13.5 -50.5t-29.5 -36.5t-48 -35q-81 -55 -101 -109h159v57
h39v-94h-239zM618 -7q-50 0 -87.5 23t-37.5 56q0 15 9.5 25.5t23.5 10.5q13 0 21 -8.5t8 -21.5q0 -15 -12 -22q7 -8 27.5 -17t47.5 -9q37 0 61.5 19.5t24.5 47.5q0 32 -27.5 51t-75.5 19h-22v39h24q40 0 66.5 18.5t26.5 47.5q0 27 -21.5 42t-55.5 15q-47 0 -65 -22
q12 -8 12 -22q0 -12 -8 -20.5t-20 -8.5q-13 0 -23 10t-10 26q0 27 31.5 50.5t84.5 23.5q52 0 85.5 -26.5t33.5 -65.5q0 -31 -25 -55t-60 -31q38 -7 66 -33t28 -59q0 -45 -37.5 -74t-93.5 -29zM238 -12l-33 20l196 323l193 317l33 -20l-193 -317z" />
    <glyph glyph-name="onefifth" unicode="&#x2155;" horiz-adv-x="795" 
d="M623 -8q-51 0 -83.5 20t-32.5 47q0 14 9 23.5t23 9.5t22 -8.5t8 -20.5q0 -11 -6 -17q17 -15 59 -15q43 0 67.5 23.5t24.5 61.5q0 32 -23.5 53t-65.5 21q-43 0 -81 -19l-20 10l18 180h193v-42h-156l-10 -99q29 9 59 9q58 0 94 -30.5t36 -82.5q0 -56 -39 -90t-96 -34z
M230 -12l-33 20l196 323l193 317l33 -20l-193 -317zM53 281v39h97v277l-93 -22l-9 39l124 31h21v-325h96v-39h-236z" />
    <glyph glyph-name="twofifths" unicode="&#x2156;" horiz-adv-x="795" 
d="M62 281l-12 20q26 83 128 155q37 27 54 46.5t17 46.5t-21.5 45t-51.5 18q-28 0 -47.5 -11t-22.5 -21q17 -7 17 -27q0 -12 -8.5 -21t-21.5 -9q-33 0 -33 40q0 33 33 60t85 27q48 0 82.5 -28.5t34.5 -72.5q0 -27 -13.5 -50.5t-29.5 -36.5t-48 -35q-81 -55 -101 -109h159v57
h39v-94h-239zM627 -8q-51 0 -83.5 20t-32.5 47q0 14 9 23.5t23 9.5t22 -8.5t8 -20.5q0 -11 -6 -17q17 -15 59 -15q43 0 67.5 23.5t24.5 61.5q0 32 -23.5 53t-65.5 21q-43 0 -81 -19l-20 10l18 180h193v-42h-156l-10 -99q29 9 59 9q58 0 94 -30.5t36 -82.5q0 -56 -39 -90
t-96 -34zM246 -12l-33 20l196 323l193 317l33 -20l-193 -317z" />
    <glyph glyph-name="threefifths" unicode="&#x2157;" horiz-adv-x="795" 
d="M622 -8q-51 0 -83.5 20t-32.5 47q0 14 9 23.5t23 9.5t22 -8.5t8 -20.5q0 -11 -6 -17q17 -15 59 -15q43 0 67.5 23.5t24.5 61.5q0 32 -23.5 53t-65.5 21q-43 0 -81 -19l-20 10l18 180h193v-42h-156l-10 -99q29 9 59 9q58 0 94 -30.5t36 -82.5q0 -56 -39 -90t-96 -34z
M177 275q-50 0 -87.5 23t-37.5 56q0 15 9.5 25.5t23.5 10.5q13 0 21 -8.5t8 -21.5q0 -15 -12 -22q7 -8 27.5 -17t47.5 -9q37 0 61.5 19.5t24.5 47.5q0 32 -27.5 51t-75.5 19h-22v39h24q40 0 66.5 18.5t26.5 47.5q0 27 -21.5 42t-55.5 15q-47 0 -65 -22q12 -8 12 -22
q0 -12 -8 -20.5t-20 -8.5q-13 0 -23 10t-10 26q0 27 31.5 50.5t84.5 23.5q52 0 85.5 -26.5t33.5 -65.5q0 -31 -25 -55t-60 -31q38 -7 66 -33t28 -59q0 -45 -37.5 -74t-93.5 -29zM225 -12l-33 20l196 323l193 317l33 -20l-193 -317z" />
    <glyph glyph-name="fourfifths" unicode="&#x2158;" horiz-adv-x="795" 
d="M622 -8q-51 0 -83.5 20t-32.5 47q0 14 9 23.5t23 9.5t22 -8.5t8 -20.5q0 -11 -6 -17q17 -15 59 -15q43 0 67.5 23.5t24.5 61.5q0 32 -23.5 53t-65.5 21q-43 0 -81 -19l-20 10l18 180h193v-42h-156l-10 -99q29 9 59 9q58 0 94 -30.5t36 -82.5q0 -56 -39 -90t-96 -34z
M148 281v37h67v69h-169l-9 19l190 247l32 -25l-160 -205h116v75l41 17v-92h60v-36h-60v-69h48v-37h-156zM244 -12l-33 20l196 323l193 317l33 -20l-193 -317z" />
    <glyph glyph-name="onesixth" unicode="&#x2159;" horiz-adv-x="795" 
d="M726 304q0 -15 -8.5 -23.5t-21.5 -8.5q-30 0 -30 28q0 10 5 17q-11 13 -38 13q-46 0 -76 -44.5t-31 -116.5q5 9 16 20q33 33 84 33q53 0 86.5 -32t33.5 -81q0 -50 -35 -83.5t-91 -33.5q-58 0 -97 39t-39 125q0 104 43.5 158t106.5 54q47 0 75 -26q17 -17 17 -38zM224 -12
l-33 20l196 323l193 317l33 -20l-193 -317zM47 281v39h97v277l-93 -22l-9 39l124 31h21v-325h96v-39h-236zM620 31q36 0 59 22t23 55q0 34 -22 55t-60 21q-37 0 -61.5 -21.5t-24.5 -53.5t22 -54q24 -24 64 -24z" />
    <glyph glyph-name="fivesixths" unicode="&#x215a;" horiz-adv-x="795" 
d="M728 304q0 -15 -8.5 -23.5t-21.5 -8.5q-30 0 -30 28q0 10 5 17q-11 13 -38 13q-46 0 -76 -44.5t-31 -116.5q5 9 16 20q33 33 84 33q53 0 86.5 -32t33.5 -81q0 -50 -35 -83.5t-91 -33.5q-58 0 -97 39t-39 125q0 104 43.5 158t106.5 54q47 0 75 -26q17 -17 17 -38zM170 274
q-51 0 -83.5 20t-32.5 47q0 14 9 23.5t23 9.5t22 -8.5t8 -20.5q0 -11 -6 -17q17 -15 59 -15q43 0 67.5 23.5t24.5 61.5q0 32 -23.5 53t-65.5 21q-43 0 -81 -19l-20 10l18 180h193v-42h-156l-10 -99q29 9 59 9q58 0 94 -30.5t36 -82.5q0 -56 -39 -90t-96 -34zM226 -12l-33 20
l196 323l193 317l33 -20l-193 -317zM622 31q36 0 59 22t23 55q0 34 -22 55t-60 21q-37 0 -61.5 -21.5t-24.5 -53.5t22 -54q24 -24 64 -24z" />
    <glyph glyph-name="oneeighth" unicode="&#x215b;" horiz-adv-x="795" 
d="M622 -7q-56 0 -92.5 28.5t-36.5 70.5q0 32 24 59t60 36q-36 11 -55.5 34.5t-19.5 51.5q0 41 34.5 67t85.5 26t85.5 -26t34.5 -67q0 -28 -20 -51.5t-56 -34.5q36 -9 60 -36t24 -59q0 -42 -36 -70.5t-92 -28.5zM217 -12l-33 20l196 323l193 317l33 -20l-193 -317zM48 281
v39h97v277l-93 -22l-9 39l124 31h21v-325h96v-39h-236zM622 32q36 0 59.5 19t23.5 48q0 28 -24.5 48.5t-58.5 20.5q-35 0 -59 -20.5t-24 -48.5q0 -29 23.5 -48t59.5 -19zM622 204q31 0 53 18t22 44q0 27 -21.5 44.5t-53.5 17.5q-33 0 -54.5 -17.5t-21.5 -44.5q0 -26 22 -44
t54 -18z" />
    <glyph glyph-name="threeeighths" unicode="&#x215c;" horiz-adv-x="795" 
d="M622 -7q-56 0 -92.5 28.5t-36.5 70.5q0 32 24 59t60 36q-36 11 -55.5 34.5t-19.5 51.5q0 41 34.5 67t85.5 26t85.5 -26t34.5 -67q0 -28 -20 -51.5t-56 -34.5q36 -9 60 -36t24 -59q0 -42 -36 -70.5t-92 -28.5zM177 275q-50 0 -87.5 23t-37.5 56q0 15 9.5 25.5t23.5 10.5
q13 0 21 -8.5t8 -21.5q0 -15 -12 -22q7 -8 27.5 -17t47.5 -9q37 0 61.5 19.5t24.5 47.5q0 32 -27.5 51t-75.5 19h-22v39h24q40 0 66.5 18.5t26.5 47.5q0 27 -21.5 42t-55.5 15q-47 0 -65 -22q12 -8 12 -22q0 -12 -8 -20.5t-20 -8.5q-13 0 -23 10t-10 26q0 27 31.5 50.5
t84.5 23.5q52 0 85.5 -26.5t33.5 -65.5q0 -31 -25 -55t-60 -31q38 -7 66 -33t28 -59q0 -45 -37.5 -74t-93.5 -29zM219 -12l-33 20l196 323l193 317l33 -20l-193 -317zM622 32q36 0 59.5 19t23.5 48q0 28 -24.5 48.5t-58.5 20.5q-35 0 -59 -20.5t-24 -48.5q0 -29 23.5 -48
t59.5 -19zM622 204q31 0 53 18t22 44q0 27 -21.5 44.5t-53.5 17.5q-33 0 -54.5 -17.5t-21.5 -44.5q0 -26 22 -44t54 -18z" />
    <glyph glyph-name="fiveeighths" unicode="&#x215d;" horiz-adv-x="795" 
d="M614 -7q-56 0 -92.5 28.5t-36.5 70.5q0 32 24 59t60 36q-36 11 -55.5 34.5t-19.5 51.5q0 41 34.5 67t85.5 26t85.5 -26t34.5 -67q0 -28 -20 -51.5t-56 -34.5q36 -9 60 -36t24 -59q0 -42 -36 -70.5t-92 -28.5zM159 274q-51 0 -83.5 20t-32.5 47q0 14 9 23.5t23 9.5
t22 -8.5t8 -20.5q0 -11 -6 -17q17 -15 59 -15q43 0 67.5 23.5t24.5 61.5q0 32 -23.5 53t-65.5 21q-43 0 -81 -19l-20 10l18 180h193v-42h-156l-10 -99q29 9 59 9q58 0 94 -30.5t36 -82.5q0 -56 -39 -90t-96 -34zM208 -12l-33 20l196 323l193 317l33 -20l-193 -317zM614 32
q36 0 59.5 19t23.5 48q0 28 -24.5 48.5t-58.5 20.5q-35 0 -59 -20.5t-24 -48.5q0 -29 23.5 -48t59.5 -19zM614 204q31 0 53 18t22 44q0 27 -21.5 44.5t-53.5 17.5q-33 0 -54.5 -17.5t-21.5 -44.5q0 -26 22 -44t54 -18z" />
    <glyph glyph-name="seveneighths" unicode="&#x215e;" horiz-adv-x="795" 
d="M597 -7q-56 0 -92.5 28.5t-36.5 70.5q0 32 24 59t60 36q-36 11 -55.5 34.5t-19.5 51.5q0 41 34.5 67t85.5 26t85.5 -26t34.5 -67q0 -28 -20 -51.5t-56 -34.5q36 -9 60 -36t24 -59q0 -42 -36 -70.5t-92 -28.5zM179 -12l-33 20l196 323l193 317l33 -20l-193 -317zM120 281
l149 325h-156v-61h-40v98h239l9 -19l-155 -343h-46zM597 32q36 0 59.5 19t23.5 48q0 28 -24.5 48.5t-58.5 20.5q-35 0 -59 -20.5t-24 -48.5q0 -29 23.5 -48t59.5 -19zM597 204q31 0 53 18t22 44q0 27 -21.5 44.5t-53.5 17.5q-33 0 -54.5 -17.5t-21.5 -44.5q0 -26 22 -44
t54 -18z" />
    <glyph glyph-name="minus" unicode="&#x2212;" horiz-adv-x="394" 
d="M37 241v48h320v-48h-320z" />
    <glyph glyph-name="Q.alt" horiz-adv-x="782" 
d="M588 -109l-76 119q-60 -22 -123 -22q-140 0 -234.5 98.5t-94.5 241.5q0 145 95 243.5t238 98.5q140 0 234.5 -98.5t94.5 -241.5q0 -95 -44 -173.5t-119 -123.5l73 -116zM391 40q51 0 93 15l-77 123l45 27l80 -128q62 36 97 102.5t35 148.5q0 123 -77 206.5t-196 83.5
t-196 -83t-77 -205q0 -123 77 -206.5t196 -83.5z" />
    <glyph glyph-name="a.sc" horiz-adv-x="575" 
d="M160 501h255v-46h-77l157 -409h65v-46h-199v46h81l-47 124h-218l-46 -124h81v-46h-197v46h65l156 409h-76v46zM286 458l-91 -241h182z" />
    <glyph glyph-name="b.sc" horiz-adv-x="524" 
d="M187 46h106q59 0 90.5 25.5t31.5 67.5q0 94 -136 94h-92v-187zM187 277h91q61 0 92 25t31 68q0 40 -31 62.5t-90 22.5h-93v-178zM290 0h-245v46h90v409h-90v46h236q88 0 130.5 -35.5t42.5 -90.5q0 -46 -26.5 -76t-71.5 -42q112 -28 112 -120q0 -62 -46.5 -99.5
t-131.5 -37.5z" />
    <glyph glyph-name="c.sc" horiz-adv-x="549" 
d="M464 105l30 -36q-78 -78 -190 -78t-183 74.5t-71 185.5q0 109 72.5 185t183.5 76q75 0 130 -39t55 -85q0 -22 -12.5 -36t-31.5 -14q-18 0 -29.5 11.5t-11.5 28.5q0 23 21 33q-13 20 -45 36.5t-76 16.5q-87 0 -144.5 -61t-57.5 -152q0 -93 56.5 -152.5t143.5 -59.5
q89 0 160 66z" />
    <glyph glyph-name="d.sc" horiz-adv-x="603" 
d="M187 46h84q111 0 170 57t59 154q0 92 -63.5 145t-171.5 53h-78v-409zM265 0h-220v46h90v409h-90v46h220q132 0 210 -66.5t78 -178.5q0 -116 -76.5 -186t-211.5 -70z" />
    <glyph glyph-name="e.sc" horiz-adv-x="507" 
d="M447 0h-402v46h90v409h-90v46h402v-137h-50v91h-210v-178h172v-47h-172v-184h210v91h50v-137z" />
    <glyph glyph-name="f.sc" horiz-adv-x="486" 
d="M281 0h-236v46h90v409h-90v46h401v-137h-50v91h-209v-184h169v-47h-169v-178h94v-46z" />
    <glyph glyph-name="g.sc" horiz-adv-x="587" 
d="M310 465q-91 0 -148.5 -62.5t-57.5 -154.5t57.5 -150.5t139.5 -58.5q87 0 160 49v112h-142v46h193v-246h-50v42q-70 -51 -165 -51q-100 0 -173.5 70.5t-73.5 185.5q0 116 76.5 190.5t185.5 74.5q82 0 137 -37t55 -80q0 -22 -12 -35t-31 -13q-17 0 -28.5 11t-11.5 27
q0 22 18 32q-17 19 -51.5 33.5t-77.5 14.5z" />
    <glyph glyph-name="h.sc" horiz-adv-x="667" 
d="M45 0v46h90v409h-90v46h233v-46h-91v-178h293v178h-91v46h233v-46h-90v-409h90v-46h-233v46h91v183h-293v-183h91v-46h-233z" />
    <glyph glyph-name="i.sc" horiz-adv-x="326" 
d="M281 0h-236v46h92v409h-92v46h236v-46h-92v-409h92v-46z" />
    <glyph glyph-name="j.sc" horiz-adv-x="432" 
d="M171 40q43 0 70 28q32 35 32 110v277h-93v46h227v-46h-82v-279q0 -96 -46 -142q-41 -43 -109 -43q-60 0 -102.5 37t-42.5 90q0 25 13 41t34 16q16 0 28 -11t12 -28q0 -14 -8.5 -25t-23.5 -13q2 -20 27 -39t64 -19z" />
    <glyph glyph-name="k.sc" horiz-adv-x="576" 
d="M483 454l-172 -173l166 -235h84v-46h-116l-170 245l-86 -85v-114h88l1 -46h-233v46h92v409h-92v46h227v-46h-83v-234l234 234h-80v46h209v-47h-69z" />
    <glyph glyph-name="l.sc" horiz-adv-x="477" 
d="M389 46v96h50v-142h-394v46h90v409h-90v46h235v-46h-93v-409h202z" />
    <glyph glyph-name="m.sc" horiz-adv-x="736" 
d="M538 501h143v-46h-90l20 -409h90v-46h-234v46h92l-13 368l-169 -344h-19l-170 344l-13 -368h93v-46h-233v46h91l18 409h-90v46h144l170 -349z" />
    <glyph glyph-name="n.sc" horiz-adv-x="654" 
d="M182 501l302 -396v350h-91v46h230v-46h-90v-458h-31l-318 419v-370h91v-46h-230v46h90v409h-90v46h137z" />
    <glyph glyph-name="o.sc" 
d="M305 512q112 0 183.5 -75t71.5 -185q0 -111 -72 -186t-184 -75q-111 0 -182.5 75t-71.5 186q0 110 71.5 185t183.5 75zM304 39q89 0 145.5 59.5t56.5 153.5q0 92 -56.5 152t-144.5 60t-144.5 -59.5t-56.5 -152.5q0 -94 56 -153.5t144 -59.5z" />
    <glyph glyph-name="p.sc" horiz-adv-x="489" 
d="M45 501h220q81 0 134 -42.5t53 -113.5q0 -76 -50.5 -119.5t-136.5 -43.5q-64 0 -78 1v-137h92v-46h-234v46h90v409h-90v46zM268 228q61 0 96 31t35 85q0 51 -37.5 81t-95.5 30h-79v-226q15 -1 81 -1z" />
    <glyph glyph-name="q.sc" 
d="M508 -106q-24 0 -49 8.5t-40 17.5t-39 25.5t-33 21.5q-29 18 -77 27q-87 16 -137 61q-39 33 -61 85.5t-22 111.5q0 110 71.5 185t183.5 75t183.5 -75t71.5 -185q0 -93 -52.5 -160.5t-137.5 -85.5q24 -10 45 -24q31 -20 49.5 -28.5t42.5 -8.5q30 0 61 19l23 -44
q-34 -26 -83 -26zM304 39q86 0 144 61.5t58 151.5q0 92 -56.5 152t-144.5 60t-144.5 -59.5t-56.5 -152.5q0 -99 65 -161q55 -52 135 -52z" />
    <glyph glyph-name="q.sc_alt" 
d="M560 252q0 -71 -31.5 -130t-86.5 -93l55 -88l-41 -25l-58 91q-45 -16 -94 -16q-111 0 -182.5 75t-71.5 186q0 110 71.5 185t183.5 75t183.5 -75t71.5 -185zM506 252q0 92 -56.5 152t-144.5 60t-144.5 -59.5t-56.5 -152.5q0 -94 56 -153.5t144 -59.5q38 0 68 10l-57 92
l41 26l60 -96q42 27 66 74.5t24 106.5z" />
    <glyph glyph-name="r.sc" horiz-adv-x="534" 
d="M265 455h-78v-203q24 -1 74 -1q63 0 101.5 27.5t38.5 77.5q0 47 -36.5 73t-99.5 26zM187 206v-160h92v-46h-234v46h90v409h-90v46h222q86 0 136 -38.5t50 -105.5q0 -50 -30.5 -87t-80.5 -52l108 -172h78v-46h-114l-125 206q-16 -1 -35 -1q-48 0 -67 1z" />
    <glyph glyph-name="s.sc" horiz-adv-x="455" 
d="M314 408q0 19 12 33q-9 11 -36 18.5t-56 7.5q-51 0 -82 -23t-31 -60q0 -20 9 -35t30.5 -28.5t36.5 -20t47 -19.5q41 -15 61.5 -24.5t48 -27.5t39.5 -41t12 -54q0 -65 -50.5 -104t-128.5 -39q-76 0 -126 32.5t-50 71.5q0 22 11 35t29 13q17 0 28.5 -10.5t11.5 -26.5
q0 -19 -13 -36q33 -33 110 -33q59 0 92 25.5t33 68.5q0 25 -20.5 45t-40.5 29.5t-59 24.5q-35 13 -51.5 20t-43 21.5t-38.5 27.5t-22 34t-10 46q0 59 46.5 96t122.5 37q66 0 112 -29.5t46 -70.5q0 -19 -11 -31t-27 -12q-19 0 -30.5 11t-11.5 28z" />
    <glyph glyph-name="t.sc" horiz-adv-x="523" 
d="M143 0v46h92v409h-144v-91h-50v137h441v-137h-51v91h-144v-409h92v-46h-236z" />
    <glyph glyph-name="u.sc" 
d="M165 455v-274q0 -68 37.5 -105.5t102.5 -37.5t102.5 37t37.5 105v275h-90v46h226v-46h-84v-274q0 -91 -51 -140.5t-142 -49.5t-141 48.5t-50 139.5v276h-84v46h226v-46h-90z" />
    <glyph glyph-name="v.sc" horiz-adv-x="553" 
d="M261 -8l-188 463h-63v46h199v-46h-80l149 -377l149 377h-80v46h196v-46h-62l-189 -463h-31z" />
    <glyph glyph-name="w.sc" horiz-adv-x="772" 
d="M225 -12l-141 467h-73v46h210v-46h-81l107 -365l129 343h24l130 -343l106 365h-81v46h206v-46h-73l-141 -467h-30l-131 351l-131 -351h-30z" />
    <glyph glyph-name="x.sc" horiz-adv-x="560" 
d="M535 48v-48h-200v46h71l-128 179l-130 -179h81v-46h-204v48h65l157 207l-146 200h-67v46h204v-46h-75l117 -168l120 168h-75v46h201v-46h-70l-146 -198l156 -209h69z" />
    <glyph glyph-name="y.sc" horiz-adv-x="523" 
d="M517 501v-46h-71l-159 -265v-144h91v-46h-234v46h91v144l-158 265h-71v46h207v-46h-79l129 -222l129 222h-79v46h204z" />
    <glyph glyph-name="z.sc" horiz-adv-x="483" 
d="M45 0v28l320 428h-257v-89h-50v134h382v-27l-319 -428h271v88h51v-134h-398z" />
    <glyph glyph-name="aacute.sc" horiz-adv-x="575" 
d="M160 501h255v-46h-77l157 -409h65v-46h-199v46h81l-47 124h-218l-46 -124h81v-46h-197v46h65l156 409h-76v46zM286 458l-91 -241h182zM251 569l-12 19l125 115q22 20 38 20q14 0 25 -10.5t11 -28.5q0 -21 -35 -39z" />
    <glyph glyph-name="abreve.sc" horiz-adv-x="575" 
d="M160 501h255v-46h-77l157 -409h65v-46h-199v46h81l-47 124h-218l-46 -124h81v-46h-197v46h65l156 409h-76v46zM286 458l-91 -241h182zM288 569q-51 0 -90.5 33.5t-57.5 85.5l40 19q14 -38 44 -59.5t64 -21.5q36 0 65 22.5t43 58.5l40 -19q-18 -52 -57.5 -85.5
t-90.5 -33.5z" />
    <glyph glyph-name="acircumflex.sc" horiz-adv-x="575" 
d="M160 501h255v-46h-77l157 -409h65v-46h-199v46h81l-47 124h-218l-46 -124h81v-46h-197v46h65l156 409h-76v46zM286 458l-91 -241h182zM169 563l-25 30l144 134l144 -134l-25 -30l-119 91z" />
    <glyph glyph-name="adieresis.sc" horiz-adv-x="575" 
d="M160 501h255v-46h-77l157 -409h65v-46h-199v46h81l-47 124h-218l-46 -124h81v-46h-197v46h65l156 409h-76v46zM286 458l-91 -241h182zM368 585q-21 0 -35 15t-14 36t14 36t35 15t35 -15t14 -36t-14 -36t-35 -15zM208 585q-21 0 -35 15t-14 36t14 36t35 15t35 -15t14 -36
t-14 -36t-35 -15z" />
    <glyph glyph-name="ae.sc" horiz-adv-x="689" 
d="M227 0v46h90v129h-154l-67 -129h77v-46h-188v46h57l217 409h-69v46h439v-137h-50v91h-210v-178h172v-47h-172v-184h210v91h50v-137h-402zM310 455l-122 -233h129v233h-7z" />
    <glyph glyph-name="aeacute.sc" horiz-adv-x="689" 
d="M227 0v46h90v129h-154l-67 -129h77v-46h-188v46h57l217 409h-69v46h439v-137h-50v91h-210v-178h172v-47h-172v-184h210v91h50v-137h-402zM310 455l-122 -233h129v233h-7zM339 569l-12 19l125 115q22 20 38 20q14 0 25 -10.5t11 -28.5q0 -21 -35 -39z" />
    <glyph glyph-name="agrave.sc" horiz-adv-x="575" 
d="M160 501h255v-46h-77l157 -409h65v-46h-199v46h81l-47 124h-218l-46 -124h81v-46h-197v46h65l156 409h-76v46zM286 458l-91 -241h182zM325 569l-152 76q-35 18 -35 39q0 18 11 28.5t25 10.5q16 0 38 -20l125 -115z" />
    <glyph glyph-name="amacron.sc" horiz-adv-x="575" 
d="M160 501h255v-46h-77l157 -409h65v-46h-199v46h81l-47 124h-218l-46 -124h81v-46h-197v46h65l156 409h-76v46zM286 458l-91 -241h182zM143 600v52h290v-52h-290z" />
    <glyph glyph-name="aogonek.sc" horiz-adv-x="575" 
d="M469 -201q-50 0 -76 24t-26 65q0 66 70 112h-76v46h81l-47 124h-218l-46 -124h81v-46h-197v46h65l156 409h-76v46h255v-46h-77l157 -409h65v-46h-57q-86 -39 -86 -102q0 -54 57 -54q41 0 81 20l-3 -42q-32 -23 -83 -23zM286 458l-91 -241h182z" />
    <glyph glyph-name="aring.sc" horiz-adv-x="575" 
d="M212 0h-197v46h65l156 409h-76v46h51q-24 27 -24 63q0 42 29 72t70 30t70 -30t29 -72q0 -34 -24 -63h54v-46h-77l157 -409h65v-46h-199v46h81l-47 124h-218l-46 -124h81v-46zM286 458l-91 -241h182zM286 503q25 0 41 17.5t16 43.5t-16 43.5t-41 17.5t-41 -17.5t-16 -43.5
t16 -43.5t41 -17.5z" />
    <glyph glyph-name="aringacute.sc" horiz-adv-x="575" 
d="M212 0h-197v46h65l156 409h-76v46h51q-24 27 -24 63q0 42 29 72t70 30t70 -30t29 -72q0 -34 -24 -63h54v-46h-77l157 -409h65v-46h-199v46h81l-47 124h-218l-46 -124h81v-46zM286 458l-91 -241h182zM248 714l-12 19l125 115q22 20 38 20q14 0 25 -10.5t11 -28.5
q0 -21 -35 -39zM286 503q25 0 41 17.5t16 43.5t-16 43.5t-41 17.5t-41 -17.5t-16 -43.5t16 -43.5t41 -17.5z" />
    <glyph glyph-name="atilde.sc" horiz-adv-x="575" 
d="M160 501h255v-46h-77l157 -409h65v-46h-199v46h81l-47 124h-218l-46 -124h81v-46h-197v46h65l156 409h-76v46zM286 458l-91 -241h182zM359 570q-41 0 -88 39q-31 25 -47 25q-36 0 -43 -58l-45 9q1 42 26.5 72.5t58.5 30.5q41 0 88 -39q31 -25 47 -25q36 0 43 58l45 -9
q-1 -42 -26.5 -72.5t-58.5 -30.5z" />
    <glyph glyph-name="cacute.sc" horiz-adv-x="549" 
d="M464 105l30 -36q-78 -78 -190 -78t-183 74.5t-71 185.5q0 109 72.5 185t183.5 76q75 0 130 -39t55 -85q0 -22 -12.5 -36t-31.5 -14q-18 0 -29.5 11.5t-11.5 28.5q0 23 21 33q-13 20 -45 36.5t-76 16.5q-87 0 -144.5 -61t-57.5 -152q0 -93 56.5 -152.5t143.5 -59.5
q89 0 160 66zM259 569l-12 19l125 115q22 20 38 20q14 0 25 -10.5t11 -28.5q0 -21 -35 -39z" />
    <glyph glyph-name="ccaron.sc" horiz-adv-x="549" 
d="M464 105l30 -36q-78 -78 -190 -78t-183 74.5t-71 185.5q0 109 72.5 185t183.5 76q75 0 130 -39t55 -85q0 -22 -12.5 -36t-31.5 -14q-18 0 -29.5 11.5t-11.5 28.5q0 23 21 33q-13 20 -45 36.5t-76 16.5q-87 0 -144.5 -61t-57.5 -152q0 -93 56.5 -152.5t143.5 -59.5
q89 0 160 66zM415 731l25 -30l-144 -134l-144 134l25 30l119 -91z" />
    <glyph glyph-name="ccedilla.sc" horiz-adv-x="549" 
d="M299 -199q-56 0 -106 26l14 32q42 -19 87 -19q44 0 44 31q0 33 -50 33q-13 0 -22 -3l-17 12l22 80q-99 11 -160 83.5t-61 174.5q0 109 72.5 185t183.5 76q75 0 130 -39t55 -85q0 -22 -12.5 -36t-31.5 -14q-18 0 -29.5 11.5t-11.5 28.5q0 23 21 33q-13 20 -45 36.5
t-76 16.5q-87 0 -144.5 -61t-57.5 -152q0 -93 56.5 -152.5t143.5 -59.5q89 0 160 66l30 -36q-76 -76 -188 -78l-5 -41q43 -1 65.5 -22t22.5 -52q0 -32 -23.5 -53.5t-66.5 -21.5z" />
    <glyph glyph-name="cdotaccent.sc" horiz-adv-x="549" 
d="M464 105l30 -36q-78 -78 -190 -78t-183 74.5t-71 185.5q0 109 72.5 185t183.5 76q75 0 130 -39t55 -85q0 -22 -12.5 -36t-31.5 -14q-18 0 -29.5 11.5t-11.5 28.5q0 23 21 33q-13 20 -45 36.5t-76 16.5q-87 0 -144.5 -61t-57.5 -152q0 -93 56.5 -152.5t143.5 -59.5
q89 0 160 66zM296 583q-22 0 -36.5 15.5t-14.5 37.5t14.5 37.5t36.5 15.5t36.5 -15.5t14.5 -37.5t-14.5 -37.5t-36.5 -15.5z" />
    <glyph glyph-name="dcaron.sc" horiz-adv-x="606" 
d="M190 46h84q111 0 170 57t59 154q0 92 -63.5 145t-171.5 53h-78v-409zM268 0h-220v46h90v409h-90v46h220q132 0 210 -66.5t78 -178.5q0 -116 -76.5 -186t-211.5 -70zM406 731l25 -30l-144 -134l-144 134l25 30l119 -91z" />
    <glyph glyph-name="dcroat.sc" horiz-adv-x="606" 
d="M268 0h-220v46h90v188h-70v46h70v175h-90v46h220q132 0 210 -66.5t78 -178.5q0 -116 -76.5 -186t-211.5 -70zM190 46h84q111 0 170 57t59 154q0 92 -63.5 145t-171.5 53h-78v-175h118v-46h-118v-188z" />
    <glyph glyph-name="eacute.sc" horiz-adv-x="510" 
d="M450 0h-402v46h90v409h-90v46h402v-137h-50v91h-210v-178h172v-47h-172v-184h210v91h50v-137zM212 569l-12 19l125 115q22 20 38 20q14 0 25 -10.5t11 -28.5q0 -21 -35 -39z" />
    <glyph glyph-name="ebreve.sc" horiz-adv-x="510" 
d="M450 0h-402v46h90v409h-90v46h402v-137h-50v91h-210v-178h172v-47h-172v-184h210v91h50v-137zM249 569q-51 0 -90.5 33.5t-57.5 85.5l40 19q14 -38 44 -59.5t64 -21.5q36 0 65 22.5t43 58.5l40 -19q-18 -52 -57.5 -85.5t-90.5 -33.5z" />
    <glyph glyph-name="ecaron.sc" horiz-adv-x="510" 
d="M450 0h-402v46h90v409h-90v46h402v-137h-50v91h-210v-178h172v-47h-172v-184h210v91h50v-137zM368 731l25 -30l-144 -134l-144 134l25 30l119 -91z" />
    <glyph glyph-name="ecircumflex.sc" horiz-adv-x="510" 
d="M450 0h-402v46h90v409h-90v46h402v-137h-50v91h-210v-178h172v-47h-172v-184h210v91h50v-137zM130 563l-25 30l144 134l144 -134l-25 -30l-119 91z" />
    <glyph glyph-name="edieresis.sc" horiz-adv-x="510" 
d="M450 0h-402v46h90v409h-90v46h402v-137h-50v91h-210v-178h172v-47h-172v-184h210v91h50v-137zM329 585q-21 0 -35 15t-14 36t14 36t35 15t35 -15t14 -36t-14 -36t-35 -15zM169 585q-21 0 -35 15t-14 36t14 36t35 15t35 -15t14 -36t-14 -36t-35 -15z" />
    <glyph glyph-name="edotaccent.sc" horiz-adv-x="510" 
d="M450 0h-402v46h90v409h-90v46h402v-137h-50v91h-210v-178h172v-47h-172v-184h210v91h50v-137zM249 583q-22 0 -36.5 15.5t-14.5 37.5t14.5 37.5t36.5 15.5t36.5 -15.5t14.5 -37.5t-14.5 -37.5t-36.5 -15.5z" />
    <glyph glyph-name="egrave.sc" horiz-adv-x="510" 
d="M450 0h-402v46h90v409h-90v46h402v-137h-50v91h-210v-178h172v-47h-172v-184h210v91h50v-137zM286 569l-152 76q-35 18 -35 39q0 18 11 28.5t25 10.5q16 0 38 -20l125 -115z" />
    <glyph glyph-name="emacron.sc" horiz-adv-x="510" 
d="M450 0h-402v46h90v409h-90v46h402v-137h-50v91h-210v-178h172v-47h-172v-184h210v91h50v-137zM104 600v52h290v-52h-290z" />
    <glyph glyph-name="eogonek.sc" horiz-adv-x="510" 
d="M364 -201q-50 0 -76 24t-26 65q0 66 70 112h-284v46h90v409h-90v46h402v-137h-50v91h-210v-178h172v-47h-172v-184h210v91h50v-137h-52q-86 -39 -86 -102q0 -54 57 -54q41 0 81 20l-3 -42q-32 -23 -83 -23z" />
    <glyph glyph-name="eth.sc" horiz-adv-x="606" 
d="M268 0h-220v46h90v188h-70v46h70v175h-90v46h220q132 0 210 -66.5t78 -178.5q0 -116 -76.5 -186t-211.5 -70zM190 46h84q111 0 170 57t59 154q0 92 -63.5 145t-171.5 53h-78v-175h118v-46h-118v-188z" />
    <glyph glyph-name="gbreve.sc" horiz-adv-x="587" 
d="M310 465q-91 0 -148.5 -62.5t-57.5 -154.5t57.5 -150.5t139.5 -58.5q87 0 160 49v112h-142v46h193v-246h-50v42q-70 -51 -165 -51q-100 0 -173.5 70.5t-73.5 185.5q0 116 76.5 190.5t185.5 74.5q82 0 137 -37t55 -80q0 -22 -12 -35t-31 -13q-17 0 -28.5 11t-11.5 27
q0 22 18 32q-17 19 -51.5 33.5t-77.5 14.5zM301 569q-51 0 -90.5 33.5t-57.5 85.5l40 19q14 -38 44 -59.5t64 -21.5q36 0 65 22.5t43 58.5l40 -19q-18 -52 -57.5 -85.5t-90.5 -33.5z" />
    <glyph glyph-name="gcommaaccent.sc" horiz-adv-x="587" 
d="M310 465q-91 0 -148.5 -62.5t-57.5 -154.5t57.5 -150.5t139.5 -58.5q87 0 160 49v112h-142v46h193v-246h-50v42q-70 -51 -165 -51q-100 0 -173.5 70.5t-73.5 185.5q0 116 76.5 190.5t185.5 74.5q82 0 137 -37t55 -80q0 -22 -12 -35t-31 -13q-17 0 -28.5 11t-11.5 27
q0 22 18 32q-17 19 -51.5 33.5t-77.5 14.5zM236 -262l-11 18q71 53 73 101q-17 2 -28.5 14.5t-11.5 28.5q0 19 12.5 31.5t29.5 12.5q21 0 34.5 -15.5t13.5 -43.5q0 -37 -27 -77t-85 -70z" />
    <glyph glyph-name="gdotaccent.sc" horiz-adv-x="587" 
d="M310 465q-91 0 -148.5 -62.5t-57.5 -154.5t57.5 -150.5t139.5 -58.5q87 0 160 49v112h-142v46h193v-246h-50v42q-70 -51 -165 -51q-100 0 -173.5 70.5t-73.5 185.5q0 116 76.5 190.5t185.5 74.5q82 0 137 -37t55 -80q0 -22 -12 -35t-31 -13q-17 0 -28.5 11t-11.5 27
q0 22 18 32q-17 19 -51.5 33.5t-77.5 14.5zM301 583q-22 0 -36.5 15.5t-14.5 37.5t14.5 37.5t36.5 15.5t36.5 -15.5t14.5 -37.5t-14.5 -37.5t-36.5 -15.5z" />
    <glyph glyph-name="hbar.sc" horiz-adv-x="673" 
d="M605 389v-46h-70v-297h90v-46h-233v46h91v183h-293v-183h91v-46h-233v46h90v297h-70v46h70v66h-90v46h233v-46h-91v-66h293v66h-91v46h233v-46h-90v-66h70zM190 277h293v66h-293v-66z" />
    <glyph glyph-name="iacute.sc" horiz-adv-x="332" 
d="M284 0h-236v46h92v409h-92v46h236v-46h-92v-409h92v-46zM129 569l-12 19l125 115q22 20 38 20q14 0 25 -10.5t11 -28.5q0 -21 -35 -39z" />
    <glyph glyph-name="ibreve.sc" horiz-adv-x="332" 
d="M284 0h-236v46h92v409h-92v46h236v-46h-92v-409h92v-46zM166 569q-51 0 -90.5 33.5t-57.5 85.5l40 19q14 -38 44 -59.5t64 -21.5q36 0 65 22.5t43 58.5l40 -19q-18 -52 -57.5 -85.5t-90.5 -33.5z" />
    <glyph glyph-name="icircumflex.sc" horiz-adv-x="332" 
d="M284 0h-236v46h92v409h-92v46h236v-46h-92v-409h92v-46zM47 563l-25 30l144 134l144 -134l-25 -30l-119 91z" />
    <glyph glyph-name="idieresis.sc" horiz-adv-x="332" 
d="M284 0h-236v46h92v409h-92v46h236v-46h-92v-409h92v-46zM246 585q-21 0 -35 15t-14 36t14 36t35 15t35 -15t14 -36t-14 -36t-35 -15zM86 585q-21 0 -35 15t-14 36t14 36t35 15t35 -15t14 -36t-14 -36t-35 -15z" />
    <glyph glyph-name="idotaccent.sc" horiz-adv-x="332" 
d="M284 0h-236v46h92v409h-92v46h236v-46h-92v-409h92v-46zM166 583q-22 0 -36.5 15.5t-14.5 37.5t14.5 37.5t36.5 15.5t36.5 -15.5t14.5 -37.5t-14.5 -37.5t-36.5 -15.5z" />
    <glyph glyph-name="dotlessi.sc" horiz-adv-x="332" 
d="M284 0h-236v46h92v409h-92v46h236v-46h-92v-409h92v-46z" />
    <glyph glyph-name="igrave.sc" horiz-adv-x="332" 
d="M284 0h-236v46h92v409h-92v46h236v-46h-92v-409h92v-46zM203 569l-152 76q-35 18 -35 39q0 18 11 28.5t25 10.5q16 0 38 -20l125 -115z" />
    <glyph glyph-name="imacron.sc" horiz-adv-x="332" 
d="M284 0h-236v46h92v409h-92v46h236v-46h-92v-409h92v-46zM21 600v52h290v-52h-290z" />
    <glyph glyph-name="iogonek.sc" horiz-adv-x="332" 
d="M163 -201q-50 0 -76 24t-26 65q0 66 70 112h-83v46h92v409h-92v46h236v-46h-92v-409h92v-46h-87q-86 -39 -86 -102q0 -54 57 -54q41 0 81 20l-3 -42q-32 -23 -83 -23z" />
    <glyph glyph-name="kcommaaccent.sc" horiz-adv-x="579" 
d="M486 454l-172 -173l166 -235h84v-46h-116l-170 245l-86 -85v-114h88l1 -46h-233v46h92v409h-92v46h227v-46h-83v-234l234 234h-80v46h209v-47h-69zM241 -262l-11 18q71 53 73 101q-17 2 -28.5 14.5t-11.5 28.5q0 19 12.5 31.5t29.5 12.5q21 0 34.5 -15.5t13.5 -43.5
q0 -37 -27 -77t-85 -70z" />
    <glyph glyph-name="lacute.sc" horiz-adv-x="480" 
d="M392 46v96h50v-142h-394v46h90v409h-90v46h235v-46h-93v-409h202zM143 569l-12 19l125 115q22 20 38 20q14 0 25 -10.5t11 -28.5q0 -21 -35 -39z" />
    <glyph glyph-name="lcaron.sc" horiz-adv-x="480" 
d="M392 46v96h50v-142h-394v46h90v409h-90v46h235v-46h-93v-409h202zM322 292l-18 14q34 49 34 99q0 13 -2.5 31t-2.5 27q0 17 9.5 27.5t26.5 10.5q36 0 36 -41q0 -81 -83 -168z" />
    <glyph glyph-name="lcommaaccent.sc" horiz-adv-x="480" 
d="M392 46v96h50v-142h-394v46h90v409h-90v46h235v-46h-93v-409h202zM180 -262l-11 18q71 53 73 101q-17 2 -28.5 14.5t-11.5 28.5q0 19 12.5 31.5t29.5 12.5q21 0 34.5 -15.5t13.5 -43.5q0 -37 -27 -77t-85 -70z" />
    <glyph glyph-name="ldot.sc" horiz-adv-x="480" 
d="M392 46v96h50v-142h-394v46h90v409h-90v46h235v-46h-93v-409h202zM404 226q-22 0 -36.5 15.5t-14.5 37.5t14.5 37.5t36.5 15.5t36.5 -15.5t14.5 -37.5t-14.5 -37.5t-36.5 -15.5z" />
    <glyph glyph-name="lslash.sc" horiz-adv-x="489" 
d="M401 46v96h50v-142h-394v46h90v156l-85 -46l-22 40l107 58v201h-90v46h235v-46h-93v-173l133 73l22 -40l-155 -84v-185h202z" />
    <glyph glyph-name="nacute.sc" horiz-adv-x="657" 
d="M183 501l302 -396v350h-91v46h230v-46h-90v-458h-31l-318 419v-370h91v-46h-230v46h90v409h-90v46h137zM291 569l-12 19l125 115q22 20 38 20q14 0 25 -10.5t11 -28.5q0 -21 -35 -39z" />
    <glyph glyph-name="ncaron.sc" horiz-adv-x="657" 
d="M183 501l302 -396v350h-91v46h230v-46h-90v-458h-31l-318 419v-370h91v-46h-230v46h90v409h-90v46h137zM447 731l25 -30l-144 -134l-144 134l25 30l119 -91z" />
    <glyph glyph-name="ncommaaccent.sc" horiz-adv-x="657" 
d="M183 501l302 -396v350h-91v46h230v-46h-90v-458h-31l-318 419v-370h91v-46h-230v46h90v409h-90v46h137zM263 -262l-11 18q71 53 73 101q-17 2 -28.5 14.5t-11.5 28.5q0 19 12.5 31.5t29.5 12.5q21 0 34.5 -15.5t13.5 -43.5q0 -37 -27 -77t-85 -70z" />
    <glyph glyph-name="ntilde.sc" horiz-adv-x="657" 
d="M183 501l302 -396v350h-91v46h230v-46h-90v-458h-31l-318 419v-370h91v-46h-230v46h90v409h-90v46h137zM399 570q-41 0 -88 39q-31 25 -47 25q-36 0 -43 -58l-45 9q1 42 26.5 72.5t58.5 30.5q41 0 88 -39q31 -25 47 -25q36 0 43 58l45 -9q-1 -42 -26.5 -72.5t-58.5 -30.5
z" />
    <glyph glyph-name="oacute.sc" 
d="M305 512q112 0 183.5 -75t71.5 -185q0 -111 -72 -186t-184 -75q-111 0 -182.5 75t-71.5 186q0 110 71.5 185t183.5 75zM304 39q89 0 145.5 59.5t56.5 153.5q0 92 -56.5 152t-144.5 60t-144.5 -59.5t-56.5 -152.5q0 -94 56 -153.5t144 -59.5zM268 569l-12 19l125 115
q22 20 38 20q14 0 25 -10.5t11 -28.5q0 -21 -35 -39z" />
    <glyph glyph-name="obreve.sc" 
d="M305 512q112 0 183.5 -75t71.5 -185q0 -111 -72 -186t-184 -75q-111 0 -182.5 75t-71.5 186q0 110 71.5 185t183.5 75zM304 39q89 0 145.5 59.5t56.5 153.5q0 92 -56.5 152t-144.5 60t-144.5 -59.5t-56.5 -152.5q0 -94 56 -153.5t144 -59.5zM305 569q-51 0 -90.5 33.5
t-57.5 85.5l40 19q14 -38 44 -59.5t64 -21.5q36 0 65 22.5t43 58.5l40 -19q-18 -52 -57.5 -85.5t-90.5 -33.5z" />
    <glyph glyph-name="ocircumflex.sc" 
d="M305 512q112 0 183.5 -75t71.5 -185q0 -111 -72 -186t-184 -75q-111 0 -182.5 75t-71.5 186q0 110 71.5 185t183.5 75zM304 39q89 0 145.5 59.5t56.5 153.5q0 92 -56.5 152t-144.5 60t-144.5 -59.5t-56.5 -152.5q0 -94 56 -153.5t144 -59.5zM186 563l-25 30l144 134
l144 -134l-25 -30l-119 91z" />
    <glyph glyph-name="odieresis.sc" 
d="M305 512q112 0 183.5 -75t71.5 -185q0 -111 -72 -186t-184 -75q-111 0 -182.5 75t-71.5 186q0 110 71.5 185t183.5 75zM304 39q89 0 145.5 59.5t56.5 153.5q0 92 -56.5 152t-144.5 60t-144.5 -59.5t-56.5 -152.5q0 -94 56 -153.5t144 -59.5zM385 585q-21 0 -35 15t-14 36
t14 36t35 15t35 -15t14 -36t-14 -36t-35 -15zM225 585q-21 0 -35 15t-14 36t14 36t35 15t35 -15t14 -36t-14 -36t-35 -15z" />
    <glyph glyph-name="oe.sc" horiz-adv-x="755" 
d="M383 46v409h-52q-101 0 -163 -54t-62 -144q0 -95 57.5 -153t161.5 -58h58zM331 501h364v-137h-50v91h-210v-178h172v-47h-172v-184h210v91h50v-137h-364q-128 0 -203 70.5t-75 185.5q0 112 76.5 178.5t201.5 66.5z" />
    <glyph glyph-name="ograve.sc" 
d="M305 512q112 0 183.5 -75t71.5 -185q0 -111 -72 -186t-184 -75q-111 0 -182.5 75t-71.5 186q0 110 71.5 185t183.5 75zM304 39q89 0 145.5 59.5t56.5 153.5q0 92 -56.5 152t-144.5 60t-144.5 -59.5t-56.5 -152.5q0 -94 56 -153.5t144 -59.5zM342 569l-152 76
q-35 18 -35 39q0 18 11 28.5t25 10.5q16 0 38 -20l125 -115z" />
    <glyph glyph-name="ohungarumlaut.sc" 
d="M305 512q112 0 183.5 -75t71.5 -185q0 -111 -72 -186t-184 -75q-111 0 -182.5 75t-71.5 186q0 110 71.5 185t183.5 75zM304 39q89 0 145.5 59.5t56.5 153.5q0 92 -56.5 152t-144.5 60t-144.5 -59.5t-56.5 -152.5q0 -94 56 -153.5t144 -59.5zM185 571l-12 19l126 115
q22 20 38 20q14 0 24 -9.5t10 -26.5q0 -21 -35 -39zM364 576l-10 20l134 106q22 17 37 17t24 -10t9 -25q0 -25 -38 -40z" />
    <glyph glyph-name="omacron.sc" 
d="M305 512q112 0 183.5 -75t71.5 -185q0 -111 -72 -186t-184 -75q-111 0 -182.5 75t-71.5 186q0 110 71.5 185t183.5 75zM304 39q89 0 145.5 59.5t56.5 153.5q0 92 -56.5 152t-144.5 60t-144.5 -59.5t-56.5 -152.5q0 -94 56 -153.5t144 -59.5zM160 600v52h290v-52h-290z
" />
    <glyph glyph-name="oslash.sc" horiz-adv-x="616" 
d="M307 -9q-89 0 -156 51l-64 -74l-34 30l65 74q-65 75 -65 180q0 110 71.5 185t183.5 75q86 0 152 -48l64 73l35 -31l-65 -72q69 -74 69 -182q0 -111 -72 -186t-184 -75zM307 39q89 0 145.5 59.5t56.5 153.5q0 86 -51 145l-275 -317q52 -41 124 -41zM107 252q0 -86 47 -144
l274 317q-54 39 -120 39q-88 0 -144.5 -59.5t-56.5 -152.5z" />
    <glyph glyph-name="oslashacute.sc" horiz-adv-x="616" 
d="M307 -9q-89 0 -156 51l-64 -74l-34 30l65 74q-65 75 -65 180q0 110 71.5 185t183.5 75q86 0 152 -48l64 73l35 -31l-65 -72q69 -74 69 -182q0 -111 -72 -186t-184 -75zM307 39q89 0 145.5 59.5t56.5 153.5q0 86 -51 145l-275 -317q52 -41 124 -41zM107 252q0 -86 47 -144
l274 317q-54 39 -120 39q-88 0 -144.5 -59.5t-56.5 -152.5zM271 569l-12 19l125 115q22 20 38 20q14 0 25 -10.5t11 -28.5q0 -21 -35 -39z" />
    <glyph glyph-name="otilde.sc" 
d="M305 512q112 0 183.5 -75t71.5 -185q0 -111 -72 -186t-184 -75q-111 0 -182.5 75t-71.5 186q0 110 71.5 185t183.5 75zM304 39q89 0 145.5 59.5t56.5 153.5q0 92 -56.5 152t-144.5 60t-144.5 -59.5t-56.5 -152.5q0 -94 56 -153.5t144 -59.5zM376 570q-41 0 -88 39
q-31 25 -47 25q-36 0 -43 -58l-45 9q1 42 26.5 72.5t58.5 30.5q41 0 88 -39q31 -25 47 -25q36 0 43 58l45 -9q-1 -42 -26.5 -72.5t-58.5 -30.5z" />
    <glyph glyph-name="racute.sc" horiz-adv-x="537" 
d="M268 455h-78v-203q24 -1 74 -1q63 0 101.5 27.5t38.5 77.5q0 47 -36.5 73t-99.5 26zM190 206v-160h92v-46h-234v46h90v409h-90v46h222q86 0 136 -38.5t50 -105.5q0 -50 -30.5 -87t-80.5 -52l108 -172h78v-46h-114l-125 206q-16 -1 -35 -1q-48 0 -67 1zM233 569l-12 19
l125 115q22 20 38 20q14 0 25 -10.5t11 -28.5q0 -21 -35 -39z" />
    <glyph glyph-name="rcaron.sc" horiz-adv-x="537" 
d="M268 455h-78v-203q24 -1 74 -1q63 0 101.5 27.5t38.5 77.5q0 47 -36.5 73t-99.5 26zM190 206v-160h92v-46h-234v46h90v409h-90v46h222q86 0 136 -38.5t50 -105.5q0 -50 -30.5 -87t-80.5 -52l108 -172h78v-46h-114l-125 206q-16 -1 -35 -1q-48 0 -67 1zM389 731l25 -30
l-144 -134l-144 134l25 30l119 -91z" />
    <glyph glyph-name="rcommaaccent.sc" horiz-adv-x="537" 
d="M268 455h-78v-203q24 -1 74 -1q63 0 101.5 27.5t38.5 77.5q0 47 -36.5 73t-99.5 26zM190 206v-160h92v-46h-234v46h90v409h-90v46h222q86 0 136 -38.5t50 -105.5q0 -50 -30.5 -87t-80.5 -52l108 -172h78v-46h-114l-125 206q-16 -1 -35 -1q-48 0 -67 1zM220 -262l-11 18
q71 53 73 101q-17 2 -28.5 14.5t-11.5 28.5q0 19 12.5 31.5t29.5 12.5q21 0 34.5 -15.5t13.5 -43.5q0 -37 -27 -77t-85 -70z" />
    <glyph glyph-name="sacute.sc" horiz-adv-x="455" 
d="M314 408q0 19 12 33q-9 11 -36 18.5t-56 7.5q-51 0 -82 -23t-31 -60q0 -20 9 -35t30.5 -28.5t36.5 -20t47 -19.5q41 -15 61.5 -24.5t48 -27.5t39.5 -41t12 -54q0 -65 -50.5 -104t-128.5 -39q-76 0 -126 32.5t-50 71.5q0 22 11 35t29 13q17 0 28.5 -10.5t11.5 -26.5
q0 -19 -13 -36q33 -33 110 -33q59 0 92 25.5t33 68.5q0 25 -20.5 45t-40.5 29.5t-59 24.5q-35 13 -51.5 20t-43 21.5t-38.5 27.5t-22 34t-10 46q0 59 46.5 96t122.5 37q66 0 112 -29.5t46 -70.5q0 -19 -11 -31t-27 -12q-19 0 -30.5 11t-11.5 28zM200 569l-12 19l125 115
q22 20 38 20q14 0 25 -10.5t11 -28.5q0 -21 -35 -39z" />
    <glyph glyph-name="scaron.sc" horiz-adv-x="455" 
d="M314 408q0 19 12 33q-9 11 -36 18.5t-56 7.5q-51 0 -82 -23t-31 -60q0 -20 9 -35t30.5 -28.5t36.5 -20t47 -19.5q41 -15 61.5 -24.5t48 -27.5t39.5 -41t12 -54q0 -65 -50.5 -104t-128.5 -39q-76 0 -126 32.5t-50 71.5q0 22 11 35t29 13q17 0 28.5 -10.5t11.5 -26.5
q0 -19 -13 -36q33 -33 110 -33q59 0 92 25.5t33 68.5q0 25 -20.5 45t-40.5 29.5t-59 24.5q-35 13 -51.5 20t-43 21.5t-38.5 27.5t-22 34t-10 46q0 59 46.5 96t122.5 37q66 0 112 -29.5t46 -70.5q0 -19 -11 -31t-27 -12q-19 0 -30.5 11t-11.5 28zM356 731l25 -30l-144 -134
l-144 134l25 30l119 -91z" />
    <glyph glyph-name="scedilla.sc" horiz-adv-x="467" 
d="M232 -199q-56 0 -106 26l14 32q42 -19 87 -19q44 0 44 31q0 33 -50 33q-13 0 -22 -3l-17 12l22 80q-65 6 -106.5 36.5t-41.5 65.5q0 22 11 35t29 13q17 0 28.5 -10.5t11.5 -26.5q0 -19 -13 -36q33 -33 110 -33q59 0 92 25.5t33 68.5q0 25 -20.5 45t-40.5 29.5t-59 24.5
q-35 13 -51.5 20t-43 21.5t-38.5 27.5t-22 34t-10 46q0 59 46.5 96t122.5 37q66 0 112 -29.5t46 -70.5q0 -19 -11 -31t-27 -12q-19 0 -30.5 11t-11.5 28q0 19 12 33q-9 11 -36 18.5t-56 7.5q-51 0 -82 -23t-31 -60q0 -20 9 -35t30.5 -28.5t36.5 -20t47 -19.5
q41 -15 61.5 -24.5t48 -27.5t39.5 -41t12 -54q0 -64 -48.5 -102.5t-123.5 -40.5l-5 -41q43 -1 65.5 -22t22.5 -52q0 -32 -23.5 -53.5t-66.5 -21.5z" />
    <glyph glyph-name="scommaaccent.sc" horiz-adv-x="455" 
d="M314 408q0 19 12 33q-9 11 -36 18.5t-56 7.5q-51 0 -82 -23t-31 -60q0 -20 9 -35t30.5 -28.5t36.5 -20t47 -19.5q41 -15 61.5 -24.5t48 -27.5t39.5 -41t12 -54q0 -65 -50.5 -104t-128.5 -39q-76 0 -126 32.5t-50 71.5q0 22 11 35t29 13q17 0 28.5 -10.5t11.5 -26.5
q0 -19 -13 -36q33 -33 110 -33q59 0 92 25.5t33 68.5q0 25 -20.5 45t-40.5 29.5t-59 24.5q-35 13 -51.5 20t-43 21.5t-38.5 27.5t-22 34t-10 46q0 59 46.5 96t122.5 37q66 0 112 -29.5t46 -70.5q0 -19 -11 -31t-27 -12q-19 0 -30.5 11t-11.5 28zM172 -262l-11 18
q71 53 73 101q-17 2 -28.5 14.5t-11.5 28.5q0 19 12.5 31.5t29.5 12.5q21 0 34.5 -15.5t13.5 -43.5q0 -37 -27 -77t-85 -70z" />
    <glyph glyph-name="tcaron.sc" horiz-adv-x="523" 
d="M143 0v46h92v409h-144v-91h-50v137h441v-137h-51v91h-144v-409h92v-46h-236zM380 731l25 -30l-144 -134l-144 134l25 30l119 -91z" />
    <glyph glyph-name="tcommaaccent.sc" horiz-adv-x="523" 
d="M143 0v46h92v409h-144v-91h-50v137h441v-137h-51v91h-144v-409h92v-46h-236zM196 -262l-11 18q71 53 73 101q-17 2 -28.5 14.5t-11.5 28.5q0 19 12.5 31.5t29.5 12.5q21 0 34.5 -15.5t13.5 -43.5q0 -37 -27 -77t-85 -70z" />
    <glyph glyph-name="thorn.sc" horiz-adv-x="495" 
d="M190 403q24 1 78 1q85 0 136 -40.5t51 -109.5t-51 -109.5t-136 -40.5q-54 0 -78 1v-59h92v-46h-234v46h90v409h-90v46h234v-46h-92v-52zM190 151q25 -1 81 -1q60 0 95.5 28.5t35.5 75.5t-35.5 75.5t-95.5 28.5q-56 0 -81 -1v-206z" />
    <glyph glyph-name="uacute.sc" 
d="M165 455v-274q0 -68 37.5 -105.5t102.5 -37.5t102.5 37t37.5 105v275h-90v46h226v-46h-84v-274q0 -91 -51 -140.5t-142 -49.5t-141 48.5t-50 139.5v276h-84v46h226v-46h-90zM268 569l-12 19l125 115q22 20 38 20q14 0 25 -10.5t11 -28.5q0 -21 -35 -39z" />
    <glyph glyph-name="ubreve.sc" 
d="M165 455v-274q0 -68 37.5 -105.5t102.5 -37.5t102.5 37t37.5 105v275h-90v46h226v-46h-84v-274q0 -91 -51 -140.5t-142 -49.5t-141 48.5t-50 139.5v276h-84v46h226v-46h-90zM305 569q-51 0 -90.5 33.5t-57.5 85.5l40 19q14 -38 44 -59.5t64 -21.5q36 0 65 22.5t43 58.5
l40 -19q-18 -52 -57.5 -85.5t-90.5 -33.5z" />
    <glyph glyph-name="ucircumflex.sc" 
d="M165 455v-274q0 -68 37.5 -105.5t102.5 -37.5t102.5 37t37.5 105v275h-90v46h226v-46h-84v-274q0 -91 -51 -140.5t-142 -49.5t-141 48.5t-50 139.5v276h-84v46h226v-46h-90zM186 563l-25 30l144 134l144 -134l-25 -30l-119 91z" />
    <glyph glyph-name="udieresis.sc" 
d="M165 455v-274q0 -68 37.5 -105.5t102.5 -37.5t102.5 37t37.5 105v275h-90v46h226v-46h-84v-274q0 -91 -51 -140.5t-142 -49.5t-141 48.5t-50 139.5v276h-84v46h226v-46h-90zM385 585q-21 0 -35 15t-14 36t14 36t35 15t35 -15t14 -36t-14 -36t-35 -15zM225 585
q-21 0 -35 15t-14 36t14 36t35 15t35 -15t14 -36t-14 -36t-35 -15z" />
    <glyph glyph-name="ugrave.sc" 
d="M165 455v-274q0 -68 37.5 -105.5t102.5 -37.5t102.5 37t37.5 105v275h-90v46h226v-46h-84v-274q0 -91 -51 -140.5t-142 -49.5t-141 48.5t-50 139.5v276h-84v46h226v-46h-90zM342 569l-152 76q-35 18 -35 39q0 18 11 28.5t25 10.5q16 0 38 -20l125 -115z" />
    <glyph glyph-name="uhungarumlaut.sc" 
d="M165 455v-274q0 -68 37.5 -105.5t102.5 -37.5t102.5 37t37.5 105v275h-90v46h226v-46h-84v-274q0 -91 -51 -140.5t-142 -49.5t-141 48.5t-50 139.5v276h-84v46h226v-46h-90zM185 571l-12 19l126 115q22 20 38 20q14 0 24 -9.5t10 -26.5q0 -21 -35 -39zM364 576l-10 20
l134 106q22 17 37 17t24 -10t9 -25q0 -25 -38 -40z" />
    <glyph glyph-name="umacron.sc" 
d="M165 455v-274q0 -68 37.5 -105.5t102.5 -37.5t102.5 37t37.5 105v275h-90v46h226v-46h-84v-274q0 -91 -51 -140.5t-142 -49.5t-141 48.5t-50 139.5v276h-84v46h226v-46h-90zM160 600v52h290v-52h-290z" />
    <glyph glyph-name="uogonek.sc" 
d="M165 455v-274q0 -68 37.5 -105.5t102.5 -37.5t102.5 37t37.5 105v275h-90v46h226v-46h-84v-274q0 -83 -43.5 -131.5t-120.5 -56.5q-71 -38 -71 -95q0 -54 57 -54q41 0 81 20l-3 -42q-32 -23 -83 -23q-50 0 -76 24t-26 65q0 60 60 105q-76 8 -117.5 55.5t-41.5 130.5v276
h-84v46h226v-46h-90z" />
    <glyph glyph-name="uring.sc" 
d="M165 455v-274q0 -68 37.5 -105.5t102.5 -37.5t102.5 37t37.5 105v275h-90v46h226v-46h-84v-274q0 -91 -51 -140.5t-142 -49.5t-141 48.5t-50 139.5v276h-84v46h226v-46h-90zM305 558q-41 0 -70 30t-29 72t29 72t70 30t70 -30t29 -72t-29 -72t-70 -30zM305 599
q25 0 41 17.5t16 43.5t-16 43.5t-41 17.5t-41 -17.5t-16 -43.5t16 -43.5t41 -17.5z" />
    <glyph glyph-name="wacute.sc" horiz-adv-x="772" 
d="M225 -12l-141 467h-73v46h210v-46h-81l107 -365l129 343h24l130 -343l106 365h-81v46h206v-46h-73l-141 -467h-30l-131 351l-131 -351h-30zM350 569l-12 19l125 115q22 20 38 20q14 0 25 -10.5t11 -28.5q0 -21 -35 -39z" />
    <glyph glyph-name="wcircumflex.sc" horiz-adv-x="772" 
d="M225 -12l-141 467h-73v46h210v-46h-81l107 -365l129 343h24l130 -343l106 365h-81v46h206v-46h-73l-141 -467h-30l-131 351l-131 -351h-30zM268 563l-25 30l144 134l144 -134l-25 -30l-119 91z" />
    <glyph glyph-name="wdieresis.sc" horiz-adv-x="772" 
d="M225 -12l-141 467h-73v46h210v-46h-81l107 -365l129 343h24l130 -343l106 365h-81v46h206v-46h-73l-141 -467h-30l-131 351l-131 -351h-30zM467 585q-21 0 -35 15t-14 36t14 36t35 15t35 -15t14 -36t-14 -36t-35 -15zM307 585q-21 0 -35 15t-14 36t14 36t35 15t35 -15
t14 -36t-14 -36t-35 -15z" />
    <glyph glyph-name="wgrave.sc" horiz-adv-x="772" 
d="M225 -12l-141 467h-73v46h210v-46h-81l107 -365l129 343h24l130 -343l106 365h-81v46h206v-46h-73l-141 -467h-30l-131 351l-131 -351h-30zM424 569l-152 76q-35 18 -35 39q0 18 11 28.5t25 10.5q16 0 38 -20l125 -115z" />
    <glyph glyph-name="yacute.sc" horiz-adv-x="523" 
d="M517 501v-46h-71l-159 -265v-144h91v-46h-234v46h91v144l-158 265h-71v46h207v-46h-79l129 -222l129 222h-79v46h204zM226 569l-12 19l125 115q22 20 38 20q14 0 25 -10.5t11 -28.5q0 -21 -35 -39z" />
    <glyph glyph-name="ycircumflex.sc" horiz-adv-x="523" 
d="M517 501v-46h-71l-159 -265v-144h91v-46h-234v46h91v144l-158 265h-71v46h207v-46h-79l129 -222l129 222h-79v46h204zM144 563l-25 30l144 134l144 -134l-25 -30l-119 91z" />
    <glyph glyph-name="ydieresis.sc" horiz-adv-x="523" 
d="M517 501v-46h-71l-159 -265v-144h91v-46h-234v46h91v144l-158 265h-71v46h207v-46h-79l129 -222l129 222h-79v46h204zM343 585q-21 0 -35 15t-14 36t14 36t35 15t35 -15t14 -36t-14 -36t-35 -15zM183 585q-21 0 -35 15t-14 36t14 36t35 15t35 -15t14 -36t-14 -36t-35 -15
z" />
    <glyph glyph-name="ygrave.sc" horiz-adv-x="523" 
d="M517 501v-46h-71l-159 -265v-144h91v-46h-234v46h91v144l-158 265h-71v46h207v-46h-79l129 -222l129 222h-79v46h204zM300 569l-152 76q-35 18 -35 39q0 18 11 28.5t25 10.5q16 0 38 -20l125 -115z" />
    <glyph glyph-name="zacute.sc" horiz-adv-x="483" 
d="M45 0v28l320 428h-257v-89h-50v134h382v-27l-319 -428h271v88h51v-134h-398zM207 569l-12 19l125 115q22 20 38 20q14 0 25 -10.5t11 -28.5q0 -21 -35 -39z" />
    <glyph glyph-name="zcaron.sc" horiz-adv-x="483" 
d="M45 0v28l320 428h-257v-89h-50v134h382v-27l-319 -428h271v88h51v-134h-398zM363 731l25 -30l-144 -134l-144 134l25 30l119 -91z" />
    <glyph glyph-name="zdotaccent.sc" horiz-adv-x="483" 
d="M45 0v28l320 428h-257v-89h-50v134h382v-27l-319 -428h271v88h51v-134h-398zM244 583q-22 0 -36.5 15.5t-14.5 37.5t14.5 37.5t36.5 15.5t36.5 -15.5t14.5 -37.5t-14.5 -37.5t-36.5 -15.5z" />
    <glyph glyph-name="zero.lin" horiz-adv-x="623" 
d="M310 -12q-107 0 -178.5 94.5t-71.5 245.5q0 153 72 247.5t181 94.5q107 0 178.5 -94.5t71.5 -245.5q0 -153 -72 -247.5t-181 -94.5zM311 40q88 0 141 79.5t53 208.5q0 130 -53 210t-141 80q-87 0 -140 -79.5t-53 -208.5q0 -130 53 -210t140 -80z" />
    <glyph glyph-name="one.lin" horiz-adv-x="415" 
d="M49 0v50h139v546l-132 -34l-12 53l175 46h26v-611h136v-50h-332z" />
    <glyph glyph-name="two.lin" horiz-adv-x="548" 
d="M67 523q0 29 20 60q25 38 73 62.5t110 24.5q81 0 139.5 -49.5t58.5 -126.5q0 -74 -38.5 -120.5t-131.5 -111.5q-151 -106 -179 -212h304v99h55v-149h-414l-14 25q22 89 78.5 154.5t140.5 125.5q74 53 107 93t33 96q0 53 -42.5 88.5t-98.5 35.5q-47 0 -82.5 -16t-49.5 -37
q-5 -6 -7 -14q15 -4 24.5 -16.5t9.5 -27.5q0 -19 -13 -32t-32 -13q-23 0 -37 15.5t-14 45.5z" />
    <glyph glyph-name="three.lin" horiz-adv-x="511" 
d="M241 41q75 0 119 39.5t44 93.5q0 82 -81 119q-51 24 -123 24h-20v50h24q69 0 119 33q63 40 63 104q0 54 -38 83t-105 29q-79 0 -118 -35l-10 -10q30 -12 30 -42q0 -18 -12.5 -30.5t-30.5 -12.5q-19 0 -33.5 15.5t-14.5 39.5q0 26 18 53q23 34 68.5 55t106.5 21
q84 0 139.5 -45t55.5 -121q0 -85 -84 -134q-33 -18 -66 -25q42 -7 68 -20q46 -21 72.5 -60t26.5 -88q0 -81 -61.5 -135t-157.5 -54q-56 0 -107 21.5t-76 56.5q-19 27 -19 56q0 23 14 40t34 17q18 0 30.5 -13t12.5 -31q0 -31 -29 -40q4 -7 12 -13q45 -41 129 -41z" />
    <glyph glyph-name="four.lin" horiz-adv-x="536" 
d="M204 0v50h120v146h-303l-9 22l337 454l43 -31l-295 -396h227v153l57 26v-179h116v-49h-116v-146h96v-50h-273z" />
    <glyph glyph-name="five.lin" horiz-adv-x="514" 
d="M240 41q73 0 119.5 47t46.5 120q0 63 -43 106t-118 43q-68 0 -141 -33l-25 11l34 323h312v-57h-266l-22 -210q48 20 112 20q92 0 153.5 -54t61.5 -148q0 -102 -66 -161.5t-162 -59.5q-100 0 -155 52q-31 28 -31 62q0 20 13 35t35 15q17 0 30 -13t13 -31q0 -22 -16 -35
q7 -7 13 -10q37 -22 102 -22z" />
    <glyph glyph-name="six.lin" horiz-adv-x="573" 
d="M477 560q0 -22 -13 -36t-32 -14t-32 13t-13 32q0 21 14 33q-24 29 -84 29q-86 0 -142 -90.5t-60 -233.5q15 30 41 53q62 55 141 55q96 0 156 -58t60 -147q0 -88 -61.5 -148t-154.5 -60q-100 0 -163 63q-74 74 -74 226q0 103 23.5 182t62 123.5t83 66t92.5 21.5
q72 0 118 -38q38 -32 38 -72zM297 40q69 0 114 43.5t45 110.5t-45.5 111t-113.5 44q-71 0 -120 -45.5t-49 -109.5q0 -62 51 -108t118 -46z" />
    <glyph glyph-name="seven.lin" horiz-adv-x="490" 
d="M110 0l270 608h-297v-99h-55v149h421l8 -16l-286 -642h-61z" />
    <glyph glyph-name="eight.lin" horiz-adv-x="552" 
d="M276 -12q-95 0 -157.5 52t-62.5 137q0 60 44.5 108t93.5 58q-53 17 -88.5 59.5t-35.5 92.5q0 83 59.5 129t146.5 46t146.5 -46t59.5 -129q0 -50 -35.5 -92.5t-88.5 -59.5q49 -10 93.5 -58t44.5 -108q0 -85 -62.5 -137t-157.5 -52zM276 368q62 0 106 36.5t44 88.5
q0 54 -42 89.5t-108 35.5t-108 -35.5t-42 -89.5q0 -52 44 -88.5t106 -36.5zM276 40q72 0 118 38.5t46 98.5q0 57 -49 98t-115 41t-115 -41t-49 -98q0 -60 46 -98.5t118 -38.5z" />
    <glyph glyph-name="nine.lin" horiz-adv-x="573" 
d="M89 98q0 22 13 36t32 14t32 -13t13 -32q0 -21 -14 -33q7 -9 16 -14q27 -17 78 -17q83 0 140.5 82.5t58.5 232.5l-6 -11q-27 -43 -74 -68.5t-102 -25.5q-97 0 -156.5 57.5t-59.5 151.5q0 92 61.5 152t154.5 60q99 0 160 -61q77 -77 77 -233q0 -201 -73 -294.5t-185 -93.5
q-68 0 -122 39q-44 32 -44 71zM276 301q72 0 120.5 44.5t48.5 109.5q0 68 -49 115q-50 48 -120 48q-68 0 -113.5 -44t-45.5 -114q0 -71 45 -115t114 -44z" />
    <glyph glyph-name="bullet.alt" horiz-adv-x="626" 
d="M313 -47q-112 0 -183.5 75.5t-71.5 186.5t71.5 186.5t183.5 75.5q113 0 184.5 -75.5t71.5 -186.5t-71.5 -186.5t-184.5 -75.5z" />
    <glyph glyph-name="hyphen.lin" horiz-adv-x="274" 
d="M32 312v52h210v-52h-210z" />
    <glyph glyph-name="endash.lin" horiz-adv-x="424" 
d="M22 312v52h380v-52h-380z" />
    <glyph glyph-name="emdash.lin" horiz-adv-x="709" 
d="M22 312v52h665v-52h-665z" />
    <glyph glyph-name="parenleft.lin" horiz-adv-x="330" 
d="M334 -166q-130 78 -198 208.5t-68 277.5t68 277.5t198 208.5l29 -41q-115 -70 -177.5 -190.5t-62.5 -254.5q0 -133 62.5 -254t177.5 -191z" />
    <glyph glyph-name="parenright.lin" horiz-adv-x="330" 
d="M-4 -166l-29 41q115 70 177.5 190.5t62.5 254.5q0 133 -62.5 254t-177.5 191l29 41q130 -78 198 -208.5t68 -277.5t-68 -277.5t-198 -208.5z" />
    <glyph glyph-name="bracketleft.lin" horiz-adv-x="341" 
d="M106 -140v932h215v-50h-160v-832h160v-50h-215z" />
    <glyph glyph-name="bracketright.lin" horiz-adv-x="341" 
d="M20 -140v50h160v832h-160v50h215v-932h-215z" />
    <glyph glyph-name="braceleft.lin" horiz-adv-x="328" 
d="M273 -157q-97 2 -153.5 44.5t-56.5 108.5q0 36 16.5 61.5t59.5 70.5q49 51 49 83q0 40 -37 64.5t-88 24.5h-14v48h14q51 0 88 24.5t37 64.5q0 32 -49 83q-43 45 -59.5 70.5t-16.5 61.5q0 66 56.5 108.5t153.5 44.5v-43q-79 -3 -118 -35.5t-39 -74.5q0 -35 62 -102
q63 -69 63 -112q0 -34 -26.5 -67t-88.5 -47q62 -14 88.5 -47t26.5 -67q0 -43 -63 -112q-62 -67 -62 -102q0 -42 39 -74.5t118 -35.5v-43z" />
    <glyph glyph-name="braceright.lin" horiz-adv-x="328" 
d="M55 -157v43q79 3 118 35.5t39 74.5q0 35 -62 102q-63 69 -63 112q0 34 26.5 67t88.5 47q-62 14 -88.5 47t-26.5 67q0 43 63 112q62 67 62 102q0 42 -39 74.5t-118 35.5v43q97 -2 153.5 -44.5t56.5 -108.5q0 -36 -16.5 -61.5t-59.5 -70.5q-49 -51 -49 -83q0 -40 37 -64.5
t88 -24.5h14v-48h-14q-51 0 -88 -24.5t-37 -64.5q0 -32 49 -83q43 -45 59.5 -70.5t16.5 -61.5q0 -66 -56.5 -108.5t-153.5 -44.5z" />
    <glyph glyph-name="registered.alt" horiz-adv-x="598" 
d="M299 -8q-108 0 -179.5 75t-71.5 183q0 109 71.5 184t179.5 75t179.5 -75t71.5 -184q0 -108 -71.5 -183t-179.5 -75zM299 24q92 0 153 66t61 161t-61 161t-153 66t-153 -66t-61 -161t61 -161t153 -66zM298 124h-101v31h33v202h-33v30h100q46 0 72.5 -20.5t26.5 -56.5
q0 -53 -55 -72l51 -83h31v-31h-54l-61 105h-44v-74h34v-31zM296 357h-32v-99h30q30 0 48.5 13.5t18.5 37.5q0 48 -65 48z" />
    <glyph glyph-name="copyright.lin" horiz-adv-x="782" 
d="M391 -12q-140 0 -237 99.5t-97 241.5t97 241.5t237 99.5t237 -99.5t97 -241.5t-97 -241.5t-237 -99.5zM391 21q123 0 209.5 90.5t86.5 217.5t-86.5 217.5t-209.5 90.5t-209.5 -90.5t-86.5 -217.5t86.5 -217.5t209.5 -90.5zM402 465q-53 0 -88.5 -38t-35.5 -93
q0 -54 35.5 -92.5t91.5 -38.5q54 0 99 43l27 -30q-50 -52 -126 -52q-75 0 -123 48.5t-48 120.5q0 74 49.5 123t119.5 49q51 0 87.5 -25t36.5 -56q0 -15 -9 -25t-22 -10t-21.5 8t-8.5 21t10 19q-19 28 -74 28z" />
    <glyph glyph-name="published.lin" horiz-adv-x="782" 
d="M391 -12q-140 0 -237 99.5t-97 241.5t97 241.5t237 99.5t237 -99.5t97 -241.5t-97 -241.5t-237 -99.5zM391 21q123 0 209.5 90.5t86.5 217.5t-86.5 217.5t-209.5 90.5t-209.5 -90.5t-86.5 -217.5t86.5 -217.5t209.5 -90.5zM404 281h-42v-78h44v-38h-128v38h41v253h-41v38
h129q53 0 87.5 -29t34.5 -76q0 -52 -34 -80t-91 -28zM407 318q37 0 57.5 19t20.5 52q0 31 -22 49t-57 18h-44v-137q3 0 18 -0.5t27 -0.5z" />
    <glyph glyph-name="registered.lin" horiz-adv-x="782" 
d="M391 -12q-140 0 -237 99.5t-97 241.5t97 241.5t237 99.5t237 -99.5t97 -241.5t-97 -241.5t-237 -99.5zM391 21q123 0 209.5 90.5t86.5 217.5t-86.5 217.5t-209.5 90.5t-209.5 -90.5t-86.5 -217.5t86.5 -217.5t209.5 -90.5zM349 302v-93h43v-38h-126v38h41v253h-41v38h125
q56 0 89.5 -25.5t33.5 -70.5q0 -33 -18.5 -56.5t-49.5 -33.5l63 -105h39v-38h-65l-75 131h-59zM349 339h38q37 0 60 17t23 46q0 60 -81 60h-40v-123z" />
    <glyph glyph-name="dollar.lin" horiz-adv-x="560" 
d="M264 -100l-50 4l9 99q-77 11 -126.5 50t-49.5 76q0 24 13.5 39.5t32.5 15.5q18 0 30 -11.5t12 -28.5q0 -24 -20 -46q32 -36 114 -48l23 269q-83 28 -126 66.5t-43 103.5q0 72 53.5 119.5t143.5 49.5l8 88l50 -4l-8 -88q65 -10 109 -44.5t44 -75.5q0 -22 -13 -35.5
t-31 -13.5q-19 0 -31.5 12.5t-12.5 30.5q0 21 18 41q-24 27 -89 38l-22 -250q97 -31 146.5 -70t49.5 -108q0 -83 -64 -131t-162 -48zM444 175q0 48 -36 77t-111 53l-22 -258q78 1 123.5 35t45.5 93zM137 493q0 -44 29.5 -71t90.5 -50l21 239q-64 -2 -102.5 -35.5
t-38.5 -82.5z" />
    <glyph glyph-name="sterling.lin" horiz-adv-x="548" 
d="M35 24q0 22 26 39.5t75 17.5q47 62 47 145q0 9 -2 31h-102v46h92l-12 38q-28 82 -28 144q0 76 54 130.5t130 54.5q71 0 117 -35t46 -81q0 -22 -13.5 -35.5t-31.5 -13.5q-19 0 -32 12.5t-13 30.5q0 21 17 38q-25 34 -92 34q-53 0 -91.5 -39.5t-38.5 -94.5q0 -50 25 -131
q8 -24 15 -52h171v-46h-163q2 -22 2 -32q0 -96 -45 -143q36 -3 91 -20q69 -22 104 -22q37 0 54.5 14t31.5 50l45 -19q-28 -97 -129 -97q-45 0 -122 27q-65 21 -106 22q-16 -23 -39 -36.5t-42 -13.5t-30 10t-11 27z" />
    <glyph glyph-name="Euro.lin" horiz-adv-x="713" 
d="M33 376v48h97q26 116 106.5 180.5t190.5 64.5q90 0 155.5 -50t65.5 -114q0 -23 -13 -38.5t-36 -15.5q-18 0 -29.5 12.5t-11.5 29.5q0 33 27 45q-9 26 -57.5 53t-102.5 27q-89 0 -151.5 -50.5t-84.5 -143.5h264v-48h-273q-2 -32 -2 -50q0 -29 3 -56h272v-48h-262
q22 -84 78.5 -133t144.5 -49q107 0 191 81l36 -38q-38 -44 -98 -69.5t-130 -25.5q-111 0 -184 64.5t-98 169.5h-98v48h90q-3 27 -3 55q0 25 3 51h-90z" />
    <glyph glyph-name="yen.lin" horiz-adv-x="641" 
d="M194 0v50h98v97h-169v48h169v71h-169v48h141l-171 294h-72v50h209v-50h-72l164 -291l162 291h-73v50h209v-50h-73l-172 -294h142v-48h-169v-71h169v-48h-169v-97h98v-50h-252z" />
    <glyph glyph-name="cent.lin" horiz-adv-x="489" 
d="M194 -14l13 144q-76 21 -121.5 78t-45.5 131q0 89 59.5 150.5t145.5 66.5l11 115l47 -4l-10 -113q56 -9 97 -43t41 -73q0 -19 -13.5 -36.5t-34.5 -17.5q-14 0 -25.5 9.5t-11.5 28.5q0 6 6.5 18.5t17.5 17.5q-15 37 -81 49l-31 -337q9 -1 28 -1q61 0 136 49l-5 -55
q-60 -42 -136 -42q-19 0 -28 1l-12 -140zM97 338q0 -57 30.5 -99t83.5 -59l30 329q-60 -7 -102 -51t-42 -120z" />
    <glyph glyph-name="numbersign.lin" horiz-adv-x="569" 
d="M58 423v42h135l30 192h47l-30 -192h129l30 192h47l-30 -192h136v-42h-142l-30 -196h131v-42h-138l-28 -185h-47l28 185h-129l-28 -185h-47l28 185h-133v42h140l30 196h-129zM234 423l-30 -196h129l30 196h-129z" />
    <glyph glyph-name="paragraph.lin" horiz-adv-x="666" 
d="M254 0v50h93v197q-22 -1 -76 -1q-108 0 -172.5 56.5t-64.5 151.5q0 92 68.5 148t172.5 56h339v-50h-88v-558h88v-50h-360zM404 47h65v564h-65v-564z" />
    <glyph glyph-name="section.lin" horiz-adv-x="535" 
d="M119 134q19 0 31.5 -11.5t12.5 -29.5q0 -17 -7 -29q10 -10 41 -19t56 -9q59 0 94 20.5t35 51.5q0 29 -27 46.5t-116 40.5t-134 53t-45 79q0 39 31 70.5t77 49.5q-38 17 -55.5 40.5t-17.5 59.5q0 50 52.5 86.5t133.5 36.5q64 0 116 -27q59 -31 59 -74q0 -19 -11.5 -32
t-28.5 -13q-19 0 -31.5 11.5t-12.5 29.5q0 17 7 29q-6 6 -20 12q-39 16 -77 16q-59 0 -94 -20.5t-35 -51.5q0 -29 27 -46.5t116 -40.5t134 -53t45 -79q0 -74 -106 -120q70 -30 70 -97q0 -53 -51.5 -89.5t-133.5 -36.5q-91 0 -144 46q-31 26 -31 55q0 19 11.5 32t28.5 13z
M263 418l-47 12q-95 -36 -95 -96q0 -31 30.5 -52t120.5 -42l47 -12q95 35 95 96q0 31 -30.5 52t-120.5 42z" />
    <glyph glyph-name="ordfeminine.lin" horiz-adv-x="339" 
d="M124 483q-37 0 -60 20t-23 52q0 34 27 55t69 21t73 -12v36q0 28 -19 42q-17 12 -47 12q-27 0 -40 -10q3 -6 3 -15q0 -11 -7 -18t-18 -7q-12 0 -19 7.5t-7 18.5q0 23 25 40.5t68 17.5q39 0 65 -16q34 -22 34 -66v-140h40v-33h-77v32q-39 -37 -87 -37zM50 378v37h238v-37
h-238zM134 515q42 0 76 36v42q-36 10 -69 10q-29 0 -45 -12.5t-16 -32.5q0 -19 14 -31t40 -12z" />
    <glyph glyph-name="ordmasculine.lin" horiz-adv-x="352" 
d="M62 378v37h228v-37h-228zM177 482q-57 0 -93.5 38t-36.5 93t36.5 93t93.5 38t92.5 -38t35.5 -93t-36 -93t-92 -38zM177 516q39 0 63 27.5t24 69.5t-24 69.5t-63 27.5t-64 -27.5t-25 -69.5t25 -69.5t64 -27.5z" />
    <glyph glyph-name="degree.lin" horiz-adv-x="300" 
d="M150 490q-55 0 -90.5 37t-35.5 90t35.5 90t90.5 37q54 0 88.5 -37t34.5 -90t-34.5 -90t-88.5 -37zM150 525q36 0 59.5 26.5t23.5 65.5t-23.5 65.5t-59.5 26.5q-38 0 -61.5 -26t-23.5 -66t23.5 -66t61.5 -26z" />
    <glyph glyph-name="percent.lin" horiz-adv-x="637" 
d="M34 526q0 60 41 102t100 42t100 -42t41 -102t-41 -102t-100 -42t-100 42t-41 102zM321 132q0 60 41 102t100 42t100 -42t41 -102t-41 -102t-100 -42t-100 42t-41 102zM107 -10l-39 26l230 325l232 327l39 -26l-233 -329zM82 526q0 -42 27 -71.5t66 -29.5t66 29.5t27 71.5
t-27 71.5t-66 29.5t-66 -29.5t-27 -71.5zM369 132q0 -42 27 -71.5t66 -29.5t66 29.5t27 71.5t-27 71.5t-66 29.5t-66 -29.5t-27 -71.5z" />
    <glyph glyph-name="perthousand.lin" horiz-adv-x="972" 
d="M34 526q0 60 41 102t100 42t100 -42t41 -102t-41 -102t-100 -42t-100 42t-41 102zM321 132q0 60 41 102t100 42t100 -42t41 -102t-41 -102t-100 -42t-100 42t-41 102zM656 132q0 60 41 102t100 42t100 -42t41 -102t-41 -102t-100 -42t-100 42t-41 102zM107 -10l-39 26
l230 325l232 327l39 -26l-233 -329zM82 526q0 -42 27 -71.5t66 -29.5t66 29.5t27 71.5t-27 71.5t-66 29.5t-66 -29.5t-27 -71.5zM369 132q0 -42 27 -71.5t66 -29.5t66 29.5t27 71.5t-27 71.5t-66 29.5t-66 -29.5t-27 -71.5zM704 132q0 -42 27 -71.5t66 -29.5t66 29.5
t27 71.5t-27 71.5t-66 29.5t-66 -29.5t-27 -71.5z" />
    <glyph glyph-name="quotedbl.lin" horiz-adv-x="299" 
d="M214 513l-29 169q-5 27 6.5 44t32.5 17q22 0 33 -16.5t6 -44.5l-30 -169h-19zM64 513l-29 169q-5 27 6.5 44t32.5 17q22 0 33 -16.5t6 -44.5l-30 -169h-19z" />
    <glyph glyph-name="quotesingle.lin" horiz-adv-x="149" 
d="M64 513l-29 169q-5 27 6.5 44t32.5 17q22 0 33 -16.5t6 -44.5l-30 -169h-19z" />
    <glyph glyph-name="plus.lin" horiz-adv-x="394" 
d="M172 178v136h-135v48h135v136h50v-136h135v-48h-135v-136h-50z" />
    <glyph glyph-name="minus.lin" horiz-adv-x="394" 
d="M37 314v48h320v-48h-320z" />
    <glyph glyph-name="divide.lin" horiz-adv-x="394" 
d="M357 314h-320v48h320v-48zM197 426q-17 0 -29.5 13t-12.5 30t12.5 30t29.5 13q16 0 28.5 -13t12.5 -30t-12.5 -30t-28.5 -13zM197 164q-17 0 -29.5 13t-12.5 30t12.5 30t29.5 13q16 0 28.5 -13t12.5 -30t-12.5 -30t-28.5 -13z" />
    <glyph glyph-name="equal.lin" horiz-adv-x="394" 
d="M37 379v48h320v-48h-320zM37 230v48h320v-48h-320z" />
    <glyph glyph-name="multiply.lin" horiz-adv-x="394" 
d="M302 197l-106 107l-105 -106l-34 34l106 105l-107 106l35 35l106 -107l105 106l34 -34l-106 -105l107 -106z" />
    <glyph glyph-name="less.lin" horiz-adv-x="374" 
d="M284 157l-248 163v20l248 163l26 -39l-204 -134l204 -134z" />
    <glyph glyph-name="greater.lin" horiz-adv-x="374" 
d="M90 157l-26 39l204 134l-204 134l26 39l248 -163v-20z" />
    <glyph glyph-name="plusminus.lin" horiz-adv-x="394" 
d="M172 216v136h-135v48h135v136h50v-136h135v-48h-135v-136h-50zM37 91v48h320v-48h-320z" />
    <glyph glyph-name="zero.tab" horiz-adv-x="530" 
d="M265 -12q-94 0 -156 94t-62 246q0 155 61 248.5t157 93.5t157 -93.5t61 -248.5q0 -152 -62 -246t-156 -94zM265 617q-72 0 -116 -78.5t-44 -208.5q0 -131 44 -210t116 -79t116 79t44 210q0 130 -44 208.5t-116 78.5z" />
    <glyph glyph-name="one.tab" horiz-adv-x="530" 
d="M76 0v50h169v548l-162 -45l-12 53l199 55h32v-611h166v-50h-392z" />
    <glyph glyph-name="two.tab" horiz-adv-x="530" 
d="M457 494q0 -31 -8.5 -58.5t-20 -47t-36.5 -43.5t-44.5 -39t-57.5 -43q-150 -110 -175 -213h296v99h55v-149h-406l-14 25q20 88 75 152.5t139 127.5q73 55 105.5 94t32.5 95q0 54 -42.5 89t-98.5 35q-47 0 -81 -15.5t-48 -38.5q-5 -6 -7 -14q15 -4 24.5 -16.5t9.5 -27.5
q0 -19 -13 -32t-32 -13q-23 0 -37 15.5t-14 45.5t20 61q24 38 71.5 62.5t110.5 24.5q81 0 138.5 -48.5t57.5 -127.5z" />
    <glyph glyph-name="three.tab" horiz-adv-x="530" 
d="M250 -12q-56 0 -108 24t-79 61q-20 28 -20 59q0 23 14 40t34 17q18 0 30.5 -13t12.5 -31q0 -32 -30 -41q6 -10 13 -16q51 -49 133 -49q75 0 120.5 40.5t45.5 94.5q0 82 -86 119q-54 24 -124 24h-21v50h26q68 0 121 33q66 40 66 104q0 54 -39.5 84t-106.5 30
q-72 0 -120 -43q-7 -6 -12 -14q31 -12 31 -42q0 -18 -12.5 -30.5t-30.5 -12.5q-19 0 -33.5 15t-14.5 38q0 29 19 57q25 36 71 60t106 24q86 0 142 -44.5t56 -121.5q0 -84 -89 -133q-36 -19 -72 -26q44 -7 72 -20q49 -21 77.5 -60t28.5 -88q0 -82 -62 -135.5t-159 -53.5z" />
    <glyph glyph-name="four.tab" horiz-adv-x="530" 
d="M198 0v50h120v146h-297l-9 22l334 454l43 -31l-292 -396h221v153l57 26v-179h116v-49h-116v-146h96v-50h-273z" />
    <glyph glyph-name="five.tab" horiz-adv-x="530" 
d="M243 -12q-101 0 -158 52q-32 27 -32 62q0 20 13 35t35 15q17 0 30 -13t13 -31q0 -23 -16 -34q8 -8 14 -11q36 -22 106 -22q75 0 123 47t48 120q0 63 -44.5 106t-121.5 43q-71 0 -146 -33l-25 11l34 323h322v-57h-276l-22 -210q52 20 117 20q94 0 157 -54t63 -148
q0 -102 -68 -161.5t-166 -59.5z" />
    <glyph glyph-name="six.tab" horiz-adv-x="530" 
d="M409 510q-19 0 -32 13t-13 32q0 21 13 32q-21 30 -81 30q-84 0 -137 -90t-56 -234q13 28 39 53q58 55 134 55q91 0 148 -58t57 -147q0 -88 -59 -148t-148 -60q-95 0 -155 63q-71 74 -71 226q0 103 22.5 182t60.5 123.5t81 66t90 21.5q69 0 115 -38q37 -32 37 -72
q0 -22 -13 -36t-32 -14zM275 40q64 0 106.5 43.5t42.5 110.5t-43 111t-106 44q-67 0 -112 -45.5t-45 -109.5t47 -109q45 -45 110 -45z" />
    <glyph glyph-name="seven.tab" horiz-adv-x="530" 
d="M139 0l272 608h-311v-99h-55v149h436l8 -16l-288 -642h-62z" />
    <glyph glyph-name="eight.tab" horiz-adv-x="530" 
d="M265 40q68 0 113 38.5t45 98.5q0 57 -46.5 98t-111.5 41t-111.5 -41t-46.5 -98q0 -60 45 -98.5t113 -38.5zM265 670q84 0 142 -46t58 -129q0 -50 -34 -92.5t-86 -59.5q49 -10 91.5 -57.5t42.5 -108.5q0 -85 -61.5 -137t-152.5 -52t-152.5 52t-61.5 137q0 61 42.5 108.5
t91.5 57.5q-52 17 -86 59.5t-34 92.5q0 83 58 129t142 46zM265 368q60 0 102 36.5t42 88.5q0 54 -41 89.5t-103 35.5t-103 -35.5t-41 -89.5q0 -52 42 -88.5t102 -36.5z" />
    <glyph glyph-name="nine.tab" horiz-adv-x="530" 
d="M481 381q0 -103 -22 -182t-59 -123.5t-79 -66t-88 -21.5q-68 0 -119 38q-43 33 -43 71q0 22 13 36t32 14t32 -13t13 -32q0 -20 -15 -33q6 -7 16 -14q26 -16 78 -16q79 0 129.5 88.5t55.5 229.5q-13 -29 -38 -54q-59 -56 -134 -56q-91 0 -148 59.5t-57 150.5
q0 90 59 151.5t148 61.5q95 0 155 -63q71 -74 71 -226zM254 618q-64 0 -106.5 -45t-42.5 -114t43 -114.5t106 -45.5q67 0 112 46.5t45 113.5q0 66 -46 112q-47 47 -111 47z" />
    <glyph glyph-name="period.tab" horiz-adv-x="265" 
d="M133 -10q-24 0 -39.5 16.5t-15.5 40.5t15.5 40.5t39.5 16.5t39.5 -16.5t15.5 -40.5t-15.5 -40.5t-39.5 -16.5z" />
    <glyph glyph-name="comma.tab" horiz-adv-x="265" 
d="M51 -149l-14 22q88 64 90 123q-19 2 -34 18t-15 35q0 21 15.5 36.5t36.5 15.5q24 0 41 -19t17 -52q0 -46 -33 -94.5t-104 -84.5z" />
    <glyph glyph-name="colon.tab" horiz-adv-x="265" 
d="M133 -10q-24 0 -39.5 16.5t-15.5 40.5t15.5 40.5t39.5 16.5t39.5 -16.5t15.5 -40.5t-15.5 -40.5t-39.5 -16.5zM133 256q-24 0 -39.5 16.5t-15.5 40.5t15.5 40.5t39.5 16.5t39.5 -16.5t15.5 -40.5t-15.5 -40.5t-39.5 -16.5z" />
    <glyph glyph-name="semicolon.tab" horiz-adv-x="265" 
d="M51 -149l-14 22q88 64 90 123q-19 2 -34 18t-15 35q0 21 15.5 36.5t36.5 15.5q24 0 41 -19t17 -52q0 -46 -33 -94.5t-104 -84.5zM133 256q-24 0 -39.5 16.5t-15.5 40.5t15.5 40.5t39.5 16.5t39.5 -16.5t15.5 -40.5t-15.5 -40.5t-39.5 -16.5z" />
    <glyph glyph-name="twodotleader.tab" horiz-adv-x="530" 
d="M133 -10q-24 0 -39.5 16.5t-15.5 40.5t15.5 40.5t39.5 16.5t39.5 -16.5t15.5 -40.5t-15.5 -40.5t-39.5 -16.5zM398 -10q-24 0 -39.5 16.5t-15.5 40.5t15.5 40.5t39.5 16.5t39.5 -16.5t15.5 -40.5t-15.5 -40.5t-39.5 -16.5z" />
    <glyph glyph-name="periodcentered.tab" horiz-adv-x="265" 
d="M133 193q-24 0 -39.5 16.5t-15.5 40.5t15.5 40.5t39.5 16.5t39.5 -16.5t15.5 -40.5t-15.5 -40.5t-39.5 -16.5z" />
    <glyph glyph-name="slash.tab" horiz-adv-x="530" 
d="M34 -209l-45 23l453 928l45 -23z" />
    <glyph glyph-name="bar.tab" horiz-adv-x="265" 
d="M109 -200v932h48v-932h-48z" />
    <glyph glyph-name="underscore.tab" horiz-adv-x="530" 
d="M-5 -140v52h540v-52h-540z" />
    <glyph glyph-name="dollar.tab" horiz-adv-x="530" 
d="M113 103q31 -38 102 -52l24 268q-76 29 -117 69.5t-41 105.5q0 70 52 116.5t136 47.5l8 88l47 -4l-8 -88q64 -10 106.5 -45.5t42.5 -79.5q0 -22 -13 -35.5t-31 -13.5q-19 0 -31.5 12.5t-12.5 30.5q0 21 18 41q-25 30 -83 42l-23 -249q87 -33 133 -73.5t46 -109.5
q0 -79 -59.5 -126.5t-150.5 -47.5l-9 -100l-47 4l9 99q-72 11 -119 51.5t-47 79.5q0 24 13.5 39.5t32.5 15.5q18 0 30 -11.5t12 -28.5q0 -24 -20 -46zM414 170q0 48 -32.5 79t-97.5 54l-22 -256q69 1 110.5 34.5t41.5 88.5zM135 498q0 -44 27 -72t82 -52l21 237
q-58 -1 -94 -33.5t-36 -79.5z" />
    <glyph glyph-name="sterling.tab" horiz-adv-x="530" 
d="M31 24q0 22 26 39.5t75 17.5q47 62 47 145q0 9 -2 31h-102v46h92l-12 38q-28 82 -28 146q0 77 52 130t127 53q69 0 113.5 -35t44.5 -81q0 -22 -13.5 -35.5t-31.5 -13.5q-19 0 -32 12.5t-13 30.5q0 21 17 38q-25 34 -87 34q-51 0 -88 -38t-37 -94q0 -52 25 -133
q8 -24 15 -52h166v-46h-158q2 -22 2 -32q0 -96 -45 -143q33 -3 88 -20q69 -22 97 -22q37 0 54.5 14t31.5 50l45 -19q-28 -97 -129 -97q-39 0 -115 27q-65 21 -103 22q-16 -23 -39 -36.5t-42 -13.5t-30 10t-11 27z" />
    <glyph glyph-name="Euro.tab" horiz-adv-x="530" 
d="M407 509q0 32 29 44q-11 24 -41 44.5t-73 20.5q-64 0 -108.5 -51.5t-59.5 -147.5h198v-48h-204q-1 -15 -1 -45q0 -35 2 -51h203v-48h-197q16 -86 57.5 -136.5t105.5 -50.5q75 0 141 77l35 -35q-72 -94 -178 -94q-88 0 -144.5 65.5t-74.5 173.5h-65v48h59q-2 16 -2 51
q0 15 2 45h-59v48h64q19 117 82 183.5t148 66.5q71 0 121 -45.5t50 -102.5q0 -23 -13 -38.5t-36 -15.5q-18 0 -29.5 12.5t-11.5 29.5z" />
    <glyph glyph-name="yen.tab" horiz-adv-x="530" 
d="M144 0v50h93v97h-149v48h149v71h-149v48h135l-152 294h-64v50h201v-50h-77l136 -269l134 269h-77v50h200v-50h-65l-152 -294h135v-48h-149v-71h149v-48h-149v-97h93v-50h-242z" />
    <glyph glyph-name="cent.tab" horiz-adv-x="530" 
d="M446 215l-5 -55q-61 -43 -139 -43q-19 0 -28 1l-12 -136l-47 4l13 140q-77 21 -124 79t-47 134q0 90 60.5 153.5t148.5 68.5l11 110l47 -4l-10 -109q58 -9 100 -44t42 -76q0 -21 -13.5 -37.5t-34.5 -16.5q-14 0 -25.5 9.5t-11.5 26.5q0 25 24 38q-8 20 -32 34t-53 19
l-31 -345q9 -1 28 -1q63 0 139 50zM114 338q0 -58 31 -101t87 -61l30 337q-62 -7 -105 -52t-43 -123z" />
    <glyph glyph-name="numbersign.tab" horiz-adv-x="530" 
d="M54 423v42h125l30 192h47l-30 -192h119l30 192h47l-30 -192h126v-42h-132l-30 -196h121v-42h-128l-28 -185h-47l28 185h-119l-28 -185h-47l28 185h-123v42h130l30 196h-119zM220 423l-30 -196h119l30 196h-119z" />
    <glyph glyph-name="paragraph.tab" horiz-adv-x="530" 
d="M320 47h49v564h-49v-564zM24 454q0 92 63.5 148t162.5 56h244v-50h-74v-558h74v-50h-308v50h83v197q-15 -1 -28 -1q-96 0 -156.5 57t-60.5 151z" />
    <glyph glyph-name="section.tab" horiz-adv-x="530" 
d="M117 134q19 0 31.5 -11.5t12.5 -29.5q0 -17 -7 -29q10 -10 41 -19t56 -9q59 0 94 20.5t35 51.5q0 29 -27 46.5t-116 40.5t-134 53t-45 79q0 39 31 70.5t77 49.5q-38 17 -55.5 40.5t-17.5 59.5q0 50 52.5 86.5t133.5 36.5q64 0 116 -27q59 -31 59 -74q0 -19 -11.5 -32
t-28.5 -13q-19 0 -31.5 11.5t-12.5 29.5q0 17 7 29q-6 6 -20 12q-39 16 -77 16q-59 0 -94 -20.5t-35 -51.5q0 -29 27 -46.5t116 -40.5t134 -53t45 -79q0 -74 -106 -120q70 -30 70 -97q0 -53 -51.5 -89.5t-133.5 -36.5q-91 0 -144 46q-31 26 -31 55q0 19 11.5 32t28.5 13z
M261 418l-47 12q-95 -36 -95 -96q0 -31 30.5 -52t120.5 -42l47 -12q95 35 95 96q0 31 -30.5 52t-120.5 42z" />
    <glyph glyph-name="degree.tab" horiz-adv-x="530" 
d="M263 387q-78 0 -127.5 52.5t-49.5 127.5t49.5 127.5t127.5 52.5t127.5 -52.5t49.5 -127.5t-49.5 -127.5t-127.5 -52.5zM263 708q-58 0 -95 -40.5t-37 -100.5t37 -100.5t95 -40.5t95 40.5t37 100.5t-37 100.5t-95 40.5z" />
    <glyph glyph-name="percent.tab" horiz-adv-x="530" 
d="M27 526q0 62 32.5 103t84.5 41q51 0 84 -41.5t33 -102.5t-33 -102.5t-84 -41.5q-52 0 -84.5 41t-32.5 103zM268 132q0 61 33 102.5t84 41.5q50 0 83.5 -41.5t33.5 -102.5t-33.5 -102.5t-83.5 -41.5q-51 0 -84 41.5t-33 102.5zM92 -9l-37 22l192 324q186 316 194 328
l36 -22l-193 -328q-104 -177 -192 -324zM72 526q0 -44 20 -74t52 -30t52 30t20 74t-20 74t-52 30t-52 -30t-20 -74zM316 132q0 -43 19.5 -72t49.5 -29t49.5 29t19.5 72t-19.5 72t-49.5 29t-49.5 -29t-19.5 -72z" />
    <glyph glyph-name="quotedbl.tab" horiz-adv-x="530" 
d="M162 475l-30 205q-4 28 6.5 45.5t33.5 17.5q22 0 33 -17t7 -46l-30 -205h-20zM348 475l-30 205q-4 28 6.5 45.5t33.5 17.5q22 0 33 -17t7 -46l-30 -205h-20z" />
    <glyph glyph-name="quotesingle.tab" horiz-adv-x="265" 
d="M122 475l-30 205q-4 28 6.5 45.5t33.5 17.5q22 0 33 -17t7 -46l-30 -205h-20z" />
    <glyph glyph-name="plus.tab" horiz-adv-x="530" 
d="M240 158v156h-155v48h155v156h50v-156h155v-48h-155v-156h-50z" />
    <glyph glyph-name="minus.tab" horiz-adv-x="530" 
d="M85 314v48h360v-48h-360z" />
    <glyph glyph-name="divide.tab" horiz-adv-x="530" 
d="M445 314h-360v48h360v-48zM265 444q-18 0 -31 13.5t-13 31.5t13 31.5t31 13.5q17 0 30 -13.5t13 -31.5t-13 -31.5t-30 -13.5zM265 142q-18 0 -31 13.5t-13 31.5t13 31.5t31 13.5q17 0 30 -13.5t13 -31.5t-13 -31.5t-30 -13.5z" />
    <glyph glyph-name="equal.tab" horiz-adv-x="530" 
d="M85 391v48h360v-48h-360zM85 218v48h360v-48h-360z" />
    <glyph glyph-name="multiply.tab" horiz-adv-x="530" 
d="M390 177l-126 127l-125 -126l-34 34l126 125l-127 126l35 35l126 -127l125 126l34 -34l-126 -125l127 -126z" />
    <glyph glyph-name="less.tab" horiz-adv-x="530" 
d="M381 138l-287 185v14l287 185l26 -39l-238 -153l238 -153z" />
    <glyph glyph-name="greater.tab" horiz-adv-x="530" 
d="M149 522l287 -185v-14l-287 -185l-26 39l238 153l-238 153z" />
    <glyph glyph-name="plusminus.tab" horiz-adv-x="530" 
d="M240 208v156h-155v48h155v156h50v-156h155v-48h-155v-156h-50zM85 76v48h360v-48h-360z" />
    <glyph glyph-name="zero.idx_P2D" horiz-adv-x="1100" 
d="M550 792q134 0 247 -66t179 -179t66 -247t-66 -247t-179 -179t-247 -66t-247 66t-179 179t-66 247t66 247t179 179t247 66zM550 758q-189 0 -321 -134t-132 -324t132 -324t321 -134t321 134t132 324t-132 324t-321 134zM549 64q-78 0 -131 68t-53 174q0 108 53.5 175.5
t132.5 67.5q78 0 131 -68t53 -174q0 -108 -53.5 -175.5t-132.5 -67.5zM550 113q60 0 95.5 53.5t35.5 139.5q0 87 -35.5 140.5t-95.5 53.5q-59 0 -95 -53.5t-36 -139.5q0 -87 36 -140.5t95 -53.5z" />
    <glyph glyph-name="one.idx_P2D" horiz-adv-x="1100" 
d="M550 792q134 0 247 -66t179 -179t66 -247t-66 -247t-179 -179t-247 -66t-247 66t-179 179t-66 247t66 247t179 179t247 66zM550 758q-189 0 -321 -134t-132 -324t132 -324t321 -134t321 134t132 324t-132 324t-321 134zM686 73h-269v47h110v365l-104 -23l-11 47l142 33
h25v-422h107v-47z" />
    <glyph glyph-name="two.idx_P2D" horiz-adv-x="1100" 
d="M550 792q134 0 247 -66t179 -179t66 -247t-66 -247t-179 -179t-247 -66t-247 66t-179 179t-66 247t66 247t179 179t247 66zM550 758q-189 0 -321 -134t-132 -324t132 -324t321 -134t321 134t132 324t-132 324t-321 134zM403 439q0 23 15 46q18 28 54 46t83 18
q60 0 103.5 -36.5t43.5 -92.5q0 -52 -27.5 -84t-90.5 -76q-104 -72 -129 -142h208v73h47v-118h-305l-14 23q20 66 61.5 112.5t101.5 88.5q50 35 72 60.5t22 62.5q0 35 -28.5 58.5t-67.5 23.5q-54 0 -82 -26q-8 -6 -11 -15q23 -11 23 -34q0 -16 -11 -26.5t-26 -10.5
q-20 0 -31 13t-11 36z" />
    <glyph glyph-name="three.idx_P2D" horiz-adv-x="1100" 
d="M550 792q134 0 247 -66t179 -179t66 -247t-66 -247t-179 -179t-247 -66t-247 66t-179 179t-66 247t66 247t179 179t247 66zM550 758q-189 0 -321 -134t-132 -324t132 -324t321 -134t321 134t132 324t-132 324t-321 134zM393 166q0 18 11.5 31.5t27.5 13.5q15 0 25.5 -11
t10.5 -25q0 -19 -17 -29q10 -14 37 -23.5t58 -9.5q49 0 79.5 25t30.5 61q0 52 -53 77q-33 16 -87 16h-18v47h21q55 0 90 26q34 26 34 63q0 35 -26 53.5t-70 18.5q-59 0 -83 -27q18 -11 18 -29q0 -15 -11 -25.5t-26 -10.5t-27 12.5t-12 32.5q0 22 16 42q41 52 128 52
q62 0 104 -32.5t42 -85.5q0 -58 -53 -91q-23 -15 -50 -21q26 -4 50 -17q64 -35 64 -101q0 -58 -45.5 -95.5t-115.5 -37.5q-87 0 -132 50q-21 24 -21 50z" />
    <glyph glyph-name="four.idx_P2D" horiz-adv-x="1100" 
d="M550 792q134 0 247 -66t179 -179t66 -247t-66 -247t-179 -179t-247 -66t-247 66t-179 179t-66 247t66 247t179 179t247 66zM550 758q-189 0 -321 -134t-132 -324t132 -324t321 -134t321 134t132 324t-132 324t-321 134zM494 73v45h84v93h-215l-11 22l244 319l40 -29
l-208 -269h150v99l52 22v-121h79v-44h-79v-92h64v-45h-200z" />
    <glyph glyph-name="five.idx_P2D" horiz-adv-x="1100" 
d="M550 792q134 0 247 -66t179 -179t66 -247t-66 -247t-179 -179t-247 -66t-247 66t-179 179t-66 247t66 247t179 179t247 66zM550 758q-189 0 -321 -134t-132 -324t132 -324t321 -134t321 134t132 324t-132 324t-321 134zM547 64q-61 0 -108 26t-47 59q0 17 10.5 28.5
t28.5 11.5q15 0 25.5 -11t10.5 -25q0 -15 -9 -22q8 -8 34.5 -14t54.5 -6q49 0 77.5 31t28.5 80q0 43 -26.5 71t-77.5 28q-64 0 -114 -23l-23 12l23 230h242v-50h-199l-14 -133q34 12 91 12q66 0 108.5 -39.5t42.5 -106.5q0 -73 -45 -116t-114 -43z" />
    <glyph glyph-name="six.idx_P2D" horiz-adv-x="1100" 
d="M550 792q134 0 247 -66t179 -179t66 -247t-66 -247t-179 -179t-247 -66t-247 66t-179 179t-66 247t66 247t179 179t247 66zM550 758q-189 0 -321 -134t-132 -324t132 -324t321 -134t321 134t132 324t-132 324t-321 134zM693 468q0 -19 -10.5 -29.5t-26.5 -10.5
q-17 0 -27 10.5t-10 25.5q0 12 7 22q-16 16 -53 16q-58 0 -97 -58t-41 -151q17 29 51 48.5t73 19.5q69 0 113.5 -42t44.5 -105t-45.5 -106.5t-114.5 -43.5q-72 0 -119 47q-54 54 -54 165q0 134 56.5 203.5t134.5 69.5q47 0 81 -22q37 -24 37 -59zM443 214q0 -41 34 -72
t81 -31q45 0 75.5 29t30.5 73t-30.5 72.5t-77.5 28.5q-48 0 -80.5 -29t-32.5 -71z" />
    <glyph glyph-name="seven.idx_P2D" horiz-adv-x="1100" 
d="M550 792q134 0 247 -66t179 -179t66 -247t-66 -247t-179 -179t-247 -66t-247 66t-179 179t-66 247t66 247t179 179t247 66zM550 758q-189 0 -321 -134t-132 -324t132 -324t321 -134t321 134t132 324t-132 324t-321 134zM521 73h-55l195 422h-204v-76h-49v121h308l10 -21z
" />
    <glyph glyph-name="eight.idx_P2D" horiz-adv-x="1100" 
d="M550 792q134 0 247 -66t179 -179t66 -247t-66 -247t-179 -179t-247 -66t-247 66t-179 179t-66 247t66 247t179 179t247 66zM550 758q-189 0 -321 -134t-132 -324t132 -324t321 -134t321 134t132 324t-132 324t-321 134zM550 66q-72 0 -117.5 37t-45.5 96q0 41 28.5 74
t66.5 43q-37 12 -61 41.5t-24 63.5q0 58 44 92t109 34t108.5 -34t43.5 -92q0 -34 -24 -63.5t-61 -41.5q38 -10 66.5 -43t28.5 -74q0 -58 -45.5 -95.5t-116.5 -37.5zM550 336q41 0 70 24.5t29 58.5q0 35 -28 58.5t-71 23.5t-71.5 -23.5t-28.5 -58.5q0 -34 29.5 -58.5
t70.5 -24.5zM550 113q48 0 78.5 25t30.5 64q0 37 -32 63.5t-77 26.5q-46 0 -78 -26.5t-32 -63.5q0 -39 30.5 -64t79.5 -25z" />
    <glyph glyph-name="nine.idx_P2D" horiz-adv-x="1100" 
d="M550 792q134 0 247 -66t179 -179t66 -247t-66 -247t-179 -179t-247 -66t-247 66t-179 179t-66 247t66 247t179 179t247 66zM550 758q-189 0 -321 -134t-132 -324t132 -324t321 -134t321 134t132 324t-132 324t-321 134zM406 145q0 19 10.5 29.5t25.5 10.5
q16 0 26.5 -10.5t10.5 -25.5q0 -14 -7 -21q15 -17 58 -17q58 0 96.5 54.5t39.5 149.5q-17 -29 -51 -47.5t-73 -18.5q-69 0 -113 41t-44 107q0 65 45.5 108.5t114.5 43.5q71 0 117 -46q55 -55 55 -168q0 -136 -53.5 -203.5t-135.5 -67.5q-64 0 -102 38q-20 20 -20 43z
M658 395q0 45 -33 76q-34 32 -81 32q-45 0 -76 -29.5t-31 -74.5q0 -47 30.5 -75.5t78.5 -28.5q47 0 79.5 29t32.5 71z" />
    <glyph glyph-name="space.tab" horiz-adv-x="265" 
 />
    <glyph glyph-name="NUL" horiz-adv-x="0" 
 />
    <glyph glyph-name="hfjslug" horiz-adv-x="694" 
d="M644 -200h-208l-8 14h-163l-8 -14h-207v303q14 0 23 9.5t9 22.5t-9.5 22.5t-22.5 9.5v554h100l30 79h334l29 -79h101v-921zM400 563v-172h15v78h38v14h-38v66h43v14h-58zM184 563v-172h15v79h47v-79h15v172h-15v-79h-47v79h-15zM460 394q10 -4 21 -4q31 0 31 36v137h-16
v-137q0 -22 -16 -22q-8 0 -20 5v-15zM371 465l-13 3q-4 -18 -8 -30h-1l-16 31q23 21 23 42q0 12 -7 21.5t-20 9.5q-12 0 -20 -9.5t-8 -21.5q0 -13 14 -39q-23 -18 -23 -47q0 -16 8 -26.5t21 -10.5q19 0 29 24h1l12 -24l12 6l-17 32q6 14 13 39zM523 323v-46h8v12l8 8l15 -20
h10l-20 26l18 20h-10l-20 -24h-1v24h-8zM488 292l10 -15h9l-12 17q10 4 10 14q0 15 -17 15h-20v-46h8v15h12zM426 276q10 0 17 7t7 17q0 9 -7 16.5t-17 7.5t-17 -7.5t-7 -16.5q0 -10 7 -17t17 -7zM370 301l-13 22h-9l18 -29v-17h8v17l18 29h-9zM193 323v-46h34v7h-26v13h23
v7h-23v12h26v7h-34zM132 323v-46h8v32l25 -32h7v46h-8v-32l-25 32h-7zM241 323l14 -47h8l11 34h1l11 -34h8l14 47h-8l-10 -35h-1l-11 35h-7l-11 -35h-1l-10 35h-8zM327 479q-12 22 -12 32q0 19 14 19q13 0 13 -19q0 -15 -15 -32zM342 423q-8 -21 -20 -21q-16 0 -16 25
q0 19 16 35zM487 299h-11v17h11q10 0 10 -8q0 -9 -10 -9zM426 283q-16 0 -16 17q0 6 4.5 11.5t11.5 5.5t11.5 -5.5t4.5 -11.5q0 -17 -16 -17z" />
    <glyph glyph-name="A.sc" horiz-adv-x="575" 
d="M160 501h255v-46h-77l157 -409h65v-46h-199v46h81l-47 124h-218l-46 -124h81v-46h-197v46h65l156 409h-76v46zM286 458l-91 -241h182z" />
    <glyph glyph-name="B.sc" horiz-adv-x="524" 
d="M187 46h106q59 0 90.5 25.5t31.5 67.5q0 94 -136 94h-92v-187zM187 277h91q61 0 92 25t31 68q0 40 -31 62.5t-90 22.5h-93v-178zM290 0h-245v46h90v409h-90v46h236q88 0 130.5 -35.5t42.5 -90.5q0 -46 -26.5 -76t-71.5 -42q112 -28 112 -120q0 -62 -46.5 -99.5
t-131.5 -37.5z" />
    <glyph glyph-name="C.sc" horiz-adv-x="549" 
d="M464 105l30 -36q-78 -78 -190 -78t-183 74.5t-71 185.5q0 109 72.5 184.5t183.5 75.5q75 0 130 -39t55 -85q0 -22 -12.5 -36t-31.5 -14q-18 0 -29.5 11.5t-11.5 28.5q0 23 21 33q-13 20 -45 36.5t-76 16.5q-87 0 -144.5 -60.5t-57.5 -151.5q0 -93 56.5 -152.5
t143.5 -59.5q89 0 160 66z" />
    <glyph glyph-name="D.sc" horiz-adv-x="603" 
d="M187 46h84q111 0 170 57t59 154q0 92 -63.5 145t-171.5 53h-78v-409zM265 0h-220v46h90v409h-90v46h220q132 0 210 -66.5t78 -178.5q0 -116 -76.5 -186t-211.5 -70z" />
    <glyph glyph-name="E.sc" horiz-adv-x="507" 
d="M447 0h-402v46h90v409h-90v46h402v-137h-50v91h-210v-178h172v-47h-172v-184h210v91h50v-137z" />
    <glyph glyph-name="F.sc" horiz-adv-x="486" 
d="M281 0h-236v46h90v409h-90v46h401v-137h-50v91h-209v-184h169v-47h-169v-178h94v-46z" />
    <glyph glyph-name="G.sc" horiz-adv-x="587" 
d="M310 463q-92 0 -149 -62t-57 -154t57.5 -149.5t139.5 -57.5q87 0 160 49v111h-142v46h193v-246h-50v43q-70 -51 -165 -51q-100 0 -173.5 70t-73.5 184q0 116 76.5 190t185.5 74q82 0 137 -37t55 -80q0 -22 -12 -35t-31 -13q-17 0 -28.5 11t-11.5 27q0 22 18 32
q-17 19 -51.5 33.5t-77.5 14.5z" />
    <glyph glyph-name="H.sc" horiz-adv-x="667" 
d="M45 0v46h90v409h-90v46h233v-46h-91v-178h293v178h-91v46h233v-46h-90v-409h90v-46h-233v46h91v183h-293v-183h91v-46h-233z" />
    <glyph glyph-name="I.sc" horiz-adv-x="326" 
d="M281 0h-236v46h92v409h-92v46h236v-46h-92v-409h92v-46z" />
    <glyph glyph-name="J.sc" horiz-adv-x="432" 
d="M171 40q43 0 70 28q32 35 32 110v277h-93v46h227v-46h-82v-279q0 -96 -46 -142q-41 -43 -109 -43q-60 0 -102.5 37t-42.5 90q0 25 13 41t34 16q16 0 28 -11t12 -28q0 -14 -8.5 -25t-23.5 -13q2 -20 27 -39t64 -19z" />
    <glyph glyph-name="K.sc" horiz-adv-x="576" 
d="M483 454l-172 -173l166 -235h84v-46h-116l-170 245l-86 -85v-114h88l1 -46h-233v46h92v409h-92v46h227v-46h-83v-234l234 234h-80v46h209v-47h-69z" />
    <glyph glyph-name="L.sc" horiz-adv-x="477" 
d="M389 46v96h50v-142h-394v46h90v409h-90v46h235v-46h-93v-409h202z" />
    <glyph glyph-name="M.sc" horiz-adv-x="736" 
d="M538 501h143v-46h-90l20 -409h90v-46h-234v46h92l-13 368l-169 -344h-19l-170 344l-13 -368h93v-46h-233v46h91l18 409h-90v46h144l170 -349z" />
    <glyph glyph-name="N.sc" horiz-adv-x="654" 
d="M182 501l302 -396v350h-91v46h230v-46h-90v-458h-31l-318 419v-370h91v-46h-230v46h90v409h-90v46h137z" />
    <glyph glyph-name="O.sc" 
d="M305 512q112 0 183.5 -75t71.5 -185q0 -111 -72 -186t-184 -75q-111 0 -182.5 75t-71.5 186q0 110 71.5 185t183.5 75zM304 39q89 0 145.5 59.5t56.5 153.5q0 92 -56.5 152t-144.5 60t-144.5 -59.5t-56.5 -152.5q0 -94 56 -153.5t144 -59.5z" />
    <glyph glyph-name="P.sc" horiz-adv-x="489" 
d="M45 501h220q81 0 134 -42.5t53 -113.5q0 -76 -50.5 -119.5t-136.5 -43.5q-64 0 -78 1v-137h92v-46h-234v46h90v409h-90v46zM268 228q61 0 96 31t35 85q0 51 -37.5 81t-95.5 30h-79v-226q15 -1 81 -1z" />
    <glyph glyph-name="Q.sc" 
d="M508 -106q-24 0 -49 8.5t-40 17.5t-39 25.5t-33 21.5q-29 18 -77 27q-87 16 -137 61q-39 33 -61 85.5t-22 111.5q0 110 71.5 185t183.5 75t183.5 -75t71.5 -185q0 -93 -52.5 -160.5t-137.5 -85.5q24 -10 45 -24q31 -20 49.5 -28.5t42.5 -8.5q30 0 61 19l23 -44
q-34 -26 -83 -26zM304 39q86 0 144 61.5t58 151.5q0 92 -56.5 152t-144.5 60t-144.5 -59.5t-56.5 -152.5q0 -99 65 -161q55 -52 135 -52z" />
    <glyph glyph-name="Q.sc_alt" 
d="M456 -84l-58 91q-45 -16 -94 -16q-111 0 -182.5 75t-71.5 186q0 110 71.5 185t183.5 75t183.5 -75t71.5 -185q0 -71 -31.5 -130t-86.5 -93l55 -88zM304 39q38 0 68 10l-57 92l41 26l60 -96q42 27 66 74.5t24 106.5q0 92 -56.5 152t-144.5 60t-144.5 -59.5t-56.5 -152.5
q0 -94 56 -153.5t144 -59.5z" />
    <glyph glyph-name="R.sc" horiz-adv-x="534" 
d="M265 455h-78v-203q24 -1 74 -1q63 0 101.5 27.5t38.5 77.5q0 47 -36.5 73t-99.5 26zM187 206v-160h92v-46h-234v46h90v409h-90v46h222q86 0 136 -38.5t50 -105.5q0 -50 -30.5 -87t-80.5 -52l108 -172h78v-46h-114l-125 206q-16 -1 -35 -1q-48 0 -67 1z" />
    <glyph glyph-name="S.sc" horiz-adv-x="455" 
d="M314 406q0 19 12 33q-9 11 -36 18.5t-56 7.5q-51 0 -82 -23t-31 -60q0 -16 8 -30t16.5 -22.5t29.5 -19t31 -15t38 -15.5q42 -16 62 -25t47.5 -26.5t39.5 -40.5t12 -54q0 -65 -50.5 -104t-128.5 -39q-76 0 -126 32.5t-50 71.5q0 22 11 35t29 13q17 0 28.5 -10.5
t11.5 -26.5q0 -19 -13 -36q33 -33 110 -33q59 0 92 25.5t33 68.5q0 15 -8 28.5t-17 22t-29 19t-30.5 14.5t-35.5 14q-36 14 -51.5 20.5t-42.5 20.5t-39 27t-22 34t-10 46q0 59 46.5 96t122.5 37q66 0 112 -29.5t46 -70.5q0 -19 -11 -31t-27 -12q-19 0 -30.5 11t-11.5 28z
" />
    <glyph glyph-name="T.sc" horiz-adv-x="523" 
d="M143 0v46h92v409h-144v-91h-50v137h441v-137h-51v91h-144v-409h92v-46h-236z" />
    <glyph glyph-name="U.sc" 
d="M304 -7q-91 0 -141 48.5t-50 139.5v274h-84v46h226v-46h-90v-272q0 -68 37.5 -105.5t102.5 -37.5t102.5 37t37.5 105v273h-90v46h226v-46h-84v-272q0 -91 -51 -140.5t-142 -49.5z" />
    <glyph glyph-name="V.sc" horiz-adv-x="553" 
d="M261 -8l-188 463h-63v46h199v-46h-80l149 -377l149 377h-80v46h196v-46h-62l-189 -463h-31z" />
    <glyph glyph-name="W.sc" horiz-adv-x="772" 
d="M225 -12l-141 467h-73v46h210v-46h-81l107 -365l129 343h24l130 -343l106 365h-81v46h206v-46h-73l-141 -467h-30l-131 351l-131 -351h-30z" />
    <glyph glyph-name="X.sc" horiz-adv-x="560" 
d="M535 48v-48h-200v46h71l-128 179l-130 -179h81v-46h-204v48h65l157 207l-146 200h-67v46h204v-46h-75l117 -168l120 168h-75v46h201v-46h-70l-146 -198l156 -209h69z" />
    <glyph glyph-name="Y.sc" horiz-adv-x="523" 
d="M517 501v-46h-71l-159 -265v-144h91v-46h-234v46h91v144l-158 265h-71v46h207v-46h-79l129 -222l129 222h-79v46h204z" />
    <glyph glyph-name="Z.sc" horiz-adv-x="483" 
d="M45 0v28l320 428h-257v-89h-50v134h382v-27l-319 -428h271v88h51v-134h-398z" />
    <glyph glyph-name="Aacute.sc" horiz-adv-x="575" 
d="M160 501h255v-46h-77l157 -409h65v-46h-199v46h81l-47 124h-218l-46 -124h81v-46h-197v46h65l156 409h-76v46zM286 458l-91 -241h182zM251 569l-12 19l125 115q22 20 38 20q14 0 25 -10.5t11 -28.5q0 -21 -35 -39z" />
    <glyph glyph-name="Abreve.sc" horiz-adv-x="575" 
d="M160 501h255v-46h-77l157 -409h65v-46h-199v46h81l-47 124h-218l-46 -124h81v-46h-197v46h65l156 409h-76v46zM286 458l-91 -241h182zM288 569q-51 0 -90.5 33.5t-57.5 85.5l40 19q14 -38 44 -59.5t64 -21.5q36 0 65 22.5t43 58.5l40 -19q-18 -52 -57.5 -85.5
t-90.5 -33.5z" />
    <glyph glyph-name="Acircumflex.sc" horiz-adv-x="575" 
d="M160 501h255v-46h-77l157 -409h65v-46h-199v46h81l-47 124h-218l-46 -124h81v-46h-197v46h65l156 409h-76v46zM286 458l-91 -241h182zM169 563l-25 30l144 134l144 -134l-25 -30l-119 91z" />
    <glyph glyph-name="Adieresis.sc" horiz-adv-x="575" 
d="M160 501h255v-46h-77l157 -409h65v-46h-199v46h81l-47 124h-218l-46 -124h81v-46h-197v46h65l156 409h-76v46zM286 458l-91 -241h182zM368 585q-21 0 -35 15t-14 36t14 36t35 15t35 -15t14 -36t-14 -36t-35 -15zM208 585q-21 0 -35 15t-14 36t14 36t35 15t35 -15t14 -36
t-14 -36t-35 -15z" />
    </font>
</defs>
</svg>
