<?xml version="1.0" standalone="no"?>
<!DOCTYPE svg PUBLIC "-//W3C//DTD SVG 1.1//EN" "http://www.w3.org/Graphics/SVG/1.1/DTD/svg11.dtd" >
<svg>
<metadata>
Created by FontForge 20110222 at Fri May  9 09:28:25 2014
 By Orthosie Webhosting
Copyright (C) 2000, 2007 Hoefler &#38; Frere-Jones. http://www.typography.com
</metadata>
<defs>
<font id="ArcherBoldItalic" horiz-adv-x="353" >
  <font-face 
    font-family="ArcherBoldItalic"
    font-weight="400"
    font-style="italic"
    font-stretch="normal"
    units-per-em="1000"
    panose-1="0 0 0 0 0 0 0 0 0 0"
    ascent="800"
    descent="-200"
    x-height="438"
    cap-height="658"
    bbox="-106 -304 1117 1124"
    underline-thickness="50"
    underline-position="-50"
    slope="-13"
    unicode-range="U+0020-FB04"
  />
<missing-glyph horiz-adv-x="500" 
d="M0 -200v1000h500v-1000h-500zM71 750l179 -390l179 390h-358zM50 -76l172 376l-172 376v-752zM450 676l-172 -376l172 -376v752zM250 240l-179 -390h358z" />
    <glyph glyph-name="f_f" unicode="ff" horiz-adv-x="626" 
d="M369 586q-39 0 -55 31q-6 -3 -11 -8q-25 -25 -45 -110l-14 -61h183l23 99q23 102 74 152q53 51 135 51q46 0 73.5 -21.5t27.5 -52.5q0 -30 -19.5 -48.5t-47.5 -18.5q-23 0 -40 13.5t-21 32.5q-18 -4 -31 -17q-29 -28 -45 -100l-21 -90h116l-24 -92h-113l-79 -346h-108
l79 346h-183l-79 -346h-108l79 346h-77l24 92h74l18 79q24 104 71 151q52 52 119 52q41 0 64.5 -20t23.5 -51q0 -26 -18.5 -44.5t-44.5 -18.5z" />
    <glyph glyph-name="fi" unicode="fi" horiz-adv-x="597" 
d="M395 346h-172l-79 -346h-108l79 346h-77l24 92h74l23 101q21 89 78 143q61 58 142 58q54 0 86.5 -25t32.5 -62q0 -28 -18.5 -46.5t-45.5 -18.5q-26 0 -43.5 16.5t-19.5 40.5h-5q-26 0 -49 -18q-36 -30 -54 -108l-19 -81h286l-75 -298q-7 -27 -7 -46q0 -28 24 -28
q33 0 59 72l44 -17q-21 -72 -55.5 -100.5t-81.5 -28.5q-50 0 -75 26t-25 72q0 24 6 49z" />
    <glyph glyph-name="fl" unicode="fl" horiz-adv-x="599" 
d="M62 438h74l33 140q12 52 42 89q58 73 161 73q72 0 118 -49l28 41h72l-137 -592q-7 -31 -7 -43q0 -31 23 -31q33 0 59 72l44 -17q-21 -72 -55.5 -100.5t-81.5 -28.5q-50 0 -74.5 26t-24.5 73q0 23 6 48l48 207h-167l-79 -346h-108l79 346h-77zM273 561l-29 -123h167l18 80
q-39 17 -39 62q0 29 22 49q-21 18 -47 18q-42 0 -67 -31q-17 -20 -25 -55z" />
    <glyph glyph-name="f_f_i" unicode="ffi" horiz-adv-x="888" 
d="M327 0l79 346h-183l-79 -346h-108l78 346h-76l24 92h73l26 112q12 56 43 96q58 74 162 74q41 0 64.5 -20t23.5 -51q0 -26 -18.5 -44.5t-44.5 -18.5q-41 0 -58 39q-24 -6 -40 -27q-17 -20 -25 -55l-24 -105h183l23 101q21 89 78 143q61 58 142 58q54 0 86.5 -25t32.5 -62
q0 -28 -18.5 -46.5t-45.5 -18.5q-26 0 -43.5 16.5t-19.5 40.5h-5q-27 0 -49 -18q-36 -30 -54 -108l-19 -81h286l-75 -298q-7 -27 -7 -46q0 -28 24 -28q33 0 59 72l44 -17q-21 -72 -55.5 -100.5t-81.5 -28.5q-50 0 -75 26t-25 72q0 24 6 49l51 207h-172l-79 -346h-108z" />
    <glyph glyph-name="f_f_l" unicode="ffl" horiz-adv-x="890" 
d="M38 346l24 92h73l26 112q12 56 43 96q58 74 162 74q41 0 64.5 -20t23.5 -51q0 -26 -18.5 -44.5t-44.5 -18.5q-41 0 -58 39q-24 -6 -40 -27q-17 -20 -25 -55l-24 -105h183l33 140q12 52 42 89q58 73 161 73q72 0 118 -49l28 41h72l-137 -592q-7 -32 -7 -43q0 -31 23 -31
q33 0 59 72l44 -17q-21 -72 -55.5 -100.5t-81.5 -28.5q-50 0 -74.5 26t-24.5 73q0 23 6 48l48 207h-167l-79 -346h-108l79 346h-183l-79 -346h-108l78 346h-76zM564 561l-29 -123h167l18 80q-39 17 -39 62q0 29 22 49q-21 18 -47 18q-42 0 -67 -31q-17 -20 -25 -55z" />
    <glyph glyph-name="f_b" unicode="fb" horiz-adv-x="834" 
d="M36 0l79 346h-77l24 92h74l33 140q12 52 42 89q58 73 161 73q72 0 118 -49l28 41h69l-86 -372q26 37 64.5 61.5t76.5 24.5q77 0 116.5 -46.5t39.5 -125.5q0 -115 -67.5 -198.5t-165.5 -83.5q-43 0 -78.5 27t-45.5 66l-28 -85h-102l79 346h-167l-79 -346h-108zM547 89
q56 0 96.5 51t40.5 119q0 41 -22 67.5t-62 26.5q-57 0 -99.5 -51t-42.5 -121q0 -44 22.5 -68t66.5 -24zM390 580q0 29 22 49q-21 18 -47 18q-42 0 -67 -31q-17 -20 -25 -55l-29 -123h167l18 80q-39 17 -39 62z" />
    <glyph glyph-name="f_h" unicode="fh" horiz-adv-x="841" 
d="M310 0l80 346h-167l-79 -346h-108l79 346h-77l24 92h74l33 140q12 52 42 89q58 73 161 73q72 0 118 -49l28 41h68l-86 -374q24 37 60 62.5t74 25.5q50 0 83.5 -34.5t33.5 -96.5q0 -36 -11 -73l-32 -115q-5 -20 -5 -31q0 -30 23 -30q30 0 56 72l44 -17q-37 -129 -132 -129
q-50 0 -76 26.5t-26 70.5q0 26 7 50l33 118q5 16 5 36q0 28 -16 44.5t-44 16.5q-73 0 -96 -100l-59 -254h-112zM390 580q0 29 22 49q-21 18 -47 18q-42 0 -67 -31q-17 -20 -25 -55l-29 -123h167l18 80q-39 17 -39 62z" />
    <glyph glyph-name="f_j" unicode="fj" horiz-adv-x="555" 
d="M526 438l-81 -352q-42 -180 -99 -237q-47 -45 -110 -45q-42 0 -66.5 20.5t-24.5 49.5q0 26 17.5 43.5t43.5 17.5q17 0 32.5 -9.5t22.5 -24.5q19 3 33 36q19 48 43 154l58 255h-172l-79 -346h-108l79 346h-77l24 92h74l23 101q21 89 78 143q61 58 142 58q54 0 86.5 -25
t32.5 -62q0 -28 -18.5 -46.5t-45.5 -18.5q-26 0 -43.5 16.5t-19.5 40.5h-5q-26 0 -49 -18q-36 -30 -54 -108l-19 -81h282z" />
    <glyph glyph-name="f_k" unicode="fk" horiz-adv-x="801" 
d="M310 0l80 346h-167l-79 -346h-108l79 346h-77l24 92h74l33 140q12 52 42 89q58 73 161 73q72 0 118 -49l28 41h68l-114 -495q150 45 181 93q-30 21 -30 52q0 26 19.5 45t45.5 19q29 0 49 -21t20 -54q0 -104 -160 -177l40 -87q10 -22 19 -33q7 -8 16 -8q21 0 45 82l44 -14
q-18 -82 -47.5 -112t-71.5 -30q-34 0 -57 19q-24 19 -38 53l-46 106l-42 -13l-37 -157h-112zM390 580q0 29 22 49q-21 18 -47 18q-42 0 -67 -31q-17 -20 -25 -55l-29 -123h167l18 80q-39 17 -39 62z" />
    <glyph glyph-name="f_f_b" unicode="ffb" horiz-adv-x="1125" 
d="M62 438h73l26 112q12 56 43 96q58 74 162 74q41 0 64.5 -20t23.5 -51q0 -26 -18.5 -44.5t-44.5 -18.5q-41 0 -58 39q-24 -6 -40 -27q-17 -20 -25 -55l-24 -105h183l33 140q12 52 42 89q58 73 161 73q72 0 118 -49l28 41h69l-86 -372q26 37 64.5 61.5t76.5 24.5
q77 0 116.5 -46.5t39.5 -125.5q0 -115 -67.5 -198.5t-165.5 -83.5q-43 0 -78.5 27t-45.5 66l-28 -85h-102l79 346h-167l-79 -346h-108l79 346h-183l-79 -346h-108l78 346h-76zM838 89q56 0 96.5 51t40.5 119q0 41 -22 67.5t-62 26.5q-57 0 -99.5 -51t-42.5 -121
q0 -44 22.5 -68t66.5 -24zM681 580q0 29 22 49q-21 18 -47 18q-42 0 -67 -31q-17 -20 -25 -55l-29 -123h167l18 80q-39 17 -39 62z" />
    <glyph glyph-name="f_f_h" unicode="ffh" horiz-adv-x="1132" 
d="M601 0l80 346h-167l-79 -346h-108l79 346h-183l-79 -346h-108l78 346h-76l24 92h73l26 112q12 56 43 96q58 74 162 74q41 0 64.5 -20t23.5 -51q0 -26 -18.5 -44.5t-44.5 -18.5q-41 0 -58 39q-24 -6 -40 -27q-17 -20 -25 -55l-24 -105h183l33 140q12 52 42 89
q58 73 161 73q72 0 118 -49l28 41h68l-86 -374q24 37 60 62.5t74 25.5q50 0 83.5 -34.5t33.5 -96.5q0 -36 -11 -73l-32 -115q-5 -20 -5 -31q0 -30 23 -30q30 0 56 72l44 -17q-37 -129 -132 -129q-50 0 -76 26.5t-26 70.5q0 26 7 50l33 118q5 16 5 36q0 28 -16 44.5t-44 16.5
q-73 0 -96 -100l-59 -254h-112zM681 580q0 29 22 49q-21 18 -47 18q-42 0 -67 -31q-17 -20 -25 -55l-29 -123h167l18 80q-39 17 -39 62z" />
    <glyph glyph-name="f_f_j" unicode="ffj" horiz-adv-x="846" 
d="M36 0l78 346h-76l24 92h73l26 112q12 56 43 96q58 74 162 74q41 0 64.5 -20t23.5 -51q0 -26 -18.5 -44.5t-44.5 -18.5q-41 0 -58 39q-24 -6 -40 -27q-17 -20 -25 -55l-24 -105h183l23 101q21 89 78 143q61 58 142 58q54 0 86.5 -25t32.5 -62q0 -28 -18.5 -46.5
t-45.5 -18.5q-26 0 -43.5 16.5t-19.5 40.5h-5q-27 0 -49 -18q-36 -30 -54 -108l-19 -81h282l-81 -352q-42 -180 -99 -237q-47 -45 -110 -45q-42 0 -66.5 20.5t-24.5 49.5q0 26 18 43.5t43 17.5q17 0 32.5 -9.5t22.5 -24.5q19 3 33 36q19 48 43 154l58 255h-172l-79 -346
h-108l79 346h-183l-79 -346h-108z" />
    <glyph glyph-name="f_f_k" unicode="ffk" horiz-adv-x="1092" 
d="M601 0l80 346h-167l-79 -346h-108l79 346h-183l-79 -346h-108l78 346h-76l24 92h73l26 112q12 56 43 96q58 74 162 74q41 0 64.5 -20t23.5 -51q0 -26 -18.5 -44.5t-44.5 -18.5q-41 0 -58 39q-24 -6 -40 -27q-17 -20 -25 -55l-24 -105h183l33 140q12 52 42 89
q58 73 161 73q72 0 118 -49l28 41h68l-114 -495q150 45 181 93q-30 21 -30 52q0 26 19.5 45t45.5 19q29 0 49 -21t20 -54q0 -104 -160 -177l40 -87q10 -22 19 -33q7 -8 16 -8q21 0 45 82l44 -14q-18 -82 -47.5 -112t-71.5 -30q-34 0 -57 19q-24 19 -38 53l-46 106l-42 -13
l-37 -157h-112zM681 580q0 29 22 49q-21 18 -47 18q-42 0 -67 -31q-17 -20 -25 -55l-29 -123h167l18 80q-39 17 -39 62z" />
    <glyph glyph-name=".notdef" horiz-adv-x="500" 
d="M0 -200v1000h500v-1000h-500zM71 750l179 -390l179 390h-358zM50 -76l172 376l-172 376v-752zM450 676l-172 -376l172 -376v752zM250 240l-179 -390h358z" />
    <glyph glyph-name=".null" horiz-adv-x="0" 
 />
    <glyph glyph-name="nonmarkingreturn" horiz-adv-x="333" 
 />
    <glyph glyph-name="space" unicode=" " horiz-adv-x="207" 
 />
    <glyph glyph-name="exclam" unicode="!" horiz-adv-x="268" 
d="M110 199l60 458h138l-142 -458h-56zM115 -8q-31 0 -52.5 21.5t-21.5 52.5t21.5 53t52.5 22t52.5 -22t21.5 -53t-21.5 -52.5t-52.5 -21.5z" />
    <glyph glyph-name="quotedbl" unicode="&#x22;" horiz-adv-x="437" 
d="M324 374l9 227q2 29 21.5 49t47.5 20q29 0 49.5 -20.5t20.5 -48.5q0 -16 -8 -32l-93 -195h-47zM110 374l9 227q2 29 21.5 49t47.5 20q29 0 49.5 -20.5t20.5 -48.5q0 -16 -8 -32l-93 -195h-47z" />
    <glyph glyph-name="numbersign" unicode="#" horiz-adv-x="609" 
d="M89 323l20 88h92l32 114h100l-32 -114h104l32 114h100l-32 -114h87l-20 -88h-91l-31 -110h90l-20 -88h-94l-35 -125h-100l35 125h-105l-34 -125h-100l35 125h-85l20 88h89l31 110h-88zM273 328l-34 -120h115l33 120h-114z" />
    <glyph glyph-name="dollar" unicode="$" horiz-adv-x="532" 
d="M207 -107l-74 21l33 102q-60 19 -98.5 54t-38.5 77q0 29 17 49t45 20q24 0 41 -17.5t17 -41.5q0 -25 -14 -37q14 -19 62 -32l44 138q-31 12 -51.5 23t-43 28.5t-34 42t-11.5 55.5q0 59 59.5 104.5t155.5 45.5q12 0 18 -1l22 68l74 -21l-20 -61q52 -17 83.5 -49t31.5 -70
q0 -31 -17 -49.5t-46 -18.5q-24 0 -41 17t-17 41q0 22 14 39q-11 11 -39 17l-45 -137q32 -14 53.5 -26t45 -30t35.5 -40.5t12 -49.5q0 -67 -55 -110.5t-157 -43.5q-18 0 -26 1zM364 142q0 32 -61 60l-40 -121q101 2 101 61zM217 387q0 -31 57 -60l38 117q-95 -3 -95 -57z
" />
    <glyph glyph-name="percent" unicode="%" horiz-adv-x="684" 
d="M498 56q25 0 44.5 24t19.5 55q0 24 -13 39.5t-36 15.5q-25 0 -44.5 -24t-19.5 -55q0 -24 13 -39.5t36 -15.5zM73 2l-38 45q172 130 312 244q152 124 299 253l38 -45q-164 -124 -308 -241q-76 -62 -303 -256zM181 335q25 0 44.5 24t19.5 55q0 24 -13 39.5t-36 15.5
q-25 0 -44.5 -24t-19.5 -55q0 -24 13 -39.5t36 -15.5zM177 271q-52 0 -86 33t-34 85q0 59 41 101.5t102 42.5q52 0 86 -33t34 -85q0 -59 -41 -101.5t-102 -42.5zM494 -8q-52 0 -86 33t-34 85q0 59 41 101.5t102 42.5q52 0 86 -33t34 -85q0 -59 -41 -101.5t-102 -42.5z" />
    <glyph glyph-name="ampersand" unicode="&#x26;" horiz-adv-x="664" 
d="M21 153q0 132 173 202q-42 64 -42 122q0 70 57.5 121t138.5 51q74 0 119.5 -43.5t45.5 -100.5q0 -116 -174 -187q4 -5 12.5 -15t13.5 -15l52 -61q52 66 90.5 93.5t83.5 27.5q34 0 57.5 -22t23.5 -51q0 -27 -19.5 -46.5t-46.5 -19.5q-32 0 -52 26q-14 -4 -71 -77l96 -106
l-71 -66l-91 104q-96 -104 -209 -104q-87 0 -137 45t-50 122zM219 81q63 0 134 78l-65 76q-21 23 -43 51q-110 -51 -110 -123q0 -40 22 -61t62 -21zM258 474q0 -26 5 -43.5t23 -45.5q60 26 90 52.5t30 67.5q0 22 -17.5 40.5t-44.5 18.5q-39 0 -62.5 -28.5t-23.5 -61.5z" />
    <glyph glyph-name="quotesingle" unicode="'" horiz-adv-x="223" 
d="M110 374l9 227q2 29 21.5 49t47.5 20q29 0 49.5 -20.5t20.5 -48.5q0 -16 -8 -32l-93 -195h-47z" />
    <glyph glyph-name="parenleft" unicode="(" horiz-adv-x="420" 
d="M297 -227q-42 31 -79 70t-74 92.5t-59 122.5t-22 143q0 194 110.5 335.5t294.5 211.5l37 -80q-329 -146 -329 -470q0 -196 182 -358z" />
    <glyph glyph-name="parenright" unicode=")" horiz-adv-x="450" 
d="M8 -227l-37 80q329 146 329 470q0 196 -182 358l61 67q42 -31 79 -70t74 -92.5t59 -122.5t22 -143q0 -194 -110.5 -335.5t-294.5 -211.5z" />
    <glyph glyph-name="asterisk" unicode="*" horiz-adv-x="460" 
d="M338 308q-17 0 -32 16.5t-18 43.5l-10 105l-61 -86q-23 -32 -53 -32q-22 0 -33.5 14t-11.5 33q0 32 43 52l101 44l-106 34q-49 16 -49 50q0 19 14 34.5t32 15.5q26 0 50 -27l73 -82v111q0 28 11.5 46t33.5 18q33 0 46 -22t-8 -65l-56 -95l104 34q17 5 29 5q23 0 36 -13.5
t13 -33.5q0 -28 -20 -39.5t-54 -4.5l-108 23l65 -88q16 -22 16 -50q0 -17 -14.5 -29t-32.5 -12z" />
    <glyph glyph-name="plus" unicode="+" horiz-adv-x="464" 
d="M340 463l-31 -134h134l-22 -92h-134l-31 -134h-92l31 134h-134l22 92h134l31 134h92z" />
    <glyph glyph-name="comma" unicode="," horiz-adv-x="256" 
d="M-35 -162l-24 46q69 39 101.5 71.5t35.5 50.5q-23 11 -35.5 31.5t-12.5 36.5q0 34 24 58.5t58 24.5q35 0 59.5 -25t24.5 -66q0 -60 -65.5 -125t-165.5 -103z" />
    <glyph glyph-name="hyphen" unicode="-" horiz-adv-x="400" 
d="M59 227l26 112h290l-26 -112h-290z" />
    <glyph glyph-name="period" unicode="." horiz-adv-x="256" 
d="M112 -8q-34 0 -58 24t-24 58t24 58.5t58 24.5t58 -24.5t24 -58.5t-24 -58t-58 -24z" />
    <glyph glyph-name="slash" unicode="/" horiz-adv-x="427" 
d="M-6 -212l-81 47l532 910l81 -47z" />
    <glyph glyph-name="zero" unicode="0" horiz-adv-x="594" 
d="M288 -7q-108 0 -170.5 67.5t-62.5 170.5q0 117 81.5 209.5t201.5 92.5q108 0 170.5 -67.5t62.5 -170.5q0 -117 -81.5 -209.5t-201.5 -92.5zM291 84q70 0 118 63t48 147q0 66 -33.5 107t-88.5 41q-70 0 -118 -63t-48 -147q0 -66 33.5 -107t88.5 -41z" />
    <glyph glyph-name="one" unicode="1" horiz-adv-x="433" 
d="M14 1l20 90h118l76 328l-108 -25l-4 91l190 47l52 -24l-97 -417h120l-20 -90h-347z" />
    <glyph glyph-name="two" unicode="2" horiz-adv-x="554" 
d="M22 0l-14 60q66 127 252 205q82 34 118 58t36 58q0 30 -27.5 44.5t-67.5 14.5q-61 0 -91 -22q11 -17 11 -37q0 -27 -18.5 -45.5t-45.5 -18.5q-28 0 -48 19.5t-20 49.5q0 55 61.5 100.5t160.5 45.5q88 0 144.5 -41t56.5 -104q0 -34 -18 -63t-54.5 -53.5t-68 -39.5
t-81.5 -36q-69 -28 -107.5 -52t-63.5 -56h249l20 84h91l-40 -171h-435z" />
    <glyph glyph-name="three" unicode="3" horiz-adv-x="512" 
d="M209 -127q-98 0 -161 50t-63 112q0 35 18.5 56t46.5 21q26 0 44 -18t18 -44q0 -29 -20 -45q7 -13 39.5 -27.5t79.5 -14.5q56 0 90 32t34 74q0 46 -36 75t-100 29h-29l21 86h25q75 0 124 28t49 79q0 36 -29 56t-76 20q-58 0 -81 -16q11 -16 11 -36q0 -26 -18 -44t-44 -18
t-45.5 17t-19.5 51q0 55 57 96t146 41q94 0 153 -45.5t59 -117.5q0 -57 -43 -101.5t-132 -57.5q118 -47 118 -148q0 -81 -65 -135.5t-171 -54.5z" />
    <glyph glyph-name="four" unicode="4" horiz-adv-x="587" 
d="M481 291l-36 -155h98l-20 -90h-99l-38 -166h-106l38 166h-292l-13 54l438 444l69 -63l-341 -345h160l26 113z" />
    <glyph glyph-name="five" unicode="5" horiz-adv-x="515" 
d="M202 -126q-91 0 -148.5 38.5t-57.5 91.5q0 34 20.5 54.5t47.5 20.5q28 0 47.5 -19.5t19.5 -47.5q0 -17 -6 -27q23 -16 81 -16q71 0 113 39t42 94q0 43 -32 71.5t-91 28.5q-48 0 -96 -23l-70 42l103 304h344l-23 -104h-263l-49 -149q48 21 94 21q83 0 136.5 -49.5
t53.5 -133.5q0 -93 -74.5 -164.5t-191.5 -71.5z" />
    <glyph glyph-name="six" unicode="6" horiz-adv-x="558" 
d="M115 55q-28 29 -44 75.5t-16 94.5q0 98 37 196.5t110 158.5q83 68 189 68q74 0 122 -31.5t48 -77.5q0 -30 -19 -49.5t-46 -19.5q-26 0 -45 19t-19 45q0 10 3 18q-16 9 -47 9q-72 0 -129 -51q-31 -27 -57.5 -76t-38.5 -99q25 33 70.5 57t96.5 24q85 0 139.5 -50.5
t54.5 -130.5q0 -102 -71 -172.5t-179 -70.5q-98 0 -159 63zM161 190q0 -47 28 -75q29 -31 81 -31q58 0 100 42.5t42 98.5q0 48 -28.5 74.5t-79.5 26.5q-59 0 -101 -40t-42 -96z" />
    <glyph glyph-name="seven" unicode="7" horiz-adv-x="526" 
d="M135 -123l-86 61l362 498h-230l-26 -112h-96l46 201h430l23 -49z" />
    <glyph glyph-name="eight" unicode="8" horiz-adv-x="561" 
d="M275 -8q-98 0 -159 53t-61 123q0 61 38 105.5t110 65.5q-42 23 -63 58t-21 70q0 77 64.5 128.5t156.5 51.5q97 0 157 -50.5t60 -122.5q0 -55 -36.5 -96t-96.5 -57q47 -23 72.5 -62t25.5 -78q0 -79 -67 -134t-180 -55zM331 370q49 0 82.5 28.5t33.5 68.5q0 37 -30 63
t-76 26q-49 0 -82.5 -28.5t-33.5 -68.5q0 -37 30 -63t76 -26zM281 83q61 0 97 31t36 80q0 41 -35 68.5t-85 27.5q-57 0 -95 -33t-38 -78q0 -41 35 -68.5t85 -27.5z" />
    <glyph glyph-name="nine" unicode="9" horiz-adv-x="558" 
d="M189 -128q-74 0 -122 31.5t-48 77.5q0 30 19 49.5t46 19.5q26 0 45 -19t19 -45q0 -10 -3 -18q23 -9 52 -9q64 0 124 54q31 28 58.5 77.5t39.5 99.5q-24 -33 -69.5 -57t-97.5 -24q-85 0 -139.5 50.5t-54.5 130.5q0 102 71 172.5t179 70.5q98 0 159 -63q28 -29 44 -75.5
t16 -94.5q0 -95 -33.5 -187t-95.5 -154q-87 -87 -209 -87zM421 335q0 46 -28 74q-30 32 -81 32q-58 0 -100 -42.5t-42 -98.5q0 -48 28.5 -74.5t79.5 -26.5q59 0 101 40t42 96z" />
    <glyph glyph-name="colon" unicode=":" horiz-adv-x="292" 
d="M190 256q-33 0 -56.5 23.5t-23.5 56.5t23.5 56.5t56.5 23.5t56.5 -23.5t23.5 -56.5t-23.5 -56.5t-56.5 -23.5zM130 -8q-33 0 -56.5 23.5t-23.5 56.5t23.5 56.5t56.5 23.5t56.5 -23.5t23.5 -56.5t-23.5 -56.5t-56.5 -23.5z" />
    <glyph glyph-name="semicolon" unicode=";" horiz-adv-x="292" 
d="M190 256q-33 0 -56.5 23.5t-23.5 56.5t23.5 56.5t56.5 23.5t56.5 -23.5t23.5 -56.5t-23.5 -56.5t-56.5 -23.5zM-13 -157l-24 45q67 38 98.5 69t34.5 49q-22 10 -34 30t-12 36q0 34 23 57t56 23q34 0 58 -24.5t24 -63.5q0 -58 -63.5 -121.5t-160.5 -99.5z" />
    <glyph glyph-name="less" unicode="&#x3c;" horiz-adv-x="486" 
d="M279 68l-215 186l14 60l301 186l45 -69l-253 -156l165 -143z" />
    <glyph glyph-name="equal" unicode="=" horiz-adv-x="464" 
d="M97 329l21 94h342l-21 -94h-342zM54 143l21 94h342l-21 -94h-342z" />
    <glyph glyph-name="greater" unicode="&#x3e;" horiz-adv-x="431" 
d="M88 68l-45 69l253 156l-165 143l57 64l215 -186l-14 -60z" />
    <glyph glyph-name="question" unicode="?" horiz-adv-x="478" 
d="M149 199l19 152q221 11 221 137q0 39 -27.5 62t-72.5 23q-63 0 -78 -22q17 -17 17 -42t-18 -43t-43 -18q-27 0 -45.5 19.5t-18.5 51.5q0 69 59 110t138 41q87 0 147 -46t60 -131q0 -86 -61.5 -145.5t-190.5 -75.5l-33 -73h-73zM155 -8q-31 0 -52.5 21.5t-21.5 52.5
t21.5 53t52.5 22t52.5 -22t21.5 -53t-21.5 -52.5t-52.5 -21.5z" />
    <glyph glyph-name="at" unicode="@" horiz-adv-x="813" 
d="M352 -179q-136 0 -224.5 91.5t-88.5 240.5q0 192 123 329.5t299 137.5q140 0 227 -83.5t87 -212.5q0 -123 -59 -208.5t-151 -85.5q-51 0 -83 23t-37 62q-52 -85 -128 -85q-47 0 -77 38t-30 97q0 94 52.5 165t125.5 71q63 0 98 -75l26 67h102l-59 -230q-18 -67 38 -67
q49 0 87 66t38 158q0 106 -70 177.5t-186 71.5q-102 0 -186.5 -57t-132 -153t-47.5 -208q0 -125 72.5 -202t185.5 -77q81 0 158 41l23 -44q-85 -48 -183 -48zM376 123q35 0 65 33t30 86q0 60 -56 60q-35 0 -62.5 -36t-27.5 -82q0 -25 13 -43t38 -18z" />
    <glyph glyph-name="A" unicode="A" horiz-adv-x="702" 
d="M-28 0l24 101h59l268 457h-79l23 100h370l-23 -100h-73l56 -457h67l-24 -101h-245l23 100h74l-13 108h-252l-63 -108h89l-23 -100h-258zM282 302h186l-31 264z" />
    <glyph glyph-name="B" unicode="B" horiz-adv-x="591" 
d="M-7 0l23 101h70l106 456h-80l23 101h215q104 0 156 -26q40 -20 64 -56t24 -80q0 -63 -45.5 -107.5t-109.5 -53.5q50 -14 82 -52t32 -83q0 -89 -61 -139q-50 -41 -138 -54q-42 -7 -100 -7h-261zM263 379h46q81 0 123.5 26t42.5 76q0 49 -47 66q-32 12 -91 12h-32zM198 99
h73q35 0 65 5q49 9 72 32q26 26 26 71q0 41 -34 61.5t-91 20.5h-66z" />
    <glyph glyph-name="C" unicode="C" horiz-adv-x="670" 
d="M349 -12q-121 0 -202 77.5t-81 211.5q0 161 110.5 277t267.5 116q99 0 167.5 -50.5t68.5 -118.5q0 -35 -22 -60.5t-55 -25.5q-29 0 -49 20.5t-20 48.5t19 47q-10 14 -41 24.5t-71 10.5q-103 0 -180.5 -82t-77.5 -200q0 -86 47 -139t128 -53q98 0 180 85l70 -68
q-105 -121 -259 -121z" />
    <glyph glyph-name="D" unicode="D" horiz-adv-x="691" 
d="M-7 0l23 101h70l106 456h-80l23 101h215q168 0 260 -92q74 -74 74 -195q0 -149 -105 -254q-117 -117 -330 -117h-256zM199 101h66q78 0 131.5 20t97.5 64q73 73 73 181q0 81 -50 131q-60 60 -179 60h-33z" />
    <glyph glyph-name="E" unicode="E" horiz-adv-x="571" 
d="M-7 0l23 101h70l106 456h-80l23 101h493l-46 -189h-107l21 89h-191l-41 -176h196l-22 -96h-196l-43 -186h191l23 89h107l-44 -189h-483z" />
    <glyph glyph-name="F" unicode="F" horiz-adv-x="553" 
d="M-7 0l23 101h70l106 456h-80l23 101h483l-46 -189h-107l21 89h-181l-44 -188h189l-23 -97h-188l-40 -171h93l-24 -102h-275z" />
    <glyph glyph-name="G" unicode="G" horiz-adv-x="712" 
d="M498 0l8 69q-50 -43 -94 -62t-99 -19q-101 0 -174.5 78.5t-73.5 197.5q0 168 116.5 287t283.5 119q134 0 202 -68q40 -40 40 -88q0 -35 -22.5 -58t-52.5 -23q-28 0 -48.5 20.5t-20.5 48.5q0 20 12 39q-27 25 -110 25q-115 0 -199 -83.5t-84 -212.5q0 -84 47.5 -131
t113.5 -47q96 0 164 45l26 108h-167l22 96h281l-80 -341h-91z" />
    <glyph glyph-name="H" unicode="H" horiz-adv-x="748" 
d="M-7 0l23 101h70l106 456h-80l23 101h270l-23 -101h-77l-41 -174h299l41 174h-87l23 101h270l-23 -101h-70l-106 -456h80l-23 -101h-270l23 101h77l43 183h-299l-43 -183h87l-23 -101h-270z" />
    <glyph glyph-name="I" unicode="I" horiz-adv-x="362" 
d="M0 0l23 101h76l106 456h-86l23 101h275l-23 -101h-76l-106 -456h86l-23 -101h-275z" />
    <glyph glyph-name="J" unicode="J" horiz-adv-x="563" 
d="M206 -12q-78 0 -135.5 47.5t-57.5 114.5q0 43 22.5 68.5t57.5 25.5q26 0 44.5 -18.5t18.5 -44.5q0 -36 -32 -54q5 -15 28 -25.5t61 -10.5q65 0 101 47q29 37 47 113l71 306h-107l23 101h285l-23 -101h-68l-74 -319q-27 -113 -76 -173q-64 -77 -186 -77z" />
    <glyph glyph-name="K" unicode="K" horiz-adv-x="669" 
d="M644 557l-234 -198l121 -257h94l-24 -102h-152l-126 293l-99 -82l-25 -110h85l-23 -101h-268l23 101h70l106 456h-80l23 101h257l-22 -98h-64l-53 -225l249 225h-64l22 98h271l-23 -101h-64z" />
    <glyph glyph-name="L" unicode="L" horiz-adv-x="543" 
d="M-7 0l23 101h70l106 456h-80l23 101h277l-23 -101h-84l-106 -457h178l22 93h109l-45 -193h-470z" />
    <glyph glyph-name="M" unicode="M" horiz-adv-x="845" 
d="M-8 0l23 101h70l128 456h-80l23 101h164l120 -369l275 369h180l-23 -101h-70l-85 -456h82l-23 -101h-270l23 101h75l66 339l-253 -330h-16l-113 330l-90 -339h87l-23 -101h-270z" />
    <glyph glyph-name="N" unicode="N" horiz-adv-x="733" 
d="M524 -2l-243 465l-84 -362h87l-23 -101h-268l23 101h70l106 456h-80l23 101h173l217 -415l73 314h-87l23 101h268l-23 -101h-70l-130 -559h-55z" />
    <glyph glyph-name="O" unicode="O" horiz-adv-x="729" 
d="M352 -12q-132 0 -209.5 82t-77.5 213q0 95 46 183.5t131 146t187 57.5q132 0 209.5 -82t77.5 -213q0 -95 -46 -183.5t-131 -146t-187 -57.5zM362 91q66 0 121 42.5t85.5 107.5t30.5 135q0 84 -47.5 137.5t-132.5 53.5q-66 0 -121 -42.5t-85.5 -107.5t-30.5 -135
q0 -84 47.5 -137.5t132.5 -53.5z" />
    <glyph glyph-name="P" unicode="P" horiz-adv-x="570" 
d="M-7 0l23 101h70l106 456h-80l23 101h226q46 0 87 -11q71 -19 110 -68.5t39 -116.5q0 -104 -77.5 -174.5t-207.5 -70.5q-56 0 -86 2l-27 -118h87l-23 -101h-270zM324 317q74 0 116 39t42 102q0 69 -76 92q-24 7 -55 7h-46l-55 -237q33 -3 74 -3z" />
    <glyph glyph-name="Q" unicode="Q" horiz-adv-x="729" 
d="M716 375q0 -84 -37 -164.5t-106 -139.5t-154 -76q31 -63 104 -63q37 0 79 20l33 -81q-60 -30 -120 -30q-66 0 -123 37.5t-90 113.5q-111 15 -174 94t-63 197q0 95 46 183.5t131 146t187 57.5q132 0 209.5 -82t77.5 -213zM362 91q66 0 121 42.5t85.5 107.5t30.5 135
q0 84 -47.5 137.5t-132.5 53.5q-66 0 -121 -42.5t-85.5 -107.5t-30.5 -135q0 -84 47.5 -137.5t132.5 -53.5z" />
    <glyph glyph-name="R" unicode="R" horiz-adv-x="605" 
d="M-7 0l23 101h70l106 456h-80l23 101h214q138 0 199 -61q49 -49 49 -124q0 -76 -46.5 -132.5t-128.5 -79.5l72 -160h79l-23 -101h-136l-99 247h-14q-31 0 -66 3l-36 -149h82l-23 -101h-265zM329 342q70 0 111.5 34t41.5 88q0 38 -24 62q-31 31 -111 31h-43l-48 -211
q29 -4 73 -4z" />
    <glyph glyph-name="S" unicode="S" horiz-adv-x="568" 
d="M272 -12q-99 0 -169.5 49t-70.5 116q0 39 21.5 63.5t54.5 24.5q28 0 48 -20t20 -49q0 -31 -22 -50q36 -36 124 -36q54 0 85.5 21t31.5 62q0 32 -25.5 56t-86.5 57q-71 38 -114.5 85.5t-43.5 118.5q0 75 64.5 129.5t172.5 54.5q96 0 158 -46.5t62 -101.5
q0 -38 -20.5 -63.5t-54.5 -25.5q-29 0 -48.5 19.5t-19.5 48.5q0 28 18 47q-18 24 -93 24q-55 0 -86.5 -22.5t-31.5 -53.5q0 -36 29 -63.5t87 -58.5q71 -38 112.5 -84.5t41.5 -110.5q0 -82 -65 -136.5t-179 -54.5z" />
    <glyph glyph-name="T" unicode="T" horiz-adv-x="613" 
d="M126 0l23 101h77l107 459h-121l-23 -104h-108l47 202h567l-46 -202h-107l23 104h-119l-107 -459h87l-23 -101h-277z" />
    <glyph glyph-name="U" unicode="U" horiz-adv-x="691" 
d="M315 -12q-98 0 -155 53.5t-57 145.5q0 39 14 97l63 273h-77l23 101h265l-23 -101h-75l-64 -278q-12 -50 -12 -81q0 -107 115 -107q121 0 154 145l74 321h-87l23 101h265l-23 -101h-68l-76 -330q-29 -121 -94 -180t-185 -59z" />
    <glyph glyph-name="V" unicode="V" horiz-adv-x="678" 
d="M254 -7l-104 564h-65l23 101h255l-23 -101h-65l55 -364l217 364h-73l23 101h264l-23 -101h-56l-364 -564h-64z" />
    <glyph glyph-name="W" unicode="W" horiz-adv-x="983" 
d="M224 -6l-56 563h-71l23 101h270l-23 -101h-83l23 -346l225 383h56l85 -387l155 350h-80l23 101h270l-23 -101h-62l-279 -562h-59l-94 387l-242 -387z" />
    <glyph glyph-name="X" unicode="X" horiz-adv-x="718" 
d="M-19 0l23 101h62l258 242l-136 214h-74l23 101h272l-23 -101h-65l79 -153l143 153h-69l23 101h278l-23 -101h-62l-241 -226l147 -230h74l-23 -101h-264l23 101h66l-97 170l-163 -170h72l-23 -101h-280z" />
    <glyph glyph-name="Y" unicode="Y" horiz-adv-x="649" 
d="M127 0l23 101h76l36 154l-114 302h-63l23 101h249l-23 -101h-69l74 -222l176 222h-70l23 101h264l-23 -101h-59l-280 -323l-31 -133h86l-23 -101h-275z" />
    <glyph glyph-name="Z" unicode="Z" horiz-adv-x="630" 
d="M26 0l-10 64l481 499h-252l-25 -110h-103l48 205h492l10 -64l-481 -499h267l25 110h103l-48 -205h-507z" />
    <glyph glyph-name="bracketleft" unicode="[" horiz-adv-x="364" 
d="M-7 -200l216 932h260l-22 -94h-155l-172 -743h155l-22 -95h-260z" />
    <glyph glyph-name="backslash" unicode="\" horiz-adv-x="357" 
d="M194 -205l-67 936l92 9l67 -936z" />
    <glyph glyph-name="bracketright" unicode="]" horiz-adv-x="364" 
d="M-83 -200l22 94h155l172 743h-155l22 95h260l-216 -932h-260z" />
    <glyph glyph-name="asciicircum" unicode="^" horiz-adv-x="454" 
d="M122 320l-44 56l218 177l131 -182l-56 -48l-98 90z" />
    <glyph glyph-name="underscore" unicode="_" horiz-adv-x="548" 
d="M-98 -167l24 102h588l-24 -102h-588z" />
    <glyph glyph-name="grave" unicode="`" horiz-adv-x="669" 
d="M384 483l-114 114q-22 22 -22 50q0 23 15.5 38.5t35.5 15.5q37 0 57 -43l67 -149z" />
    <glyph glyph-name="a" unicode="a" horiz-adv-x="579" 
d="M176 -8q-62 0 -101.5 47t-39.5 123q0 114 67 199t161 85q41 0 75 -29t48 -69l30 90h102l-75 -298q-8 -30 -8 -47q0 -27 22 -27q30 0 56 72l44 -17q-38 -129 -134 -129q-42 0 -66 27t-24 72q-66 -99 -157 -99zM228 85q55 0 97 50.5t42 120.5q0 44 -21.5 68.5t-64.5 24.5
q-54 0 -93 -51.5t-39 -119.5q0 -41 20.5 -67t58.5 -26z" />
    <glyph glyph-name="b" unicode="b" horiz-adv-x="538" 
d="M15 0l147 640h-82l24 92h187l-86 -372q26 37 64.5 61.5t76.5 24.5q77 0 116.5 -46.5t39.5 -125.5q0 -115 -67.5 -198.5t-165.5 -83.5q-43 0 -78.5 27t-45.5 66l-28 -85h-102zM251 89q56 0 96.5 51t40.5 119q0 41 -22 67.5t-62 26.5q-57 0 -99.5 -51t-42.5 -121
q0 -44 22.5 -68t66.5 -24z" />
    <glyph glyph-name="c" unicode="c" horiz-adv-x="488" 
d="M253 -8q-95 0 -157 54t-62 145q0 106 77 180.5t184 74.5q68 0 116 -36.5t48 -93.5q0 -33 -18 -56t-49 -23q-26 0 -44.5 18.5t-18.5 44.5q0 22 15 42q-19 13 -52 13q-56 0 -101.5 -40t-45.5 -116q0 -54 32.5 -85t82.5 -31q77 0 148 49l-1 -97q-63 -43 -154 -43z" />
    <glyph glyph-name="d" unicode="d" horiz-adv-x="578" 
d="M35 162q0 114 67 199t161 85q41 0 73.5 -28t47.5 -66l67 288h-81l24 92h188l-138 -592q-8 -34 -8 -47q0 -27 22 -27q30 0 56 72l44 -17q-38 -129 -135 -129q-42 0 -66 27t-24 72q-66 -99 -157 -99q-62 0 -101.5 47t-39.5 123zM228 85q55 0 97 50.5t42 120.5
q0 44 -21.5 68.5t-64.5 24.5q-54 0 -93 -51.5t-39 -119.5q0 -41 20.5 -67t58.5 -26z" />
    <glyph glyph-name="e" unicode="e" horiz-adv-x="490" 
d="M442 182h-301v-7q0 -39 32 -65.5t91 -26.5q71 0 145 39l-21 -100q-63 -30 -149 -30q-85 0 -145.5 50.5t-60.5 137.5q0 111 69 188.5t168 77.5q85 0 136.5 -44.5t51.5 -124.5q0 -44 -16 -95zM272 356q-41 0 -72 -26t-47 -72h196q4 15 4 30q0 68 -81 68z" />
    <glyph glyph-name="f" unicode="f" horiz-adv-x="336" 
d="M36 0l79 346h-76l24 92h73l21 90q24 104 75 155q57 57 142 57q46 0 71 -22.5t25 -51.5q0 -30 -19.5 -48.5t-47.5 -18.5q-23 0 -40 13.5t-21 32.5q-16 -5 -29 -18q-30 -30 -48 -108l-19 -81h115l-24 -92h-112l-79 -346h-110z" />
    <glyph glyph-name="g" unicode="g" horiz-adv-x="536" 
d="M191 -200q-46 0 -91.5 15.5t-67.5 37.5q-28 28 -28 65q0 30 18.5 48t44.5 18t44 -18t18 -43q0 -16 -5 -24q20 -13 61 -13q56 0 89 33q26 26 42 98l17 73q-64 -81 -144 -81q-74 0 -113.5 46.5t-39.5 124.5q0 108 64.5 187t164.5 79q47 0 79.5 -27t48.5 -65l28 84h100
l-103 -449q-21 -92 -62 -133q-56 -56 -165 -56zM242 102q55 0 94.5 46t39.5 113q0 40 -26.5 64t-66.5 24q-55 0 -94 -46t-39 -113q0 -40 26 -64t66 -24z" />
    <glyph glyph-name="h" unicode="h" horiz-adv-x="546" 
d="M15 0l147 640h-82l24 92h187l-86 -374q24 37 60 62.5t74 25.5q50 0 83.5 -34.5t33.5 -96.5q0 -36 -11 -73l-32 -115q-5 -20 -5 -31q0 -30 23 -30q30 0 56 72l44 -17q-37 -129 -132 -129q-50 0 -76 26.5t-26 70.5q0 26 7 50l33 118q5 16 5 36q0 28 -16 44.5t-44 16.5
q-73 0 -96 -100l-59 -254h-112z" />
    <glyph glyph-name="i" unicode="i" horiz-adv-x="323" 
d="M211 499q-28 0 -48 19.5t-20 47.5t20 47.5t48 19.5t48 -19.5t20 -47.5t-20 -47.5t-48 -19.5zM164 -8q-50 0 -75 26t-25 72q0 24 6 49l51 207h-79l24 92h190l-75 -298q-7 -27 -7 -46q0 -28 24 -28q33 0 59 72l44 -17q-21 -72 -55.5 -100.5t-81.5 -28.5z" />
    <glyph glyph-name="j" unicode="j" horiz-adv-x="304" 
d="M-15 -196q-42 0 -66.5 20.5t-24.5 49.5q0 26 18 43.5t43 17.5q17 0 32.5 -9.5t22.5 -24.5q19 3 33 36q19 48 43 154l58 255h-82l24 92h189l-81 -352q-42 -180 -99 -237q-47 -45 -110 -45zM231 499q-28 0 -48 19.5t-20 47.5t20 47.5t48 19.5t48 -19.5t20 -47.5t-20 -47.5
t-48 -19.5z" />
    <glyph glyph-name="k" unicode="k" horiz-adv-x="506" 
d="M127 0h-112l147 640h-82l24 92h187l-114 -495q150 45 181 93q-30 21 -30 52q0 26 19.5 45t45.5 19q29 0 49 -21t20 -54q0 -104 -160 -177l40 -87q11 -24 19 -33q7 -8 16 -8q21 0 45 82l44 -14q-18 -82 -47.5 -112t-71.5 -30q-34 0 -57 19q-24 19 -38 53l-46 106l-42 -13z
" />
    <glyph glyph-name="l" unicode="l" horiz-adv-x="308" 
d="M144 -8q-50 0 -74.5 26t-24.5 73q0 23 6 48l116 501h-82l24 92h190l-137 -592q-7 -31 -7 -43q0 -31 23 -31q33 0 59 72l44 -17q-21 -72 -55.5 -100.5t-81.5 -28.5z" />
    <glyph glyph-name="m" unicode="m" horiz-adv-x="813" 
d="M37 0l87 346h-80l24 92h171l-22 -101q24 46 62 77.5t78 31.5q46 0 75.5 -30t34.5 -79q29 50 67 79.5t75 29.5q48 0 80 -34.5t32 -96.5q0 -36 -11 -73l-32 -115q-5 -20 -5 -31q0 -30 23 -30q30 0 56 72l44 -17q-37 -129 -132 -129q-50 0 -76 26.5t-26 70.5q0 26 7 50
l31 111q7 22 7 43q0 29 -16 45t-39 16q-66 0 -91 -106l-62 -248h-112l63 248q7 30 7 48q0 25 -16 41.5t-39 16.5q-66 0 -91 -106l-62 -248h-112z" />
    <glyph glyph-name="n" unicode="n" horiz-adv-x="573" 
d="M424 -8q-50 0 -76 26.5t-26 70.5q0 26 7 50l33 118q5 16 5 36q0 28 -16 44.5t-44 16.5q-70 0 -94 -98l-64 -256h-112l87 346h-80l24 92h171l-22 -101q24 45 65.5 77t83.5 32q50 0 82.5 -34.5t32.5 -96.5q0 -36 -11 -73l-32 -115q-5 -20 -5 -31q0 -30 23 -30q30 0 56 72
l44 -17q-37 -129 -132 -129z" />
    <glyph glyph-name="o" unicode="o" horiz-adv-x="522" 
d="M240 -8q-95 0 -150.5 58t-55.5 141q0 101 71 178t177 77q95 0 150.5 -58t55.5 -141q0 -101 -71 -178t-177 -77zM244 83q55 0 94 47t39 117q0 51 -28 79.5t-71 28.5q-55 0 -94 -47t-39 -117q0 -51 28 -79.5t71 -28.5z" />
    <glyph glyph-name="p" unicode="p" horiz-adv-x="562" 
d="M-72 -196l24 90h63l105 452h-82l24 92h174l-22 -100q30 47 72 77.5t89 30.5q74 0 112.5 -46.5t38.5 -125.5q0 -115 -67.5 -198.5t-165.5 -83.5q-44 0 -76 26.5t-49 66.5l-44 -191h78l-24 -90h-250zM275 89q56 0 96.5 51t40.5 119q0 41 -22 67.5t-62 26.5q-57 0 -99.5 -51
t-42.5 -121q0 -44 22.5 -68t66.5 -24z" />
    <glyph glyph-name="q" unicode="q" horiz-adv-x="535" 
d="M186 -8q-74 0 -112.5 46.5t-38.5 125.5q0 115 67.5 198.5t165.5 83.5q44 0 76.5 -27t47.5 -65l28 84h100l-124 -542h87l-24 -92h-192l61 270q-61 -82 -142 -82zM233 85q57 0 99.5 51t42.5 121q0 44 -22.5 68t-66.5 24q-56 0 -96.5 -51t-40.5 -119q0 -41 22 -67.5
t62 -26.5z" />
    <glyph glyph-name="r" unicode="r" horiz-adv-x="426" 
d="M37 0l87 346h-80l24 92h171l-28 -128q75 136 155 136q29 0 51 -20.5t22 -51.5q0 -28 -20.5 -48.5t-48.5 -20.5q-25 0 -43.5 15t-22.5 35q-27 -8 -58.5 -51t-46.5 -105l-50 -199h-112z" />
    <glyph glyph-name="s" unicode="s" horiz-adv-x="449" 
d="M208 -8q-109 0 -164 55q-29 29 -29 62q0 28 16 45t41 17q22 0 38.5 -16.5t16.5 -38.5q0 -16 -6 -24q6 -4 15 -9q29 -13 73 -13q34 0 56.5 10.5t22.5 30.5q0 5 -1.5 10t-5 9.5t-7 8t-10 8t-11.5 7t-14 6.5t-14.5 6.5t-15.5 7t-16 6.5q-55 22 -87 50t-32 78q0 57 47.5 97.5
t133.5 40.5q96 0 145 -51q26 -26 26 -60q0 -27 -16.5 -44t-40.5 -17q-23 0 -39.5 17t-16.5 39q0 10 6 24q-8 4 -14 6q-22 8 -49 8q-30 0 -51.5 -10t-21.5 -30q0 -5 1.5 -9.5t5.5 -9t7 -8t10 -8t11.5 -7.5t14.5 -7.5t14.5 -6.5t16 -7t16.5 -7q54 -24 85.5 -52.5t31.5 -74.5
q0 -66 -49.5 -102.5t-139.5 -36.5z" />
    <glyph glyph-name="t" unicode="t" horiz-adv-x="370" 
d="M366 346h-133l-47 -190q-7 -28 -7 -40q0 -40 32 -40q31 0 84 35l36 -50q-73 -69 -158 -69q-47 0 -77 26t-30 79q0 19 9 59l47 190h-81l21 92h82l24 95l123 44l-35 -139h133z" />
    <glyph glyph-name="u" unicode="u" horiz-adv-x="574" 
d="M67 438h190l-63 -253q-6 -28 -6 -39q0 -62 54 -62q39 0 62 24t35 74l64 256h112l-75 -298q-8 -30 -8 -47q0 -27 22 -27q30 0 56 72l44 -17q-38 -129 -134 -129q-42 0 -66 26t-25 71q-27 -45 -66 -71t-80 -26q-45 0 -77 33t-32 88q0 35 11 82l37 151h-79z" />
    <glyph glyph-name="v" unicode="v" horiz-adv-x="501" 
d="M163 -8l-68 354h-73l24 92h142l48 -328q115 121 135 204q-43 19 -43 64q0 29 20 48.5t49 19.5q34 0 56 -24.5t22 -64.5q0 -143 -230 -365h-82z" />
    <glyph glyph-name="w" unicode="w" horiz-adv-x="708" 
d="M139 -8l-40 354h-80l24 92h152l15 -318l139 273h73l52 -277q96 146 104 203q-19 6 -32 22.5t-13 39.5q0 27 19 46t46 19q36 0 57.5 -24t21.5 -66q0 -102 -191 -364h-74l-52 241l-137 -241h-84z" />
    <glyph glyph-name="x" unicode="x" horiz-adv-x="535" 
d="M82 -8q-37 0 -60 20t-23 50q0 25 17.5 42.5t42.5 17.5q33 0 49 -28q26 2 67 62l34 52l-56 138h-85l24 92h133l51 -140l26 44q62 104 142 104q33 0 55.5 -20.5t22.5 -49.5q0 -25 -17.5 -42.5t-42.5 -17.5q-33 0 -49 28q-10 -2 -29 -21t-34 -44l-31 -50l46 -112
q13 -32 20 -40.5t16 -8.5q20 0 44 72l45 -13q-29 -135 -115 -135q-66 0 -99 84l-25 63l-27 -47q-58 -100 -142 -100z" />
    <glyph glyph-name="y" unicode="y" horiz-adv-x="501" 
d="M-7 -200q-38 0 -61.5 21.5t-23.5 50.5q0 28 18.5 45.5t44.5 17.5q19 0 35 -11.5t22 -29.5q17 2 48 31.5t92 101.5l-66 319h-74l24 92h143l52 -327q109 143 126 203q-43 18 -43 64q0 29 20 48.5t49 19.5q37 0 58 -24.5t21 -66.5q0 -101 -188 -329q-81 -99 -137.5 -149.5
t-88 -63.5t-71.5 -13z" />
    <glyph glyph-name="z" unicode="z" horiz-adv-x="480" 
d="M40 -8l-41 63l331 297h-156l-20 -80h-93l41 166h338l32 -70l-315 -283q38 11 66 11q17 0 52 -7.5t44 -7.5q35 0 51.5 18.5t32.5 66.5l41 -9q-29 -165 -132 -165q-16 0 -78.5 12t-84.5 12q-58 0 -109 -24z" />
    <glyph glyph-name="braceleft" unicode="{" horiz-adv-x="378" 
d="M252 -217q-114 16 -173 59t-59 106q0 79 99 147q70 48 70 78q0 19 -27 32t-77 13h-27l22 92h30q64 0 94 22t30 52q0 27 -38 78q-48 64 -48 114q0 75 73.5 120t216.5 49l-2 -72q-187 -17 -187 -89q0 -30 45 -90q49 -67 49 -105q0 -48 -38.5 -81t-119.5 -44q55 -7 84.5 -33
t29.5 -64q0 -49 -89 -112q-29 -20 -44.5 -33t-29.5 -33t-14 -40q0 -68 147 -95z" />
    <glyph glyph-name="bar" unicode="|" horiz-adv-x="284" 
d="M95 -200v932h94v-932h-94z" />
    <glyph glyph-name="braceright" unicode="}" horiz-adv-x="378" 
d="M-39 -217l2 72q187 17 187 89q0 30 -45 90q-49 67 -49 105q0 48 38.5 81t119.5 44q-55 7 -84.5 33t-29.5 64q0 49 89 112q29 20 44.5 33t29.5 33t14 40q0 68 -147 95l17 71q114 -16 173 -59t59 -106q0 -79 -99 -147q-70 -48 -70 -78q0 -19 27 -32t77 -13h27l-22 -92h-30
q-64 0 -94 -22t-30 -52q0 -27 38 -78q48 -64 48 -114q0 -75 -73.5 -120t-216.5 -49z" />
    <glyph glyph-name="asciitilde" unicode="~" horiz-adv-x="480" 
d="M320 182q-43 0 -87 42q-33 32 -52 32q-20 0 -36.5 -14.5t-35.5 -53.5l-61 25q20 69 58.5 109t80.5 40q43 0 87 -42q33 -32 52 -32q20 0 36.5 14.5t35.5 53.5l61 -25q-20 -69 -58.5 -109t-80.5 -40z" />
    <glyph glyph-name="uni00A0" unicode="&#xa0;" horiz-adv-x="207" 
 />
    <glyph glyph-name="exclamdown" unicode="&#xa1;" horiz-adv-x="268" 
d="M207 516q-31 0 -52.5 22t-21.5 53t21.5 52.5t52.5 21.5t52.5 -21.5t21.5 -52.5t-21.5 -53t-52.5 -22zM14 0l142 458h56l-60 -458h-138z" />
    <glyph glyph-name="cent" unicode="&#xa2;" horiz-adv-x="497" 
d="M275 38q-24 0 -35 1l-45 -145l-73 19l44 145q-57 23 -89.5 69.5t-32.5 109.5q0 102 75.5 175.5t183.5 78.5l30 100l73 -19l-27 -88q50 -14 82 -46.5t32 -74.5q0 -30 -18.5 -52t-48.5 -22q-26 0 -44.5 18.5t-18.5 44.5q0 22 15 42q-12 7 -30 10l-85 -279q6 -1 19 -1
q89 0 160 49l-1 -92q-63 -43 -166 -43zM155 245q0 -63 46 -96l78 254q-52 -12 -88 -52t-36 -106z" />
    <glyph glyph-name="sterling" unicode="&#xa3;" horiz-adv-x="554" 
d="M545 396q0 -34 -19.5 -54.5t-45.5 -20.5q-25 0 -42.5 17.5t-17.5 42.5q0 20 13 38q-6 8 -29.5 15t-39.5 7q-57 0 -85.5 -37t-28.5 -99q0 -24 6 -58.5t8 -51.5h174l-19 -84h-160q-15 -69 -70 -114q29 4 95 -16q54 -15 72 -15q31 0 50.5 10.5t52.5 40.5l51 -49
q-65 -96 -162 -96q-52 0 -118 26q-66 25 -106 26q-18 -24 -46.5 -38t-52.5 -14q-28 0 -47 16t-19 38q0 34 40.5 57t97.5 16q50 49 62 112h-120l19 84h104q-2 21 -8 56t-6 56q0 97 59.5 161t154.5 64q80 0 131.5 -39.5t51.5 -96.5z" />
    <glyph glyph-name="yen" unicode="&#xa5;" horiz-adv-x="525" 
d="M76 249l19 82h88l-54 112h-62l19 82h214l-19 -80h-61l64 -140l132 140h-69l19 80h222l-19 -82h-58l-110 -112h86l-19 -82h-149l-9 -42h150l-19 -82h-147l-9 -47h87l-17 -78h-270l17 78h84l10 47h-147l19 82h147l10 42h-149z" />
    <glyph glyph-name="section" unicode="&#xa7;" horiz-adv-x="434" 
d="M276 464q-55 0 -55 -24q0 -6 4 -11.5t14 -11.5t19 -10.5t26.5 -13.5t29.5 -15q48 -25 72 -49t24 -55q0 -76 -110 -97q38 -30 38 -76q0 -45 -39 -77t-115 -32q-69 0 -108.5 28t-39.5 66q0 20 14 33.5t36 13.5q20 0 33.5 -13.5t13.5 -33.5q0 -10 -3 -16q22 -9 51 -9
q54 0 54 25q0 12 -21.5 25.5t-69.5 36.5q-50 23 -74 48t-24 59q0 74 114 92q-40 32 -40 73q0 46 38.5 79.5t115.5 33.5q67 0 106.5 -28.5t39.5 -65.5q0 -20 -14 -33.5t-36 -13.5q-20 0 -33.5 13.5t-13.5 33.5q0 9 3 15q-22 10 -50 10zM150 274q0 -24 79 -58l10 -5
q42 11 55 18t13 23q0 22 -77 57l-15 6q-36 -8 -50.5 -17t-14.5 -24z" />
    <glyph glyph-name="dieresis" unicode="&#xa8;" horiz-adv-x="500" 
d="M439 511q-29 0 -50.5 21t-21.5 51t22 51t52 21q29 0 50.5 -21t21.5 -51t-22 -51t-52 -21zM233 511q-29 0 -50.5 21t-21.5 51t22 51t52 21q29 0 50.5 -21t21.5 -51t-22 -51t-52 -21z" />
    <glyph glyph-name="copyright" unicode="&#xa9;" horiz-adv-x="620" 
d="M310 -8q-113 0 -191.5 78.5t-78.5 191.5t78.5 192t191.5 79t191.5 -79t78.5 -192q0 -112 -79 -191t-191 -79zM310 38q90 0 154 65.5t64 158.5q0 95 -63 160t-155 65t-155 -65t-63 -160t63 -159.5t155 -64.5zM318 132q-60 0 -98 36.5t-38 96.5q0 58 39 96t96 38
q43 0 71.5 -19t28.5 -44q0 -13 -8.5 -22t-21.5 -9q-11 0 -19.5 8.5t-8.5 19.5q0 7 3 12q-16 12 -45 12q-37 0 -62 -25.5t-25 -64.5t24.5 -65t64.5 -26q41 0 73 32l27 -29q-36 -47 -101 -47z" />
    <glyph glyph-name="ordfeminine" unicode="&#xaa;" horiz-adv-x="379" 
d="M159 395q-36 0 -59.5 28.5t-23.5 73.5q0 69 40 120t95 51q24 0 45 -17.5t27 -41.5l18 54h61l-45 -179q-5 -18 -5 -28q0 -16 13 -16q19 0 34 43l26 -10q-23 -78 -80 -78q-25 0 -39 15.5t-15 42.5q-30 -58 -92 -58zM42 282l14 60h298l-14 -60h-298zM190 451q32 0 56.5 30.5
t24.5 72.5q0 55 -49 55q-32 0 -55 -31t-23 -71q0 -25 12 -40.5t34 -15.5z" />
    <glyph glyph-name="guillemotleft" unicode="&#xab;" horiz-adv-x="558" 
d="M442 91l-164 191l243 191l51 -60l-158 -143l88 -126zM199 91l-164 191l243 191l51 -60l-158 -143l88 -126z" />
    <glyph glyph-name="registered" unicode="&#xae;" horiz-adv-x="406" 
d="M275 336q-75 0 -127.5 51.5t-52.5 126.5t52.5 127t127.5 52t127.5 -52t52.5 -127t-52.5 -126.5t-127.5 -51.5zM275 656q-58 0 -99 -41t-41 -102q0 -59 41 -99.5t99 -40.5t99 40.5t41 99.5q0 61 -41 102t-99 41zM208 434v31h17v103h-17v31h67q30 0 49 -13t19 -37
q0 -31 -29 -45l19 -39h18v-31h-43l-28 60h-20v-29h17v-31h-69zM260 524h14q30 0 30 22t-31 22h-13v-44z" />
    <glyph glyph-name="macron" unicode="&#xaf;" horiz-adv-x="500" 
d="M157 525l20 87h330l-20 -87h-330z" />
    <glyph glyph-name="degree" unicode="&#xb0;" horiz-adv-x="330" 
d="M209 398q-58 0 -91 34.5t-33 84.5q0 61 42.5 107t107.5 46q58 0 91 -34.5t33 -84.5q0 -61 -42.5 -107t-107.5 -46zM211 460q29 0 51 28t22 64q0 26 -14.5 41t-36.5 15q-29 0 -51 -28t-22 -64q0 -26 14.5 -41t36.5 -15z" />
    <glyph glyph-name="plusminus" unicode="&#xb1;" horiz-adv-x="464" 
d="M361 551l-31 -134h134l-21 -92h-134l-31 -134h-92l31 134h-134l21 92h134l31 134h92zM12 17l20 92h360l-21 -92h-359z" />
    <glyph glyph-name="two.sup" unicode="&#xb2;" 
d="M366 430h-258l-14 33q39 98 180 166q38 19 56 34.5t18 34.5q0 38 -58 38q-34 0 -49 -13q8 -10 8 -25q0 -17 -12 -29t-29 -12q-18 0 -30 12.5t-12 31.5q0 42 41 70t91 28q53 0 88 -26.5t35 -72.5q0 -28 -20 -53t-42.5 -38.5t-57.5 -30.5q-88 -42 -118 -89h138l14 59h59z
" />
    <glyph glyph-name="three.sup" unicode="&#xb3;" 
d="M248 424q-51 0 -94 23.5t-43 69.5q0 19 12.5 31.5t29.5 12.5t29 -12t12 -29q0 -12 -6 -22q14 -14 59 -14q34 0 53 14t19 38q0 16 -17 31.5t-52 15.5h-31l15 65h29q36 0 59.5 13t23.5 35q0 18 -18.5 29.5t-45.5 11.5q-18 0 -33 -4q2 -8 2 -13q0 -17 -12 -29t-29 -12
t-29.5 12t-12.5 30q0 29 31.5 52.5t88.5 23.5q62 0 98 -29t36 -64q0 -42 -28.5 -65.5t-81.5 -26.5q80 -19 80 -82q0 -51 -43.5 -78.5t-100.5 -27.5z" />
    <glyph glyph-name="acute" unicode="&#xb4;" horiz-adv-x="500" 
d="M244 498l-31 36l123 139q24 27 54 27q20 0 34 -15t14 -35q0 -35 -36 -58z" />
    <glyph glyph-name="paragraph" unicode="&#xb6;" horiz-adv-x="607" 
d="M128 0l21 93h80l24 100q-12 -1 -51 -1q-69 0 -106 38t-37 93q0 82 65 130t160 48h353l-22 -95h-81l-72 -311h86l-22 -95h-398zM316 91h58l74 319h-58z" />
    <glyph glyph-name="periodcentered" unicode="&#xb7;" horiz-adv-x="256" 
d="M144 180q-34 0 -58 24t-24 58t24 58.5t58 24.5t58 -24.5t24 -58.5t-24 -58t-58 -24z" />
    <glyph glyph-name="cedilla" unicode="&#xb8;" horiz-adv-x="500" 
d="M162 -200q-67 0 -123 43l20 31q47 -27 97 -27q15 0 26 7.5t11 17.5q0 32 -65 25l-15 25l63 100l31 -8l-13 -60q44 -6 68.5 -26.5t24.5 -52.5q0 -34 -34.5 -54.5t-90.5 -20.5z" />
    <glyph glyph-name="one.sup" unicode="&#xb9;" 
d="M111 430l14 64h92l52 227l-87 -22l-5 64l141 35l36 -16l-66 -288h90l-14 -64h-253z" />
    <glyph glyph-name="ordmasculine" unicode="&#xba;" horiz-adv-x="348" 
d="M211 398q-58 0 -91 34.5t-33 84.5q0 61 42.5 107t107.5 46q58 0 91 -34.5t33 -84.5q0 -61 -42.5 -107t-107.5 -46zM45 282l14 60h258l-14 -60h-258zM214 452q34 0 57.5 28.5t23.5 70.5q0 30 -17.5 47.5t-43.5 17.5q-34 0 -57.5 -28.5t-23.5 -70.5q0 -30 17.5 -47.5
t43.5 -17.5z" />
    <glyph glyph-name="guillemotright" unicode="&#xbb;" horiz-adv-x="558" 
d="M314 91l-51 60l158 143l-88 126l60 53l164 -191zM71 91l-51 60l158 143l-88 126l60 53l164 -191z" />
    <glyph glyph-name="onequarter" unicode="&#xbc;" horiz-adv-x="795" 
d="M594 55l13 52h-161l-10 35l232 235l43 -41l-181 -176h90l13 49l71 26l-17 -71h56l-14 -57h-56l-12 -52h42l-13 -55h-170l13 55h61zM61 280l14 64h92l52 227l-87 -22l-5 64l141 35l36 -16l-66 -288h90l-14 -64h-253zM185 -16l-40 34q109 122 273 316q138 162 263 324
l40 -34q-109 -122 -273 -316q-153 -181 -263 -324z" />
    <glyph glyph-name="onehalf" unicode="&#xbd;" horiz-adv-x="795" 
d="M50 280l14 64h92l52 227l-87 -22l-5 64l141 35l36 -16l-66 -288h90l-14 -64h-253zM696 0h-258l-14 33q39 98 180 166q38 19 56 34.5t18 34.5q0 38 -58 38q-34 0 -49 -13q8 -10 8 -25q0 -17 -12 -29t-29 -12q-18 0 -30 12.5t-12 31.5q0 42 41 70t91 28q53 0 88 -26.5
t35 -72.5q0 -28 -20 -53t-42.5 -38.5t-57.5 -30.5q-88 -42 -118 -89h138l14 59h59zM170 -16l-40 34q109 122 273 316q138 162 263 324l40 -34q-109 -122 -273 -316q-153 -181 -263 -324z" />
    <glyph glyph-name="threequarters" unicode="&#xbe;" horiz-adv-x="795" 
d="M211 274q-51 0 -94 23.5t-43 69.5q0 19 12.5 31.5t29.5 12.5t29 -12t12 -29q0 -12 -6 -22q14 -14 59 -14q34 0 53 14t19 38q0 16 -17 31.5t-52 15.5h-31l15 65h29q36 0 59.5 13t23.5 35q0 18 -18.5 29.5t-45.5 11.5q-18 0 -33 -4q2 -8 2 -13q0 -17 -12 -29t-29 -12
t-29.5 12t-12.5 30q0 29 31.5 52.5t88.5 23.5q62 0 98 -29t36 -64q0 -42 -28.5 -65.5t-81.5 -26.5q80 -19 80 -82q0 -51 -43.5 -78.5t-100.5 -27.5zM599 55l13 52h-161l-10 35l232 235l43 -41l-181 -176h90l13 49l71 26l-17 -71h56l-14 -57h-56l-12 -52h42l-13 -55h-170
l13 55h61zM192 -16l-40 34q109 122 273 316q138 162 263 324l40 -34q-109 -122 -273 -316q-153 -181 -263 -324z" />
    <glyph glyph-name="questiondown" unicode="&#xbf;" horiz-adv-x="478" 
d="M374 517q-31 0 -52.5 22t-21.5 53t21.5 52.5t52.5 21.5t52.5 -21.5t21.5 -52.5t-21.5 -53t-52.5 -22zM229 -12q-87 0 -147 46t-60 131q0 86 61.5 145.5t190.5 75.5l35 77h73l-21 -156q-221 -11 -221 -137q0 -39 27.5 -62t72.5 -23q63 0 78 22q-17 17 -17 42t17.5 43
t43.5 18q27 0 45.5 -19.5t18.5 -51.5q0 -69 -59 -110t-138 -41z" />
    <glyph glyph-name="Agrave" unicode="&#xc0;" horiz-adv-x="702" 
d="M-28 0l24 101h59l268 457h-79l23 100h370l-23 -100h-73l56 -457h67l-24 -101h-245l23 100h74l-13 108h-252l-63 -108h89l-23 -100h-258zM282 302h186l-31 264zM482 708l-114 114q-22 22 -22 50q0 23 15.5 38.5t35.5 15.5q37 0 57 -43l67 -149z" />
    <glyph glyph-name="Aacute" unicode="&#xc1;" horiz-adv-x="702" 
d="M-28 0l24 101h59l268 457h-79l23 100h370l-23 -100h-73l56 -457h67l-24 -101h-245l23 100h74l-13 108h-252l-63 -108h89l-23 -100h-258zM282 302h186l-31 264zM474 723l-31 36l123 139q24 27 54 27q20 0 34 -15t14 -35q0 -35 -36 -58z" />
    <glyph glyph-name="Acircumflex" unicode="&#xc2;" horiz-adv-x="702" 
d="M-28 0l24 101h59l268 457h-79l23 100h370l-23 -100h-73l56 -457h67l-24 -101h-245l23 100h74l-13 108h-252l-63 -108h89l-23 -100h-258zM282 302h186l-31 264zM352 720l-41 54l215 174l128 -179l-53 -46l-96 100z" />
    <glyph glyph-name="Atilde" unicode="&#xc3;" horiz-adv-x="702" 
d="M-28 0l24 101h59l268 457h-79l23 100h370l-23 -100h-73l56 -457h67l-24 -101h-245l23 100h74l-13 108h-252l-63 -108h89l-23 -100h-258zM282 302h186l-31 264zM566 725q-43 0 -87 42q-33 32 -52 32q-20 0 -36.5 -14.5t-35.5 -53.5l-61 25q20 69 58.5 109t80.5 40
q43 0 87 -42q33 -32 52 -32q20 0 36.5 14.5t35.5 53.5l61 -25q-20 -69 -58.5 -109t-80.5 -40z" />
    <glyph glyph-name="Adieresis" unicode="&#xc4;" horiz-adv-x="702" 
d="M-28 0l24 101h59l268 457h-79l23 100h370l-23 -100h-73l56 -457h67l-24 -101h-245l23 100h74l-13 108h-252l-63 -108h89l-23 -100h-258zM282 302h186l-31 264zM598 736q-29 0 -50.5 21t-21.5 51t22 51t52 21q29 0 50.5 -21t21.5 -51t-22 -51t-52 -21zM392 736
q-29 0 -50.5 21t-21.5 51t22 51t52 21q29 0 50.5 -21t21.5 -51t-22 -51t-52 -21z" />
    <glyph glyph-name="Aring" unicode="&#xc5;" horiz-adv-x="702" 
d="M-28 0l24 101h59l268 457h-79l23 100h104q-35 27 -35 83q0 48 41 89t101 41q53 0 84.5 -32.5t31.5 -74.5q0 -70 -61 -106h104l-23 -100h-73l56 -457h67l-24 -101h-245l23 100h74l-13 108h-252l-63 -108h89l-23 -100h-258zM453 679q26 0 43 22t17 51q0 20 -11 34.5
t-29 14.5q-26 0 -43 -22t-17 -51q0 -20 11 -34.5t29 -14.5zM282 302h186l-31 264z" />
    <glyph glyph-name="AE" unicode="&#xc6;" horiz-adv-x="936" 
d="M-8 0l24 101h71l325 456h-81l23 101h639l-46 -189h-107l21 89h-191l-41 -176h196l-22 -96h-196l-43 -186h191l23 89h107l-44 -189h-487l23 101h74l25 107h-202l-76 -108h77l-23 -100h-260zM339 302h159l60 259h-37z" />
    <glyph glyph-name="Ccedilla" unicode="&#xc7;" horiz-adv-x="670" 
d="M286 -200q-67 0 -123 43l20 31q47 -27 97 -27q15 0 26 7.5t11 17.5q0 32 -65 25l-15 25l46 73q-97 19 -157 93.5t-60 188.5q0 161 110.5 277t267.5 116q99 0 167.5 -50.5t68.5 -118.5q0 -35 -22 -60.5t-55 -25.5q-29 0 -49 20.5t-20 48.5t19 47q-10 14 -41 24.5t-71 10.5
q-103 0 -180.5 -82t-77.5 -200q0 -86 47 -139t128 -53q98 0 180 85l70 -68q-105 -121 -259 -121q-4 0 -12 0.5t-12 0.5l-7 -35q44 -6 68.5 -26.5t24.5 -52.5q0 -34 -34.5 -54.5t-90.5 -20.5z" />
    <glyph glyph-name="Egrave" unicode="&#xc8;" horiz-adv-x="571" 
d="M-7 0l23 101h70l106 456h-80l23 101h493l-46 -189h-107l21 89h-191l-41 -176h196l-22 -96h-196l-43 -186h191l23 89h107l-44 -189h-483zM408 708l-114 114q-22 22 -22 50q0 23 15.5 38.5t35.5 15.5q37 0 57 -43l67 -149z" />
    <glyph glyph-name="Eacute" unicode="&#xc9;" horiz-adv-x="571" 
d="M-7 0l23 101h70l106 456h-80l23 101h493l-46 -189h-107l21 89h-191l-41 -176h196l-22 -96h-196l-43 -186h191l23 89h107l-44 -189h-483zM400 723l-31 36l123 139q24 27 54 27q20 0 34 -15t14 -35q0 -35 -36 -58z" />
    <glyph glyph-name="Ecircumflex" unicode="&#xca;" horiz-adv-x="571" 
d="M-7 0l23 101h70l106 456h-80l23 101h493l-46 -189h-107l21 89h-191l-41 -176h196l-22 -96h-196l-43 -186h191l23 89h107l-44 -189h-483zM278 720l-41 54l215 174l128 -179l-53 -46l-96 100z" />
    <glyph glyph-name="Edieresis" unicode="&#xcb;" horiz-adv-x="571" 
d="M-7 0l23 101h70l106 456h-80l23 101h493l-46 -189h-107l21 89h-191l-41 -176h196l-22 -96h-196l-43 -186h191l23 89h107l-44 -189h-483zM524 736q-29 0 -50.5 21t-21.5 51t22 51t52 21q29 0 50.5 -21t21.5 -51t-22 -51t-52 -21zM318 736q-29 0 -50.5 21t-21.5 51t22 51
t52 21q29 0 50.5 -21t21.5 -51t-22 -51t-52 -21z" />
    <glyph glyph-name="Igrave" unicode="&#xcc;" horiz-adv-x="362" 
d="M0 0l23 101h76l106 456h-86l23 101h275l-23 -101h-76l-106 -456h86l-23 -101h-275zM303 708l-114 114q-22 22 -22 50q0 23 15.5 38.5t35.5 15.5q37 0 57 -43l67 -149z" />
    <glyph glyph-name="Iacute" unicode="&#xcd;" horiz-adv-x="362" 
d="M0 0l23 101h76l106 456h-86l23 101h275l-23 -101h-76l-106 -456h86l-23 -101h-275zM295 723l-31 36l123 139q24 27 54 27q20 0 34 -15t14 -35q0 -35 -36 -58z" />
    <glyph glyph-name="Icircumflex" unicode="&#xce;" horiz-adv-x="362" 
d="M0 0l23 101h76l106 456h-86l23 101h275l-23 -101h-76l-106 -456h86l-23 -101h-275zM173 720l-41 54l215 174l128 -179l-53 -46l-96 100z" />
    <glyph glyph-name="Idieresis" unicode="&#xcf;" horiz-adv-x="362" 
d="M0 0l23 101h76l106 456h-86l23 101h275l-23 -101h-76l-106 -456h86l-23 -101h-275zM419 736q-29 0 -50.5 21t-21.5 51t22 51t52 21q29 0 50.5 -21t21.5 -51t-22 -51t-52 -21zM213 736q-29 0 -50.5 21t-21.5 51t22 51t52 21q29 0 50.5 -21t21.5 -51t-22 -51t-52 -21z" />
    <glyph glyph-name="Eth" unicode="&#xd0;" horiz-adv-x="691" 
d="M-7 0l23 101h70l44 190h-83l21 91h83l41 175h-80l23 101h215q168 0 260 -92q74 -74 74 -195q0 -149 -105 -254q-117 -117 -330 -117h-256zM199 101h66q78 0 131.5 20t97.5 64q73 73 73 181q0 81 -50 131q-60 60 -179 60h-33l-41 -175h139l-21 -91h-139z" />
    <glyph glyph-name="Ntilde" unicode="&#xd1;" horiz-adv-x="733" 
d="M524 -2l-243 465l-84 -362h87l-23 -101h-268l23 101h70l106 456h-80l23 101h173l217 -415l73 314h-87l23 101h268l-23 -101h-70l-130 -559h-55zM580 725q-43 0 -87 42q-33 32 -52 32q-20 0 -36.5 -14.5t-35.5 -53.5l-61 25q20 69 58.5 109t80.5 40q43 0 87 -42
q33 -32 52 -32q20 0 36.5 14.5t35.5 53.5l61 -25q-20 -69 -58.5 -109t-80.5 -40z" />
    <glyph glyph-name="Ograve" unicode="&#xd2;" horiz-adv-x="729" 
d="M352 -12q-132 0 -209.5 82t-77.5 213q0 95 46 183.5t131 146t187 57.5q132 0 209.5 -82t77.5 -213q0 -95 -46 -183.5t-131 -146t-187 -57.5zM362 91q66 0 121 42.5t85.5 107.5t30.5 135q0 84 -47.5 137.5t-132.5 53.5q-66 0 -121 -42.5t-85.5 -107.5t-30.5 -135
q0 -84 47.5 -137.5t132.5 -53.5zM484 708l-114 114q-22 22 -22 50q0 23 15.5 38.5t35.5 15.5q37 0 57 -43l67 -149z" />
    <glyph glyph-name="Oacute" unicode="&#xd3;" horiz-adv-x="729" 
d="M352 -12q-132 0 -209.5 82t-77.5 213q0 95 46 183.5t131 146t187 57.5q132 0 209.5 -82t77.5 -213q0 -95 -46 -183.5t-131 -146t-187 -57.5zM362 91q66 0 121 42.5t85.5 107.5t30.5 135q0 84 -47.5 137.5t-132.5 53.5q-66 0 -121 -42.5t-85.5 -107.5t-30.5 -135
q0 -84 47.5 -137.5t132.5 -53.5zM476 723l-31 36l123 139q24 27 54 27q20 0 34 -15t14 -35q0 -35 -36 -58z" />
    <glyph glyph-name="Ocircumflex" unicode="&#xd4;" horiz-adv-x="729" 
d="M352 -12q-132 0 -209.5 82t-77.5 213q0 95 46 183.5t131 146t187 57.5q132 0 209.5 -82t77.5 -213q0 -95 -46 -183.5t-131 -146t-187 -57.5zM362 91q66 0 121 42.5t85.5 107.5t30.5 135q0 84 -47.5 137.5t-132.5 53.5q-66 0 -121 -42.5t-85.5 -107.5t-30.5 -135
q0 -84 47.5 -137.5t132.5 -53.5zM354 720l-41 54l215 174l128 -179l-53 -46l-96 100z" />
    <glyph glyph-name="Otilde" unicode="&#xd5;" horiz-adv-x="729" 
d="M352 -12q-132 0 -209.5 82t-77.5 213q0 95 46 183.5t131 146t187 57.5q132 0 209.5 -82t77.5 -213q0 -95 -46 -183.5t-131 -146t-187 -57.5zM362 91q66 0 121 42.5t85.5 107.5t30.5 135q0 84 -47.5 137.5t-132.5 53.5q-66 0 -121 -42.5t-85.5 -107.5t-30.5 -135
q0 -84 47.5 -137.5t132.5 -53.5zM568 725q-43 0 -87 42q-33 32 -52 32q-20 0 -36.5 -14.5t-35.5 -53.5l-61 25q20 69 58.5 109t80.5 40q43 0 87 -42q33 -32 52 -32q20 0 36.5 14.5t35.5 53.5l61 -25q-20 -69 -58.5 -109t-80.5 -40z" />
    <glyph glyph-name="Odieresis" unicode="&#xd6;" horiz-adv-x="729" 
d="M352 -12q-132 0 -209.5 82t-77.5 213q0 95 46 183.5t131 146t187 57.5q132 0 209.5 -82t77.5 -213q0 -95 -46 -183.5t-131 -146t-187 -57.5zM362 91q66 0 121 42.5t85.5 107.5t30.5 135q0 84 -47.5 137.5t-132.5 53.5q-66 0 -121 -42.5t-85.5 -107.5t-30.5 -135
q0 -84 47.5 -137.5t132.5 -53.5zM600 736q-29 0 -50.5 21t-21.5 51t22 51t52 21q29 0 50.5 -21t21.5 -51t-22 -51t-52 -21zM394 736q-29 0 -50.5 21t-21.5 51t22 51t52 21q29 0 50.5 -21t21.5 -51t-22 -51t-52 -21z" />
    <glyph glyph-name="multiply" unicode="&#xd7;" horiz-adv-x="464" 
d="M190 461l78 -111l125 107l53 -69l-128 -109l82 -115l-74 -58l-79 111l-126 -107l-53 69l128 110l-80 114z" />
    <glyph glyph-name="Oslash" unicode="&#xd8;" horiz-adv-x="729" 
d="M360 -12q-120 0 -199 71l-80 -73l-57 64l84 77q-38 68 -38 159q0 94 45.5 181.5t130 145t185.5 57.5q124 0 202 -75l85 76l57 -65l-89 -81q35 -67 35 -153q0 -95 -46 -183t-130 -144.5t-185 -56.5zM187 282q0 -46 15 -85l351 320q-50 50 -129 50q-66 0 -121 -42.5
t-85.5 -107.5t-30.5 -135zM367 91q66 0 121 42.5t85.5 107.5t30.5 135q0 40 -13 77l-349 -316q48 -46 125 -46z" />
    <glyph glyph-name="Ugrave" unicode="&#xd9;" horiz-adv-x="691" 
d="M315 -12q-98 0 -155 53.5t-57 145.5q0 39 14 97l63 273h-77l23 101h265l-23 -101h-75l-64 -278q-12 -50 -12 -81q0 -107 115 -107q121 0 154 145l74 321h-87l23 101h265l-23 -101h-68l-76 -330q-29 -121 -94 -180t-185 -59zM467 708l-114 114q-22 22 -22 50
q0 23 15.5 38.5t35.5 15.5q37 0 57 -43l67 -149z" />
    <glyph glyph-name="Uacute" unicode="&#xda;" horiz-adv-x="691" 
d="M315 -12q-98 0 -155 53.5t-57 145.5q0 39 14 97l63 273h-77l23 101h265l-23 -101h-75l-64 -278q-12 -50 -12 -81q0 -107 115 -107q121 0 154 145l74 321h-87l23 101h265l-23 -101h-68l-76 -330q-29 -121 -94 -180t-185 -59zM460 723l-31 36l123 139q24 27 54 27
q20 0 34 -15t14 -35q0 -35 -36 -58z" />
    <glyph glyph-name="Ucircumflex" unicode="&#xdb;" horiz-adv-x="691" 
d="M315 -12q-98 0 -155 53.5t-57 145.5q0 39 14 97l63 273h-77l23 101h265l-23 -101h-75l-64 -278q-12 -50 -12 -81q0 -107 115 -107q121 0 154 145l74 321h-87l23 101h265l-23 -101h-68l-76 -330q-29 -121 -94 -180t-185 -59zM337 720l-41 54l215 174l128 -179l-53 -46
l-96 100z" />
    <glyph glyph-name="Udieresis" unicode="&#xdc;" horiz-adv-x="691" 
d="M315 -12q-98 0 -155 53.5t-57 145.5q0 39 14 97l63 273h-77l23 101h265l-23 -101h-75l-64 -278q-12 -50 -12 -81q0 -107 115 -107q121 0 154 145l74 321h-87l23 101h265l-23 -101h-68l-76 -330q-29 -121 -94 -180t-185 -59zM584 736q-29 0 -50.5 21t-21.5 51t22 51t52 21
q29 0 50.5 -21t21.5 -51t-22 -51t-52 -21zM378 736q-29 0 -50.5 21t-21.5 51t22 51t52 21q29 0 50.5 -21t21.5 -51t-22 -51t-52 -21z" />
    <glyph glyph-name="Yacute" unicode="&#xdd;" horiz-adv-x="649" 
d="M127 0l23 101h76l36 154l-114 302h-63l23 101h249l-23 -101h-69l74 -222l176 222h-70l23 101h264l-23 -101h-59l-280 -323l-31 -133h86l-23 -101h-275zM423 723l-31 36l123 139q24 27 54 27q20 0 34 -15t14 -35q0 -35 -36 -58z" />
    <glyph glyph-name="Thorn" unicode="&#xde;" horiz-adv-x="575" 
d="M-7 0l23 101h70l106 456h-80l23 101h271l-23 -98h-77l-13 -56h88q101 0 153 -54q39 -41 39 -102q0 -88 -65 -138t-181 -50q-60 0 -114 4l-15 -66h87l-22 -98h-270zM331 253q64 0 95.5 23.5t31.5 63.5q0 30 -19 48q-26 24 -85 24h-83l-36 -155q58 -4 96 -4z" />
    <glyph glyph-name="germandbls" unicode="&#xdf;" horiz-adv-x="584" 
d="M373 -6q-60 0 -97.5 30t-37.5 69q0 26 17.5 43t40.5 17q22 0 38.5 -16.5t16.5 -38.5q0 -10 -5 -22q8 -2 25 -2q37 0 56.5 18t19.5 49q0 20 -13.5 37.5t-46.5 47.5q-24 22 -37.5 37t-26.5 41.5t-13 55.5q0 27 14 50.5t27.5 35t40.5 31.5t39 30t24 29t12 41q0 28 -23 48
t-59 20q-44 0 -75 -30t-44 -87l-121 -528h-108l79 346h-77l24 92h74l23 99q19 91 75.5 147t154.5 56q85 0 134.5 -45.5t49.5 -119.5q0 -85 -95 -148q-63 -41 -63 -67q0 -16 12.5 -32.5t45.5 -45.5q24 -21 38.5 -38t27.5 -45t13 -59q0 -61 -46.5 -103.5t-133.5 -42.5z" />
    <glyph glyph-name="agrave" unicode="&#xe0;" horiz-adv-x="579" 
d="M176 -8q-62 0 -101.5 47t-39.5 123q0 114 67 199t161 85q41 0 75 -29t48 -69l30 90h102l-75 -298q-8 -30 -8 -47q0 -27 22 -27q30 0 56 72l44 -17q-38 -129 -134 -129q-42 0 -66 27t-24 72q-66 -99 -157 -99zM228 85q55 0 97 50.5t42 120.5q0 44 -21.5 68.5t-64.5 24.5
q-54 0 -93 -51.5t-39 -119.5q0 -41 20.5 -67t58.5 -26zM339 483l-114 114q-22 22 -22 50q0 23 15.5 38.5t35.5 15.5q37 0 57 -43l67 -149z" />
    <glyph glyph-name="aacute" unicode="&#xe1;" horiz-adv-x="579" 
d="M176 -8q-62 0 -101.5 47t-39.5 123q0 114 67 199t161 85q41 0 75 -29t48 -69l30 90h102l-75 -298q-8 -30 -8 -47q0 -27 22 -27q30 0 56 72l44 -17q-38 -129 -134 -129q-42 0 -66 27t-24 72q-66 -99 -157 -99zM228 85q55 0 97 50.5t42 120.5q0 44 -21.5 68.5t-64.5 24.5
q-54 0 -93 -51.5t-39 -119.5q0 -41 20.5 -67t58.5 -26zM332 498l-31 36l123 139q24 27 54 27q20 0 34 -15t14 -35q0 -35 -36 -58z" />
    <glyph glyph-name="acircumflex" unicode="&#xe2;" horiz-adv-x="579" 
d="M176 -8q-62 0 -101.5 47t-39.5 123q0 114 67 199t161 85q41 0 75 -29t48 -69l30 90h102l-75 -298q-8 -30 -8 -47q0 -27 22 -27q30 0 56 72l44 -17q-38 -129 -134 -129q-42 0 -66 27t-24 72q-66 -99 -157 -99zM228 85q55 0 97 50.5t42 120.5q0 44 -21.5 68.5t-64.5 24.5
q-54 0 -93 -51.5t-39 -119.5q0 -41 20.5 -67t58.5 -26zM210 495l-41 54l215 174l128 -179l-53 -46l-96 100z" />
    <glyph glyph-name="atilde" unicode="&#xe3;" horiz-adv-x="579" 
d="M176 -8q-62 0 -101.5 47t-39.5 123q0 114 67 199t161 85q41 0 75 -29t48 -69l30 90h102l-75 -298q-8 -30 -8 -47q0 -27 22 -27q30 0 56 72l44 -17q-38 -129 -134 -129q-42 0 -66 27t-24 72q-66 -99 -157 -99zM228 85q55 0 97 50.5t42 120.5q0 44 -21.5 68.5t-64.5 24.5
q-54 0 -93 -51.5t-39 -119.5q0 -41 20.5 -67t58.5 -26zM424 500q-43 0 -87 42q-33 32 -52 32q-20 0 -36.5 -14.5t-35.5 -53.5l-61 25q20 69 58.5 109t80.5 40q43 0 87 -42q33 -32 52 -32q20 0 36.5 14.5t35.5 53.5l61 -25q-20 -69 -58.5 -109t-80.5 -40z" />
    <glyph glyph-name="adieresis" unicode="&#xe4;" horiz-adv-x="579" 
d="M176 -8q-62 0 -101.5 47t-39.5 123q0 114 67 199t161 85q41 0 75 -29t48 -69l30 90h102l-75 -298q-8 -30 -8 -47q0 -27 22 -27q30 0 56 72l44 -17q-38 -129 -134 -129q-42 0 -66 27t-24 72q-66 -99 -157 -99zM228 85q55 0 97 50.5t42 120.5q0 44 -21.5 68.5t-64.5 24.5
q-54 0 -93 -51.5t-39 -119.5q0 -41 20.5 -67t58.5 -26zM456 511q-29 0 -50.5 21t-21.5 51t22 51t52 21q29 0 50.5 -21t21.5 -51t-22 -51t-52 -21zM250 511q-29 0 -50.5 21t-21.5 51t22 51t52 21q29 0 50.5 -21t21.5 -51t-22 -51t-52 -21z" />
    <glyph glyph-name="aring" unicode="&#xe5;" horiz-adv-x="579" 
d="M176 -8q-62 0 -101.5 47t-39.5 123q0 114 67 199t161 85q41 0 75 -29t48 -69l30 90h102l-75 -298q-8 -30 -8 -47q0 -27 22 -27q30 0 56 72l44 -17q-38 -129 -134 -129q-42 0 -66 27t-24 72q-66 -99 -157 -99zM352 502q-53 0 -84.5 33t-31.5 81q0 59 42.5 103.5
t103.5 44.5q53 0 84.5 -33t31.5 -81q0 -59 -42.5 -103.5t-103.5 -44.5zM228 85q55 0 97 50.5t42 120.5q0 44 -21.5 68.5t-64.5 24.5q-54 0 -93 -51.5t-39 -119.5q0 -41 20.5 -67t58.5 -26zM357 572q26 0 43 22t17 51q0 20 -11 34.5t-29 14.5q-26 0 -43 -22t-17 -51
q0 -20 11 -34.5t29 -14.5z" />
    <glyph glyph-name="ae" unicode="&#xe6;" horiz-adv-x="809" 
d="M764 182h-301v-7q0 -39 32 -65.5t91 -26.5q71 0 145 39l-21 -100q-63 -30 -139 -30q-68 0 -115.5 31.5t-64.5 88.5q-34 -56 -92 -88t-125 -32q-64 0 -106.5 32t-42.5 81q0 74 60 114.5t158 40.5h114q-8 49 -42 79t-78 30q-8 0 -15 -1l-8 -2q2 -8 2 -14q0 -23 -16.5 -39.5
t-39.5 -16.5q-28 0 -43.5 17.5t-15.5 44.5q0 46 53 72q34 16 82 16q70 0 116.5 -32t62.5 -90q22 52 73.5 87t109.5 35q81 0 131.5 -44.5t50.5 -124.5q0 -44 -16 -95zM186 82q52 0 99.5 28t64.5 76h-77q-146 0 -146 -63q0 -41 59 -41zM594 356q-41 0 -72 -26t-46 -72h195
q4 15 4 30q0 68 -81 68z" />
    <glyph glyph-name="ccedilla" unicode="&#xe7;" horiz-adv-x="488" 
d="M178 -200q-67 0 -123 43l20 31q47 -27 97 -27q15 0 26 7.5t11 17.5q0 32 -65 25l-15 25l50 79q-66 19 -105.5 68.5t-39.5 121.5q0 106 77 180.5t184 74.5q68 0 116 -36.5t48 -93.5q0 -33 -18 -56t-49 -23q-26 0 -44.5 18.5t-18.5 44.5q0 22 15 42q-19 13 -52 13
q-56 0 -101.5 -40t-45.5 -116q0 -54 32.5 -85t82.5 -31q77 0 148 49l-1 -97q-63 -43 -154 -43q-13 0 -35 2l-8 -40q44 -6 68.5 -26.5t24.5 -52.5q0 -34 -34.5 -54.5t-90.5 -20.5z" />
    <glyph glyph-name="egrave" unicode="&#xe8;" horiz-adv-x="490" 
d="M442 182h-301v-7q0 -39 32 -65.5t91 -26.5q71 0 145 39l-21 -100q-63 -30 -149 -30q-85 0 -145.5 50.5t-60.5 137.5q0 111 69 188.5t168 77.5q85 0 136.5 -44.5t51.5 -124.5q0 -44 -16 -95zM313 483l-114 114q-22 22 -22 50q0 23 15.5 38.5t35.5 15.5q37 0 57 -43
l67 -149zM272 356q-41 0 -72 -26t-47 -72h196q4 15 4 30q0 68 -81 68z" />
    <glyph glyph-name="eacute" unicode="&#xe9;" horiz-adv-x="490" 
d="M442 182h-301v-7q0 -39 32 -65.5t91 -26.5q71 0 145 39l-21 -100q-63 -30 -149 -30q-85 0 -145.5 50.5t-60.5 137.5q0 111 69 188.5t168 77.5q85 0 136.5 -44.5t51.5 -124.5q0 -44 -16 -95zM306 498l-31 36l123 139q24 27 54 27q20 0 34 -15t14 -35q0 -35 -36 -58z
M272 356q-41 0 -72 -26t-47 -72h196q4 15 4 30q0 68 -81 68z" />
    <glyph glyph-name="ecircumflex" unicode="&#xea;" horiz-adv-x="490" 
d="M442 182h-301v-7q0 -39 32 -65.5t91 -26.5q71 0 145 39l-21 -100q-63 -30 -149 -30q-85 0 -145.5 50.5t-60.5 137.5q0 111 69 188.5t168 77.5q85 0 136.5 -44.5t51.5 -124.5q0 -44 -16 -95zM184 495l-41 54l215 174l128 -179l-53 -46l-96 100zM272 356q-41 0 -72 -26
t-47 -72h196q4 15 4 30q0 68 -81 68z" />
    <glyph glyph-name="edieresis" unicode="&#xeb;" horiz-adv-x="490" 
d="M442 182h-301v-7q0 -39 32 -65.5t91 -26.5q71 0 145 39l-21 -100q-63 -30 -149 -30q-85 0 -145.5 50.5t-60.5 137.5q0 111 69 188.5t168 77.5q85 0 136.5 -44.5t51.5 -124.5q0 -44 -16 -95zM224 511q-29 0 -50.5 21t-21.5 51t22 51t52 21q29 0 50.5 -21t21.5 -51t-22 -51
t-52 -21zM430 511q-29 0 -50.5 21t-21.5 51t22 51t52 21q29 0 50.5 -21t21.5 -51t-22 -51t-52 -21zM272 356q-41 0 -72 -26t-47 -72h196q4 15 4 30q0 68 -81 68z" />
    <glyph glyph-name="igrave" unicode="&#xec;" horiz-adv-x="323" 
d="M164 -8q-50 0 -75 26t-25 72q0 24 6 49l51 207h-79l24 92h190l-75 -298q-7 -27 -7 -46q0 -28 24 -28q33 0 59 72l44 -17q-21 -72 -55.5 -100.5t-81.5 -28.5zM212 483l-114 114q-22 22 -22 50q0 23 15.5 38.5t35.5 15.5q37 0 57 -43l67 -149z" />
    <glyph glyph-name="iacute" unicode="&#xed;" horiz-adv-x="323" 
d="M164 -8q-50 0 -75 26t-25 72q0 24 6 49l51 207h-79l24 92h190l-75 -298q-7 -27 -7 -46q0 -28 24 -28q33 0 59 72l44 -17q-21 -72 -55.5 -100.5t-81.5 -28.5zM205 498l-31 36l123 139q24 27 54 27q20 0 34 -15t14 -35q0 -35 -36 -58z" />
    <glyph glyph-name="icircumflex" unicode="&#xee;" horiz-adv-x="323" 
d="M164 -8q-50 0 -75 26t-25 72q0 24 6 49l51 207h-79l24 92h190l-75 -298q-7 -27 -7 -46q0 -28 24 -28q33 0 59 72l44 -17q-21 -72 -55.5 -100.5t-81.5 -28.5zM82 495l-41 54l215 174l128 -179l-53 -46l-96 100z" />
    <glyph glyph-name="idieresis" unicode="&#xef;" horiz-adv-x="323" 
d="M164 -8q-50 0 -75 26t-25 72q0 24 6 49l51 207h-79l24 92h190l-75 -298q-7 -27 -7 -46q0 -28 24 -28q33 0 59 72l44 -17q-21 -72 -55.5 -100.5t-81.5 -28.5zM329 511q-29 0 -50.5 21t-21.5 51t22 51t52 21q29 0 50.5 -21t21.5 -51t-22 -51t-52 -21zM123 511
q-29 0 -50.5 21t-21.5 51t22 51t52 21q29 0 50.5 -21t21.5 -51t-22 -51t-52 -21z" />
    <glyph glyph-name="eth" unicode="&#xf0;" horiz-adv-x="555" 
d="M241 -8q-91 0 -149.5 55.5t-58.5 143.5q0 89 69.5 161.5t159.5 72.5q112 0 150 -99q2 26 2 42q0 92 -38 170l-82 -72l-53 57l91 80q-31 35 -63 43q-18 -44 -61 -44q-26 0 -45 19t-19 45q0 29 23 51.5t70 22.5q89 0 163 -77l87 77l53 -57l-92 -81q62 -105 62 -261
q0 -185 -95 -280q-69 -69 -174 -69zM244 82q56 0 95 36q48 45 48 104q0 51 -29 81t-76 30q-61 0 -101.5 -43.5t-40.5 -96.5q0 -51 28.5 -81t75.5 -30z" />
    <glyph glyph-name="ntilde" unicode="&#xf1;" horiz-adv-x="573" 
d="M424 -8q-50 0 -76 26.5t-26 70.5q0 26 7 50l33 118q5 16 5 36q0 28 -16 44.5t-44 16.5q-70 0 -94 -98l-64 -256h-112l87 346h-80l24 92h171l-22 -101q24 45 65.5 77t83.5 32q50 0 82.5 -34.5t32.5 -96.5q0 -36 -11 -73l-32 -115q-5 -20 -5 -31q0 -30 23 -30q30 0 56 72
l44 -17q-37 -129 -132 -129zM440 500q-43 0 -87 42q-33 32 -52 32q-20 0 -36.5 -14.5t-35.5 -53.5l-61 25q20 69 58.5 109t80.5 40q43 0 87 -42q33 -32 52 -32q20 0 36.5 14.5t35.5 53.5l61 -25q-20 -69 -58.5 -109t-80.5 -40z" />
    <glyph glyph-name="ograve" unicode="&#xf2;" horiz-adv-x="522" 
d="M240 -8q-95 0 -150.5 58t-55.5 141q0 101 71 178t177 77q95 0 150.5 -58t55.5 -141q0 -101 -71 -178t-177 -77zM244 83q55 0 94 47t39 117q0 51 -28 79.5t-71 28.5q-55 0 -94 -47t-39 -117q0 -51 28 -79.5t71 -28.5zM329 483l-114 114q-22 22 -22 50q0 23 15.5 38.5
t35.5 15.5q37 0 57 -43l67 -149z" />
    <glyph glyph-name="oacute" unicode="&#xf3;" horiz-adv-x="522" 
d="M240 -8q-95 0 -150.5 58t-55.5 141q0 101 71 178t177 77q95 0 150.5 -58t55.5 -141q0 -101 -71 -178t-177 -77zM244 83q55 0 94 47t39 117q0 51 -28 79.5t-71 28.5q-55 0 -94 -47t-39 -117q0 -51 28 -79.5t71 -28.5zM322 498l-31 36l123 139q24 27 54 27q20 0 34 -15
t14 -35q0 -35 -36 -58z" />
    <glyph glyph-name="ocircumflex" unicode="&#xf4;" horiz-adv-x="522" 
d="M240 -8q-95 0 -150.5 58t-55.5 141q0 101 71 178t177 77q95 0 150.5 -58t55.5 -141q0 -101 -71 -178t-177 -77zM244 83q55 0 94 47t39 117q0 51 -28 79.5t-71 28.5q-55 0 -94 -47t-39 -117q0 -51 28 -79.5t71 -28.5zM200 495l-41 54l215 174l128 -179l-53 -46l-96 100z
" />
    <glyph glyph-name="otilde" unicode="&#xf5;" horiz-adv-x="522" 
d="M240 -8q-95 0 -150.5 58t-55.5 141q0 101 71 178t177 77q95 0 150.5 -58t55.5 -141q0 -101 -71 -178t-177 -77zM244 83q55 0 94 47t39 117q0 51 -28 79.5t-71 28.5q-55 0 -94 -47t-39 -117q0 -51 28 -79.5t71 -28.5zM414 500q-43 0 -87 42q-33 32 -52 32
q-20 0 -36.5 -14.5t-35.5 -53.5l-61 25q20 69 58.5 109t80.5 40q43 0 87 -42q33 -32 52 -32q20 0 36.5 14.5t35.5 53.5l61 -25q-20 -69 -58.5 -109t-80.5 -40z" />
    <glyph glyph-name="odieresis" unicode="&#xf6;" horiz-adv-x="522" 
d="M240 -8q-95 0 -150.5 58t-55.5 141q0 101 71 178t177 77q95 0 150.5 -58t55.5 -141q0 -101 -71 -178t-177 -77zM244 83q55 0 94 47t39 117q0 51 -28 79.5t-71 28.5q-55 0 -94 -47t-39 -117q0 -51 28 -79.5t71 -28.5zM446 511q-29 0 -50.5 21t-21.5 51t22 51t52 21
q29 0 50.5 -21t21.5 -51t-22 -51t-52 -21zM240 511q-29 0 -50.5 21t-21.5 51t22 51t52 21q29 0 50.5 -21t21.5 -51t-22 -51t-52 -21z" />
    <glyph glyph-name="divide" unicode="&#xf7;" horiz-adv-x="464" 
d="M61 237l22 92h360l-22 -92h-360zM287 369q-26 0 -45.5 19t-19.5 46t20 46t47 19q26 0 45.5 -19t19.5 -46t-20 -46t-47 -19zM218 67q-26 0 -45.5 19t-19.5 46t20 46t47 19q26 0 45.5 -19t19.5 -46t-20 -46t-47 -19z" />
    <glyph glyph-name="oslash" unicode="&#xf8;" horiz-adv-x="546" 
d="M252 -8q-72 0 -123 34l-71 -69l-54 55l72 68q-32 49 -32 111q0 101 72 178t178 77q77 0 130 -40l77 74l54 -55l-80 -76q27 -47 27 -102q0 -101 -72 -178t-178 -77zM155 191q0 -24 6 -42l193 185q-27 21 -64 21q-56 0 -95.5 -47t-39.5 -117zM256 83q56 0 95.5 47t39.5 117
q0 17 -3 30l-188 -179q24 -15 56 -15z" />
    <glyph glyph-name="ugrave" unicode="&#xf9;" horiz-adv-x="574" 
d="M67 438h190l-63 -253q-6 -28 -6 -39q0 -62 54 -62q39 0 62 24t35 74l64 256h112l-75 -298q-8 -30 -8 -47q0 -27 22 -27q30 0 56 72l44 -17q-38 -129 -134 -129q-42 0 -66 26t-25 71q-27 -45 -66 -71t-80 -26q-45 0 -77 33t-32 88q0 35 11 82l37 151h-79zM345 483
l-114 114q-22 22 -22 50q0 23 15.5 38.5t35.5 15.5q37 0 57 -43l67 -149z" />
    <glyph glyph-name="uacute" unicode="&#xfa;" horiz-adv-x="574" 
d="M67 438h190l-63 -253q-6 -28 -6 -39q0 -62 54 -62q39 0 62 24t35 74l64 256h112l-75 -298q-8 -30 -8 -47q0 -27 22 -27q30 0 56 72l44 -17q-38 -129 -134 -129q-42 0 -66 26t-25 71q-27 -45 -66 -71t-80 -26q-45 0 -77 33t-32 88q0 35 11 82l37 151h-79zM338 498l-31 36
l123 139q24 27 54 27q20 0 34 -15t14 -35q0 -35 -36 -58z" />
    <glyph glyph-name="ucircumflex" unicode="&#xfb;" horiz-adv-x="574" 
d="M67 438h190l-63 -253q-6 -28 -6 -39q0 -62 54 -62q39 0 62 24t35 74l64 256h112l-75 -298q-8 -30 -8 -47q0 -27 22 -27q30 0 56 72l44 -17q-38 -129 -134 -129q-42 0 -66 26t-25 71q-27 -45 -66 -71t-80 -26q-45 0 -77 33t-32 88q0 35 11 82l37 151h-79zM215 495l-41 54
l215 174l128 -179l-53 -46l-96 100z" />
    <glyph glyph-name="udieresis" unicode="&#xfc;" horiz-adv-x="574" 
d="M67 438h190l-63 -253q-6 -28 -6 -39q0 -62 54 -62q39 0 62 24t35 74l64 256h112l-75 -298q-8 -30 -8 -47q0 -27 22 -27q30 0 56 72l44 -17q-38 -129 -134 -129q-42 0 -66 26t-25 71q-27 -45 -66 -71t-80 -26q-45 0 -77 33t-32 88q0 35 11 82l37 151h-79zM256 511
q-29 0 -50.5 21t-21.5 51t22 51t52 21q29 0 50.5 -21t21.5 -51t-22 -51t-52 -21zM462 511q-29 0 -50.5 21t-21.5 51t22 51t52 21q29 0 50.5 -21t21.5 -51t-22 -51t-52 -21z" />
    <glyph glyph-name="yacute" unicode="&#xfd;" horiz-adv-x="501" 
d="M-7 -200q-38 0 -61.5 21.5t-23.5 50.5q0 28 18.5 45.5t44.5 17.5q19 0 35 -11.5t22 -29.5q17 2 48 31.5t92 101.5l-66 319h-74l24 92h143l52 -327q109 143 126 203q-43 18 -43 64q0 29 20 48.5t49 19.5q37 0 58 -24.5t21 -66.5q0 -101 -188 -329q-81 -99 -137.5 -149.5
t-88 -63.5t-71.5 -13zM295 498l-31 36l123 139q24 27 54 27q20 0 34 -15t14 -35q0 -35 -36 -58z" />
    <glyph glyph-name="thorn" unicode="&#xfe;" horiz-adv-x="537" 
d="M-97 -196l24 90h63l172 746h-82l24 92h187l-85 -371q28 37 66 61t78 24q74 0 112.5 -46.5t38.5 -125.5q0 -115 -67.5 -198.5t-165.5 -83.5q-45 0 -79 28t-46 65l-44 -191h78l-24 -90h-250zM250 89q56 0 96.5 51t40.5 119q0 41 -22 67.5t-62 26.5q-57 0 -99.5 -51
t-42.5 -121q0 -44 22.5 -68t66.5 -24z" />
    <glyph glyph-name="ydieresis" unicode="&#xff;" horiz-adv-x="501" 
d="M-7 -200q-38 0 -61.5 21.5t-23.5 50.5q0 28 18.5 45.5t44.5 17.5q19 0 35 -11.5t22 -29.5q17 2 48 31.5t92 101.5l-66 319h-74l24 92h143l52 -327q109 143 126 203q-43 18 -43 64q0 29 20 48.5t49 19.5q37 0 58 -24.5t21 -66.5q0 -101 -188 -329q-81 -99 -137.5 -149.5
t-88 -63.5t-71.5 -13zM213 511q-29 0 -50.5 21t-21.5 51t22 51t52 21q29 0 50.5 -21t21.5 -51t-22 -51t-52 -21zM419 511q-29 0 -50.5 21t-21.5 51t22 51t52 21q29 0 50.5 -21t21.5 -51t-22 -51t-52 -21z" />
    <glyph glyph-name="Amacron" unicode="&#x100;" horiz-adv-x="702" 
d="M-28 0l24 101h59l268 457h-79l23 100h370l-23 -100h-73l56 -457h67l-24 -101h-245l23 100h74l-13 108h-252l-63 -108h89l-23 -100h-258zM282 302h186l-31 264zM319 750l20 87h330l-20 -87h-330z" />
    <glyph glyph-name="amacron" unicode="&#x101;" horiz-adv-x="579" 
d="M176 -8q-62 0 -101.5 47t-39.5 123q0 114 67 199t161 85q41 0 75 -29t48 -69l30 90h102l-75 -298q-8 -30 -8 -47q0 -27 22 -27q30 0 56 72l44 -17q-38 -129 -134 -129q-42 0 -66 27t-24 72q-66 -99 -157 -99zM228 85q55 0 97 50.5t42 120.5q0 44 -21.5 68.5t-64.5 24.5
q-54 0 -93 -51.5t-39 -119.5q0 -41 20.5 -67t58.5 -26zM176 525l20 87h330l-20 -87h-330z" />
    <glyph glyph-name="Abreve" unicode="&#x102;" horiz-adv-x="702" 
d="M-28 0l24 101h59l268 457h-79l23 100h370l-23 -100h-73l56 -457h67l-24 -101h-245l23 100h74l-13 108h-252l-63 -108h89l-23 -100h-258zM282 302h186l-31 264zM483 727q-65 0 -104.5 46.5t-41.5 135.5l67 21q14 -56 36 -82t60 -26q34 0 65 24t68 82l59 -26
q-36 -88 -93 -131.5t-116 -43.5z" />
    <glyph glyph-name="abreve" unicode="&#x103;" horiz-adv-x="579" 
d="M176 -8q-62 0 -101.5 47t-39.5 123q0 114 67 199t161 85q41 0 75 -29t48 -69l30 90h102l-75 -298q-8 -30 -8 -47q0 -27 22 -27q30 0 56 72l44 -17q-38 -129 -134 -129q-42 0 -66 27t-24 72q-66 -99 -157 -99zM228 85q55 0 97 50.5t42 120.5q0 44 -21.5 68.5t-64.5 24.5
q-54 0 -93 -51.5t-39 -119.5q0 -41 20.5 -67t58.5 -26zM341 502q-65 0 -104.5 46.5t-41.5 135.5l67 21q14 -56 36 -82t60 -26q34 0 65 24t68 82l59 -26q-36 -88 -93 -131.5t-116 -43.5z" />
    <glyph glyph-name="Aogonek" unicode="&#x104;" horiz-adv-x="702" 
d="M-28 0l24 101h59l268 457h-79l23 100h370l-23 -100h-73l56 -457h67l-24 -101h-80q-60 -49 -60 -84q0 -32 39 -32q28 0 56 8l-17 -67q-34 -26 -87 -26q-36 0 -62.5 22t-26.5 61q0 61 70 118h-77l23 100h74l-13 108h-252l-63 -108h89l-23 -100h-258zM282 302h186l-31 264z
" />
    <glyph glyph-name="aogonek" unicode="&#x105;" horiz-adv-x="579" 
d="M342 43q-9 20 -9 48q-66 -99 -157 -99q-62 0 -101.5 47t-39.5 123q0 114 67 199t161 85q41 0 75 -29t48 -69l30 90h102l-75 -298q-8 -30 -8 -47q0 -26 20 -26q32 0 58 71l44 -17q-13 -42 -28.5 -66t-42.5 -47q-9 -8 -28 -23t-27.5 -23t-16.5 -20.5t-8 -25.5q0 -32 39 -32
q28 0 56 8l-17 -67q-34 -26 -87 -26q-36 0 -62.5 22t-26.5 61q0 67 76 118q-31 12 -42 43zM228 85q55 0 97 50.5t42 120.5q0 44 -21.5 68.5t-64.5 24.5q-54 0 -93 -51.5t-39 -119.5q0 -41 20.5 -67t58.5 -26z" />
    <glyph glyph-name="Cacute" unicode="&#x106;" horiz-adv-x="670" 
d="M349 -12q-121 0 -202 77.5t-81 211.5q0 161 110.5 277t267.5 116q99 0 167.5 -50.5t68.5 -118.5q0 -35 -22 -60.5t-55 -25.5q-29 0 -49 20.5t-20 48.5t19 47q-10 14 -41 24.5t-71 10.5q-103 0 -180.5 -82t-77.5 -200q0 -86 47 -139t128 -53q98 0 180 85l70 -68
q-105 -121 -259 -121zM459 723l-31 36l123 139q24 27 54 27q20 0 34 -15t14 -35q0 -35 -36 -58z" />
    <glyph glyph-name="cacute" unicode="&#x107;" horiz-adv-x="488" 
d="M253 -8q-95 0 -157 54t-62 145q0 106 77 180.5t184 74.5q68 0 116 -36.5t48 -93.5q0 -33 -18 -56t-49 -23q-26 0 -44.5 18.5t-18.5 44.5q0 22 15 42q-19 13 -52 13q-56 0 -101.5 -40t-45.5 -116q0 -54 32.5 -85t82.5 -31q77 0 148 49l-1 -97q-63 -43 -154 -43zM317 498
l-31 36l123 139q24 27 54 27q20 0 34 -15t14 -35q0 -35 -36 -58z" />
    <glyph glyph-name="Cdotaccent" unicode="&#x10a;" horiz-adv-x="670" 
d="M349 -12q-121 0 -202 77.5t-81 211.5q0 161 110.5 277t267.5 116q99 0 167.5 -50.5t68.5 -118.5q0 -35 -22 -60.5t-55 -25.5q-29 0 -49 20.5t-20 48.5t19 47q-10 14 -41 24.5t-71 10.5q-103 0 -180.5 -82t-77.5 -200q0 -86 47 -139t128 -53q98 0 180 85l70 -68
q-105 -121 -259 -121zM482 736q-29 0 -50.5 21t-21.5 51t22 51t52 21q29 0 50.5 -21t21.5 -51t-22 -51t-52 -21z" />
    <glyph glyph-name="cdotaccent" unicode="&#x10b;" horiz-adv-x="488" 
d="M253 -8q-95 0 -157 54t-62 145q0 106 77 180.5t184 74.5q68 0 116 -36.5t48 -93.5q0 -33 -18 -56t-49 -23q-26 0 -44.5 18.5t-18.5 44.5q0 22 15 42q-19 13 -52 13q-56 0 -101.5 -40t-45.5 -116q0 -54 32.5 -85t82.5 -31q77 0 148 49l-1 -97q-63 -43 -154 -43zM339 511
q-29 0 -50.5 21t-21.5 51t22 51t52 21q29 0 50.5 -21t21.5 -51t-22 -51t-52 -21z" />
    <glyph glyph-name="Ccaron" unicode="&#x10c;" horiz-adv-x="670" 
d="M349 -12q-121 0 -202 77.5t-81 211.5q0 161 110.5 277t267.5 116q99 0 167.5 -50.5t68.5 -118.5q0 -35 -22 -60.5t-55 -25.5q-29 0 -49 20.5t-20 48.5t19 47q-10 14 -41 24.5t-71 10.5q-103 0 -180.5 -82t-77.5 -200q0 -86 47 -139t128 -53q98 0 180 85l70 -68
q-105 -121 -259 -121zM462 711l-128 179l53 46l95 -100l154 103l41 -54z" />
    <glyph glyph-name="ccaron" unicode="&#x10d;" horiz-adv-x="488" 
d="M253 -8q-95 0 -157 54t-62 145q0 106 77 180.5t184 74.5q68 0 116 -36.5t48 -93.5q0 -33 -18 -56t-49 -23q-26 0 -44.5 18.5t-18.5 44.5q0 22 15 42q-19 13 -52 13q-56 0 -101.5 -40t-45.5 -116q0 -54 32.5 -85t82.5 -31q77 0 148 49l-1 -97q-63 -43 -154 -43zM319 486
l-128 179l53 46l95 -100l154 103l41 -54z" />
    <glyph glyph-name="Dcaron" unicode="&#x10e;" horiz-adv-x="691" 
d="M-7 0l23 101h70l106 456h-80l23 101h215q168 0 260 -92q74 -74 74 -195q0 -149 -105 -254q-117 -117 -330 -117h-256zM199 101h66q78 0 131.5 20t97.5 64q73 73 73 181q0 81 -50 131q-60 60 -179 60h-33zM427 711l-128 179l53 46l95 -100l154 103l41 -54z" />
    <glyph glyph-name="dcaron" unicode="&#x10f;" horiz-adv-x="578" 
d="M35 162q0 114 67 199t161 85q41 0 73.5 -28t47.5 -66l67 288h-81l24 92h188l-138 -592q-8 -34 -8 -47q0 -27 22 -27q30 0 56 72l44 -17q-38 -129 -135 -129q-42 0 -66 27t-24 72q-66 -99 -157 -99q-62 0 -101.5 47t-39.5 123zM228 85q55 0 97 50.5t42 120.5
q0 44 -21.5 68.5t-64.5 24.5q-54 0 -93 -51.5t-39 -119.5q0 -41 20.5 -67t58.5 -26zM592 478l-29 25q47 55 60 109q3 13 4.5 49.5t8.5 59.5q15 46 61 46q26 0 41.5 -17t15.5 -44q0 -32 -15 -60.5t-45 -66.5q-15 -19 -30.5 -34.5t-42 -39.5t-29.5 -27z" />
    <glyph glyph-name="Dcroat" unicode="&#x110;" horiz-adv-x="691" 
d="M-7 0l23 101h70l44 190h-83l21 91h83l41 175h-80l23 101h215q168 0 260 -92q74 -74 74 -195q0 -149 -105 -254q-117 -117 -330 -117h-256zM199 101h66q78 0 131.5 20t97.5 64q73 73 73 181q0 81 -50 131q-60 60 -179 60h-33l-41 -175h139l-21 -91h-139z" />
    <glyph glyph-name="dcroat" unicode="&#x111;" horiz-adv-x="578" 
d="M273 493l21 92h144l13 55h-81l24 92h188l-34 -147h75l-21 -92h-76l-82 -353q-8 -34 -8 -47q0 -27 22 -27q30 0 56 72l44 -17q-38 -129 -135 -129q-42 0 -66 27t-24 72q-66 -99 -157 -99q-62 0 -101.5 47t-39.5 123q0 114 67 199t161 85q41 0 73.5 -28t47.5 -66l33 141
h-144zM228 85q55 0 97 50.5t42 120.5q0 44 -21.5 68.5t-64.5 24.5q-54 0 -93 -51.5t-39 -119.5q0 -41 20.5 -67t58.5 -26z" />
    <glyph glyph-name="Emacron" unicode="&#x112;" horiz-adv-x="571" 
d="M-7 0l23 101h70l106 456h-80l23 101h493l-46 -189h-107l21 89h-191l-41 -176h196l-22 -96h-196l-43 -186h191l23 89h107l-44 -189h-483zM245 750l20 87h330l-20 -87h-330z" />
    <glyph glyph-name="emacron" unicode="&#x113;" horiz-adv-x="490" 
d="M442 182h-301v-7q0 -39 32 -65.5t91 -26.5q71 0 145 39l-21 -100q-63 -30 -149 -30q-85 0 -145.5 50.5t-60.5 137.5q0 111 69 188.5t168 77.5q85 0 136.5 -44.5t51.5 -124.5q0 -44 -16 -95zM150 525l20 87h330l-20 -87h-330zM272 356q-41 0 -72 -26t-47 -72h196
q4 15 4 30q0 68 -81 68z" />
    <glyph glyph-name="Ebreve" unicode="&#x114;" horiz-adv-x="571" 
d="M-7 0l23 101h70l106 456h-80l23 101h493l-46 -189h-107l21 89h-191l-41 -176h196l-22 -96h-196l-43 -186h191l23 89h107l-44 -189h-483zM409 727q-65 0 -104.5 46.5t-41.5 135.5l67 21q14 -56 36 -82t60 -26q34 0 65 24t68 82l59 -26q-36 -88 -93 -131.5t-116 -43.5z" />
    <glyph glyph-name="ebreve" unicode="&#x115;" horiz-adv-x="490" 
d="M442 182h-301v-7q0 -39 32 -65.5t91 -26.5q71 0 145 39l-21 -100q-63 -30 -149 -30q-85 0 -145.5 50.5t-60.5 137.5q0 111 69 188.5t168 77.5q85 0 136.5 -44.5t51.5 -124.5q0 -44 -16 -95zM315 502q-65 0 -104.5 46.5t-41.5 135.5l67 21q14 -56 36 -82t60 -26
q34 0 65 24t68 82l59 -26q-36 -88 -93 -131.5t-116 -43.5zM272 356q-41 0 -72 -26t-47 -72h196q4 15 4 30q0 68 -81 68z" />
    <glyph glyph-name="Edotaccent" unicode="&#x116;" horiz-adv-x="571" 
d="M-7 0l23 101h70l106 456h-80l23 101h493l-46 -189h-107l21 89h-191l-41 -176h196l-22 -96h-196l-43 -186h191l23 89h107l-44 -189h-483zM423 736q-29 0 -50.5 21t-21.5 51t22 51t52 21q29 0 50.5 -21t21.5 -51t-22 -51t-52 -21z" />
    <glyph glyph-name="edotaccent" unicode="&#x117;" horiz-adv-x="490" 
d="M442 182h-301v-7q0 -39 32 -65.5t91 -26.5q71 0 145 39l-21 -100q-63 -30 -149 -30q-85 0 -145.5 50.5t-60.5 137.5q0 111 69 188.5t168 77.5q85 0 136.5 -44.5t51.5 -124.5q0 -44 -16 -95zM328 511q-29 0 -50.5 21t-21.5 51t22 51t52 21q29 0 50.5 -21t21.5 -51t-22 -51
t-52 -21zM272 356q-41 0 -72 -26t-47 -72h196q4 15 4 30q0 68 -81 68z" />
    <glyph glyph-name="Eogonek" unicode="&#x118;" horiz-adv-x="571" 
d="M-7 0l23 101h70l106 456h-80l23 101h493l-46 -189h-107l21 89h-191l-41 -176h196l-22 -96h-196l-43 -186h191l23 89h107l-44 -189h-56q-60 -49 -60 -84q0 -32 39 -32q28 0 56 8l-17 -67q-34 -26 -87 -26q-36 0 -62.5 22t-26.5 61q0 61 70 118h-339z" />
    <glyph glyph-name="eogonek" unicode="&#x119;" horiz-adv-x="490" 
d="M259 -201q-36 0 -62.5 22t-26.5 61q0 57 70 110h-1q-85 0 -145.5 50.5t-60.5 137.5q0 111 69 188.5t168 77.5q85 0 136.5 -44.5t51.5 -124.5q0 -44 -16 -95h-301v-7q0 -39 32 -65.5t91 -26.5q71 0 145 39l-21 -100q-120 -56 -120 -106q0 -32 39 -32q28 0 56 8l-17 -67
q-34 -26 -87 -26zM272 356q-41 0 -72 -26t-47 -72h196q4 15 4 30q0 68 -81 68z" />
    <glyph glyph-name="Ecaron" unicode="&#x11a;" horiz-adv-x="571" 
d="M-7 0l23 101h70l106 456h-80l23 101h493l-46 -189h-107l21 89h-191l-41 -176h196l-22 -96h-196l-43 -186h191l23 89h107l-44 -189h-483zM403 711l-128 179l53 46l95 -100l154 103l41 -54z" />
    <glyph glyph-name="ecaron" unicode="&#x11b;" horiz-adv-x="490" 
d="M442 182h-301v-7q0 -39 32 -65.5t91 -26.5q71 0 145 39l-21 -100q-63 -30 -149 -30q-85 0 -145.5 50.5t-60.5 137.5q0 111 69 188.5t168 77.5q85 0 136.5 -44.5t51.5 -124.5q0 -44 -16 -95zM308 486l-128 179l53 46l95 -100l154 103l41 -54zM272 356q-41 0 -72 -26
t-47 -72h196q4 15 4 30q0 68 -81 68z" />
    <glyph glyph-name="Gbreve" unicode="&#x11e;" horiz-adv-x="712" 
d="M498 0l8 69q-50 -43 -94 -62t-99 -19q-101 0 -174.5 78.5t-73.5 197.5q0 168 116.5 287t283.5 119q134 0 202 -68q40 -40 40 -88q0 -35 -22.5 -58t-52.5 -23q-28 0 -48.5 20.5t-20.5 48.5q0 20 12 39q-27 25 -110 25q-115 0 -199 -83.5t-84 -212.5q0 -84 47.5 -131
t113.5 -47q96 0 164 45l26 108h-167l22 96h281l-80 -341h-91zM482 727q-65 0 -104.5 46.5t-41.5 135.5l67 21q14 -56 36 -82t60 -26q34 0 65 24t68 82l59 -26q-36 -88 -93 -131.5t-116 -43.5z" />
    <glyph glyph-name="gbreve" unicode="&#x11f;" horiz-adv-x="536" 
d="M191 -200q-46 0 -91.5 15.5t-67.5 37.5q-28 28 -28 65q0 30 18.5 48t44.5 18t44 -18t18 -43q0 -16 -5 -24q20 -13 61 -13q56 0 89 33q26 26 42 98l17 73q-64 -81 -144 -81q-74 0 -113.5 46.5t-39.5 124.5q0 108 64.5 187t164.5 79q47 0 79.5 -27t48.5 -65l28 84h100
l-103 -449q-21 -92 -62 -133q-56 -56 -165 -56zM242 102q55 0 94.5 46t39.5 113q0 40 -26.5 64t-66.5 24q-55 0 -94 -46t-39 -113q0 -40 26 -64t66 -24zM344 502q-65 0 -104.5 46.5t-41.5 135.5l67 21q14 -56 36 -82t60 -26q34 0 65 24t68 82l59 -26q-36 -88 -93 -131.5
t-116 -43.5z" />
    <glyph glyph-name="Gdotaccent" unicode="&#x120;" horiz-adv-x="712" 
d="M498 0l8 69q-50 -43 -94 -62t-99 -19q-101 0 -174.5 78.5t-73.5 197.5q0 168 116.5 287t283.5 119q134 0 202 -68q40 -40 40 -88q0 -35 -22.5 -58t-52.5 -23q-28 0 -48.5 20.5t-20.5 48.5q0 20 12 39q-27 25 -110 25q-115 0 -199 -83.5t-84 -212.5q0 -84 47.5 -131
t113.5 -47q96 0 164 45l26 108h-167l22 96h281l-80 -341h-91zM496 736q-29 0 -50.5 21t-21.5 51t22 51t52 21q29 0 50.5 -21t21.5 -51t-22 -51t-52 -21z" />
    <glyph glyph-name="gdotaccent" unicode="&#x121;" horiz-adv-x="536" 
d="M191 -200q-46 0 -91.5 15.5t-67.5 37.5q-28 28 -28 65q0 30 18.5 48t44.5 18t44 -18t18 -43q0 -16 -5 -24q20 -13 61 -13q56 0 89 33q26 26 42 98l17 73q-64 -81 -144 -81q-74 0 -113.5 46.5t-39.5 124.5q0 108 64.5 187t164.5 79q47 0 79.5 -27t48.5 -65l28 84h100
l-103 -449q-21 -92 -62 -133q-56 -56 -165 -56zM242 102q55 0 94.5 46t39.5 113q0 40 -26.5 64t-66.5 24q-55 0 -94 -46t-39 -113q0 -40 26 -64t66 -24zM357 511q-29 0 -50.5 21t-21.5 51t22 51t52 21q29 0 50.5 -21t21.5 -51t-22 -51t-52 -21z" />
    <glyph glyph-name="Gcommaaccent" unicode="&#x122;" horiz-adv-x="712" 
d="M498 0l8 69q-50 -43 -94 -62t-99 -19q-101 0 -174.5 78.5t-73.5 197.5q0 168 116.5 287t283.5 119q134 0 202 -68q40 -40 40 -88q0 -35 -22.5 -58t-52.5 -23q-28 0 -48.5 20.5t-20.5 48.5q0 20 12 39q-27 25 -110 25q-115 0 -199 -83.5t-84 -212.5q0 -84 47.5 -131
t113.5 -47q96 0 164 45l26 108h-167l22 96h281l-80 -341h-91zM177 -304l-19 37q55 32 81.5 58.5t29.5 40.5q-19 10 -29 26t-10 29q0 28 19.5 48t47.5 20t48 -20.5t20 -53.5q0 -48 -53.5 -101t-134.5 -84z" />
    <glyph glyph-name="gcommaaccent" unicode="&#x123;" horiz-adv-x="536" 
d="M191 -200q-46 0 -91.5 15.5t-67.5 37.5q-28 28 -28 65q0 30 18.5 48t44.5 18t44 -18t18 -43q0 -16 -5 -24q20 -13 61 -13q56 0 89 33q26 26 42 98l17 73q-64 -81 -144 -81q-74 0 -113.5 46.5t-39.5 124.5q0 108 64.5 187t164.5 79q47 0 79.5 -27t48.5 -65l28 84h100
l-103 -449q-21 -92 -62 -133q-56 -56 -165 -56zM242 102q55 0 94.5 46t39.5 113q0 40 -26.5 64t-66.5 24q-55 0 -94 -46t-39 -113q0 -40 26 -64t66 -24zM468 761l19 -37q-55 -32 -81.5 -58.5t-29.5 -40.5q19 -10 29 -26t10 -29q0 -28 -19.5 -48t-47.5 -20t-48 20.5t-20 53.5
q0 48 53.5 101t134.5 84z" />
    <glyph glyph-name="Hbar" unicode="&#x126;" horiz-adv-x="748" 
d="M761 503l-19 -83h-57l-74 -319h80l-23 -101h-270l23 101h77l38 162h-299l-38 -162h87l-23 -101h-270l23 101h70l74 319h-56l19 83h56l14 59h-80l22 96h270l-22 -96h-77l-14 -59h299l14 59h-87l22 96h270l-22 -96h-70l-14 -59h57zM259 362h299l13 58h-299z" />
    <glyph glyph-name="hbar" unicode="&#x127;" horiz-adv-x="546" 
d="M15 0l113 493h-80l21 92h80l13 55h-82l24 92h187l-34 -147h146l-21 -92h-146l-31 -135q24 37 60 62.5t74 25.5q50 0 83.5 -34.5t33.5 -96.5q0 -36 -11 -73l-32 -115q-5 -20 -5 -31q0 -30 23 -30q30 0 56 72l44 -17q-37 -129 -132 -129q-50 0 -76 26.5t-26 70.5q0 26 7 50
l33 118q5 16 5 36q0 28 -16 44.5t-44 16.5q-73 0 -96 -100l-59 -254h-112z" />
    <glyph glyph-name="Imacron" unicode="&#x12a;" horiz-adv-x="362" 
d="M0 0l23 101h76l106 456h-86l23 101h275l-23 -101h-76l-106 -456h86l-23 -101h-275zM140 750l20 87h330l-20 -87h-330z" />
    <glyph glyph-name="imacron" unicode="&#x12b;" horiz-adv-x="323" 
d="M164 -8q-50 0 -75 26t-25 72q0 24 6 49l51 207h-79l24 92h190l-75 -298q-7 -27 -7 -46q0 -28 24 -28q33 0 59 72l44 -17q-21 -72 -55.5 -100.5t-81.5 -28.5zM49 525l20 87h330l-20 -87h-330z" />
    <glyph glyph-name="Ibreve" unicode="&#x12c;" horiz-adv-x="362" 
d="M0 0l23 101h76l106 456h-86l23 101h275l-23 -101h-76l-106 -456h86l-23 -101h-275zM304 727q-65 0 -104.5 46.5t-41.5 135.5l67 21q14 -56 36 -82t60 -26q34 0 65 24t68 82l59 -26q-36 -88 -93 -131.5t-116 -43.5z" />
    <glyph glyph-name="ibreve" unicode="&#x12d;" horiz-adv-x="323" 
d="M164 -8q-50 0 -75 26t-25 72q0 24 6 49l51 207h-79l24 92h190l-75 -298q-7 -27 -7 -46q0 -28 24 -28q33 0 59 72l44 -17q-21 -72 -55.5 -100.5t-81.5 -28.5zM214 502q-65 0 -104.5 46.5t-41.5 135.5l67 21q14 -56 36 -82t60 -26q34 0 65 24t68 82l59 -26
q-36 -88 -93 -131.5t-116 -43.5z" />
    <glyph glyph-name="Iogonek" unicode="&#x12e;" horiz-adv-x="362" 
d="M0 0l23 101h76l106 456h-86l23 101h275l-23 -101h-76l-106 -456h86l-23 -101h-98q-60 -49 -60 -84q0 -32 39 -32q28 0 56 8l-17 -67q-34 -26 -87 -26q-36 0 -62.5 22t-26.5 61q0 61 70 118h-89z" />
    <glyph glyph-name="iogonek" unicode="&#x12f;" horiz-adv-x="323" 
d="M257 138l44 -17q-13 -42 -28.5 -66t-42.5 -47q-9 -8 -28 -23t-27.5 -23t-16.5 -20.5t-8 -25.5q0 -32 39 -32q28 0 56 8l-17 -67q-34 -26 -87 -26q-36 0 -62.5 22t-26.5 61q0 65 73 115q-61 17 -61 93q0 24 6 49l51 207h-79l24 92h190l-75 -298q-7 -27 -7 -46
q0 -28 24 -28q33 0 59 72zM211 499q-28 0 -48 19.5t-20 47.5t20 47.5t48 19.5t48 -19.5t20 -47.5t-20 -47.5t-48 -19.5z" />
    <glyph glyph-name="Idotaccent" unicode="&#x130;" horiz-adv-x="362" 
d="M0 0l23 101h76l106 456h-86l23 101h275l-23 -101h-76l-106 -456h86l-23 -101h-275zM318 736q-29 0 -50.5 21t-21.5 51t22 51t52 21q29 0 50.5 -21t21.5 -51t-22 -51t-52 -21z" />
    <glyph glyph-name="dotlessi" unicode="&#x131;" horiz-adv-x="323" 
d="M164 -8q-50 0 -75 26t-25 72q0 24 6 49l51 207h-79l24 92h190l-75 -298q-7 -27 -7 -46q0 -28 24 -28q33 0 59 72l44 -17q-21 -72 -55.5 -100.5t-81.5 -28.5z" />
    <glyph glyph-name="Kcommaaccent" unicode="&#x136;" horiz-adv-x="669" 
d="M644 557l-234 -198l121 -257h94l-24 -102h-152l-126 293l-99 -82l-25 -110h85l-23 -101h-268l23 101h70l106 456h-80l23 101h257l-22 -98h-64l-53 -225l249 225h-64l22 98h271l-23 -101h-64zM133 -304l-19 37q55 32 81.5 58.5t29.5 40.5q-19 10 -29 26t-10 29
q0 28 19.5 48t47.5 20t48 -20.5t20 -53.5q0 -48 -53.5 -101t-134.5 -84z" />
    <glyph glyph-name="kcommaaccent" unicode="&#x137;" horiz-adv-x="506" 
d="M127 0h-112l147 640h-82l24 92h187l-114 -495q150 45 181 93q-30 21 -30 52q0 26 19.5 45t45.5 19q29 0 49 -21t20 -54q0 -104 -160 -177l40 -87q11 -24 19 -33q7 -8 16 -8q21 0 45 82l44 -14q-18 -82 -47.5 -112t-71.5 -30q-34 0 -57 19q-24 19 -38 53l-46 106l-42 -13z
M40 -304l-19 37q55 32 81.5 58.5t29.5 40.5q-19 10 -29 26t-10 29q0 28 19.5 48t47.5 20t48 -20.5t20 -53.5q0 -48 -53.5 -101t-134.5 -84z" />
    <glyph glyph-name="Lacute" unicode="&#x139;" horiz-adv-x="543" 
d="M-7 0l23 101h70l106 456h-80l23 101h277l-23 -101h-84l-106 -457h178l22 93h109l-45 -193h-470zM276 723l-31 36l123 139q24 27 54 27q20 0 34 -15t14 -35q0 -35 -36 -58z" />
    <glyph glyph-name="lacute" unicode="&#x13a;" horiz-adv-x="308" 
d="M144 -8q-50 0 -74.5 26t-24.5 73q0 23 6 48l116 501h-82l24 92h190l-137 -592q-7 -31 -7 -43q0 -31 23 -31q33 0 59 72l44 -17q-21 -72 -55.5 -100.5t-81.5 -28.5zM268 773l-31 36l123 139q24 27 54 27q20 0 34 -15t14 -35q0 -35 -36 -58z" />
    <glyph glyph-name="Lcommaaccent" unicode="&#x13b;" horiz-adv-x="543" 
d="M-7 0l23 101h70l106 456h-80l23 101h277l-23 -101h-84l-106 -457h178l22 93h109l-45 -193h-470zM77 -304l-19 37q55 32 81.5 58.5t29.5 40.5q-19 10 -29 26t-10 29q0 28 19.5 48t47.5 20t48 -20.5t20 -53.5q0 -48 -53.5 -101t-134.5 -84z" />
    <glyph glyph-name="lcommaaccent" unicode="&#x13c;" horiz-adv-x="308" 
d="M144 -8q-50 0 -74.5 26t-24.5 73q0 23 6 48l116 501h-82l24 92h190l-137 -592q-7 -31 -7 -43q0 -31 23 -31q33 0 59 72l44 -17q-21 -72 -55.5 -100.5t-81.5 -28.5zM-17 -304l-19 37q55 32 81.5 58.5t29.5 40.5q-19 10 -29 26t-10 29q0 28 19.5 48t47.5 20t48 -20.5
t20 -53.5q0 -48 -53.5 -101t-134.5 -84z" />
    <glyph glyph-name="Lcaron" unicode="&#x13d;" horiz-adv-x="543" 
d="M-7 0l23 101h70l106 456h-80l23 101h277l-23 -101h-84l-106 -457h178l22 93h109l-45 -193h-470zM421 369l-29 25q47 55 60 109q3 13 4.5 49.5t8.5 59.5q15 46 61 46q26 0 41.5 -17t15.5 -44q0 -32 -15 -60.5t-45 -66.5q-15 -19 -30.5 -34.5t-42 -39.5t-29.5 -27z" />
    <glyph glyph-name="lcaron" unicode="&#x13e;" horiz-adv-x="308" 
d="M144 -8q-50 0 -74.5 26t-24.5 73q0 23 6 48l116 501h-82l24 92h190l-137 -592q-7 -31 -7 -43q0 -31 23 -31q33 0 59 72l44 -17q-21 -72 -55.5 -100.5t-81.5 -28.5zM311 478l-29 25q47 55 60 109q3 13 4.5 49.5t8.5 59.5q15 46 61 46q26 0 41.5 -17t15.5 -44
q0 -32 -15 -60.5t-45 -66.5q-15 -19 -30.5 -34.5t-42 -39.5t-29.5 -27z" />
    <glyph glyph-name="Ldot" unicode="&#x13f;" horiz-adv-x="543" 
d="M-7 0l23 101h70l106 456h-80l23 101h277l-23 -101h-84l-106 -457h178l22 93h109l-45 -193h-470zM475 300q-29 0 -50.5 21t-21.5 51t22 51t52 21q29 0 50.5 -21t21.5 -51t-22 -51t-52 -21z" />
    <glyph glyph-name="ldot" unicode="&#x140;" horiz-adv-x="358" 
d="M144 -8q-50 0 -74.5 26t-24.5 73q0 23 6 48l116 501h-82l24 92h190l-137 -592q-7 -31 -7 -43q0 -31 23 -31q33 0 59 72l44 -17q-21 -72 -55.5 -100.5t-81.5 -28.5zM335 271q-29 0 -50.5 21t-21.5 51t22 51t52 21q29 0 50.5 -21t21.5 -51t-22 -51t-52 -21z" />
    <glyph glyph-name="Lslash" unicode="&#x141;" horiz-adv-x="573" 
d="M23 0l23 101h70l35 151l-89 -44l-34 73l146 72l48 204h-80l23 101h277l-23 -101h-84l-34 -147l126 63l34 -73l-184 -91l-48 -209h178l22 93h109l-45 -193h-470z" />
    <glyph glyph-name="lslash" unicode="&#x142;" horiz-adv-x="354" 
d="M166 -8q-50 0 -74.5 26t-24.5 73q0 23 6 48l45 194l-69 -32l-34 72l126 59l48 208h-82l24 92h190l-58 -248l89 42l34 -73l-145 -68l-57 -245q-7 -31 -7 -43q0 -31 23 -31q33 0 59 72l44 -17q-21 -72 -55.5 -100.5t-81.5 -28.5z" />
    <glyph glyph-name="Nacute" unicode="&#x143;" horiz-adv-x="733" 
d="M524 -2l-243 465l-84 -362h87l-23 -101h-268l23 101h70l106 456h-80l23 101h173l217 -415l73 314h-87l23 101h268l-23 -101h-70l-130 -559h-55zM489 723l-31 36l123 139q24 27 54 27q20 0 34 -15t14 -35q0 -35 -36 -58z" />
    <glyph glyph-name="nacute" unicode="&#x144;" horiz-adv-x="573" 
d="M424 -8q-50 0 -76 26.5t-26 70.5q0 26 7 50l33 118q5 16 5 36q0 28 -16 44.5t-44 16.5q-70 0 -94 -98l-64 -256h-112l87 346h-80l24 92h171l-22 -101q24 45 65.5 77t83.5 32q50 0 82.5 -34.5t32.5 -96.5q0 -36 -11 -73l-32 -115q-5 -20 -5 -31q0 -30 23 -30q30 0 56 72
l44 -17q-37 -129 -132 -129zM348 498l-31 36l123 139q24 27 54 27q20 0 34 -15t14 -35q0 -35 -36 -58z" />
    <glyph glyph-name="Ncommaaccent" unicode="&#x145;" horiz-adv-x="733" 
d="M524 -2l-243 465l-84 -362h87l-23 -101h-268l23 101h70l106 456h-80l23 101h173l217 -415l73 314h-87l23 101h268l-23 -101h-70l-130 -559h-55zM172 -304l-19 37q55 32 81.5 58.5t29.5 40.5q-19 10 -29 26t-10 29q0 28 19.5 48t47.5 20t48 -20.5t20 -53.5
q0 -48 -53.5 -101t-134.5 -84z" />
    <glyph glyph-name="ncommaaccent" unicode="&#x146;" horiz-adv-x="573" 
d="M424 -8q-50 0 -76 26.5t-26 70.5q0 26 7 50l33 118q5 16 5 36q0 28 -16 44.5t-44 16.5q-70 0 -94 -98l-64 -256h-112l87 346h-80l24 92h171l-22 -101q24 45 65.5 77t83.5 32q50 0 82.5 -34.5t32.5 -96.5q0 -36 -11 -73l-32 -115q-5 -20 -5 -31q0 -30 23 -30q30 0 56 72
l44 -17q-37 -129 -132 -129zM83 -304l-19 37q55 32 81.5 58.5t29.5 40.5q-19 10 -29 26t-10 29q0 28 19.5 48t47.5 20t48 -20.5t20 -53.5q0 -48 -53.5 -101t-134.5 -84z" />
    <glyph glyph-name="Ncaron" unicode="&#x147;" horiz-adv-x="733" 
d="M524 -2l-243 465l-84 -362h87l-23 -101h-268l23 101h70l106 456h-80l23 101h173l217 -415l73 314h-87l23 101h268l-23 -101h-70l-130 -559h-55zM491 711l-128 179l53 46l95 -100l154 103l41 -54z" />
    <glyph glyph-name="ncaron" unicode="&#x148;" horiz-adv-x="573" 
d="M424 -8q-50 0 -76 26.5t-26 70.5q0 26 7 50l33 118q5 16 5 36q0 28 -16 44.5t-44 16.5q-70 0 -94 -98l-64 -256h-112l87 346h-80l24 92h171l-22 -101q24 45 65.5 77t83.5 32q50 0 82.5 -34.5t32.5 -96.5q0 -36 -11 -73l-32 -115q-5 -20 -5 -31q0 -30 23 -30q30 0 56 72
l44 -17q-37 -129 -132 -129zM350 486l-128 179l53 46l95 -100l154 103l41 -54z" />
    <glyph glyph-name="Omacron" unicode="&#x14c;" horiz-adv-x="729" 
d="M352 -12q-132 0 -209.5 82t-77.5 213q0 95 46 183.5t131 146t187 57.5q132 0 209.5 -82t77.5 -213q0 -95 -46 -183.5t-131 -146t-187 -57.5zM362 91q66 0 121 42.5t85.5 107.5t30.5 135q0 84 -47.5 137.5t-132.5 53.5q-66 0 -121 -42.5t-85.5 -107.5t-30.5 -135
q0 -84 47.5 -137.5t132.5 -53.5zM321 750l20 87h330l-20 -87h-330z" />
    <glyph glyph-name="omacron" unicode="&#x14d;" horiz-adv-x="522" 
d="M240 -8q-95 0 -150.5 58t-55.5 141q0 101 71 178t177 77q95 0 150.5 -58t55.5 -141q0 -101 -71 -178t-177 -77zM244 83q55 0 94 47t39 117q0 51 -28 79.5t-71 28.5q-55 0 -94 -47t-39 -117q0 -51 28 -79.5t71 -28.5zM166 525l20 87h330l-20 -87h-330z" />
    <glyph glyph-name="Obreve" unicode="&#x14e;" horiz-adv-x="729" 
d="M352 -12q-132 0 -209.5 82t-77.5 213q0 95 46 183.5t131 146t187 57.5q132 0 209.5 -82t77.5 -213q0 -95 -46 -183.5t-131 -146t-187 -57.5zM362 91q66 0 121 42.5t85.5 107.5t30.5 135q0 84 -47.5 137.5t-132.5 53.5q-66 0 -121 -42.5t-85.5 -107.5t-30.5 -135
q0 -84 47.5 -137.5t132.5 -53.5zM485 727q-65 0 -104.5 46.5t-41.5 135.5l67 21q14 -56 36 -82t60 -26q34 0 65 24t68 82l59 -26q-36 -88 -93 -131.5t-116 -43.5z" />
    <glyph glyph-name="obreve" unicode="&#x14f;" horiz-adv-x="522" 
d="M240 -8q-95 0 -150.5 58t-55.5 141q0 101 71 178t177 77q95 0 150.5 -58t55.5 -141q0 -101 -71 -178t-177 -77zM244 83q55 0 94 47t39 117q0 51 -28 79.5t-71 28.5q-55 0 -94 -47t-39 -117q0 -51 28 -79.5t71 -28.5zM331 502q-65 0 -104.5 46.5t-41.5 135.5l67 21
q14 -56 36 -82t60 -26q34 0 65 24t68 82l59 -26q-36 -88 -93 -131.5t-116 -43.5z" />
    <glyph glyph-name="Ohungarumlaut" unicode="&#x150;" horiz-adv-x="729" 
d="M352 -12q-132 0 -209.5 82t-77.5 213q0 95 46 183.5t131 146t187 57.5q132 0 209.5 -82t77.5 -213q0 -95 -46 -183.5t-131 -146t-187 -57.5zM362 91q66 0 121 42.5t85.5 107.5t30.5 135q0 84 -47.5 137.5t-132.5 53.5q-66 0 -121 -42.5t-85.5 -107.5t-30.5 -135
q0 -84 47.5 -137.5t132.5 -53.5zM369 723l-31 36l123 139q24 27 54 27q20 0 34 -15t14 -35q0 -35 -36 -58zM579 723l-31 36l123 139q24 27 54 27q20 0 34 -15t14 -35q0 -35 -36 -58z" />
    <glyph glyph-name="ohungarumlaut" unicode="&#x151;" horiz-adv-x="522" 
d="M240 -8q-95 0 -150.5 58t-55.5 141q0 101 71 178t177 77q95 0 150.5 -58t55.5 -141q0 -101 -71 -178t-177 -77zM244 83q55 0 94 47t39 117q0 51 -28 79.5t-71 28.5q-55 0 -94 -47t-39 -117q0 -51 28 -79.5t71 -28.5zM214 498l-31 36l123 139q24 27 54 27q20 0 34 -15
t14 -35q0 -35 -36 -58zM424 498l-31 36l123 139q24 27 54 27q20 0 34 -15t14 -35q0 -35 -36 -58z" />
    <glyph glyph-name="OE" unicode="&#x152;" horiz-adv-x="926" 
d="M401 0q-168 0 -260 92q-74 74 -74 195q0 149 105 254q117 117 330 117h481l-46 -189h-107l21 89h-191l-41 -176h196l-22 -96h-196l-43 -186h191l23 89h107l-44 -189h-430zM413 101h28l106 456h-61q-78 0 -131.5 -20t-97.5 -64q-73 -73 -73 -181q0 -81 50 -131
q60 -60 179 -60z" />
    <glyph glyph-name="oe" unicode="&#x153;" horiz-adv-x="831" 
d="M753 122l-21 -100q-63 -30 -139 -30q-126 0 -172 99q-67 -99 -184 -99q-94 0 -148.5 58t-54.5 141q0 101 69.5 178t170.5 77q129 0 172 -105q60 105 178 105q78 0 128 -45t50 -124q0 -44 -16 -95h-301v-7q0 -39 32 -65.5t91 -26.5q71 0 145 39zM246 83q57 0 96 47t39 117
q0 51 -29 79.5t-72 28.5q-57 0 -96 -47t-39 -117q0 -51 29 -79.5t72 -28.5zM616 356q-41 0 -72 -26t-47 -72h196q4 15 4 30q0 68 -81 68z" />
    <glyph glyph-name="Racute" unicode="&#x154;" horiz-adv-x="605" 
d="M-7 0l23 101h70l106 456h-80l23 101h214q138 0 199 -61q49 -49 49 -124q0 -76 -46.5 -132.5t-128.5 -79.5l72 -160h79l-23 -101h-136l-99 247h-14q-31 0 -66 3l-36 -149h82l-23 -101h-265zM329 342q70 0 111.5 34t41.5 88q0 38 -24 62q-31 31 -111 31h-43l-48 -211
q29 -4 73 -4zM400 723l-31 36l123 139q24 27 54 27q20 0 34 -15t14 -35q0 -35 -36 -58z" />
    <glyph glyph-name="racute" unicode="&#x155;" horiz-adv-x="426" 
d="M37 0l87 346h-80l24 92h171l-28 -128q75 136 155 136q29 0 51 -20.5t22 -51.5q0 -28 -20.5 -48.5t-48.5 -20.5q-25 0 -43.5 15t-22.5 35q-27 -8 -58.5 -51t-46.5 -105l-50 -199h-112zM288 498l-31 36l123 139q24 27 54 27q20 0 34 -15t14 -35q0 -35 -36 -58z" />
    <glyph glyph-name="Rcommaaccent" unicode="&#x156;" horiz-adv-x="605" 
d="M-7 0l23 101h70l106 456h-80l23 101h214q138 0 199 -61q49 -49 49 -124q0 -76 -46.5 -132.5t-128.5 -79.5l72 -160h79l-23 -101h-136l-99 247h-14q-31 0 -66 3l-36 -149h82l-23 -101h-265zM329 342q70 0 111.5 34t41.5 88q0 38 -24 62q-31 31 -111 31h-43l-48 -211
q29 -4 73 -4zM123 -304l-19 37q55 32 81.5 58.5t29.5 40.5q-19 10 -29 26t-10 29q0 28 19.5 48t47.5 20t48 -20.5t20 -53.5q0 -48 -53.5 -101t-134.5 -84z" />
    <glyph glyph-name="rcommaaccent" unicode="&#x157;" horiz-adv-x="426" 
d="M37 0l87 346h-80l24 92h171l-28 -128q75 136 155 136q29 0 51 -20.5t22 -51.5q0 -28 -20.5 -48.5t-48.5 -20.5q-25 0 -43.5 15t-22.5 35q-27 -8 -58.5 -51t-46.5 -105l-50 -199h-112zM-47 -304l-19 37q55 32 81.5 58.5t29.5 40.5q-19 10 -29 26t-10 29q0 28 19.5 48
t47.5 20t48 -20.5t20 -53.5q0 -48 -53.5 -101t-134.5 -84z" />
    <glyph glyph-name="Rcaron" unicode="&#x158;" horiz-adv-x="605" 
d="M-7 0l23 101h70l106 456h-80l23 101h214q138 0 199 -61q49 -49 49 -124q0 -76 -46.5 -132.5t-128.5 -79.5l72 -160h79l-23 -101h-136l-99 247h-14q-31 0 -66 3l-36 -149h82l-23 -101h-265zM329 342q70 0 111.5 34t41.5 88q0 38 -24 62q-31 31 -111 31h-43l-48 -211
q29 -4 73 -4zM403 711l-128 179l53 46l95 -100l154 103l41 -54z" />
    <glyph glyph-name="rcaron" unicode="&#x159;" horiz-adv-x="426" 
d="M37 0l87 346h-80l24 92h171l-28 -128q75 136 155 136q29 0 51 -20.5t22 -51.5q0 -28 -20.5 -48.5t-48.5 -20.5q-25 0 -43.5 15t-22.5 35q-27 -8 -58.5 -51t-46.5 -105l-50 -199h-112zM290 486l-128 179l53 46l95 -100l154 103l41 -54z" />
    <glyph glyph-name="Sacute" unicode="&#x15a;" horiz-adv-x="568" 
d="M272 -12q-99 0 -169.5 49t-70.5 116q0 39 21.5 63.5t54.5 24.5q28 0 48 -20t20 -49q0 -31 -22 -50q36 -36 124 -36q54 0 85.5 21t31.5 62q0 32 -25.5 56t-86.5 57q-71 38 -114.5 85.5t-43.5 118.5q0 75 64.5 129.5t172.5 54.5q96 0 158 -46.5t62 -101.5
q0 -38 -20.5 -63.5t-54.5 -25.5q-29 0 -48.5 19.5t-19.5 48.5q0 28 18 47q-18 24 -93 24q-55 0 -86.5 -22.5t-31.5 -53.5q0 -36 29 -63.5t87 -58.5q71 -38 112.5 -84.5t41.5 -110.5q0 -82 -65 -136.5t-179 -54.5zM403 723l-31 36l123 139q24 27 54 27q20 0 34 -15t14 -35
q0 -35 -36 -58z" />
    <glyph glyph-name="sacute" unicode="&#x15b;" horiz-adv-x="449" 
d="M208 -8q-109 0 -164 55q-29 29 -29 62q0 28 16 45t41 17q22 0 38.5 -16.5t16.5 -38.5q0 -16 -6 -24q6 -4 15 -9q29 -13 73 -13q34 0 56.5 10.5t22.5 30.5q0 5 -1.5 10t-5 9.5t-7 8t-10 8t-11.5 7t-14 6.5t-14.5 6.5t-15.5 7t-16 6.5q-55 22 -87 50t-32 78q0 57 47.5 97.5
t133.5 40.5q96 0 145 -51q26 -26 26 -60q0 -27 -16.5 -44t-40.5 -17q-23 0 -39.5 17t-16.5 39q0 10 6 24q-8 4 -14 6q-22 8 -49 8q-30 0 -51.5 -10t-21.5 -30q0 -5 1.5 -9.5t5.5 -9t7 -8t10 -8t11.5 -7.5t14.5 -7.5t14.5 -6.5t16 -7t16.5 -7q54 -24 85.5 -52.5t31.5 -74.5
q0 -66 -49.5 -102.5t-139.5 -36.5zM290 498l-31 36l123 139q24 27 54 27q20 0 34 -15t14 -35q0 -35 -36 -58z" />
    <glyph glyph-name="Scedilla" unicode="&#x15e;" horiz-adv-x="568" 
d="M272 -12h-10l-7 -34q44 -6 68.5 -26.5t24.5 -52.5q0 -34 -34.5 -54.5t-90.5 -20.5q-67 0 -123 43l20 31q46 -27 97 -27q15 0 26 7.5t11 17.5q0 32 -65 25l-15 25l44 71q-80 12 -133 57.5t-53 102.5q0 39 21.5 63.5t54.5 24.5q28 0 48 -20t20 -49q0 -31 -22 -50
q36 -36 124 -36q54 0 85.5 21t31.5 62q0 32 -25.5 56t-86.5 57q-71 38 -114.5 85.5t-43.5 118.5q0 75 64.5 129.5t172.5 54.5q96 0 158 -46.5t62 -101.5q0 -38 -20.5 -63.5t-54.5 -25.5q-29 0 -48.5 19.5t-19.5 48.5q0 28 18 47q-18 24 -93 24q-55 0 -86.5 -22.5
t-31.5 -53.5q0 -36 29 -63.5t87 -58.5q71 -38 112.5 -84.5t41.5 -110.5q0 -82 -65 -136.5t-179 -54.5z" />
    <glyph glyph-name="scedilla" unicode="&#x15f;" horiz-adv-x="449" 
d="M163 -200q-67 0 -123 43l20 31q46 -27 97 -27q15 0 26 7.5t11 17.5q0 32 -65 25l-15 25l46 73q-76 11 -116 52q-29 29 -29 62q0 28 16 45t41 17q22 0 38.5 -16.5t16.5 -38.5q0 -16 -6 -24q6 -4 15 -9q29 -13 73 -13q34 0 56.5 10.5t22.5 30.5q0 5 -1.5 10t-5 9.5t-7 8
t-10 8t-11.5 7t-14 6.5t-14.5 6.5t-15.5 7t-16 6.5q-55 22 -87 50t-32 78q0 57 47.5 97.5t133.5 40.5q96 0 145 -51q26 -26 26 -60q0 -27 -16.5 -44t-40.5 -17q-23 0 -39.5 17t-16.5 39q0 10 6 24q-8 4 -14 6q-22 8 -49 8q-30 0 -51.5 -10t-21.5 -30q0 -5 1.5 -9.5t5.5 -9
t7 -8t10 -8t11.5 -7.5t14.5 -7.5t14.5 -6.5t16 -7t16.5 -7q54 -24 85.5 -52.5t31.5 -74.5q0 -66 -49.5 -102.5t-139.5 -36.5h-5l-8 -38q44 -6 68.5 -26.5t24.5 -52.5q0 -34 -34.5 -54.5t-90.5 -20.5z" />
    <glyph glyph-name="Scaron" unicode="&#x160;" horiz-adv-x="568" 
d="M272 -12q-99 0 -169.5 49t-70.5 116q0 39 21.5 63.5t54.5 24.5q28 0 48 -20t20 -49q0 -31 -22 -50q36 -36 124 -36q54 0 85.5 21t31.5 62q0 32 -25.5 56t-86.5 57q-71 38 -114.5 85.5t-43.5 118.5q0 75 64.5 129.5t172.5 54.5q96 0 158 -46.5t62 -101.5
q0 -38 -20.5 -63.5t-54.5 -25.5q-29 0 -48.5 19.5t-19.5 48.5q0 28 18 47q-18 24 -93 24q-55 0 -86.5 -22.5t-31.5 -53.5q0 -36 29 -63.5t87 -58.5q71 -38 112.5 -84.5t41.5 -110.5q0 -82 -65 -136.5t-179 -54.5zM406 711l-128 179l53 46l95 -100l154 103l41 -54z" />
    <glyph glyph-name="scaron" unicode="&#x161;" horiz-adv-x="449" 
d="M208 -8q-109 0 -164 55q-29 29 -29 62q0 28 16 45t41 17q22 0 38.5 -16.5t16.5 -38.5q0 -16 -6 -24q6 -4 15 -9q29 -13 73 -13q34 0 56.5 10.5t22.5 30.5q0 5 -1.5 10t-5 9.5t-7 8t-10 8t-11.5 7t-14 6.5t-14.5 6.5t-15.5 7t-16 6.5q-55 22 -87 50t-32 78q0 57 47.5 97.5
t133.5 40.5q96 0 145 -51q26 -26 26 -60q0 -27 -16.5 -44t-40.5 -17q-23 0 -39.5 17t-16.5 39q0 10 6 24q-8 4 -14 6q-22 8 -49 8q-30 0 -51.5 -10t-21.5 -30q0 -5 1.5 -9.5t5.5 -9t7 -8t10 -8t11.5 -7.5t14.5 -7.5t14.5 -6.5t16 -7t16.5 -7q54 -24 85.5 -52.5t31.5 -74.5
q0 -66 -49.5 -102.5t-139.5 -36.5zM292 486l-128 179l53 46l95 -100l154 103l41 -54z" />
    <glyph glyph-name="Tcommaaccent" unicode="&#x162;" horiz-adv-x="613" 
d="M126 0l23 101h77l107 459h-121l-23 -104h-108l47 202h567l-46 -202h-107l23 104h-119l-107 -459h87l-23 -101h-277zM106 -304l-19 37q55 32 81.5 58.5t29.5 40.5q-19 10 -29 26t-10 29q0 28 19.5 48t47.5 20t48 -20.5t20 -53.5q0 -48 -53.5 -101t-134.5 -84z" />
    <glyph glyph-name="tcommaaccent" unicode="&#x163;" horiz-adv-x="370" 
d="M366 346h-133l-47 -190q-7 -28 -7 -40q0 -40 32 -40q31 0 84 35l36 -50q-73 -69 -158 -69q-47 0 -77 26t-30 79q0 19 9 59l47 190h-81l21 92h82l24 95l123 44l-35 -139h133zM-4 -304l-19 37q55 32 81.5 58.5t29.5 40.5q-19 10 -29 26t-10 29q0 28 19.5 48t47.5 20
t48 -20.5t20 -53.5q0 -48 -53.5 -101t-134.5 -84z" />
    <glyph glyph-name="Tcaron" unicode="&#x164;" horiz-adv-x="613" 
d="M126 0l23 101h77l107 459h-121l-23 -104h-108l47 202h567l-46 -202h-107l23 104h-119l-107 -459h87l-23 -101h-277zM425 711l-128 179l53 46l95 -100l154 103l41 -54z" />
    <glyph glyph-name="tcaron" unicode="&#x165;" horiz-adv-x="370" 
d="M366 346h-133l-47 -190q-7 -28 -7 -40q0 -40 32 -40q31 0 84 35l36 -50q-73 -69 -158 -69q-47 0 -77 26t-30 79q0 19 9 59l47 190h-81l21 92h82l24 95l123 44l-35 -139h133zM337 478l-29 25q47 55 60 109q3 13 4.5 49.5t8.5 59.5q15 46 61 46q26 0 41.5 -17t15.5 -44
q0 -32 -15 -60.5t-45 -66.5q-15 -19 -30.5 -34.5t-42 -39.5t-29.5 -27z" />
    <glyph glyph-name="Umacron" unicode="&#x16a;" horiz-adv-x="691" 
d="M315 -12q-98 0 -155 53.5t-57 145.5q0 39 14 97l63 273h-77l23 101h265l-23 -101h-75l-64 -278q-12 -50 -12 -81q0 -107 115 -107q121 0 154 145l74 321h-87l23 101h265l-23 -101h-68l-76 -330q-29 -121 -94 -180t-185 -59zM304 750l20 87h330l-20 -87h-330z" />
    <glyph glyph-name="umacron" unicode="&#x16b;" horiz-adv-x="574" 
d="M67 438h190l-63 -253q-6 -28 -6 -39q0 -62 54 -62q39 0 62 24t35 74l64 256h112l-75 -298q-8 -30 -8 -47q0 -27 22 -27q30 0 56 72l44 -17q-38 -129 -134 -129q-42 0 -66 26t-25 71q-27 -45 -66 -71t-80 -26q-45 0 -77 33t-32 88q0 35 11 82l37 151h-79zM182 525l20 87
h330l-20 -87h-330z" />
    <glyph glyph-name="Ubreve" unicode="&#x16c;" horiz-adv-x="691" 
d="M315 -12q-98 0 -155 53.5t-57 145.5q0 39 14 97l63 273h-77l23 101h265l-23 -101h-75l-64 -278q-12 -50 -12 -81q0 -107 115 -107q121 0 154 145l74 321h-87l23 101h265l-23 -101h-68l-76 -330q-29 -121 -94 -180t-185 -59zM469 727q-65 0 -104.5 46.5t-41.5 135.5l67 21
q14 -56 36 -82t60 -26q34 0 65 24t68 82l59 -26q-36 -88 -93 -131.5t-116 -43.5z" />
    <glyph glyph-name="ubreve" unicode="&#x16d;" horiz-adv-x="574" 
d="M67 438h190l-63 -253q-6 -28 -6 -39q0 -62 54 -62q39 0 62 24t35 74l64 256h112l-75 -298q-8 -30 -8 -47q0 -27 22 -27q30 0 56 72l44 -17q-38 -129 -134 -129q-42 0 -66 26t-25 71q-27 -45 -66 -71t-80 -26q-45 0 -77 33t-32 88q0 35 11 82l37 151h-79zM347 502
q-65 0 -104.5 46.5t-41.5 135.5l67 21q14 -56 36 -82t60 -26q34 0 65 24t68 82l59 -26q-36 -88 -93 -131.5t-116 -43.5z" />
    <glyph glyph-name="Uring" unicode="&#x16e;" horiz-adv-x="691" 
d="M315 -12q-98 0 -155 53.5t-57 145.5q0 39 14 97l63 273h-77l23 101h265l-23 -101h-75l-64 -278q-12 -50 -12 -81q0 -107 115 -107q121 0 154 145l74 321h-87l23 101h265l-23 -101h-68l-76 -330q-29 -121 -94 -180t-185 -59zM480 727q-53 0 -84.5 33t-31.5 81
q0 59 42.5 103.5t103.5 44.5q53 0 84.5 -33t31.5 -81q0 -59 -42.5 -103.5t-103.5 -44.5zM485 797q26 0 43 22t17 51q0 20 -11 34.5t-29 14.5q-26 0 -43 -22t-17 -51q0 -20 11 -34.5t29 -14.5z" />
    <glyph glyph-name="uring" unicode="&#x16f;" horiz-adv-x="574" 
d="M67 438h190l-63 -253q-6 -28 -6 -39q0 -62 54 -62q39 0 62 24t35 74l64 256h112l-75 -298q-8 -30 -8 -47q0 -27 22 -27q30 0 56 72l44 -17q-38 -129 -134 -129q-42 0 -66 26t-25 71q-27 -45 -66 -71t-80 -26q-45 0 -77 33t-32 88q0 35 11 82l37 151h-79zM358 502
q-53 0 -84.5 33t-31.5 81q0 59 42.5 103.5t103.5 44.5q53 0 84.5 -33t31.5 -81q0 -59 -42.5 -103.5t-103.5 -44.5zM363 572q26 0 43 22t17 51q0 20 -11 34.5t-29 14.5q-26 0 -43 -22t-17 -51q0 -20 11 -34.5t29 -14.5z" />
    <glyph glyph-name="Uhungarumlaut" unicode="&#x170;" horiz-adv-x="691" 
d="M315 -12q-98 0 -155 53.5t-57 145.5q0 39 14 97l63 273h-77l23 101h265l-23 -101h-75l-64 -278q-12 -50 -12 -81q0 -107 115 -107q121 0 154 145l74 321h-87l23 101h265l-23 -101h-68l-76 -330q-29 -121 -94 -180t-185 -59zM352 723l-31 36l123 139q24 27 54 27
q20 0 34 -15t14 -35q0 -35 -36 -58zM562 723l-31 36l123 139q24 27 54 27q20 0 34 -15t14 -35q0 -35 -36 -58z" />
    <glyph glyph-name="uhungarumlaut" unicode="&#x171;" horiz-adv-x="574" 
d="M67 438h190l-63 -253q-6 -28 -6 -39q0 -62 54 -62q39 0 62 24t35 74l64 256h112l-75 -298q-8 -30 -8 -47q0 -27 22 -27q30 0 56 72l44 -17q-38 -129 -134 -129q-42 0 -66 26t-25 71q-27 -45 -66 -71t-80 -26q-45 0 -77 33t-32 88q0 35 11 82l37 151h-79zM440 498l-31 36
l123 139q24 27 54 27q20 0 34 -15t14 -35q0 -35 -36 -58zM230 498l-31 36l123 139q24 27 54 27q20 0 34 -15t14 -35q0 -35 -36 -58z" />
    <glyph glyph-name="Uogonek" unicode="&#x172;" horiz-adv-x="691" 
d="M215 -118q0 57 60 109q-81 10 -126.5 62t-45.5 134q0 39 14 97l63 273h-77l23 101h265l-23 -101h-75l-64 -278q-12 -50 -12 -81q0 -107 115 -107q121 0 154 145l74 321h-87l23 101h265l-23 -101h-68l-76 -330q-27 -109 -81 -167.5t-151 -68.5q-49 -43 -49 -75t39 -32
q28 0 56 8l-17 -67q-34 -26 -87 -26q-36 0 -62.5 22t-26.5 61z" />
    <glyph glyph-name="uogonek" unicode="&#x173;" horiz-adv-x="574" 
d="M510 138l44 -17q-13 -42 -28.5 -66t-42.5 -47q-9 -8 -28 -23t-27.5 -23t-16.5 -20.5t-8 -25.5q0 -32 39 -32q28 0 56 8l-17 -67q-34 -26 -87 -26q-36 0 -62.5 22t-26.5 61q0 66 76 117q-50 21 -52 90q-27 -45 -66 -71t-80 -26q-45 0 -77 33t-32 88q0 35 11 82l37 151h-79
l24 92h190l-63 -253q-6 -28 -6 -39q0 -62 54 -62q39 0 62 24t35 74l64 256h112l-75 -298q-8 -30 -8 -47q0 -27 22 -27q30 0 56 72z" />
    <glyph glyph-name="Wcircumflex" unicode="&#x174;" horiz-adv-x="983" 
d="M224 -6l-56 563h-71l23 101h270l-23 -101h-83l23 -346l225 383h56l85 -387l155 350h-80l23 101h270l-23 -101h-62l-279 -562h-59l-94 387l-242 -387zM477 720l-41 54l215 174l128 -179l-53 -46l-96 100z" />
    <glyph glyph-name="wcircumflex" unicode="&#x175;" horiz-adv-x="708" 
d="M139 -8l-40 354h-80l24 92h152l15 -318l139 273h73l52 -277q96 146 104 203q-19 6 -32 22.5t-13 39.5q0 27 19 46t46 19q36 0 57.5 -24t21.5 -66q0 -102 -191 -364h-74l-52 241l-137 -241h-84zM295 495l-41 54l215 174l128 -179l-53 -46l-96 100z" />
    <glyph glyph-name="Ycircumflex" unicode="&#x176;" horiz-adv-x="649" 
d="M127 0l23 101h76l36 154l-114 302h-63l23 101h249l-23 -101h-69l74 -222l176 222h-70l23 101h264l-23 -101h-59l-280 -323l-31 -133h86l-23 -101h-275zM301 720l-41 54l215 174l128 -179l-53 -46l-96 100z" />
    <glyph glyph-name="ycircumflex" unicode="&#x177;" horiz-adv-x="501" 
d="M-7 -200q-38 0 -61.5 21.5t-23.5 50.5q0 28 18.5 45.5t44.5 17.5q19 0 35 -11.5t22 -29.5q17 2 48 31.5t92 101.5l-66 319h-74l24 92h143l52 -327q109 143 126 203q-43 18 -43 64q0 29 20 48.5t49 19.5q37 0 58 -24.5t21 -66.5q0 -101 -188 -329q-81 -99 -137.5 -149.5
t-88 -63.5t-71.5 -13zM173 495l-41 54l215 174l128 -179l-53 -46l-96 100z" />
    <glyph glyph-name="Ydieresis" unicode="&#x178;" horiz-adv-x="649" 
d="M127 0l23 101h76l36 154l-114 302h-63l23 101h249l-23 -101h-69l74 -222l176 222h-70l23 101h264l-23 -101h-59l-280 -323l-31 -133h86l-23 -101h-275zM547 736q-29 0 -50.5 21t-21.5 51t22 51t52 21q29 0 50.5 -21t21.5 -51t-22 -51t-52 -21zM341 736q-29 0 -50.5 21
t-21.5 51t22 51t52 21q29 0 50.5 -21t21.5 -51t-22 -51t-52 -21z" />
    <glyph glyph-name="Zacute" unicode="&#x179;" horiz-adv-x="630" 
d="M26 0l-10 64l481 499h-252l-25 -110h-103l48 205h492l10 -64l-481 -499h267l25 110h103l-48 -205h-507zM428 723l-31 36l123 139q24 27 54 27q20 0 34 -15t14 -35q0 -35 -36 -58z" />
    <glyph glyph-name="zacute" unicode="&#x17a;" horiz-adv-x="480" 
d="M40 -8l-41 63l331 297h-156l-20 -80h-93l41 166h338l32 -70l-315 -283q38 11 66 11q17 0 52 -7.5t44 -7.5q35 0 51.5 18.5t32.5 66.5l41 -9q-29 -165 -132 -165q-16 0 -78.5 12t-84.5 12q-58 0 -109 -24zM297 498l-31 36l123 139q24 27 54 27q20 0 34 -15t14 -35
q0 -35 -36 -58z" />
    <glyph glyph-name="Zdotaccent" unicode="&#x17b;" horiz-adv-x="630" 
d="M26 0l-10 64l481 499h-252l-25 -110h-103l48 205h492l10 -64l-481 -499h267l25 110h103l-48 -205h-507zM451 736q-29 0 -50.5 21t-21.5 51t22 51t52 21q29 0 50.5 -21t21.5 -51t-22 -51t-52 -21z" />
    <glyph glyph-name="zdotaccent" unicode="&#x17c;" horiz-adv-x="480" 
d="M40 -8l-41 63l331 297h-156l-20 -80h-93l41 166h338l32 -70l-315 -283q38 11 66 11q17 0 52 -7.5t44 -7.5q35 0 51.5 18.5t32.5 66.5l41 -9q-29 -165 -132 -165q-16 0 -78.5 12t-84.5 12q-58 0 -109 -24zM319 511q-29 0 -50.5 21t-21.5 51t22 51t52 21q29 0 50.5 -21
t21.5 -51t-22 -51t-52 -21z" />
    <glyph glyph-name="Zcaron" unicode="&#x17d;" horiz-adv-x="630" 
d="M26 0l-10 64l481 499h-252l-25 -110h-103l48 205h492l10 -64l-481 -499h267l25 110h103l-48 -205h-507zM431 711l-128 179l53 46l95 -100l154 103l41 -54z" />
    <glyph glyph-name="zcaron" unicode="&#x17e;" horiz-adv-x="480" 
d="M40 -8l-41 63l331 297h-156l-20 -80h-93l41 166h338l32 -70l-315 -283q38 11 66 11q17 0 52 -7.5t44 -7.5q35 0 51.5 18.5t32.5 66.5l41 -9q-29 -165 -132 -165q-16 0 -78.5 12t-84.5 12q-58 0 -109 -24zM299 486l-128 179l53 46l95 -100l154 103l41 -54z" />
    <glyph glyph-name="Aringacute" unicode="&#x1fa;" horiz-adv-x="702" 
d="M-28 0l24 101h59l268 457h-79l23 100h104q-35 27 -35 83q0 48 41 89t101 41q53 0 84.5 -32.5t31.5 -74.5q0 -70 -61 -106h104l-23 -100h-73l56 -457h67l-24 -101h-245l23 100h74l-13 108h-252l-63 -108h89l-23 -100h-258zM453 679q26 0 43 22t17 51q0 20 -11 34.5
t-29 14.5q-26 0 -43 -22t-17 -51q0 -20 11 -34.5t29 -14.5zM282 302h186l-31 264zM520 922l-31 36l123 139q24 27 54 27q20 0 34 -15t14 -35q0 -35 -36 -58z" />
    <glyph glyph-name="aringacute" unicode="&#x1fb;" horiz-adv-x="579" 
d="M176 -8q-62 0 -101.5 47t-39.5 123q0 114 67 199t161 85q41 0 75 -29t48 -69l30 90h102l-75 -298q-8 -30 -8 -47q0 -27 22 -27q30 0 56 72l44 -17q-38 -129 -134 -129q-42 0 -66 27t-24 72q-66 -99 -157 -99zM352 502q-53 0 -84.5 33t-31.5 81q0 59 42.5 103.5
t103.5 44.5q53 0 84.5 -33t31.5 -81q0 -59 -42.5 -103.5t-103.5 -44.5zM228 85q55 0 97 50.5t42 120.5q0 44 -21.5 68.5t-64.5 24.5q-54 0 -93 -51.5t-39 -119.5q0 -41 20.5 -67t58.5 -26zM423 815l-31 36l123 139q24 27 54 27q20 0 34 -15t14 -35q0 -35 -36 -58zM357 572
q26 0 43 22t17 51q0 20 -11 34.5t-29 14.5q-26 0 -43 -22t-17 -51q0 -20 11 -34.5t29 -14.5z" />
    <glyph glyph-name="AEacute" unicode="&#x1fc;" horiz-adv-x="936" 
d="M-8 0l24 101h71l325 456h-81l23 101h639l-46 -189h-107l21 89h-191l-41 -176h196l-22 -96h-196l-43 -186h191l23 89h107l-44 -189h-487l23 101h74l25 107h-202l-76 -108h77l-23 -100h-260zM339 302h159l60 259h-37zM644 723l-31 36l123 139q24 27 54 27q20 0 34 -15
t14 -35q0 -35 -36 -58z" />
    <glyph glyph-name="aeacute" unicode="&#x1fd;" horiz-adv-x="809" 
d="M764 182h-301v-7q0 -39 32 -65.5t91 -26.5q71 0 145 39l-21 -100q-63 -30 -139 -30q-68 0 -115.5 31.5t-64.5 88.5q-34 -56 -92 -88t-125 -32q-64 0 -106.5 32t-42.5 81q0 74 60 114.5t158 40.5h114q-8 49 -42 79t-78 30q-8 0 -15 -1l-8 -2q2 -8 2 -14q0 -23 -16.5 -39.5
t-39.5 -16.5q-28 0 -43.5 17.5t-15.5 44.5q0 46 53 72q34 16 82 16q70 0 116.5 -32t62.5 -90q22 52 73.5 87t109.5 35q81 0 131.5 -44.5t50.5 -124.5q0 -44 -16 -95zM470 498l-31 36l123 139q24 27 54 27q20 0 34 -15t14 -35q0 -35 -36 -58zM186 82q52 0 99.5 28t64.5 76
h-77q-146 0 -146 -63q0 -41 59 -41zM594 356q-41 0 -72 -26t-46 -72h195q4 15 4 30q0 68 -81 68z" />
    <glyph glyph-name="Oslashacute" unicode="&#x1fe;" horiz-adv-x="729" 
d="M360 -12q-120 0 -199 71l-80 -73l-57 64l84 77q-38 68 -38 159q0 94 45.5 181.5t130 145t185.5 57.5q124 0 202 -75l85 76l57 -65l-89 -81q35 -67 35 -153q0 -95 -46 -183t-130 -144.5t-185 -56.5zM187 282q0 -46 15 -85l351 320q-50 50 -129 50q-66 0 -121 -42.5
t-85.5 -107.5t-30.5 -135zM367 91q66 0 121 42.5t85.5 107.5t30.5 135q0 40 -13 77l-349 -316q48 -46 125 -46zM487 723l-31 36l123 139q24 27 54 27q20 0 34 -15t14 -35q0 -35 -36 -58z" />
    <glyph glyph-name="oslashacute" unicode="&#x1ff;" horiz-adv-x="546" 
d="M252 -8q-72 0 -123 34l-71 -69l-54 55l72 68q-32 49 -32 111q0 101 72 178t178 77q77 0 130 -40l77 74l54 -55l-80 -76q27 -47 27 -102q0 -101 -72 -178t-178 -77zM340 498l-31 36l123 139q24 27 54 27q20 0 34 -15t14 -35q0 -35 -36 -58zM155 191q0 -24 6 -42l193 185
q-27 21 -64 21q-56 0 -95.5 -47t-39.5 -117zM256 83q56 0 95.5 47t39.5 117q0 17 -3 30l-188 -179q24 -15 56 -15z" />
    <glyph glyph-name="Scommaaccent" unicode="&#x218;" horiz-adv-x="568" 
d="M272 -12q-99 0 -169.5 49t-70.5 116q0 39 21.5 63.5t54.5 24.5q28 0 48 -20t20 -49q0 -31 -22 -50q36 -36 124 -36q54 0 85.5 21t31.5 62q0 32 -25.5 56t-86.5 57q-71 38 -114.5 85.5t-43.5 118.5q0 75 64.5 129.5t172.5 54.5q96 0 158 -46.5t62 -101.5
q0 -38 -20.5 -63.5t-54.5 -25.5q-29 0 -48.5 19.5t-19.5 48.5q0 28 18 47q-18 24 -93 24q-55 0 -86.5 -22.5t-31.5 -53.5q0 -36 29 -63.5t87 -58.5q71 -38 112.5 -84.5t41.5 -110.5q0 -82 -65 -136.5t-179 -54.5zM87 -304l-19 37q55 32 81.5 58.5t29.5 40.5q-19 10 -29 26
t-10 29q0 28 19.5 48t47.5 20t48 -20.5t20 -53.5q0 -48 -53.5 -101t-134.5 -84z" />
    <glyph glyph-name="scommaaccent" unicode="&#x219;" horiz-adv-x="449" 
d="M208 -8q-109 0 -164 55q-29 29 -29 62q0 28 16 45t41 17q22 0 38.5 -16.5t16.5 -38.5q0 -16 -6 -24q6 -4 15 -9q29 -13 73 -13q34 0 56.5 10.5t22.5 30.5q0 5 -1.5 10t-5 9.5t-7 8t-10 8t-11.5 7t-14 6.5t-14.5 6.5t-15.5 7t-16 6.5q-55 22 -87 50t-32 78q0 57 47.5 97.5
t133.5 40.5q96 0 145 -51q26 -26 26 -60q0 -27 -16.5 -44t-40.5 -17q-23 0 -39.5 17t-16.5 39q0 10 6 24q-8 4 -14 6q-22 8 -49 8q-30 0 -51.5 -10t-21.5 -30q0 -5 1.5 -9.5t5.5 -9t7 -8t10 -8t11.5 -7.5t14.5 -7.5t14.5 -6.5t16 -7t16.5 -7q54 -24 85.5 -52.5t31.5 -74.5
q0 -66 -49.5 -102.5t-139.5 -36.5zM25 -304l-19 37q55 32 81.5 58.5t29.5 40.5q-19 10 -29 26t-10 29q0 28 19.5 48t47.5 20t48 -20.5t20 -53.5q0 -48 -53.5 -101t-134.5 -84z" />
    <glyph glyph-name="schwa" unicode="&#x259;" horiz-adv-x="490" 
d="M32 161q0 44 16 95h301v7q0 39 -32 65.5t-91 26.5q-71 0 -145 -39l21 100q63 30 149 30q85 0 145.5 -50.5t60.5 -137.5q0 -111 -69 -188.5t-168 -77.5q-85 0 -136.5 44.5t-51.5 124.5zM218 82q40 0 71.5 26.5t46.5 71.5h-195q-4 -15 -4 -30q0 -68 81 -68z" />
    <glyph glyph-name="circumflex" unicode="&#x2c6;" horiz-adv-x="500" 
d="M190 495l-41 54l215 174l128 -179l-53 -46l-96 100z" />
    <glyph glyph-name="caron" unicode="&#x2c7;" horiz-adv-x="500" 
d="M314 486l-128 179l53 46l95 -100l154 103l41 -54z" />
    <glyph glyph-name="breve" unicode="&#x2d8;" horiz-adv-x="500" 
d="M320 502q-65 0 -104.5 46.5t-41.5 135.5l67 21q14 -56 36 -82t60 -26q34 0 65 24t68 82l59 -26q-36 -88 -93 -131.5t-116 -43.5z" />
    <glyph glyph-name="dotaccent" unicode="&#x2d9;" horiz-adv-x="500" 
d="M330 511q-29 0 -50.5 21t-21.5 51t22 51t52 21q29 0 50.5 -21t21.5 -51t-22 -51t-52 -21z" />
    <glyph glyph-name="ring" unicode="&#x2da;" horiz-adv-x="500" 
d="M330 502q-53 0 -84.5 33t-31.5 81q0 59 42.5 103.5t103.5 44.5q53 0 84.5 -33t31.5 -81q0 -59 -42.5 -103.5t-103.5 -44.5zM335 572q26 0 43 22t17 51q0 20 -11 34.5t-29 14.5q-26 0 -43 -22t-17 -51q0 -20 11 -34.5t29 -14.5z" />
    <glyph glyph-name="ogonek" unicode="&#x2db;" horiz-adv-x="500" 
d="M293 74l21 -33q-118 -76 -118 -125q0 -32 39 -32q28 0 56 8l-17 -67q-34 -26 -87 -26q-36 0 -62.5 22t-26.5 61q0 103 195 192z" />
    <glyph glyph-name="tilde" unicode="&#x2dc;" horiz-adv-x="500" 
d="M403 500q-43 0 -87 42q-33 32 -52 32q-20 0 -36.5 -14.5t-35.5 -53.5l-61 25q20 69 58.5 109t80.5 40q43 0 87 -42q33 -32 52 -32q20 0 36.5 14.5t35.5 53.5l61 -25q-20 -69 -58.5 -109t-80.5 -40z" />
    <glyph glyph-name="hungarumlaut" unicode="&#x2dd;" horiz-adv-x="500" 
d="M153 498l-31 36l123 139q24 27 54 27q20 0 34 -15t14 -35q0 -35 -36 -58zM363 498l-31 36l123 139q24 27 54 27q20 0 34 -15t14 -35q0 -35 -36 -58z" />
    <glyph glyph-name="commaaccent" unicode="&#x326;" horiz-adv-x="207" 
d="M9 -304l-19 37q55 32 81.5 58.5t29.5 40.5q-19 10 -29 26t-10 29q0 28 19.5 48t47.5 20t48 -20.5t20 -53.5q0 -48 -53.5 -101t-134.5 -84z" />
    <glyph glyph-name="Wgrave" unicode="&#x1e80;" horiz-adv-x="983" 
d="M224 -6l-56 563h-71l23 101h270l-23 -101h-83l23 -346l225 383h56l85 -387l155 350h-80l23 101h270l-23 -101h-62l-279 -562h-59l-94 387l-242 -387zM606 708l-114 114q-22 22 -22 50q0 23 15.5 38.5t35.5 15.5q37 0 57 -43l67 -149z" />
    <glyph glyph-name="wgrave" unicode="&#x1e81;" horiz-adv-x="708" 
d="M139 -8l-40 354h-80l24 92h152l15 -318l139 273h73l52 -277q96 146 104 203q-19 6 -32 22.5t-13 39.5q0 27 19 46t46 19q36 0 57.5 -24t21.5 -66q0 -102 -191 -364h-74l-52 241l-137 -241h-84zM424 483l-114 114q-22 22 -22 50q0 23 15.5 38.5t35.5 15.5q37 0 57 -43
l67 -149z" />
    <glyph glyph-name="Wacute" unicode="&#x1e82;" horiz-adv-x="983" 
d="M224 -6l-56 563h-71l23 101h270l-23 -101h-83l23 -346l225 383h56l85 -387l155 350h-80l23 101h270l-23 -101h-62l-279 -562h-59l-94 387l-242 -387zM599 723l-31 36l123 139q24 27 54 27q20 0 34 -15t14 -35q0 -35 -36 -58z" />
    <glyph glyph-name="wacute" unicode="&#x1e83;" horiz-adv-x="708" 
d="M139 -8l-40 354h-80l24 92h152l15 -318l139 273h73l52 -277q96 146 104 203q-19 6 -32 22.5t-13 39.5q0 27 19 46t46 19q36 0 57.5 -24t21.5 -66q0 -102 -191 -364h-74l-52 241l-137 -241h-84zM417 498l-31 36l123 139q24 27 54 27q20 0 34 -15t14 -35q0 -35 -36 -58z
" />
    <glyph glyph-name="Wdieresis" unicode="&#x1e84;" horiz-adv-x="983" 
d="M224 -6l-56 563h-71l23 101h270l-23 -101h-83l23 -346l225 383h56l85 -387l155 350h-80l23 101h270l-23 -101h-62l-279 -562h-59l-94 387l-242 -387zM723 736q-29 0 -50.5 21t-21.5 51t22 51t52 21q29 0 50.5 -21t21.5 -51t-22 -51t-52 -21zM517 736q-29 0 -50.5 21
t-21.5 51t22 51t52 21q29 0 50.5 -21t21.5 -51t-22 -51t-52 -21z" />
    <glyph glyph-name="wdieresis" unicode="&#x1e85;" horiz-adv-x="708" 
d="M139 -8l-40 354h-80l24 92h152l15 -318l139 273h73l52 -277q96 146 104 203q-19 6 -32 22.5t-13 39.5q0 27 19 46t46 19q36 0 57.5 -24t21.5 -66q0 -102 -191 -364h-74l-52 241l-137 -241h-84zM335 511q-29 0 -50.5 21t-21.5 51t22 51t52 21q29 0 50.5 -21t21.5 -51
t-22 -51t-52 -21zM541 511q-29 0 -50.5 21t-21.5 51t22 51t52 21q29 0 50.5 -21t21.5 -51t-22 -51t-52 -21z" />
    <glyph glyph-name="Ygrave" unicode="&#x1ef2;" horiz-adv-x="649" 
d="M127 0l23 101h76l36 154l-114 302h-63l23 101h249l-23 -101h-69l74 -222l176 222h-70l23 101h264l-23 -101h-59l-280 -323l-31 -133h86l-23 -101h-275zM431 708l-114 114q-22 22 -22 50q0 23 15.5 38.5t35.5 15.5q37 0 57 -43l67 -149z" />
    <glyph glyph-name="ygrave" unicode="&#x1ef3;" horiz-adv-x="501" 
d="M-7 -200q-38 0 -61.5 21.5t-23.5 50.5q0 28 18.5 45.5t44.5 17.5q19 0 35 -11.5t22 -29.5q17 2 48 31.5t92 101.5l-66 319h-74l24 92h143l52 -327q109 143 126 203q-43 18 -43 64q0 29 20 48.5t49 19.5q37 0 58 -24.5t21 -66.5q0 -101 -188 -329q-81 -99 -137.5 -149.5
t-88 -63.5t-71.5 -13zM303 483l-114 114q-22 22 -22 50q0 23 15.5 38.5t35.5 15.5q37 0 57 -43l67 -149z" />
    <glyph glyph-name="enspace" unicode="&#x2002;" horiz-adv-x="500" 
 />
    <glyph glyph-name="emspace" unicode="&#x2003;" horiz-adv-x="1000" 
 />
    <glyph glyph-name="threeperemspace" unicode="&#x2004;" horiz-adv-x="333" 
 />
    <glyph glyph-name="fourperemspace" unicode="&#x2005;" horiz-adv-x="250" 
 />
    <glyph glyph-name="figurespace" unicode="&#x2007;" horiz-adv-x="530" 
 />
    <glyph glyph-name="thinspace" unicode="&#x2009;" horiz-adv-x="133" 
 />
    <glyph glyph-name="hairspace" unicode="&#x200a;" horiz-adv-x="75" 
 />
    <glyph glyph-name="endash" unicode="&#x2013;" horiz-adv-x="611" 
d="M48 232l24 102h525l-24 -102h-525z" />
    <glyph glyph-name="emdash" unicode="&#x2014;" horiz-adv-x="897" 
d="M48 232l24 102h811l-24 -102h-811z" />
    <glyph glyph-name="quoteleft" unicode="&#x2018;" horiz-adv-x="279" 
d="M169 356q-35 0 -59.5 25t-24.5 66q0 60 65.5 125t165.5 103l24 -46q-69 -39 -101.5 -71.5t-35.5 -50.5q23 -11 35.5 -31.5t12.5 -36.5q0 -34 -24 -58.5t-58 -24.5z" />
    <glyph glyph-name="quoteright" unicode="&#x2019;" horiz-adv-x="279" 
d="M84 351l-24 46q69 39 101.5 71.5t35.5 50.5q-23 11 -35.5 31.5t-12.5 36.5q0 34 24 58.5t58 24.5q35 0 59.5 -25t24.5 -66q0 -60 -65.5 -125t-165.5 -103z" />
    <glyph glyph-name="quotesinglbase" unicode="&#x201a;" horiz-adv-x="266" 
d="M-30 -162l-24 46q69 39 101.5 71.5t35.5 50.5q-23 11 -35.5 31.5t-12.5 36.5q0 34 24 58.5t58 24.5q35 0 59.5 -25t24.5 -66q0 -60 -65.5 -125t-165.5 -103z" />
    <glyph glyph-name="quotedblleft" unicode="&#x201c;" horiz-adv-x="505" 
d="M400 364q-34 0 -58 24.5t-24 63.5q0 58 63.5 121.5t160.5 99.5l24 -45q-67 -38 -98.5 -69t-34.5 -49q22 -10 34 -30t12 -36q0 -34 -23.5 -57t-55.5 -23zM167 364q-34 0 -58 24.5t-24 63.5q0 58 63.5 121.5t160.5 99.5l24 -45q-67 -38 -98.5 -69t-34.5 -49q22 -10 34 -30
t12 -36q0 -34 -23 -57t-56 -23z" />
    <glyph glyph-name="quotedblright" unicode="&#x201d;" horiz-adv-x="505" 
d="M317 361l-24 45q67 38 98.5 69t34.5 49q-22 10 -34 30t-12 36q0 34 23 57t56 23q34 0 58 -24.5t24 -63.5q0 -58 -63.5 -121.5t-160.5 -99.5zM84 361l-24 45q67 38 98.5 69t34.5 49q-22 10 -34 30t-12 36q0 34 23.5 57t55.5 23q34 0 58 -24.5t24 -63.5q0 -58 -63.5 -121.5
t-160.5 -99.5z" />
    <glyph glyph-name="quotedblbase" unicode="&#x201e;" horiz-adv-x="484" 
d="M199 -154l-22 44q65 37 96 68t34 48q-22 10 -34 29.5t-12 34.5q0 33 23 56t55 23q33 0 56.5 -23.5t23.5 -62.5q0 -57 -62.5 -118.5t-157.5 -98.5zM-32 -154l-22 44q65 37 96 68t34 48q-22 10 -34 29.5t-12 34.5q0 33 23 56t55 23q33 0 56.5 -23.5t23.5 -62.5
q0 -57 -62.5 -118.5t-157.5 -98.5z" />
    <glyph glyph-name="dagger" unicode="&#x2020;" horiz-adv-x="506" 
d="M171 -2l65 375l-67 7q-1 -26 -18 -42t-41 -16q-26 0 -45 17.5t-19 44.5q0 32 23 52.5t61 20.5q22 0 47 -6l93 -21l7 139q3 79 63 79q34 0 49 -25.5t1 -55.5l-64 -141l91 21q17 4 36 4q35 0 56.5 -17t21.5 -48q0 -28 -18.5 -46t-45.5 -18q-24 0 -40.5 16t-18.5 39l-72 -7
l-115 -372h-50z" />
    <glyph glyph-name="daggerdbl" unicode="&#x2021;" horiz-adv-x="526" 
d="M256 68l-7 -125q-3 -71 -56 -71q-29 0 -43.5 22t-1.5 51l57 127l-82 -19q-22 -4 -31 -4q-32 0 -51.5 15t-19.5 43q0 26 16.5 42t40.5 16q22 0 37 -14.5t17 -34.5l64 6l55 140l12 139l-61 6q-1 -23 -16 -37.5t-37 -14.5q-23 0 -40 15.5t-17 40.5q0 29 20.5 47t57.5 18
q15 0 40 -5l83 -19l7 125q3 71 56 71q29 0 43.5 -22t1.5 -51l-57 -127l82 19q15 4 31 4q32 0 51.5 -15t19.5 -43q0 -26 -16.5 -42t-40.5 -16q-22 0 -37 14.5t-17 34.5l-64 -6l-55 -140l-12 -139l61 -6q1 23 16 37.5t37 14.5q23 0 40 -15.5t17 -40.5q0 -29 -20.5 -47
t-57.5 -18q-15 0 -40 5z" />
    <glyph glyph-name="bullet" unicode="&#x2022;" horiz-adv-x="344" 
d="M195 149q-53 0 -90.5 38t-37.5 92t37.5 92.5t90.5 38.5t90.5 -38.5t37.5 -92.5t-37.5 -92t-90.5 -38z" />
    <glyph glyph-name="ellipsis" unicode="&#x2026;" horiz-adv-x="706" 
d="M557 -8q-32 0 -54.5 22.5t-22.5 54.5t22.5 54.5t54.5 22.5t54.5 -22.5t22.5 -54.5t-22.5 -54.5t-54.5 -22.5zM327 -8q-32 0 -54.5 22.5t-22.5 54.5t22.5 54.5t54.5 22.5t54.5 -22.5t22.5 -54.5t-22.5 -54.5t-54.5 -22.5zM97 -8q-32 0 -54.5 22.5t-22.5 54.5t22.5 54.5
t54.5 22.5t54.5 -22.5t22.5 -54.5t-22.5 -54.5t-54.5 -22.5z" />
    <glyph glyph-name="perthousand" unicode="&#x2030;" horiz-adv-x="972" 
d="M73 2l-38 45q172 130 312 244q152 124 299 253l38 -45q-164 -124 -308 -241q-76 -62 -303 -256zM181 335q25 0 44.5 24t19.5 55q0 24 -13 39.5t-36 15.5q-25 0 -44.5 -24t-19.5 -55q0 -24 13 -39.5t36 -15.5zM177 271q-52 0 -86 33t-34 85q0 59 41 101.5t102 42.5
q52 0 86 -33t34 -85q0 -59 -41 -101.5t-102 -42.5zM498 56q25 0 44.5 24t19.5 55q0 24 -13 39.5t-36 15.5q-25 0 -44.5 -24t-19.5 -55q0 -24 13 -39.5t36 -15.5zM494 -8q-52 0 -86 33t-34 85q0 59 41 101.5t102 42.5q52 0 86 -33t34 -85q0 -59 -41 -101.5t-102 -42.5z
M798 56q25 0 44.5 24t19.5 55q0 24 -13 39.5t-36 15.5q-25 0 -44.5 -24t-19.5 -55q0 -24 13 -39.5t36 -15.5zM794 -8q-52 0 -86 33t-34 85q0 59 41 101.5t102 42.5q52 0 86 -33t34 -85q0 -59 -41 -101.5t-102 -42.5z" />
    <glyph glyph-name="guilsinglleft" unicode="&#x2039;" horiz-adv-x="315" 
d="M199 91l-164 191l243 191l51 -60l-158 -143l88 -126z" />
    <glyph glyph-name="guilsinglright" unicode="&#x203a;" horiz-adv-x="315" 
d="M71 91l-51 60l158 143l-88 126l60 53l164 -191z" />
    <glyph glyph-name="fraction" unicode="&#x2044;" horiz-adv-x="500" 
d="M-1 -16l-40 34q109 122 273 316q138 162 263 324l40 -34q-109 -122 -273 -316q-153 -181 -263 -324z" />
    <glyph glyph-name="zero.sup" unicode="&#x2070;" 
d="M246 422q-58 0 -91 39.5t-33 111.5q0 93 49.5 158.5t120.5 65.5q58 0 91 -39.5t33 -111.5q0 -93 -49.5 -158.5t-120.5 -65.5zM249 486q41 0 68.5 49.5t27.5 115.5q0 39 -14.5 60.5t-41.5 21.5q-41 0 -68.5 -49.5t-27.5 -115.5q0 -82 56 -82z" />
    <glyph glyph-name="four.sup" unicode="&#x2074;" 
d="M264 485l13 52h-161l-10 35l232 235l43 -41l-181 -176h90l13 49l71 26l-17 -71h56l-14 -57h-56l-12 -52h42l-13 -55h-170l13 55h61z" />
    <glyph glyph-name="five.sup" unicode="&#x2075;" 
d="M229 423q-53 0 -87 25t-34 55q0 19 11.5 32.5t31.5 13.5q18 0 30.5 -12.5t12.5 -30.5q0 -4 -2 -14q14 -7 41 -7q38 0 65 19.5t27 50.5q0 25 -18 38.5t-47 13.5q-34 0 -71 -15l-39 26l55 174h217l-15 -66h-159l-25 -76q32 12 66 12q43 0 73.5 -28.5t30.5 -73.5
q0 -59 -50 -98t-114 -39z" />
    <glyph glyph-name="six.sup" unicode="&#x2076;" 
d="M155 458q-34 34 -34 100q0 120 84 195q53 46 116 46q42 0 71 -21t29 -51q0 -18 -12 -30t-29 -12q-16 0 -28 11.5t-12 28.5q0 6 2 12q-12 4 -22 4q-41 0 -77 -33q-34 -33 -51 -90q39 42 90 42q49 0 81.5 -29t32.5 -74q0 -59 -43.5 -96.5t-104.5 -37.5q-58 0 -93 35z
M245 485q37 0 58.5 19t21.5 47q0 22 -15.5 37.5t-40.5 15.5q-33 0 -56.5 -20.5t-23.5 -46.5q0 -22 14 -36q16 -16 42 -16z" />
    <glyph glyph-name="seven.sup" unicode="&#x2077;" 
d="M150 430l214 303h-133l-16 -70h-63l30 129h245l22 -41l-219 -321h-80z" />
    <glyph glyph-name="eight.sup" unicode="&#x2078;" 
d="M252 424q-61 0 -99.5 29t-38.5 72q0 75 92 99q-54 26 -54 76q0 38 36.5 67.5t98.5 29.5q58 0 94.5 -29t36.5 -72q0 -66 -81 -85q60 -27 60 -79q0 -44 -37.5 -76t-107.5 -32zM283 642q28 0 45 13.5t17 36.5q0 20 -16.5 33.5t-41.5 13.5q-28 0 -46 -13t-18 -35
q0 -21 17.5 -35t42.5 -14zM253 483q33 0 52.5 14.5t19.5 38.5q0 20 -17.5 35.5t-48.5 15.5q-33 0 -53 -15t-20 -39q0 -21 19 -35.5t48 -14.5z" />
    <glyph glyph-name="nine.sup" unicode="&#x2079;" 
d="M145 665q0 59 43.5 96.5t104.5 37.5q58 0 93 -35q34 -34 34 -100q0 -120 -84 -195q-53 -46 -116 -46q-42 0 -71 21t-29 51q0 18 12 30t29 12t28.5 -11.5t11.5 -28.5q0 -6 -2 -12q12 -4 22 -4q41 0 77 33q34 31 51 90q-37 -42 -90 -42q-49 0 -81.5 29t-32.5 74zM296 737
q-37 0 -58.5 -19t-21.5 -47q0 -22 15.5 -37.5t40.5 -15.5q33 0 56.5 20.5t23.5 46.5q0 22 -14 36q-16 16 -42 16z" />
    <glyph glyph-name="zero.inf" unicode="&#x2080;" 
d="M113 -148q-58 0 -91 39.5t-33 111.5q0 93 49.5 158.5t120.5 65.5q58 0 91 -39.5t33 -111.5q0 -93 -49.5 -158.5t-120.5 -65.5zM116 -84q41 0 68.5 49.5t27.5 115.5q0 39 -14.5 60.5t-41.5 21.5q-41 0 -68.5 -49.5t-27.5 -115.5q0 -82 56 -82z" />
    <glyph glyph-name="one.inf" unicode="&#x2081;" 
d="M-22 -140l14 64h92l52 227l-87 -22l-5 64l141 35l36 -16l-66 -288h90l-14 -64h-253z" />
    <glyph glyph-name="two.inf" unicode="&#x2082;" 
d="M233 -140h-258l-14 33q39 98 180 166q38 19 56 34.5t18 34.5q0 38 -58 38q-34 0 -49 -13q8 -10 8 -25q0 -17 -12 -29t-29 -12q-18 0 -30 12.5t-12 31.5q0 42 41 70t91 28q53 0 88 -26.5t35 -72.5q0 -28 -20 -53t-42.5 -38.5t-57.5 -30.5q-88 -42 -118 -89h138l14 59h59z
" />
    <glyph glyph-name="three.inf" unicode="&#x2083;" 
d="M115 -146q-51 0 -94 23.5t-43 69.5q0 19 12.5 31.5t29.5 12.5t29 -12t12 -29q0 -12 -6 -22q14 -14 59 -14q34 0 53 14t19 38q0 16 -17 31.5t-52 15.5h-31l15 65h29q36 0 59.5 13t23.5 35q0 18 -18.5 29.5t-45.5 11.5q-18 0 -33 -4q2 -8 2 -13q0 -17 -12 -29t-29 -12
t-29.5 12t-12.5 30q0 29 31.5 52.5t88.5 23.5q62 0 98 -29t36 -64q0 -42 -28.5 -65.5t-81.5 -26.5q80 -19 80 -82q0 -51 -43.5 -78.5t-100.5 -27.5z" />
    <glyph glyph-name="four.inf" unicode="&#x2084;" 
d="M131 -85l13 52h-161l-10 35l232 235l43 -41l-181 -176h90l13 49l71 26l-17 -71h56l-14 -57h-56l-12 -52h42l-13 -55h-170l13 55h61z" />
    <glyph glyph-name="five.inf" unicode="&#x2085;" 
d="M96 -147q-53 0 -87 25t-34 55q0 19 11.5 32.5t31.5 13.5q18 0 30.5 -12.5t12.5 -30.5q0 -4 -2 -14q14 -7 41 -7q38 0 65 19.5t27 50.5q0 25 -18 38.5t-47 13.5q-33 0 -71 -15l-39 26l55 174h217l-15 -66h-159l-25 -76q32 12 66 12q43 0 73.5 -28.5t30.5 -73.5
q0 -59 -50 -98t-114 -39z" />
    <glyph glyph-name="six.inf" unicode="&#x2086;" 
d="M22 -112q-34 34 -34 100q0 120 84 195q53 46 116 46q42 0 71 -21t29 -51q0 -18 -12 -30t-29 -12t-28.5 11.5t-11.5 28.5q0 6 2 12q-12 4 -22 4q-41 0 -77 -33q-34 -33 -51 -90q39 42 90 42q49 0 81.5 -29t32.5 -74q0 -59 -43.5 -96.5t-104.5 -37.5q-58 0 -93 35zM112 -85
q37 0 58.5 19t21.5 47q0 22 -15.5 37.5t-40.5 15.5q-33 0 -56.5 -20.5t-23.5 -46.5q0 -22 14 -36q16 -16 42 -16z" />
    <glyph glyph-name="seven.inf" unicode="&#x2087;" 
d="M17 -140l214 303h-133l-16 -70h-63l30 129h245l22 -41l-219 -321h-80z" />
    <glyph glyph-name="eight.inf" unicode="&#x2088;" 
d="M119 -146q-61 0 -99.5 29t-38.5 72q0 75 92 99q-54 26 -54 76q0 38 36.5 67.5t98.5 29.5q58 0 94.5 -29t36.5 -72q0 -66 -81 -85q60 -27 60 -79q0 -44 -37.5 -76t-107.5 -32zM150 72q28 0 45 13.5t17 36.5q0 20 -16.5 33.5t-41.5 13.5q-28 0 -46 -13t-18 -35
q0 -21 17.5 -35t42.5 -14zM120 -87q33 0 52.5 14.5t19.5 38.5q0 20 -17.5 35.5t-48.5 15.5q-33 0 -53 -15t-20 -39q0 -21 19 -35.5t48 -14.5z" />
    <glyph glyph-name="nine.inf" unicode="&#x2089;" 
d="M12 95q0 59 43.5 96.5t104.5 37.5q58 0 93 -35q34 -34 34 -100q0 -120 -84 -195q-53 -46 -116 -46q-42 0 -71 21t-29 51q0 18 12 30t29 12q16 0 28 -11.5t12 -28.5q0 -6 -2 -12q12 -4 22 -4q41 0 77 33q34 33 51 90q-37 -42 -90 -42q-49 0 -81.5 29t-32.5 74zM163 167
q-37 0 -58.5 -19t-21.5 -47q0 -22 15.5 -37.5t40.5 -15.5q33 0 56.5 20.5t23.5 46.5q0 22 -14 36q-16 16 -42 16z" />
    <glyph glyph-name="Euro" unicode="&#x20ac;" horiz-adv-x="637" 
d="M49 238h68q0 28 6 53h-72l19 82h78q38 76 111.5 118t165.5 42q76 0 134.5 -44t58.5 -103q0 -37 -20.5 -58.5t-51.5 -21.5q-28 0 -47.5 19.5t-19.5 46.5q0 24 17 43q-18 21 -74 21q-111 0 -162 -68h145l-18 -77h-159q-7 -30 -7 -53h163l-18 -77h-136q32 -74 144 -74
q78 0 154 58l53 -71q-92 -83 -214 -83q-88 0 -156 40t-90 125h-91z" />
    <glyph glyph-name="published" unicode="&#x2117;" horiz-adv-x="620" 
d="M310 -8q-113 0 -191.5 78.5t-78.5 191.5t78.5 192t191.5 79t191.5 -79t78.5 -192q0 -112 -79 -191t-191 -79zM310 38q90 0 154 65.5t64 158.5q0 95 -63 160t-155 65t-155 -65t-63 -160t63 -159.5t155 -64.5zM221 130v40h30v183h-30v40h106q43 0 71 -23t28 -63
q0 -44 -28 -67t-76 -23h-26v-47h33v-40h-108zM326 257q25 0 39.5 13.5t14.5 36.5q0 21 -15.5 33.5t-40.5 12.5h-28v-95q5 -1 30 -1z" />
    <glyph glyph-name="servicemark" unicode="&#x2120;" horiz-adv-x="651" 
d="M193 397q-35 0 -60.5 18.5t-25.5 42.5q0 17 9.5 28t24.5 11q30 0 30 -26q0 -12 -8 -18q9 -11 37 -11q43 0 43 33q0 9 -6 16t-12.5 10.5t-18 8.5t-15.5 7q-47 23 -47 65q0 37 29 59.5t71 22.5q36 0 60.5 -17.5t24.5 -40.5q0 -15 -9.5 -25.5t-24.5 -10.5q-13 0 -20.5 7.5
t-7.5 18.5q0 8 5 13q-12 10 -36 10q-14 0 -24.5 -7.5t-10.5 -20.5q0 -8 6 -15t11 -9.5t17.5 -8t14.5 -6.5q50 -23 50 -70q0 -40 -31 -62.5t-76 -22.5zM318 405l9 44h33l47 165h-37l10 44h96l29 -138l91 138h102l-10 -44h-36l-32 -165h34l-10 -44h-113l8 44h32l26 134
l-96 -137h-23l-32 137l-38 -134h33l-10 -44h-113z" />
    <glyph glyph-name="trademark" unicode="&#x2122;" horiz-adv-x="671" 
d="M338 405l9 44h33l47 165h-37l10 44h96l29 -138l91 138h102l-10 -44h-36l-32 -165h34l-10 -44h-113l8 44h32l26 134l-96 -137h-23l-32 137l-38 -134h33l-10 -44h-113zM126 405l8 44h35l40 167h-47l-10 -44h-45l20 86h235l-20 -86h-46l12 44h-46l-40 -167h34l-10 -44h-120z
" />
    <glyph glyph-name="onethird" unicode="&#x2153;" horiz-adv-x="795" 
d="M58 280l14 64h92l52 227l-87 -22l-5 64l141 35l36 -16l-66 -288h90l-14 -64h-253zM579 -6q-51 0 -94 23.5t-43 69.5q0 19 12.5 31.5t29.5 12.5t29 -12t12 -29q0 -12 -6 -22q14 -14 59 -14q34 0 53 14t19 38q0 16 -17 31.5t-52 15.5h-31l15 65h29q36 0 59.5 13t23.5 35
q0 18 -18.5 29.5t-45.5 11.5q-18 0 -33 -4q2 -8 2 -13q0 -17 -12 -29t-29 -12t-29.5 12t-12.5 30q0 29 31.5 52.5t88.5 23.5q62 0 98 -29t36 -64q0 -42 -28.5 -65.5t-81.5 -26.5q80 -19 80 -82q0 -51 -43.5 -78.5t-100.5 -27.5zM177 -16l-40 34q109 122 273 316
q138 162 263 324l40 -34q-109 -122 -273 -316q-153 -181 -263 -324z" />
    <glyph glyph-name="twothirds" unicode="&#x2154;" horiz-adv-x="795" 
d="M327 280h-258l-14 33q39 98 180 166q38 19 56 34.5t18 34.5q0 38 -58 38q-34 0 -49 -13q8 -10 8 -25q0 -17 -12 -29t-29 -12q-18 0 -30 12.5t-12 31.5q0 42 41 70t91 28q53 0 88 -26.5t35 -72.5q0 -28 -20 -53t-42.5 -38.5t-57.5 -30.5q-88 -42 -118 -89h138l14 59h59z
M588 -6q-51 0 -94 23.5t-43 69.5q0 19 12.5 31.5t29.5 12.5t29 -12t12 -29q0 -12 -6 -22q14 -14 59 -14q34 0 53 14t19 38q0 16 -17 31.5t-52 15.5h-31l15 65h29q36 0 59.5 13t23.5 35q0 18 -18.5 29.5t-45.5 11.5q-18 0 -33 -4q2 -8 2 -13q0 -17 -12 -29t-29 -12t-29.5 12
t-12.5 30q0 29 31.5 52.5t88.5 23.5q62 0 98 -29t36 -64q0 -42 -28.5 -65.5t-81.5 -26.5q80 -19 80 -82q0 -51 -43.5 -78.5t-100.5 -27.5zM188 -16l-40 34q109 122 273 316q138 162 263 324l40 -34q-109 -122 -273 -316q-153 -181 -263 -324z" />
    <glyph glyph-name="onefifth" unicode="&#x2155;" horiz-adv-x="795" 
d="M61 280l14 64h92l52 227l-87 -22l-5 64l141 35l36 -16l-66 -288h90l-14 -64h-253zM560 -7q-53 0 -87 25t-34 55q0 19 11.5 32.5t31.5 13.5q18 0 30.5 -12.5t12.5 -30.5q0 -4 -2 -14q14 -7 41 -7q38 0 65 19.5t27 50.5q0 25 -18 38.5t-47 13.5q-33 0 -71 -15l-39 26
l55 174h217l-15 -66h-159l-25 -76q32 12 66 12q43 0 73.5 -28.5t30.5 -73.5q0 -59 -50 -98t-114 -39zM175 -16l-40 34q109 122 273 316q138 162 263 324l40 -34q-109 -122 -273 -316q-153 -181 -263 -324z" />
    <glyph glyph-name="twofifths" unicode="&#x2156;" horiz-adv-x="795" 
d="M337 280h-258l-14 33q39 98 180 166q38 19 56 34.5t18 34.5q0 38 -58 38q-34 0 -49 -13q8 -10 8 -25q0 -17 -12 -29t-29 -12q-18 0 -30 12.5t-12 31.5q0 42 41 70t91 28q53 0 88 -26.5t35 -72.5q0 -28 -20 -53t-42.5 -38.5t-57.5 -30.5q-88 -42 -118 -89h138l14 59h59z
M570 -7q-53 0 -87 25t-34 55q0 19 11.5 32.5t31.5 13.5q18 0 30.5 -12.5t12.5 -30.5q0 -4 -2 -14q14 -7 41 -7q38 0 65 19.5t27 50.5q0 25 -18 38.5t-47 13.5q-33 0 -71 -15l-39 26l55 174h217l-15 -66h-159l-25 -76q32 12 66 12q43 0 73.5 -28.5t30.5 -73.5q0 -59 -50 -98
t-114 -39zM191 -16l-40 34q109 122 273 316q138 162 263 324l40 -34q-109 -122 -273 -316q-153 -181 -263 -324z" />
    <glyph glyph-name="threefifths" unicode="&#x2157;" horiz-adv-x="795" 
d="M565 -7q-53 0 -87 25t-34 55q0 19 11.5 32.5t31.5 13.5q18 0 30.5 -12.5t12.5 -30.5q0 -4 -2 -14q14 -7 41 -7q38 0 65 19.5t27 50.5q0 25 -18 38.5t-47 13.5q-34 0 -71 -15l-39 26l55 174h217l-15 -66h-159l-25 -76q32 12 66 12q43 0 73.5 -28.5t30.5 -73.5
q0 -59 -50 -98t-114 -39zM215 274q-51 0 -94 23.5t-43 69.5q0 19 12.5 31.5t29.5 12.5t29 -12t12 -29q0 -12 -6 -22q14 -14 59 -14q34 0 53 14t19 38q0 16 -17 31.5t-52 15.5h-31l15 65h29q36 0 59.5 13t23.5 35q0 18 -18.5 29.5t-45.5 11.5q-18 0 -33 -4q2 -8 2 -13
q0 -17 -12 -29t-29 -12t-29.5 12t-12.5 30q0 29 31.5 52.5t88.5 23.5q62 0 98 -29t36 -64q0 -42 -28.5 -65.5t-81.5 -26.5q80 -19 80 -82q0 -51 -43.5 -78.5t-100.5 -27.5zM177 -16l-40 34q109 122 273 316q138 162 263 324l40 -34q-109 -122 -273 -316q-153 -181 -263 -324
z" />
    <glyph glyph-name="fourfifths" unicode="&#x2158;" horiz-adv-x="795" 
d="M567 -7q-53 0 -87 25t-34 55q0 19 11.5 32.5t31.5 13.5q18 0 30.5 -12.5t12.5 -30.5q0 -4 -2 -14q14 -7 41 -7q38 0 65 19.5t27 50.5q0 25 -18 38.5t-47 13.5q-34 0 -71 -15l-39 26l55 174h217l-15 -66h-159l-25 -76q32 12 66 12q43 0 73.5 -28.5t30.5 -73.5
q0 -59 -50 -98t-114 -39zM231 335l13 52h-161l-10 35l232 235l43 -41l-181 -176h90l13 49l71 26l-17 -71h56l-14 -57h-56l-12 -52h42l-13 -55h-170l13 55h61zM183 -16l-40 34q109 122 273 316q138 162 263 324l40 -34q-109 -122 -273 -316q-153 -181 -263 -324z" />
    <glyph glyph-name="onesixth" unicode="&#x2159;" horiz-adv-x="795" 
d="M479 28q-34 34 -34 100q0 120 84 195q53 46 116 46q42 0 71 -21t29 -51q0 -18 -12 -30t-29 -12q-16 0 -28 11.5t-12 28.5q0 6 2 12q-12 4 -22 4q-41 0 -77 -33q-34 -33 -51 -90q39 42 90 42q49 0 81.5 -29t32.5 -74q0 -59 -43.5 -96.5t-104.5 -37.5q-58 0 -93 35zM57 280
l14 64h92l52 227l-87 -22l-5 64l141 35l36 -16l-66 -288h90l-14 -64h-253zM170 -16l-40 34q109 122 273 316q138 162 263 324l40 -34q-109 -122 -273 -316q-153 -181 -263 -324zM569 55q37 0 58.5 19t21.5 47q0 22 -15.5 37.5t-40.5 15.5q-33 0 -56.5 -20.5t-23.5 -46.5
q0 -22 14 -36q16 -16 42 -16z" />
    <glyph glyph-name="fivesixths" unicode="&#x215a;" horiz-adv-x="795" 
d="M480 28q-34 34 -34 100q0 120 84 195q53 46 116 46q42 0 71 -21t29 -51q0 -18 -12 -30t-29 -12t-28.5 11.5t-11.5 28.5q0 6 2 12q-12 4 -22 4q-41 0 -77 -33q-34 -33 -51 -90q39 42 90 42q49 0 81.5 -29t32.5 -74q0 -59 -43.5 -96.5t-104.5 -37.5q-58 0 -93 35zM196 273
q-53 0 -87 25t-34 55q0 19 11.5 32.5t31.5 13.5q18 0 30.5 -12.5t12.5 -30.5q0 -4 -2 -14q14 -7 41 -7q38 0 65 19.5t27 50.5q0 25 -18 38.5t-47 13.5q-33 0 -71 -15l-39 26l55 174h217l-15 -66h-159l-25 -76q32 12 66 12q43 0 73.5 -28.5t30.5 -73.5q0 -59 -50 -98
t-114 -39zM172 -16l-40 34q109 122 273 316q138 162 263 324l40 -34q-109 -122 -273 -316q-153 -181 -263 -324zM570 55q37 0 58.5 19t21.5 47q0 22 -15.5 37.5t-40.5 15.5q-33 0 -56.5 -20.5t-23.5 -46.5q0 -22 14 -36q16 -16 42 -16z" />
    <glyph glyph-name="oneeighth" unicode="&#x215b;" horiz-adv-x="795" 
d="M58 280l14 64h92l52 227l-87 -22l-5 64l141 35l36 -16l-66 -288h90l-14 -64h-253zM581 -6q-61 0 -99.5 29t-38.5 72q0 75 92 99q-54 26 -54 76q0 38 36.5 67.5t98.5 29.5q58 0 94.5 -29t36.5 -72q0 -66 -81 -85q60 -27 60 -79q0 -44 -37.5 -76t-107.5 -32zM612 212
q28 0 45 13.5t17 36.5q0 20 -16.5 33.5t-41.5 13.5q-28 0 -46 -13t-18 -35q0 -21 17.5 -35t42.5 -14zM582 53q33 0 52.5 14.5t19.5 38.5q0 20 -17.5 35.5t-48.5 15.5q-33 0 -53 -15t-20 -39q0 -21 19 -35.5t48 -14.5zM168 -16l-40 34q109 122 273 316q138 162 263 324
l40 -34q-109 -122 -273 -316q-153 -181 -263 -324z" />
    <glyph glyph-name="threeeighths" unicode="&#x215c;" horiz-adv-x="795" 
d="M211 274q-51 0 -94 23.5t-43 69.5q0 19 12.5 31.5t29.5 12.5t29 -12t12 -29q0 -12 -6 -22q14 -14 59 -14q34 0 53 14t19 38q0 16 -17 31.5t-52 15.5h-31l15 65h29q36 0 59.5 13t23.5 35q0 18 -18.5 29.5t-45.5 11.5q-18 0 -33 -4q2 -8 2 -13q0 -17 -12 -29t-29 -12
t-29.5 12t-12.5 30q0 29 31.5 52.5t88.5 23.5q62 0 98 -29t36 -64q0 -42 -28.5 -65.5t-81.5 -26.5q80 -19 80 -82q0 -51 -43.5 -78.5t-100.5 -27.5zM582 -6q-61 0 -99.5 29t-38.5 72q0 75 92 99q-54 26 -54 76q0 38 36.5 67.5t98.5 29.5q58 0 94.5 -29t36.5 -72
q0 -66 -81 -85q60 -27 60 -79q0 -44 -37.5 -76t-107.5 -32zM613 212q28 0 45 13.5t17 36.5q0 20 -16.5 33.5t-41.5 13.5q-28 0 -46 -13t-18 -35q0 -21 17.5 -35t42.5 -14zM583 53q33 0 52.5 14.5t19.5 38.5q0 20 -17.5 35.5t-48.5 15.5q-33 0 -53 -15t-20 -39
q0 -21 19 -35.5t48 -14.5zM167 -16l-40 34q109 122 273 316q138 162 263 324l40 -34q-109 -122 -273 -316q-153 -181 -263 -324z" />
    <glyph glyph-name="fiveeighths" unicode="&#x215d;" horiz-adv-x="795" 
d="M576 -6q-61 0 -99.5 29t-38.5 72q0 75 92 99q-54 26 -54 76q0 38 36.5 67.5t98.5 29.5q58 0 94.5 -29t36.5 -72q0 -66 -81 -85q60 -27 60 -79q0 -44 -37.5 -76t-107.5 -32zM607 212q28 0 45 13.5t17 36.5q0 20 -16.5 33.5t-41.5 13.5q-28 0 -46 -13t-18 -35
q0 -21 17.5 -35t42.5 -14zM577 53q33 0 52.5 14.5t19.5 38.5q0 20 -17.5 35.5t-48.5 15.5q-33 0 -53 -15t-20 -39q0 -21 19 -35.5t48 -14.5zM194 273q-53 0 -87 25t-34 55q0 19 11.5 32.5t31.5 13.5q18 0 30.5 -12.5t12.5 -30.5q0 -4 -2 -14q14 -7 41 -7q38 0 65 19.5
t27 50.5q0 25 -18 38.5t-47 13.5q-33 0 -71 -15l-39 26l55 174h217l-15 -66h-159l-25 -76q32 12 66 12q43 0 73.5 -28.5t30.5 -73.5q0 -59 -50 -98t-114 -39zM160 -16l-40 34q109 122 273 316q138 162 263 324l40 -34q-109 -122 -273 -316q-153 -181 -263 -324z" />
    <glyph glyph-name="seveneighths" unicode="&#x215e;" horiz-adv-x="795" 
d="M127 280l214 303h-133l-16 -70h-63l30 129h245l22 -41l-219 -321h-80zM570 -6q-61 0 -99.5 29t-38.5 72q0 75 92 99q-54 26 -54 76q0 38 36.5 67.5t98.5 29.5q58 0 94.5 -29t36.5 -72q0 -66 -81 -85q60 -27 60 -79q0 -44 -37.5 -76t-107.5 -32zM601 212q28 0 45 13.5
t17 36.5q0 20 -16.5 33.5t-41.5 13.5q-28 0 -46 -13t-18 -35q0 -21 17.5 -35t42.5 -14zM571 53q33 0 52.5 14.5t19.5 38.5q0 20 -17.5 35.5t-48.5 15.5q-33 0 -53 -15t-20 -39q0 -21 19 -35.5t48 -14.5zM137 -16l-40 34q109 122 273 316q138 162 263 324l40 -34
q-109 -122 -273 -316q-153 -181 -263 -324z" />
    <glyph glyph-name="minus" unicode="&#x2212;" horiz-adv-x="464" 
d="M61 237l22 92h360l-22 -92h-360z" />
    <glyph glyph-name="Q.alt" horiz-adv-x="729" 
d="M352 -12q-132 0 -209.5 82t-77.5 213q0 95 46 183.5t131 146t187 57.5q132 0 209.5 -82t77.5 -213q0 -93 -46 -181t-124 -143l48 -130l-95 -34l-43 117q-53 -16 -104 -16zM362 91q27 0 51 7l-46 126l95 34l40 -109q45 42 71 103t26 124q0 84 -47.5 137.5t-132.5 53.5
q-66 0 -121 -42.5t-85.5 -107.5t-30.5 -135q0 -84 47.5 -137.5t132.5 -53.5z" />
    <glyph glyph-name="zero.lin" horiz-adv-x="660" 
d="M312 -12q-107 0 -174 71.5t-67 196.5q0 170 98 292t231 122q107 0 174 -71.5t67 -196.5q0 -170 -98 -292t-231 -122zM317 92q85 0 146 92.5t61 211.5q0 77 -34.5 123.5t-94.5 46.5q-85 0 -146 -92.5t-61 -211.5q0 -77 34.5 -123.5t94.5 -46.5z" />
    <glyph glyph-name="one.lin" horiz-adv-x="449" 
d="M19 1l23 101h118l103 445l-110 -26l-8 101l197 48l56 -26l-125 -542h116l-23 -101h-347z" />
    <glyph glyph-name="two.lin" horiz-adv-x="582" 
d="M26 0q-2 0 -7.5 13t-10.5 26l-4 13q22 55 59 102.5t85.5 84.5t86.5 60.5t91 51.5q70 36 106 69t36 73q0 36 -30.5 57t-80.5 21q-81 0 -108 -34q22 -22 22 -51q0 -28 -19.5 -48t-48.5 -20q-34 0 -53.5 22t-19.5 61q0 62 65 115.5t174 53.5q94 0 154.5 -47t60.5 -132
q0 -38 -16.5 -70.5t-50 -60t-66 -47.5t-81.5 -45q-170 -86 -223 -173h263l26 110h95l-48 -205h-457z" />
    <glyph glyph-name="three.lin" horiz-adv-x="564" 
d="M261 -10q-110 0 -172.5 45t-62.5 110q0 35 20 58.5t51 23.5q27 0 46.5 -19.5t19.5 -46.5t-21 -48q29 -27 125 -27q61 0 98.5 29.5t37.5 78.5q0 40 -36.5 67t-100.5 27h-51l24 101h44q74 0 120.5 27.5t46.5 72.5q0 42 -37 62.5t-92 20.5q-40 0 -65 -14q7 -16 7 -31
q0 -28 -19.5 -47.5t-47.5 -19.5q-31 0 -51 21t-20 56q0 49 56.5 90t164.5 41q100 0 161.5 -48.5t61.5 -121.5q0 -70 -46.5 -111t-131.5 -53q61 -17 94 -57t33 -95q0 -62 -39.5 -107t-96 -65t-121.5 -20z" />
    <glyph glyph-name="four.lin" horiz-adv-x="588" 
d="M505 428l-35 -149h103l-22 -93h-102l-21 -91h77l-22 -95h-300l22 92h113l22 96h-299l-15 54l432 440l72 -68l-339 -337h169l25 106z" />
    <glyph glyph-name="five.lin" horiz-adv-x="532" 
d="M228 -12q-91 0 -151.5 39.5t-60.5 93.5q0 35 21 56.5t51 21.5q28 0 48.5 -20.5t20.5 -48.5q0 -14 -6 -27q24 -17 85 -17q74 0 118 37.5t44 100.5q0 46 -34 75.5t-91 29.5q-50 0 -114 -24l-61 41l100 312h366l-24 -104h-274l-51 -155q47 19 100 19q81 0 137 -51t56 -138
q0 -109 -78 -175t-202 -66z" />
    <glyph glyph-name="six.lin" horiz-adv-x="581" 
d="M125 50q-66 66 -66 195q0 97 42 196.5t117 159.5q86 69 196 69q77 0 129 -37.5t52 -90.5q0 -31 -19 -52t-48 -21q-27 0 -46.5 19.5t-19.5 46.5q0 13 9 31q-21 12 -61 12q-71 0 -132 -54q-36 -32 -63.5 -82.5t-37.5 -104.5q25 34 69.5 58.5t96.5 24.5q88 0 146 -54
t58 -135q0 -103 -77.5 -173t-185.5 -70q-97 0 -159 62zM282 86q68 0 110.5 40t42.5 96q0 45 -31 75t-81 30q-64 0 -108.5 -42t-44.5 -94q0 -45 30 -75q32 -30 82 -30z" />
    <glyph glyph-name="seven.lin" horiz-adv-x="514" 
d="M51 0l393 563h-240l-29 -126h-101l51 221h424l34 -62l-404 -596h-128z" />
    <glyph glyph-name="eight.lin" horiz-adv-x="586" 
d="M290 -10q-106 0 -176.5 52.5t-70.5 129.5q0 68 43 115t119 67q-91 47 -91 130q0 74 65 129t177 55q100 0 167 -52.5t67 -128.5q0 -59 -37.5 -99t-105.5 -57q47 -21 74.5 -60t27.5 -86q0 -80 -69.5 -137.5t-189.5 -57.5zM339 379q59 0 95.5 29t36.5 75q0 37 -33.5 62.5
t-77.5 25.5q-59 0 -95.5 -29t-36.5 -75q0 -37 33.5 -62.5t77.5 -25.5zM288 88q64 0 103.5 31t39.5 78q0 39 -36 67.5t-91 28.5q-64 0 -103.5 -31t-39.5 -78q0 -39 36 -67.5t91 -28.5z" />
    <glyph glyph-name="nine.lin" horiz-adv-x="581" 
d="M86 427q0 103 77.5 173t185.5 70q97 0 159 -62q66 -66 66 -195q0 -97 -42 -196.5t-117 -159.5q-86 -69 -196 -69q-77 0 -129 37.5t-52 90.5q0 31 19 52t48 21q27 0 46.5 -19.5t19.5 -46.5q0 -13 -9 -31q21 -12 61 -12q70 0 132 55q80 72 101 186q-25 -34 -69.5 -58.5
t-96.5 -24.5q-88 0 -146 54t-58 135zM463 467q0 46 -31 75q-32 30 -81 30q-68 0 -110.5 -40t-42.5 -96q0 -45 31 -75t81 -30q64 0 108.5 42t44.5 94z" />
    <glyph glyph-name="bullet.alt" horiz-adv-x="641" 
d="M321 -49q-126 0 -202.5 79.5t-76.5 193.5q0 112 77.5 192t201.5 80q126 0 203 -79t77 -193q0 -112 -77.5 -192.5t-202.5 -80.5z" />
    <glyph glyph-name="hyphen.lin" horiz-adv-x="327" 
d="M69 286l25 99h246l-21 -99h-250z" />
    <glyph glyph-name="endash.lin" horiz-adv-x="511" 
d="M53 291l22 90h466l-19 -90h-469z" />
    <glyph glyph-name="emdash.lin" horiz-adv-x="750" 
d="M53 291l22 90h705l-20 -90h-707z" />
    <glyph glyph-name="parenleft.lin" horiz-adv-x="420" 
d="M318 -167q-42 31 -79 70t-74 92.5t-59 122.5t-22 143q0 194 110.5 335.5t294.5 211.5l37 -80q-329 -146 -329 -470q0 -196 182 -358z" />
    <glyph glyph-name="parenright.lin" horiz-adv-x="420" 
d="M8 -163l-37 80q329 146 329 470q0 196 -182 358l61 67q42 -31 79 -70t74 -92.5t59 -122.5t22 -143q0 -194 -110.5 -335.5t-294.5 -211.5z" />
    <glyph glyph-name="bracketleft.lin" horiz-adv-x="364" 
d="M31 -140l217 932h249l-19 -82h-157l-178 -768h155l-19 -82h-248z" />
    <glyph glyph-name="bracketright.lin" horiz-adv-x="364" 
d="M-55 -140l19 82h157l179 768h-156l19 82h248l-216 -932h-250z" />
    <glyph glyph-name="braceleft.lin" horiz-adv-x="366" 
d="M281 -154q-114 16 -173 59t-59 106q0 79 99 147q70 48 70 78q0 19 -27 32t-77 13h-27l22 92h30q64 0 94 22t30 52q0 27 -38 78q-48 64 -48 114q0 75 73.5 120t216.5 49l-2 -72q-187 -17 -187 -89q0 -30 45 -90q49 -67 49 -105q0 -48 -38.5 -81t-119.5 -44q55 -7 84.5 -33
t29.5 -64q0 -49 -89 -112q-29 -20 -44.5 -33t-29.5 -33t-14 -40q0 -68 147 -95z" />
    <glyph glyph-name="braceright.lin" horiz-adv-x="366" 
d="M-29 -154l2 72q187 17 187 89q0 30 -45 90q-49 67 -49 105q0 48 38.5 81t119.5 44q-55 7 -84.5 33t-29.5 64q0 49 89 112q29 20 44.5 33t29.5 33t14 40q0 68 -147 95l17 71q114 -16 173 -59t59 -106q0 -79 -99 -147q-70 -48 -70 -78q0 -19 27 -32t77 -13h27l-22 -92h-30
q-64 0 -94 -22t-30 -52q0 -27 38 -78q48 -64 48 -114q0 -75 -73.5 -120t-216.5 -49z" />
    <glyph glyph-name="registered.alt" horiz-adv-x="620" 
d="M310 -8q-113 0 -191.5 78.5t-78.5 191.5t78.5 192t191.5 79t191.5 -79t78.5 -192q0 -112 -79 -191t-191 -79zM310 38q90 0 154 65.5t64 158.5q0 95 -63 160t-155 65t-155 -65t-63 -160t63 -159.5t155 -64.5zM206 135v41h30v182h-30v40h102q47 0 75.5 -20t28.5 -59
q0 -51 -50 -72l41 -71h30v-41h-61l-53 100h-38v-59h33v-41h-108zM281 274h26q27 0 42.5 11.5t15.5 31.5q0 41 -59 41h-25v-84z" />
    <glyph glyph-name="copyright.lin" horiz-adv-x="782" 
d="M421 -12q-140 0 -237 99.5t-97 241.5t97 241.5t237 99.5t237 -99.5t97 -241.5t-97 -241.5t-237 -99.5zM421 37q121 0 200.5 85t79.5 207t-79.5 207t-200.5 85t-200.5 -85t-79.5 -207t79.5 -207t200.5 -85zM423 165q-69 0 -120 47.5t-51 123.5q0 71 52.5 120.5t123.5 49.5
q59 0 96.5 -26t37.5 -57q0 -18 -13 -31.5t-30 -13.5t-28.5 12t-11.5 28q0 10 3 13q-17 13 -55 13q-43 0 -74 -30.5t-31 -77.5q0 -45 29 -76t72 -31q58 0 97 42l43 -44q-46 -62 -140 -62z" />
    <glyph glyph-name="published.lin" horiz-adv-x="782" 
d="M421 -12q-140 0 -237 99.5t-97 241.5t97 241.5t237 99.5t237 -99.5t97 -241.5t-97 -241.5t-237 -99.5zM421 37q121 0 200.5 85t79.5 207t-79.5 207t-200.5 85t-200.5 -85t-79.5 -207t79.5 -207t200.5 -85zM304 163v58h35v213h-35v58h135q54 0 89.5 -30t35.5 -80
q0 -57 -36 -85t-98 -28h-26v-48h39v-58h-139zM436 322q29 0 45 16.5t16 43.5q0 23 -17.5 37.5t-45.5 14.5h-30v-111q8 -1 32 -1z" />
    <glyph glyph-name="registered.lin" horiz-adv-x="782" 
d="M421 -12q-140 0 -237 99.5t-97 241.5t97 241.5t237 99.5t237 -99.5t97 -241.5t-97 -241.5t-237 -99.5zM421 37q121 0 200.5 85t79.5 207t-79.5 207t-200.5 85t-200.5 -85t-79.5 -207t79.5 -207t200.5 -85zM290 172v58h36v213h-36v58h129q60 0 96.5 -25.5t36.5 -75.5
q0 -66 -57 -90l42 -80h36v-58h-80l-60 121h-43v-63h41v-58h-141zM390 345h36q27 0 43 13t16 36q0 49 -62 49h-33v-98z" />
    <glyph glyph-name="dollar.lin" horiz-adv-x="563" 
d="M140 -81l30 97q-64 20 -104 58.5t-40 85.5q0 39 21.5 63.5t54.5 24.5q28 0 48 -20t20 -49q0 -32 -24 -52q17 -15 58 -27l62 196q-145 66 -145 180q0 77 64.5 129.5t176.5 52.5h12l30 93l81 -24l-26 -83q60 -18 96.5 -54t36.5 -75q0 -38 -20.5 -63.5t-54.5 -25.5
q-29 0 -48.5 20t-19.5 48t21 50q-13 10 -45 16l-61 -193q81 -37 120.5 -76t39.5 -105q0 -78 -67 -132t-181 -54h-22l-33 -105zM408 176q0 30 -17.5 50t-57.5 40l-56 -175h5q54 0 90 22.5t36 62.5zM234 481q0 -44 64 -81l53 167q-56 -1 -86.5 -24.5t-30.5 -61.5z" />
    <glyph glyph-name="sterling.lin" horiz-adv-x="587" 
d="M465 237h-165q-17 -75 -73 -121q30 4 76 -9q8 -2 24 -7t26 -7.5t23 -5t23 -2.5q32 0 52.5 10.5t53.5 41.5l53 -50q-67 -99 -167 -99q-22 0 -44.5 4t-34 7.5t-36.5 12.5t-31 11q-47 17 -85 18q-19 -25 -48.5 -39t-53.5 -14q-29 0 -48.5 16.5t-19.5 38.5q0 36 42 59.5
t100 16.5q53 53 65 118h-124l20 86h107q-2 22 -8 58t-6 58q0 100 61 165.5t159 65.5q83 0 136 -40.5t53 -99.5q0 -35 -20 -56t-47 -21q-26 0 -44 18.5t-18 43.5q0 21 13 39q-2 10 -23 16.5t-48 6.5q-58 0 -87.5 -38t-29.5 -102q0 -25 6 -60.5t8 -53.5h179z" />
    <glyph glyph-name="Euro.lin" horiz-adv-x="718" 
d="M469 365h-206q-10 -42 -10 -78h198l-20 -86h-169q33 -108 141 -108q99 0 184 84l68 -66q-105 -122 -260 -122q-93 0 -160.5 54.5t-87.5 151.5h-121l21 93h94q2 39 9 75h-85l21 93h92q45 97 131 155.5t191 58.5q97 0 162.5 -49t65.5 -120q0 -35 -22 -60.5t-55 -25.5
q-29 0 -49 20.5t-20 48.5t19 47q-25 35 -107 35q-59 0 -111.5 -31t-85.5 -84h192z" />
    <glyph glyph-name="yen.lin" horiz-adv-x="649" 
d="M108 275l18 82h117l-84 208h-64l22 93h249l-22 -93h-71l70 -201l169 201h-74l22 93h264l-22 -93h-59l-192 -208h106l-18 -82h-164l-14 -59h166l-18 -82h-167l-11 -51h90l-19 -83h-275l19 83h82l12 51h-162l18 82h163l13 59h-164z" />
    <glyph glyph-name="cent.lin" horiz-adv-x="501" 
d="M293 118q-24 0 -35 1l-45 -145l-73 19l44 145q-57 23 -89.5 69.5t-32.5 109.5q0 102 75.5 175.5t183.5 78.5l30 100l73 -19l-27 -88q50 -14 82 -46.5t32 -74.5q0 -30 -18.5 -52t-48.5 -22q-26 0 -44.5 18.5t-18.5 44.5q0 22 15 42q-12 7 -30 10l-85 -279q6 -1 19 -1
q89 0 160 49l-1 -92q-63 -43 -166 -43zM173 325q0 -63 46 -96l78 254q-52 -12 -88 -52t-36 -106z" />
    <glyph glyph-name="numbersign.lin" horiz-adv-x="617" 
d="M572 658l-48 -171h109l-26 -100h-112l-36 -128h108l-26 -100h-110l-44 -159h-100l44 159h-111l-44 -159h-100l44 159h-108l26 100h110l36 128h-106l26 100h108l49 171h100l-48 -171h111l48 171h100zM281 392l-39 -138h122l38 138h-121z" />
    <glyph glyph-name="paragraph.lin" horiz-adv-x="729" 
d="M166 0l23 101h102l27 116h-20q-109 0 -172.5 55.5t-63.5 145.5q0 100 84 170t221 70h433l-24 -101h-75l-105 -456h75l-23 -101h-482zM400 96h85l108 466h-85z" />
    <glyph glyph-name="section.lin" horiz-adv-x="532" 
d="M73 325q0 88 141 117q-50 38 -50 91q0 57 49.5 97t139.5 40q108 0 155 -54q25 -28 25 -61q0 -24 -17 -40.5t-40 -16.5t-39 16t-16 39q0 15 6 25l-15 6q-27 8 -58 8q-32 0 -56.5 -10t-24.5 -29q0 -17 20.5 -31t79.5 -42q32 -15 52 -26.5t44 -29.5t36 -40.5t12 -49.5
q0 -88 -142 -118q51 -39 51 -90q0 -57 -49.5 -97t-139.5 -40q-108 0 -156 55q-24 28 -24 60q0 24 17 40.5t40 16.5t39 -16t16 -39q0 -14 -6 -25l15 -6q27 -8 58 -8q32 0 56.5 10t24.5 29q0 17 -20.5 31t-79.5 42q-32 15 -52 26.5t-44 29.5t-36 40.5t-12 49.5zM306 392
q-12 4 -26 11q-55 -14 -76.5 -27.5t-21.5 -35.5q0 -19 22.5 -33.5t79.5 -39.5l24 -11q55 13 77.5 26t22.5 37q0 19 -23 34t-79 39z" />
    <glyph glyph-name="ordfeminine.lin" horiz-adv-x="379" 
d="M169 445q-36 0 -59.5 28.5t-23.5 73.5q0 69 40 120t95 51q24 0 45 -17.5t27 -41.5l18 54h61l-45 -179q-5 -18 -5 -28q0 -16 13 -16q19 0 34 43l26 -10q-23 -78 -80 -78q-25 0 -39 15.5t-15 42.5q-30 -58 -92 -58zM52 332l14 60h298l-14 -60h-298zM200 501q32 0 56.5 30.5
t24.5 72.5q0 55 -49 55q-32 0 -55 -31t-23 -71q0 -25 12 -40.5t34 -15.5z" />
    <glyph glyph-name="ordmasculine.lin" horiz-adv-x="348" 
d="M221 448q-58 0 -91 34.5t-33 84.5q0 61 42.5 107t107.5 46q58 0 91 -34.5t33 -84.5q0 -61 -42.5 -107t-107.5 -46zM55 332l14 60h258l-14 -60h-258zM224 502q34 0 57.5 28.5t23.5 70.5q0 30 -17.5 47.5t-43.5 17.5q-34 0 -57.5 -28.5t-23.5 -70.5q0 -30 17.5 -47.5
t43.5 -17.5z" />
    <glyph glyph-name="degree.lin" horiz-adv-x="330" 
d="M219 448q-58 0 -91 34.5t-33 84.5q0 61 42.5 107t107.5 46q58 0 91 -34.5t33 -84.5q0 -61 -42.5 -107t-107.5 -46zM221 510q29 0 51 28t22 64q0 26 -14.5 41t-36.5 15q-29 0 -51 -28t-22 -64q0 -26 14.5 -41t36.5 -15z" />
    <glyph glyph-name="percent.lin" horiz-adv-x="721" 
d="M219 356q-57 0 -93.5 37.5t-36.5 96.5q0 67 46.5 117.5t112.5 50.5q57 0 93.5 -37.5t36.5 -96.5q0 -68 -46 -118t-113 -50zM74 -1l-41 41q17 12 156 140t187 166q53 43 192.5 177t140.5 135l39 -42q-17 -13 -154.5 -139t-183.5 -163q-40 -32 -116.5 -104t-143 -137.5
t-76.5 -73.5zM514 -8q-57 0 -93.5 37.5t-36.5 96.5q0 67 46.5 117.5t112.5 50.5q57 0 93.5 -37.5t36.5 -96.5q0 -68 -46 -118t-113 -50zM224 422q34 0 57 30t23 67q0 32 -17 52.5t-44 20.5q-34 0 -57 -30t-23 -67q0 -33 16.5 -53t44.5 -20zM519 58q34 0 57 30t23 67
q0 32 -17 52.5t-44 20.5q-34 0 -57 -30t-23 -67q0 -33 16.5 -53t44.5 -20z" />
    <glyph glyph-name="perthousand.lin" horiz-adv-x="1063" 
d="M74 -1l-41 41q17 12 156 140t187 166q53 43 192.5 177t140.5 135l39 -42q-17 -13 -154.5 -139t-183.5 -163q-40 -32 -116.5 -104t-143 -137.5t-76.5 -73.5zM224 422q34 0 57 28.5t23 63.5q0 30 -17 49t-44 19q-34 0 -57 -28.5t-23 -63.5q0 -31 16.5 -49.5t44.5 -18.5z
M219 356q-57 0 -93.5 36.5t-36.5 92.5q0 65 46.5 114t112.5 49q57 0 93.5 -36.5t36.5 -92.5q0 -66 -46 -114.5t-113 -48.5zM520 58q34 0 57.5 28.5t23.5 63.5q0 31 -17.5 50t-45.5 19q-34 0 -57 -28.5t-23 -63.5q0 -31 17 -50t45 -19zM514 -8q-57 0 -93 36.5t-36 92.5
q0 66 46 115t113 49q57 0 93 -36.5t36 -92.5q0 -66 -46 -115t-113 -49zM862 58q34 0 57.5 28.5t23.5 63.5q0 31 -17.5 50t-45.5 19q-34 0 -57 -28.5t-23 -63.5q0 -31 17 -50t45 -19zM856 -8q-57 0 -93 36.5t-36 92.5q0 66 46 115t113 49q57 0 93 -36.5t36 -92.5
q0 -66 -46 -115t-113 -49z" />
    <glyph glyph-name="quotedbl.lin" horiz-adv-x="437" 
d="M334 424l9 227q2 29 21.5 49t47.5 20q29 0 49.5 -20.5t20.5 -48.5q0 -16 -8 -32l-93 -195h-47zM120 424l9 227q2 29 21.5 49t47.5 20q29 0 49.5 -20.5t20.5 -48.5q0 -16 -8 -32l-93 -195h-47z" />
    <glyph glyph-name="quotesingle.lin" horiz-adv-x="223" 
d="M120 424l9 227q2 29 21.5 49t47.5 20q29 0 49.5 -20.5t20.5 -48.5q0 -16 -8 -32l-93 -195h-47z" />
    <glyph glyph-name="plus.lin" horiz-adv-x="451" 
d="M350 513l-31 -134h134l-22 -92h-134l-31 -134h-92l31 134h-134l22 92h134l31 134h92z" />
    <glyph glyph-name="minus.lin" horiz-adv-x="464" 
d="M71 287l22 92h360l-22 -92h-360z" />
    <glyph glyph-name="divide.lin" horiz-adv-x="464" 
d="M71 287l22 92h360l-22 -92h-360zM297 419q-26 0 -45.5 19t-19.5 46t20 46t47 19q26 0 45.5 -19t19.5 -46t-20 -46t-47 -19zM228 117q-26 0 -45.5 19t-19.5 46t20 46t47 19q26 0 45.5 -19t19.5 -46t-20 -46t-47 -19z" />
    <glyph glyph-name="equal.lin" horiz-adv-x="450" 
d="M82 379l21 94h342l-21 -94h-342zM39 193l21 94h342l-21 -94h-342z" />
    <glyph glyph-name="multiply.lin" horiz-adv-x="464" 
d="M174 511l78 -111l125 107l53 -69l-128 -109l82 -115l-74 -58l-79 111l-126 -107l-53 69l128 110l-80 114z" />
    <glyph glyph-name="less.lin" horiz-adv-x="431" 
d="M289 118l-215 186l14 60l301 186l45 -69l-253 -156l165 -143z" />
    <glyph glyph-name="greater.lin" horiz-adv-x="431" 
d="M99 118l-45 69l253 156l-165 143l57 64l215 -186l-14 -60z" />
    <glyph glyph-name="plusminus.lin" horiz-adv-x="464" 
d="M365 601l-31 -134h134l-21 -92h-134l-31 -134h-92l31 134h-134l21 92h134l31 134h92zM16 67l20 92h360l-21 -92h-359z" />
    <glyph glyph-name="zero.tab" horiz-adv-x="530" 
d="M531 422q0 -116 -38 -216t-104.5 -159t-145.5 -59q-89 0 -138 64.5t-49 183.5q0 116 38 216t104.5 159t145.5 59q89 0 138 -64.5t49 -183.5zM172 236q0 -69 21.5 -106.5t61.5 -37.5q65 0 112.5 103t47.5 227q0 69 -21.5 106.5t-61.5 37.5q-65 0 -112.5 -103t-47.5 -227z
" />
    <glyph glyph-name="one.tab" horiz-adv-x="530" 
d="M30 1l23 101h148l103 445l-140 -33l-10 100l227 56l58 -26l-125 -542h146l-23 -101h-407z" />
    <glyph glyph-name="two.tab" horiz-adv-x="530" 
d="M144 95h223l26 110h95l-48 -205h-417q-2 0 -7.5 13t-9.5 26l-5 13q16 45 43.5 85.5t55 69.5t66 58t65.5 46t65 39q65 37 97 70t32 75q0 34 -26.5 56t-70.5 22q-63 0 -93 -36q22 -22 22 -51q0 -28 -19.5 -48t-48.5 -20q-34 0 -53.5 22t-19.5 61q0 62 60.5 115.5
t160.5 53.5q89 0 145 -46t56 -129q0 -73 -50 -124.5t-142 -103.5q-75 -43 -124.5 -82t-77.5 -90z" />
    <glyph glyph-name="three.tab" horiz-adv-x="530" 
d="M368 334q58 -18 89.5 -57.5t31.5 -94.5q0 -62 -37 -107t-90.5 -65t-113.5 -20q-103 0 -161.5 44t-58.5 107q0 38 20 62t54 24q28 0 46 -18t18 -45q0 -29 -22 -51q35 -28 110 -28q54 0 87 30t33 79q0 41 -32 67.5t-93 26.5h-44l24 101h37q65 0 107 27.5t42 72.5
q0 42 -31 63t-78 21q-33 0 -56 -15q7 -16 7 -31q0 -28 -19.5 -47.5t-47.5 -19.5q-31 0 -51 21t-20 56q0 49 53 90t154 41q93 0 150.5 -47t57.5 -120q0 -70 -43.5 -112.5t-122.5 -54.5z" />
    <glyph glyph-name="four.tab" horiz-adv-x="530" 
d="M461 428l-35 -149h93l-22 -93h-92l-22 -94h67l-21 -92h-283l21 89h112l23 99h-265l-15 54l382 440l72 -68l-291 -337h137l25 106z" />
    <glyph glyph-name="five.tab" horiz-adv-x="530" 
d="M227 -12q-89 0 -148.5 39.5t-59.5 93.5q0 35 21 56.5t51 21.5t49.5 -20t19.5 -49q0 -17 -8 -30q38 -16 83 -16q71 0 114.5 39t43.5 102q0 45 -33.5 74.5t-87.5 29.5q-46 0 -110 -24l-61 41l100 312h358l-24 -104h-266l-51 -155q48 19 96 19q78 0 133.5 -51t55.5 -137
q0 -109 -77.5 -175.5t-198.5 -66.5z" />
    <glyph glyph-name="six.tab" horiz-adv-x="530" 
d="M486 469q-27 0 -46.5 19.5t-19.5 46.5q0 13 9 31q-17 12 -53 12q-61 0 -114 -54q-67 -69 -88 -184q24 33 63 56.5t84 23.5q79 0 131.5 -54t52.5 -135q0 -103 -71.5 -173t-169.5 -70q-90 0 -146 61q-61 65 -61 195q0 97 39 197t108 160q80 69 182 69q71 0 119 -37.5
t48 -90.5q0 -31 -19 -52t-48 -21zM263 86q58 0 94 40t36 96q0 45 -26 75t-69 30q-54 0 -92 -42t-38 -94q0 -45 25 -75q27 -30 70 -30z" />
    <glyph glyph-name="seven.tab" horiz-adv-x="530" 
d="M60 0l392 563h-242l-29 -126h-101l51 221h426l34 -62l-403 -596h-128z" />
    <glyph glyph-name="eight.tab" horiz-adv-x="530" 
d="M417 483q0 37 -25.5 62.5t-61.5 25.5q-45 0 -74.5 -29t-29.5 -75q0 -37 26 -62.5t61 -25.5q46 0 75 29t29 75zM495 185q0 -80 -63.5 -137.5t-171.5 -57.5q-95 0 -157 51.5t-62 128.5q0 68 41.5 116t115.5 68q-86 46 -86 133q0 75 59 128t159 53q89 0 147.5 -51.5
t58.5 -127.5q0 -59 -36 -100t-102 -58q45 -21 71 -60t26 -86zM377 197q0 39 -29 67.5t-74 28.5q-51 0 -83 -31t-32 -78q0 -39 29 -67.5t74 -28.5q51 0 83 31t32 78z" />
    <glyph glyph-name="nine.tab" horiz-adv-x="530" 
d="M103 189q27 0 46.5 -19.5t19.5 -46.5q0 -13 -9 -31q17 -12 53 -12q61 0 114 54q68 70 87 183q-22 -32 -61.5 -55.5t-84.5 -23.5q-79 0 -131.5 54t-52.5 135q0 103 71.5 173t169.5 70q90 0 146 -61q61 -65 61 -195q0 -97 -39 -197t-108 -160q-80 -69 -182 -69
q-71 0 -119 37.5t-48 90.5q0 31 19 52t48 21zM326 572q-58 0 -94 -40t-36 -96q0 -45 26 -75t69 -30q54 0 92 42t38 94q0 45 -25 75q-27 30 -70 30z" />
    <glyph glyph-name="period.tab" horiz-adv-x="265" 
d="M117 -8q-34 0 -58 24t-24 58t24 58.5t58 24.5t58 -24.5t24 -58.5t-24 -58t-58 -24z" />
    <glyph glyph-name="comma.tab" horiz-adv-x="265" 
d="M-30 -162l-24 46q69 39 101.5 71.5t35.5 50.5q-23 11 -35.5 31.5t-12.5 36.5q0 34 24 58.5t58 24.5q35 0 59.5 -25t24.5 -66q0 -60 -65.5 -125t-165.5 -103z" />
    <glyph glyph-name="colon.tab" horiz-adv-x="265" 
d="M117 -8q-33 0 -56.5 23.5t-23.5 56.5t23.5 56.5t56.5 23.5t56.5 -23.5t23.5 -56.5t-23.5 -56.5t-56.5 -23.5zM177 256q-33 0 -56.5 23.5t-23.5 56.5t23.5 56.5t56.5 23.5t56.5 -23.5t23.5 -56.5t-23.5 -56.5t-56.5 -23.5z" />
    <glyph glyph-name="semicolon.tab" horiz-adv-x="265" 
d="M-26 -157l-24 45q67 38 98.5 69t34.5 49q-22 10 -34 30t-12 36q0 34 23.5 57t55.5 23q34 0 58 -24.5t24 -63.5q0 -58 -63.5 -121.5t-160.5 -99.5zM177 256q-33 0 -56.5 23.5t-23.5 56.5t23.5 56.5t56.5 23.5t56.5 -23.5t23.5 -56.5t-23.5 -56.5t-56.5 -23.5z" />
    <glyph glyph-name="twodotleader.tab" horiz-adv-x="530" 
d="M117 -8q-34 0 -58 24t-24 58t24 58.5t58 24.5t58 -24.5t24 -58.5t-24 -58t-58 -24zM382 -8q-34 0 -58 24t-24 58t24 58.5t58 24.5t58 -24.5t24 -58.5t-24 -58t-58 -24z" />
    <glyph glyph-name="periodcentered.tab" horiz-adv-x="265" 
d="M149 180q-34 0 -58 24t-24 58t24 58.5t58 24.5t58 -24.5t24 -58.5t-24 -58t-58 -24z" />
    <glyph glyph-name="slash.tab" horiz-adv-x="530" 
d="M5 -214l-80 49l613 912l78 -52z" />
    <glyph glyph-name="bar.tab" horiz-adv-x="265" 
d="M86 -200v932h94v-932h-94z" />
    <glyph glyph-name="underscore.tab" horiz-adv-x="530" 
d="M-98 -167l24 102h570l-24 -102h-570z" />
    <glyph glyph-name="dollar.tab" horiz-adv-x="530" 
d="M20 160q0 39 21.5 63.5t54.5 24.5q28 0 48 -20t20 -49q0 -32 -24 -52q17 -17 53 -28l58 198q-133 64 -133 179q0 77 61 129.5t167 52.5h5l28 95l82 -23l-25 -85q58 -18 94 -54t36 -76q0 -38 -20.5 -63.5t-54.5 -25.5q-29 0 -48.5 20t-19.5 48t21 50q-13 11 -40 17
l-57 -194q74 -37 111 -76t37 -105q0 -78 -63.5 -132t-171.5 -54h-15l-31 -107l-81 22l28 100q-62 19 -101.5 58t-39.5 87zM382 176q0 29 -15.5 49t-49.5 39l-51 -175q49 0 82.5 23.5t33.5 63.5zM228 481q0 -43 54 -78l48 165q-49 -2 -75.5 -25.5t-26.5 -61.5z" />
    <glyph glyph-name="sterling.tab" horiz-adv-x="530" 
d="M269 454q0 -24 6.5 -67.5t8.5 -63.5h158l-19 -86h-143q-12 -77 -66 -121q25 4 65 -9q7 -2 21 -7t22.5 -7.5t19.5 -5t20 -2.5q27 0 45 10.5t46 41.5l53 -50q-60 -99 -149 -99q-16 0 -30.5 2t-30.5 6.5t-24 7t-26.5 10t-22.5 9.5q-37 15 -71 18q-18 -25 -46.5 -39
t-52.5 -14q-29 0 -47.5 16.5t-18.5 38.5q0 36 40 59.5t97 16.5q49 49 54 118h-118l20 86h98q-2 23 -8 67t-6 66q0 93 56 153.5t149 60.5q76 0 125 -40.5t49 -99.5q0 -35 -20 -56t-47 -21q-26 0 -44 18.5t-18 43.5q0 21 13 39q-1 10 -18.5 16.5t-40.5 6.5q-50 0 -74.5 -33.5
t-24.5 -89.5z" />
    <glyph glyph-name="Euro.tab" horiz-adv-x="530" 
d="M309 205h-96q5 -54 27.5 -83.5t54.5 -29.5q52 0 115 85l68 -66q-90 -123 -195 -123q-78 0 -126.5 54.5t-55.5 156.5h-75l21 93h57q6 42 11 64h-50l21 93h54q39 99 107 160t145 61q69 0 114 -45t45 -111q0 -41 -20 -66.5t-54 -25.5q-28 0 -46 20t-18 49q0 32 20 49
q-21 26 -53 26q-34 0 -67 -33.5t-58 -88.5h111l-20 -86h-118q-9 -32 -12 -67h113z" />
    <glyph glyph-name="yen.tab" horiz-adv-x="530" 
d="M64 275l18 82h114l-61 208h-64l22 93h230l-22 -93h-60l52 -197l150 197h-68l22 93h243l-22 -93h-59l-170 -208h104l-18 -82h-154l-14 -59h156l-18 -82h-157l-11 -51h90l-19 -83h-275l19 83h82l12 51h-152l18 82h153l13 59h-154z" />
    <glyph glyph-name="cent.tab" horiz-adv-x="530" 
d="M485 253l-1 -92q-66 -43 -174 -43q-25 0 -37 1l-45 -145l-73 19l43 144q-61 22 -96 69t-35 111q0 102 78.5 175.5t190.5 78.5l30 100l73 -19l-27 -87q54 -13 89 -46t35 -76q0 -30 -18.5 -52t-48.5 -22q-26 0 -44.5 18.5t-18.5 44.5q0 22 15 42q-12 8 -40 11l-85 -280
q6 -1 18 -1q95 0 171 49zM178 325q0 -67 54 -100l79 257q-56 -12 -94.5 -52t-38.5 -105z" />
    <glyph glyph-name="numbersign.tab" horiz-adv-x="530" 
d="M516 658l-48 -171h85l-26 -100h-88l-36 -128h84l-26 -100h-86l-44 -159h-97l44 159h-91l-44 -159h-97l44 159h-84l26 100h86l36 128h-82l26 100h84l49 171h97l-48 -171h91l48 171h97zM209 254h5h97l38 138h-101z" />
    <glyph glyph-name="paragraph.tab" horiz-adv-x="530" 
d="M197 101l27 117h-2q-71 0 -117 50.5t-46 134.5q0 119 77.5 187t199.5 68h273l-23 -101h-65l-105 -456h65l-23 -101h-365l23 101h81zM280 96h46l107 466h-46z" />
    <glyph glyph-name="section.tab" horiz-adv-x="530" 
d="M72 325q0 88 141 117q-50 38 -50 91q0 57 49.5 97t139.5 40q108 0 155 -54q25 -28 25 -61q0 -24 -17 -40.5t-40 -16.5t-39 16t-16 39q0 15 6 25l-15 6q-27 8 -58 8q-32 0 -56.5 -10t-24.5 -29q0 -17 20.5 -31t79.5 -42q32 -15 52 -26.5t44 -29.5t36 -40.5t12 -49.5
q0 -88 -142 -118q51 -39 51 -90q0 -57 -49.5 -97t-139.5 -40q-108 0 -156 55q-24 28 -24 60q0 24 17 40.5t40 16.5t39 -16t16 -39q0 -14 -6 -25l15 -6q27 -8 58 -8q32 0 56.5 10t24.5 29q0 17 -20.5 31t-79.5 42q-32 15 -52 26.5t-44 29.5t-36 40.5t-12 49.5zM305 392
q-12 4 -26 11q-55 -14 -76.5 -27.5t-21.5 -35.5q0 -19 22.5 -33.5t79.5 -39.5l24 -11q55 13 77.5 26t22.5 37q0 19 -23 34t-79 39z" />
    <glyph glyph-name="degree.tab" horiz-adv-x="530" 
d="M301 377q-69 0 -109.5 43t-40.5 109q0 81 60 144.5t144 63.5q69 0 109.5 -43t40.5 -109q0 -80 -61 -144t-143 -64zM309 444q50 0 87.5 41.5t37.5 93.5q0 42 -24 66.5t-63 24.5q-50 0 -87.5 -41.5t-37.5 -93.5q0 -43 23 -67t64 -24z" />
    <glyph glyph-name="percent.tab" horiz-adv-x="530" 
d="M167 354q-38 0 -61.5 27.5t-23.5 78.5q0 82 37.5 140t91.5 58q38 0 61 -28t23 -78q0 -82 -37 -140t-91 -58zM172 419q23 0 37 48t14 91q0 35 -19 35q-23 0 -37.5 -48.5t-14.5 -90.5q0 -35 20 -35zM58 -7l-41 33l264 316l254 322l39 -34l-259 -312zM383 -7
q-38 0 -61.5 27.5t-23.5 78.5q0 82 37.5 140t91.5 58q38 0 61 -28t23 -78q0 -82 -37 -140t-91 -58zM388 58q23 0 37 48t14 91q0 35 -19 35q-23 0 -37.5 -48.5t-14.5 -90.5q0 -35 20 -35z" />
    <glyph glyph-name="quotedbl.tab" horiz-adv-x="530" 
d="M155 363l20 288q2 31 21.5 50t48.5 19q30 0 50 -19.5t20 -48.5q0 -13 -8 -34l-105 -255h-47zM370 363l20 288q2 31 21.5 50t48.5 19q30 0 50 -19.5t20 -48.5q0 -13 -8 -34l-105 -255h-47z" />
    <glyph glyph-name="quotesingle.tab" horiz-adv-x="265" 
d="M128 363l20 288q2 31 21.5 50t48.5 19q30 0 50 -19.5t20 -48.5q0 -13 -8 -34l-105 -255h-47z" />
    <glyph glyph-name="plus.tab" horiz-adv-x="530" 
d="M395 533l-37 -154h155l-22 -92h-154l-36 -154h-92l36 154h-154l22 92h153l37 154h92z" />
    <glyph glyph-name="minus.tab" horiz-adv-x="530" 
d="M84 287l22 92h400l-22 -92h-400z" />
    <glyph glyph-name="divide.tab" horiz-adv-x="530" 
d="M84 287l22 92h400l-22 -92h-400zM334 439q-26 0 -45.5 19t-19.5 46t20 46t47 19q26 0 45.5 -19t19.5 -46t-20 -46t-47 -19zM255 97q-26 0 -45.5 19t-19.5 46t20 46t47 19q26 0 45.5 -19t19.5 -46t-20 -46t-47 -19z" />
    <glyph glyph-name="equal.tab" horiz-adv-x="530" 
d="M103 389l21 94h382l-21 -94h-382zM57 183l21 94h382l-21 -94h-382z" />
    <glyph glyph-name="multiply.tab" horiz-adv-x="530" 
d="M187 541l100 -139l143 125l53 -69l-145 -127l99 -137l-74 -58l-96 133l-149 -129l-53 69l151 131l-103 143z" />
    <glyph glyph-name="less.tab" horiz-adv-x="530" 
d="M358 94l-253 217l11 46l345 212l41 -63l-285 -179l198 -170z" />
    <glyph glyph-name="greater.tab" horiz-adv-x="530" 
d="M230 574l253 -217l-11 -46l-345 -212l-41 63l285 179l-198 170z" />
    <glyph glyph-name="plusminus.tab" horiz-adv-x="530" 
d="M405 631l-36 -154h154l-21 -92h-154l-36 -154h-92l36 154h-154l21 92h154l36 154h92zM26 57l20 92h400l-21 -92h-399z" />
    <glyph glyph-name="zero.idx_P2D" horiz-adv-x="1100" 
d="M550 802q140 0 253.5 -68.5t176 -183.5t62.5 -250t-62.5 -250t-176 -183.5t-253.5 -68.5t-253.5 68.5t-176 183.5t-62.5 250t62.5 250t176 183.5t253.5 68.5zM550 729q-117 0 -211.5 -58.5t-147 -156.5t-52.5 -214t52.5 -214t147 -156.5t211.5 -58.5t211.5 58.5
t147 156.5t52.5 214t-52.5 214t-147 156.5t-211.5 58.5zM549 64q-84 0 -144.5 69t-60.5 173q0 106 60.5 174.5t146.5 68.5q84 0 144 -68.5t60 -173.5q0 -106 -60.5 -174.5t-145.5 -68.5zM549 150q50 0 80 44t30 112t-30 112.5t-80 44.5q-49 0 -79 -44t-30 -112t30 -112.5
t79 -44.5z" />
    <glyph glyph-name="one.idx_P2D" horiz-adv-x="1100" 
d="M550 802q140 0 253.5 -68.5t176 -183.5t62.5 -250t-62.5 -250t-176 -183.5t-253.5 -68.5t-253.5 68.5t-176 183.5t-62.5 250t62.5 250t176 183.5t253.5 68.5zM550 729q-117 0 -211.5 -58.5t-147 -156.5t-52.5 -214t52.5 -214t147 -156.5t211.5 -58.5t211.5 58.5
t147 156.5t52.5 214t-52.5 214t-147 156.5t-211.5 58.5zM700 74h-290v83h99v289l-93 -17l-17 79l156 34h47v-385h98v-83z" />
    <glyph glyph-name="two.idx_P2D" horiz-adv-x="1100" 
d="M550 802q140 0 253.5 -68.5t176 -183.5t62.5 -250t-62.5 -250t-176 -183.5t-253.5 -68.5t-253.5 68.5t-176 183.5t-62.5 250t62.5 250t176 183.5t253.5 68.5zM550 729q-117 0 -211.5 -58.5t-147 -156.5t-52.5 -214t52.5 -214t147 -156.5t211.5 -58.5t211.5 58.5
t147 156.5t52.5 214t-52.5 214t-147 156.5t-211.5 58.5zM373 420q0 30 15 56q20 34 62 53.5t98 19.5q72 0 121 -39.5t49 -102.5q0 -34 -19.5 -64t-39 -44.5t-50.5 -32.5q-99 -57 -137 -116h182v81h76v-158h-343q-2 0 -9 10.5t-14 21.5l-6 11q23 52 61.5 96.5t64 63.5
t64.5 45q28 18 39.5 27t23.5 25.5t12 35.5q0 25 -23 42t-60 17q-47 0 -74 -20q20 -15 20 -43q0 -22 -16 -38t-38 -16q-30 0 -44.5 20.5t-14.5 48.5z" />
    <glyph glyph-name="three.idx_P2D" horiz-adv-x="1100" 
d="M550 802q140 0 253.5 -68.5t176 -183.5t62.5 -250t-62.5 -250t-176 -183.5t-253.5 -68.5t-253.5 68.5t-176 183.5t-62.5 250t62.5 250t176 183.5t253.5 68.5zM550 729q-117 0 -211.5 -58.5t-147 -156.5t-52.5 -214t52.5 -214t147 -156.5t211.5 -58.5t211.5 58.5
t147 156.5t52.5 214t-52.5 214t-147 156.5t-211.5 58.5zM368 182q0 25 16 42.5t40 17.5q23 0 39 -15.5t16 -37.5q0 -15 -7 -29q26 -17 79 -17q35 0 62 16t27 45q0 43 -46 61q-28 11 -74 11h-27v73h30q43 0 71 14q36 19 36 58q0 24 -23.5 36.5t-55.5 12.5q-41 0 -57 -11
q5 -20 5 -27q0 -22 -16 -37.5t-39 -15.5q-22 0 -38.5 17.5t-16.5 45.5q0 24 19 47q46 58 146 58q73 0 122.5 -35.5t49.5 -87.5q0 -57 -49 -90q-21 -14 -43 -18q26 -10 39 -18q63 -38 63 -101q0 -61 -54 -96t-132 -35q-103 0 -157 59q-25 27 -25 57z" />
    <glyph glyph-name="four.idx_P2D" horiz-adv-x="1100" 
d="M550 802q140 0 253.5 -68.5t176 -183.5t62.5 -250t-62.5 -250t-176 -183.5t-253.5 -68.5t-253.5 68.5t-176 183.5t-62.5 250t62.5 250t176 183.5t253.5 68.5zM550 729q-117 0 -211.5 -58.5t-147 -156.5t-52.5 -214t52.5 -214t147 -156.5t211.5 -58.5t211.5 58.5
t147 156.5t52.5 214t-52.5 214t-147 156.5t-211.5 58.5zM483 73v72h81v62h-218l-23 43l260 309l67 -53l-201 -231h115v67l86 34v-98h71v-75h-71v-56h52v-74h-219z" />
    <glyph glyph-name="five.idx_P2D" horiz-adv-x="1100" 
d="M550 802q140 0 253.5 -68.5t176 -183.5t62.5 -250t-62.5 -250t-176 -183.5t-253.5 -68.5t-253.5 68.5t-176 183.5t-62.5 250t62.5 250t176 183.5t253.5 68.5zM550 729q-117 0 -211.5 -58.5t-147 -156.5t-52.5 -214t52.5 -214t147 -156.5t211.5 -58.5t211.5 58.5
t147 156.5t52.5 214t-52.5 214t-147 156.5t-211.5 58.5zM544 64q-80 0 -121.5 30t-41.5 68q0 25 15.5 41t39.5 16q26 0 41 -16t15 -38q0 -3 -0.5 -9t-0.5 -8q2 0 16 -2.5t27 -2.5q45 0 69.5 23.5t24.5 60.5q0 33 -25 54t-71 21q-55 0 -90 -20l-41 25l20 233h267v-84h-192
l-6 -78q1 0 24 2.5t33 2.5q71 0 120.5 -43.5t49.5 -112.5q0 -70 -49 -116.5t-124 -46.5z" />
    <glyph glyph-name="six.idx_P2D" horiz-adv-x="1100" 
d="M550 802q140 0 253.5 -68.5t176 -183.5t62.5 -250t-62.5 -250t-176 -183.5t-253.5 -68.5t-253.5 68.5t-176 183.5t-62.5 250t62.5 250t176 183.5t253.5 68.5zM550 729q-117 0 -211.5 -58.5t-147 -156.5t-52.5 -214t52.5 -214t147 -156.5t211.5 -58.5t211.5 58.5
t147 156.5t52.5 214t-52.5 214t-147 156.5t-211.5 58.5zM651 404q-26 0 -40 15.5t-14 35.5v12q-16 3 -34 3q-48 0 -82.5 -39t-35.5 -98q48 37 108 37q73 0 122 -43t49 -106q0 -66 -51.5 -111.5t-129.5 -45.5q-79 0 -131 52q-56 56 -56 181q0 112 58 182t148 70q59 0 97 -23
q45 -26 45 -67q0 -29 -15 -42t-38 -13zM449 224q0 -35 28 -58t68 -23q35 0 60 22.5t25 53.5q0 33 -25.5 52.5t-68.5 19.5q-37 0 -62 -18.5t-25 -48.5z" />
    <glyph glyph-name="seven.idx_P2D" horiz-adv-x="1100" 
d="M550 802q140 0 253.5 -68.5t176 -183.5t62.5 -250t-62.5 -250t-176 -183.5t-253.5 -68.5t-253.5 68.5t-176 183.5t-62.5 250t62.5 250t176 183.5t253.5 68.5zM550 729q-117 0 -211.5 -58.5t-147 -156.5t-52.5 -214t52.5 -214t147 -156.5t211.5 -58.5t211.5 58.5
t147 156.5t52.5 214t-52.5 214t-147 156.5t-211.5 58.5zM537 73h-101l198 391h-162v-96h-81v172h321l24 -54z" />
    <glyph glyph-name="eight.idx_P2D" horiz-adv-x="1100" 
d="M550 802q140 0 253.5 -68.5t176 -183.5t62.5 -250t-62.5 -250t-176 -183.5t-253.5 -68.5t-253.5 68.5t-176 183.5t-62.5 250t62.5 250t176 183.5t253.5 68.5zM550 729q-117 0 -211.5 -58.5t-147 -156.5t-52.5 -214t52.5 -214t147 -156.5t211.5 -58.5t211.5 58.5
t147 156.5t52.5 214t-52.5 214t-147 156.5t-211.5 58.5zM549 66q-86 0 -135.5 39t-49.5 95q0 37 25.5 69.5t72.5 43.5q-44 11 -65.5 38t-21.5 61q0 56 48.5 95.5t125.5 39.5t126.5 -39.5t49.5 -95.5q0 -34 -22.5 -61t-66.5 -38q49 -11 74 -43t25 -70q0 -56 -50 -95t-136 -39
zM549 342q31 0 54.5 19t23.5 46q0 29 -22.5 46.5t-55.5 17.5t-55 -17.5t-22 -46.5q0 -27 23 -46t54 -19zM549 143q39 0 64.5 20t25.5 46q0 28 -25 48.5t-65 20.5t-64.5 -20.5t-24.5 -48.5q0 -26 25 -46t64 -20z" />
    <glyph glyph-name="nine.idx_P2D" horiz-adv-x="1100" 
d="M550 802q140 0 253.5 -68.5t176 -183.5t62.5 -250t-62.5 -250t-176 -183.5t-253.5 -68.5t-253.5 68.5t-176 183.5t-62.5 250t62.5 250t176 183.5t253.5 68.5zM550 729q-117 0 -211.5 -58.5t-147 -156.5t-52.5 -214t52.5 -214t147 -156.5t211.5 -58.5t211.5 58.5
t147 156.5t52.5 214t-52.5 214t-147 156.5t-211.5 58.5zM398 155q0 28 15.5 41t38.5 13q26 0 40 -15.5t14 -35.5v-13q10 -1 32 -1q48 0 81.5 40.5t35.5 98.5q-46 -37 -108 -37q-72 0 -121 42.5t-49 104.5q0 65 52 110.5t129 45.5q78 0 131 -53q57 -57 57 -178
q0 -112 -59.5 -183t-148.5 -71q-82 0 -120 41q-20 22 -20 50zM652 392q0 33 -28 56t-68 23q-35 0 -60 -23t-25 -53q0 -32 25.5 -51.5t68.5 -19.5q36 0 61.5 19t25.5 49z" />
    <glyph glyph-name="space.tab" horiz-adv-x="265" 
 />
    <glyph glyph-name="NUL" horiz-adv-x="0" 
 />
    <glyph glyph-name="hfjslug" horiz-adv-x="694" 
d="M644 -200h-208l-8 14h-163l-8 -14h-207v303q14 0 23 9.5t9 22.5t-9.5 22.5t-22.5 9.5v554h100l30 79h334l29 -79h101v-921zM400 563v-172h15v78h38v14h-38v66h43v14h-58zM184 563v-172h15v79h47v-79h15v172h-15v-79h-47v79h-15zM460 394q10 -4 21 -4q31 0 31 36v137h-16
v-137q0 -22 -16 -22q-8 0 -20 5v-15zM371 465l-13 3q-4 -18 -8 -30h-1l-16 31q23 21 23 42q0 12 -7 21.5t-20 9.5q-12 0 -20 -9.5t-8 -21.5q0 -13 14 -39q-23 -18 -23 -47q0 -16 8 -26.5t21 -10.5q19 0 29 24h1l12 -24l12 6l-17 32q6 14 13 39zM523 323v-46h8v12l8 8l15 -20
h10l-20 26l18 20h-10l-20 -24h-1v24h-8zM488 292l10 -15h9l-12 17q10 4 10 14q0 15 -17 15h-20v-46h8v15h12zM426 276q10 0 17 7t7 17q0 9 -7 16.5t-17 7.5t-17 -7.5t-7 -16.5q0 -10 7 -17t17 -7zM370 301l-13 22h-9l18 -29v-17h8v17l18 29h-9zM193 323v-46h34v7h-26v13h23
v7h-23v12h26v7h-34zM132 323v-46h8v32l25 -32h7v46h-8v-32l-25 32h-7zM241 323l14 -47h8l11 34h1l11 -34h8l14 47h-8l-10 -35h-1l-11 35h-7l-11 -35h-1l-10 35h-8zM327 479q-12 22 -12 32q0 19 14 19q13 0 13 -19q0 -15 -15 -32zM342 423q-8 -21 -20 -21q-16 0 -16 25
q0 19 16 35zM487 299h-11v17h11q10 0 10 -8q0 -9 -10 -9zM426 283q-16 0 -16 17q0 6 4.5 11.5t11.5 5.5t11.5 -5.5t4.5 -11.5q0 -17 -16 -17z" />
    <glyph glyph-name="i.dot" horiz-adv-x="323" 
d="M211 499q-28 0 -48 19.5t-20 47.5t20 47.5t48 19.5t48 -19.5t20 -47.5t-20 -47.5t-48 -19.5zM164 -8q-50 0 -75 26t-25 72q0 24 6 49l51 207h-79l24 92h190l-75 -298q-7 -27 -7 -46q0 -28 24 -28q33 0 59 72l44 -17q-21 -72 -55.5 -100.5t-81.5 -28.5z" />
    <glyph glyph-name="zero.num" 
d="M183 272q-58 0 -91 39.5t-33 111.5q0 93 49.5 158.5t120.5 65.5q58 0 91 -39.5t33 -111.5q0 -93 -49.5 -158.5t-120.5 -65.5zM186 336q41 0 68.5 49.5t27.5 115.5q0 39 -14.5 60.5t-41.5 21.5q-41 0 -68.5 -49.5t-27.5 -115.5q0 -82 56 -82z" />
    <glyph glyph-name="one.num" 
d="M48 280l14 64h92l52 227l-87 -22l-5 64l141 35l36 -16l-66 -288h90l-14 -64h-253z" />
    <glyph glyph-name="two.num" 
d="M303 280h-258l-14 33q39 98 180 166q38 19 56 34.5t18 34.5q0 38 -58 38q-34 0 -49 -13q8 -10 8 -25q0 -17 -12 -29t-29 -12q-18 0 -30 12.5t-12 31.5q0 42 41 70t91 28q53 0 88 -26.5t35 -72.5q0 -28 -20 -53t-42.5 -38.5t-57.5 -30.5q-88 -42 -118 -89h138l14 59h59z
" />
    <glyph glyph-name="three.num" 
d="M185 274q-51 0 -94 23.5t-43 69.5q0 19 12.5 31.5t29.5 12.5t29 -12t12 -29q0 -12 -6 -22q14 -14 59 -14q34 0 53 14t19 38q0 16 -17 31.5t-52 15.5h-31l15 65h29q36 0 59.5 13t23.5 35q0 18 -18.5 29.5t-45.5 11.5q-18 0 -33 -4q2 -8 2 -13q0 -17 -12 -29t-29 -12
t-29.5 12t-12.5 30q0 29 31.5 52.5t88.5 23.5q62 0 98 -29t36 -64q0 -42 -28.5 -65.5t-81.5 -26.5q80 -19 80 -82q0 -51 -43.5 -78.5t-100.5 -27.5z" />
    <glyph glyph-name="four.num" 
d="M201 335l13 52h-161l-10 35l232 235l43 -41l-181 -176h90l13 49l71 26l-17 -71h56l-14 -57h-56l-12 -52h42l-13 -55h-170l13 55h61z" />
    <glyph glyph-name="five.num" 
d="M166 273q-53 0 -87 25t-34 55q0 19 11.5 32.5t31.5 13.5q18 0 30.5 -12.5t12.5 -30.5q0 -4 -2 -14q14 -7 41 -7q38 0 65 19.5t27 50.5q0 25 -18 38.5t-47 13.5q-33 0 -71 -15l-39 26l55 174h217l-15 -66h-159l-25 -76q32 12 66 12q43 0 73.5 -28.5t30.5 -73.5
q0 -59 -50 -98t-114 -39z" />
    <glyph glyph-name="six.num" 
d="M92 308q-34 34 -34 100q0 120 84 195q53 46 116 46q42 0 71 -21t29 -51q0 -18 -12 -30t-29 -12t-28.5 11.5t-11.5 28.5q0 6 2 12q-12 4 -22 4q-41 0 -77 -33q-34 -33 -51 -90q39 42 90 42q49 0 81.5 -29t32.5 -74q0 -59 -43.5 -96.5t-104.5 -37.5q-58 0 -93 35zM182 335
q37 0 58.5 19t21.5 47q0 22 -15.5 37.5t-40.5 15.5q-33 0 -56.5 -20.5t-23.5 -46.5q0 -22 14 -36q16 -16 42 -16z" />
    <glyph glyph-name="seven.num" 
d="M87 280l214 303h-133l-16 -70h-63l30 129h245l22 -41l-219 -321h-80z" />
    <glyph glyph-name="eight.num" 
d="M189 274q-61 0 -99.5 29t-38.5 72q0 75 92 99q-54 26 -54 76q0 38 36.5 67.5t98.5 29.5q58 0 94.5 -29t36.5 -72q0 -66 -81 -85q60 -27 60 -79q0 -44 -37.5 -76t-107.5 -32zM220 492q28 0 45 13.5t17 36.5q0 20 -16.5 33.5t-41.5 13.5q-28 0 -46 -13t-18 -35
q0 -21 17.5 -35t42.5 -14zM190 333q33 0 52.5 14.5t19.5 38.5q0 20 -17.5 35.5t-48.5 15.5q-33 0 -53 -15t-20 -39q0 -21 19 -35.5t48 -14.5z" />
    <glyph glyph-name="nine.num" 
d="M82 515q0 59 43.5 96.5t104.5 37.5q58 0 93 -35q34 -34 34 -100q0 -120 -84 -195q-53 -46 -116 -46q-42 0 -71 21t-29 51q0 18 12 30t29 12q16 0 28 -11.5t12 -28.5q0 -6 -2 -12q12 -4 22 -4q41 0 77 33q34 31 51 90q-37 -42 -90 -42q-49 0 -81.5 29t-32.5 74zM233 587
q-37 0 -58.5 -19t-21.5 -47q0 -22 15.5 -37.5t40.5 -15.5q33 0 56.5 20.5t23.5 46.5q0 22 -14 36q-16 16 -42 16z" />
    <glyph glyph-name="zero.den" 
d="M118 -8q-58 0 -91 39.5t-33 111.5q0 93 49.5 158.5t120.5 65.5q58 0 91 -39.5t33 -111.5q0 -93 -49.5 -158.5t-120.5 -65.5zM121 56q41 0 68.5 49.5t27.5 115.5q0 39 -14.5 60.5t-41.5 21.5q-41 0 -68.5 -49.5t-27.5 -115.5q0 -82 56 -82z" />
    <glyph glyph-name="one.den" 
d="M-17 0l14 64h92l52 227l-87 -22l-5 64l141 35l36 -16l-66 -288h90l-14 -64h-253z" />
    <glyph glyph-name="two.den" 
d="M238 0h-258l-14 33q39 98 180 166q38 19 56 34.5t18 34.5q0 38 -58 38q-34 0 -49 -13q8 -10 8 -25q0 -17 -12 -29t-29 -12q-18 0 -30 12.5t-12 31.5q0 42 41 70t91 28q53 0 88 -26.5t35 -72.5q0 -28 -20 -53t-42.5 -38.5t-57.5 -30.5q-88 -42 -118 -89h138l14 59h59z" />
    <glyph glyph-name="three.den" 
d="M120 -6q-51 0 -94 23.5t-43 69.5q0 19 12.5 31.5t29.5 12.5t29 -12t12 -29q0 -12 -6 -22q14 -14 59 -14q34 0 53 14t19 38q0 16 -17 31.5t-52 15.5h-31l15 65h29q36 0 59.5 13t23.5 35q0 18 -18.5 29.5t-45.5 11.5q-18 0 -33 -4q2 -8 2 -13q0 -17 -12 -29t-29 -12
t-29.5 12t-12.5 30q0 29 31.5 52.5t88.5 23.5q62 0 98 -29t36 -64q0 -42 -28.5 -65.5t-81.5 -26.5q80 -19 80 -82q0 -51 -43.5 -78.5t-100.5 -27.5z" />
    <glyph glyph-name="four.den" 
d="M136 55l13 52h-161l-10 35l232 235l43 -41l-181 -176h90l13 49l71 26l-17 -71h56l-14 -57h-56l-12 -52h42l-13 -55h-170l13 55h61z" />
    <glyph glyph-name="five.den" 
d="M101 -7q-53 0 -87 25t-34 55q0 19 11.5 32.5t31.5 13.5q18 0 30.5 -12.5t12.5 -30.5q0 -4 -2 -14q14 -7 41 -7q38 0 65 19.5t27 50.5q0 25 -18 38.5t-47 13.5q-34 0 -71 -15l-39 26l55 174h217l-15 -66h-159l-25 -76q32 12 66 12q43 0 73.5 -28.5t30.5 -73.5
q0 -59 -50 -98t-114 -39z" />
    <glyph glyph-name="six.den" 
d="M27 28q-34 34 -34 100q0 120 84 195q53 46 116 46q42 0 71 -21t29 -51q0 -18 -12 -30t-29 -12q-16 0 -28 11.5t-12 28.5q0 6 2 12q-12 4 -22 4q-41 0 -77 -33q-34 -33 -51 -90q39 42 90 42q49 0 81.5 -29t32.5 -74q0 -59 -43.5 -96.5t-104.5 -37.5q-58 0 -93 35zM117 55
q37 0 58.5 19t21.5 47q0 22 -15.5 37.5t-40.5 15.5q-33 0 -56.5 -20.5t-23.5 -46.5q0 -22 14 -36q16 -16 42 -16z" />
    <glyph glyph-name="seven.den" 
d="M22 0l214 303h-133l-16 -70h-63l30 129h245l22 -41l-219 -321h-80z" />
    <glyph glyph-name="eight.den" 
d="M124 -6q-61 0 -99.5 29t-38.5 72q0 75 92 99q-54 26 -54 76q0 38 36.5 67.5t98.5 29.5q58 0 94.5 -29t36.5 -72q0 -66 -81 -85q60 -27 60 -79q0 -44 -37.5 -76t-107.5 -32zM155 212q28 0 45 13.5t17 36.5q0 20 -16.5 33.5t-41.5 13.5q-28 0 -46 -13t-18 -35
q0 -21 17.5 -35t42.5 -14zM125 53q33 0 52.5 14.5t19.5 38.5q0 20 -17.5 35.5t-48.5 15.5q-33 0 -53 -15t-20 -39q0 -21 19 -35.5t48 -14.5z" />
    <glyph glyph-name="nine.den" 
d="M17 235q0 59 43.5 96.5t104.5 37.5q58 0 93 -35q34 -34 34 -100q0 -120 -84 -195q-53 -46 -116 -46q-42 0 -71 21t-29 51q0 18 12 30t29 12t28.5 -11.5t11.5 -28.5q0 -6 -2 -12q12 -4 22 -4q41 0 77 33q34 31 51 90q-37 -42 -90 -42q-49 0 -81.5 29t-32.5 74zM168 307
q-37 0 -58.5 -19t-21.5 -47q0 -22 15.5 -37.5t40.5 -15.5q33 0 56.5 20.5t23.5 46.5q0 22 -14 36q-16 16 -42 16z" />
    <glyph glyph-name="caron.alt" horiz-adv-x="500" 
d="M159 439l-29 25q47 55 60 109q3 13 4.5 49.5t8.5 59.5q15 46 61 46q26 0 41.5 -17t15.5 -44q0 -32 -15 -60.5t-45 -66.5q-15 -19 -30.5 -34.5t-42 -39.5t-29.5 -27z" />
    </font>
</defs>
</svg>
