<?xml version="1.0" standalone="no"?>
<!DOCTYPE svg PUBLIC "-//W3C//DTD SVG 1.1//EN" "http://www.w3.org/Graphics/SVG/1.1/DTD/svg11.dtd" >
<svg>
<metadata>
Created by FontForge 20110222 at Fri May  9 17:00:33 2014
 By Orthosie Webhosting
Copyright (C) 2000, 2007 Hoefler &#38; Frere-Jones. http://www.typography.com
</metadata>
<defs>
<font id="ArcherBold" horiz-adv-x="530" >
  <font-face 
    font-family="ArcherBold"
    font-weight="400"
    font-stretch="normal"
    units-per-em="1000"
    panose-1="0 0 0 0 0 0 0 0 0 0"
    ascent="800"
    descent="-200"
    x-height="438"
    cap-height="658"
    bbox="-49 -328 1481 1122"
    underline-thickness="50"
    underline-position="-50"
    unicode-range="U+0020-FB04"
  />
<missing-glyph horiz-adv-x="500" 
d="M0 -200v1000h500v-1000h-500zM71 750l179 -390l179 390h-358zM50 -76l172 376l-172 376v-752zM450 676l-172 -376l172 -376v752zM250 240l-179 -390h358z" />
    <glyph glyph-name="f_f" unicode="ff" horiz-adv-x="632" 
d="M210 438h192v85q0 61 12.5 101t43.5 70q48 46 120 46q43 0 70 -20.5t27 -53.5q0 -28 -17.5 -45t-41.5 -17q-42 0 -63 41q-16 -7 -23 -18q-20 -29 -20 -88v-101h114v-92h-114v-256h85v-90h-254v90h61v256h-192v-256h80v-90h-254v90h66v256h-75v92h75v65q0 119 56 175
q42 42 110 42q43 0 70 -20.5t27 -53.5q0 -28 -17.5 -45t-41.5 -17q-43 0 -63 41q-9 -5 -14 -13q-19 -28 -19 -93v-81z" />
    <glyph glyph-name="fi" unicode="fi" horiz-adv-x="613" 
d="M516 438v-348h65v-90h-236v90h62v256h-197v-256h80v-90h-254v90h66v256h-75v92h75v75q0 115 59 174q53 53 132 53q55 0 85 -25t30 -62q0 -27 -19.5 -47t-46.5 -20t-46 18t-21 43q-25 -2 -42 -25q-23 -32 -23 -93v-91h306z" />
    <glyph glyph-name="fl" unicode="fl" horiz-adv-x="603" 
d="M339 90h63v256h-192v-256h80v-90h-254v90h66v256h-75v92h75v80q0 106 52 162q57 60 150 60q71 0 116 -36l17 31h74v-645h65v-90h-237v90zM306 645q-44 0 -68 -26q-28 -29 -28 -90v-91h192v87v2q-20 7 -32.5 25t-12.5 40t8 35q-23 18 -59 18z" />
    <glyph glyph-name="f_f_i" unicode="ffi" horiz-adv-x="913" 
d="M708 653q0 -27 -19.5 -47t-46.5 -20t-46 18.5t-21 42.5q-23 -2 -39 -21q-26 -32 -26 -97v-91h306v-348h65v-90h-236v90h62v256h-197v-256h80v-90h-249v90h61v256h-192v-256h80v-90h-254v90h66v256h-75v92h75v77q0 97 48 149q51 56 139 56q34 0 59 -11q46 -20 46 -67
q0 -26 -17.5 -42.5t-41.5 -16.5q-46 0 -63 41q-25 -5 -39 -20q-23 -26 -23 -76v-90h192v75q0 115 59 174q53 53 132 53q55 0 85 -25t30 -62z" />
    <glyph glyph-name="f_f_l" unicode="ffl" horiz-adv-x="903" 
d="M210 528v-90h192v80q0 106 52 162q57 60 150 60q72 0 117 -36l16 31h74v-645h65v-90h-237v90h63v256h-192v-256h80v-90h-249v90h61v256h-192v-256h80v-90h-254v90h66v256h-75v92h75v77q0 97 48 149q51 56 139 56q34 0 59 -11q46 -20 46 -67q0 -26 -17.5 -42.5
t-41.5 -16.5q-46 0 -63 41q-25 -5 -39 -20q-23 -26 -23 -76zM510 529v-91h192v87v2q-20 7 -32.5 25t-12.5 40t8 35q-23 18 -59 18q-44 0 -68 -26q-28 -29 -28 -90z" />
    <glyph glyph-name="f_b" unicode="fb" horiz-adv-x="877" 
d="M402 -2v348h-192v-256h80v-90h-254v90h66v256h-75v92h75v80q0 106 52 162q57 60 150 60q71 0 116 -36l17 31h74v-346q59 57 129 57q88 0 145.5 -63.5t57.5 -161.5q0 -96 -61 -162.5t-149 -66.5q-70 0 -133 51l-24 -45h-74zM615 86q48 0 82 36t34 98q0 61 -33 96.5
t-83 35.5q-52 0 -104 -45v-186q51 -35 104 -35zM357 592q0 22 8 35q-23 18 -59 18q-44 0 -68 -26q-28 -29 -28 -90v-91h192v87v2q-20 7 -32.5 25t-12.5 40z" />
    <glyph glyph-name="f_h" unicode="fh" horiz-adv-x="877" 
d="M402 90v256h-192v-256h80v-90h-254v90h66v256h-75v92h75v80q0 106 52 162q57 60 150 60q71 0 116 -36l17 31h74v-363q78 74 149 74t107 -47q29 -38 29 -99v-210h65v-90h-234v90h60v183q0 34 -14 53q-17 21 -49 21q-51 0 -113 -51v-206h60v-90h-232v90h63zM357 592
q0 22 8 35q-23 18 -59 18q-44 0 -68 -26q-28 -29 -28 -90v-91h192v87v2q-20 7 -32.5 25t-12.5 40z" />
    <glyph glyph-name="f_j" unicode="fj" horiz-adv-x="578" 
d="M407 346h-197v-256h80v-90h-254v90h66v256h-75v92h75v75q0 115 59 174q53 53 132 53q55 0 85 -25t30 -62q0 -27 -19.5 -47t-46.5 -20t-46 18t-21 43q-25 -2 -42 -25q-23 -32 -23 -93v-91h306v-431q0 -71 -25 -119q-44 -88 -151 -88q-52 0 -79.5 23.5t-27.5 55.5
q0 25 17.5 43t42.5 18q23 0 39 -15t20 -38q31 7 45 45q10 29 10 69v345z" />
    <glyph glyph-name="f_k" unicode="fk" horiz-adv-x="863" 
d="M511 735v-494l128 110h-61v87h259v-92h-81l-102 -86l111 -168h72v-92h-137l-126 197l-63 -53v-56h55v-88h-227v90h63v256h-192v-256h80v-90h-254v90h66v256h-75v92h75v80q0 106 52 162q57 60 150 60q71 0 116 -36l17 31h74zM210 529v-91h192v87v2q-20 7 -32.5 25
t-12.5 40t8 35q-23 18 -59 18q-44 0 -68 -26q-28 -29 -28 -90z" />
    <glyph glyph-name="f_f_b" unicode="ffb" horiz-adv-x="1177" 
d="M702 -2v348h-192v-256h85v-90h-254v90h61v256h-192v-256h80v-90h-254v90h66v256h-75v92h75v77q0 97 48 149q51 56 139 56q34 0 59 -11q46 -20 46 -67q0 -26 -17.5 -42.5t-41.5 -16.5q-46 0 -63 41q-25 -5 -39 -20q-23 -26 -23 -76v-90h192v80q0 106 52 162q57 60 150 60
q72 0 117 -36l16 31h74v-346q59 57 129 57q88 0 145.5 -63.5t57.5 -161.5q0 -96 -61 -162.5t-149 -66.5q-70 0 -133 51l-24 -45h-74zM915 86q48 0 82 36t34 98q0 61 -33 96.5t-83 35.5q-52 0 -104 -45v-186q51 -35 104 -35zM657 592q0 22 8 35q-23 18 -59 18q-44 0 -68 -26
q-28 -29 -28 -90v-91h192v87v2q-20 7 -32.5 25t-12.5 40z" />
    <glyph glyph-name="f_f_h" unicode="ffh" horiz-adv-x="1177" 
d="M811 735v-363q78 74 149 74t107 -47q29 -38 29 -99v-210h65v-90h-234v90h60v183q0 34 -14 53q-17 21 -49 21q-51 0 -113 -51v-206h60v-90h-232v90h63v256h-192v-256h80v-90h-249v90h61v256h-192v-256h80v-90h-254v90h66v256h-75v92h75v77q0 97 48 149q51 56 139 56
q34 0 59 -11q46 -20 46 -67q0 -26 -17.5 -42.5t-41.5 -16.5q-46 0 -63 41q-25 -5 -39 -20q-23 -26 -23 -76v-90h192v80q0 106 52 162q57 60 150 60q72 0 117 -36l16 31h74zM510 529v-91h192v87v2q-20 7 -32.5 25t-12.5 40t8 35q-23 18 -59 18q-44 0 -68 -26q-28 -29 -28 -90
z" />
    <glyph glyph-name="f_f_j" unicode="ffj" horiz-adv-x="878" 
d="M816 438v-431q0 -71 -25 -119q-44 -88 -151 -88q-52 0 -79.5 23.5t-27.5 55.5q0 25 17.5 43t42.5 18q23 0 39 -15t20 -38q31 7 45 45q10 29 10 69v345h-197v-256h80v-90h-249v90h61v256h-192v-256h80v-90h-254v90h66v256h-75v92h75v77q0 97 48 149q51 56 139 56
q34 0 59 -11q46 -20 46 -67q0 -26 -17.5 -42.5t-41.5 -16.5q-46 0 -63 41q-25 -5 -39 -20q-23 -26 -23 -76v-90h192v75q0 115 59 174q53 53 132 53q55 0 85 -25t30 -62q0 -27 -19.5 -47t-46.5 -20t-46 18.5t-21 42.5q-23 -2 -39 -21q-26 -32 -26 -97v-91h306z" />
    <glyph glyph-name="f_f_k" unicode="ffk" horiz-adv-x="1163" 
d="M811 735v-494l128 110h-61v87h259v-92h-81l-102 -86l111 -168h72v-92h-137l-126 197l-63 -53v-56h55v-88h-227v90h63v256h-192v-256h80v-90h-249v90h61v256h-192v-256h80v-90h-254v90h66v256h-75v92h75v77q0 97 48 149q51 56 139 56q34 0 59 -11q46 -20 46 -67
q0 -26 -17.5 -42.5t-41.5 -16.5q-46 0 -63 41q-25 -5 -39 -20q-23 -26 -23 -76v-90h192v80q0 106 52 162q57 60 150 60q72 0 117 -36l16 31h74zM510 529v-91h192v87v2q-20 7 -32.5 25t-12.5 40t8 35q-23 18 -59 18q-44 0 -68 -26q-28 -29 -28 -90z" />
    <glyph glyph-name=".notdef" horiz-adv-x="500" 
d="M0 -200v1000h500v-1000h-500zM71 750l179 -390l179 390h-358zM50 -76l172 376l-172 376v-752zM450 676l-172 -376l172 -376v752zM250 240l-179 -390h358z" />
    <glyph glyph-name=".null" horiz-adv-x="0" 
 />
    <glyph glyph-name="nonmarkingreturn" horiz-adv-x="333" 
 />
    <glyph glyph-name="space" unicode=" " horiz-adv-x="220" 
 />
    <glyph glyph-name="exclam" unicode="!" horiz-adv-x="278" 
d="M109 199l-39 458h138l-39 -458h-60zM139 -8q-31 0 -52.5 21.5t-21.5 52.5t21.5 53t52.5 22t52.5 -22t21.5 -53t-21.5 -52.5t-52.5 -21.5z" />
    <glyph glyph-name="quotedbl" unicode="&#x22;" horiz-adv-x="424" 
d="M295 374l-43 202q-9 42 11.5 68t55.5 26t55.5 -26t11.5 -68l-44 -202h-47zM80 374l-43 202q-9 42 11.5 68t55.5 26t55.5 -26t11.5 -68l-44 -202h-47z" />
    <glyph glyph-name="numbersign" unicode="#" horiz-adv-x="580" 
d="M65 323v88h94l18 114h100l-18 -114h105l18 114h100l-18 -114h83v-88h-96l-17 -110h81v-88h-95l-19 -125h-100l19 125h-105l-19 -125h-100l19 125h-82v88h96l17 110h-81zM242 327l-18 -118h112l19 118h-113z" />
    <glyph glyph-name="dollar" unicode="$" horiz-adv-x="532" 
d="M336 584l-6 -65q62 -9 105.5 -36.5t43.5 -76.5q0 -29 -16.5 -46.5t-42.5 -17.5q-29 0 -46 17t-17 43q0 18 4 27q-15 6 -46 11l-11 -129q37 -8 64.5 -17.5t57.5 -26t46.5 -44t16.5 -63.5q0 -76 -60.5 -117t-152.5 -43l-9 -107l-80 7l9 106q-66 11 -112 40.5t-46 80.5
q0 28 17.5 46.5t44.5 18.5t45.5 -17t18.5 -43q0 -11 -4 -29q12 -8 51 -15l12 134q-75 18 -120 51t-45 96t52 106t140 48l6 68zM382 149q0 21 -22 34.5t-70 24.5l-11 -124q45 2 74 18t29 47zM165 380q0 -22 16 -33.5t56 -20.5l10 116q-37 -5 -59.5 -21.5t-22.5 -40.5z" />
    <glyph glyph-name="percent" unicode="%" horiz-adv-x="701" 
d="M182 273q-55 0 -94.5 38t-39.5 92t39.5 92t94.5 38t94.5 -38t39.5 -92t-39.5 -92t-94.5 -38zM182 341q24 0 39 17t15 43q0 27 -15 44.5t-39 17.5t-39 -17.5t-15 -44.5q0 -26 15 -43t39 -17zM130 -15l-42 41q121 122 246 252q123 129 237 262l42 -41q-163 -163 -247 -251
q-104 -109 -236 -263zM519 252q55 0 94.5 -38t39.5 -92t-39.5 -92t-94.5 -38t-94.5 38t-39.5 92t39.5 92t94.5 38zM519 182q-24 0 -39 -17.5t-15 -44.5q0 -26 15 -43t39 -17t39 17t15 43q0 27 -15 44.5t-39 17.5z" />
    <glyph glyph-name="ampersand" unicode="&#x26;" horiz-adv-x="672" 
d="M645 273h-57q-24 -81 -57 -133l94 -80l-62 -72l-94 81q-87 -79 -204 -79q-112 0 -173.5 48.5t-61.5 128.5q0 57 35 103t95 76q-65 74 -65 145q0 61 49 109t131 48t131.5 -41.5t49.5 -109.5q0 -107 -138 -171l29 -26l115 -104q22 35 36 79h-52v88h199v-90zM265 82
q73 0 131 46l-114 105q-40 35 -62 57q-77 -43 -77 -114q0 -37 33.5 -65.5t88.5 -28.5zM206 489q0 -49 52 -109q87 42 87 117q0 28 -19 47t-51 19q-30 0 -49.5 -23t-19.5 -51z" />
    <glyph glyph-name="quotesingle" unicode="'" horiz-adv-x="209" 
d="M80 374l-43 202q-9 42 11.5 68t55.5 26t55.5 -26t11.5 -68l-44 -202h-47z" />
    <glyph glyph-name="parenleft" unicode="(" horiz-adv-x="440" 
d="M385 -227q-38 19 -76.5 46.5t-82.5 72t-77.5 96.5t-55.5 123.5t-22 149.5t22 149.5t55.5 123.5t77.5 96.5t82.5 72t76.5 46.5l52 -77q-40 -26 -70.5 -49t-67 -61.5t-60 -79t-39.5 -98t-16 -123.5t16 -123.5t39.5 -98t60 -79t67 -61.5t70.5 -49z" />
    <glyph glyph-name="parenright" unicode=")" horiz-adv-x="440" 
d="M55 -227l-52 77q40 26 70.5 49t67 61.5t60 79t39.5 98t16 123.5t-16 123.5t-39.5 98t-60 79t-67 61.5t-70.5 49l52 77q38 -19 76.5 -46.5t82.5 -72t77.5 -96.5t55.5 -123.5t22 -149.5t-22 -149.5t-55.5 -123.5t-77.5 -96.5t-82.5 -72t-76.5 -46.5z" />
    <glyph glyph-name="asterisk" unicode="*" horiz-adv-x="460" 
d="M362 498l-111 -6l86 -68q26 -20 30 -45t-20 -43q-25 -16 -46.5 -5t-33.5 42l-37 99l-37 -99q-12 -31 -33.5 -42t-46.5 5q-24 18 -20 43t30 45l86 68l-111 6q-34 2 -51 20t-8 46q8 25 33.5 29.5t51.5 -13.5l92 -60l-29 107q-9 32 2 54t41 22t41 -22t2 -54l-29 -107l92 60
q26 18 51.5 13.5t33.5 -29.5q9 -28 -8 -46t-51 -20z" />
    <glyph glyph-name="plus" unicode="+" horiz-adv-x="464" 
d="M186 103v134h-134v92h134v134h92v-134h134v-92h-134v-134h-92z" />
    <glyph glyph-name="comma" unicode="," horiz-adv-x="256" 
d="M37 -173l-32 41q98 78 102 134q-28 8 -45 29t-17 50q0 30 24.5 53t57.5 23q37 0 61.5 -26t24.5 -73q0 -54 -42.5 -116.5t-133.5 -114.5z" />
    <glyph glyph-name="hyphen" unicode="-" horiz-adv-x="374" 
d="M42 227v112h290v-112h-290z" />
    <glyph glyph-name="period" unicode="." horiz-adv-x="256" 
d="M128 -8q-34 0 -58 24t-24 58t24 58.5t58 24.5t58 -24.5t24 -58.5t-24 -58t-58 -24z" />
    <glyph glyph-name="slash" unicode="/" horiz-adv-x="510" 
d="M95 -213l-89 40l409 920l89 -40z" />
    <glyph glyph-name="zero" unicode="0" horiz-adv-x="582" 
d="M291 -8q-108 0 -179 76.5t-71 193.5t71 194t179 77t179 -77t71 -194t-71 -193.5t-179 -76.5zM291 83q61 0 99.5 50.5t38.5 128.5t-38.5 129t-99.5 51t-99.5 -51t-38.5 -129t38.5 -128.5t99.5 -50.5z" />
    <glyph glyph-name="one" unicode="1" horiz-adv-x="437" 
d="M57 0v90h120v323l-101 -24l-25 90l182 46h53v-435h118v-90h-347z" />
    <glyph glyph-name="two" unicode="2" 
d="M257 442q-62 0 -90 -23q12 -19 12 -37q0 -27 -19.5 -46.5t-46.5 -19.5q-28 0 -48 22t-20 57q0 28 23 57q27 35 78 58t115 23q94 0 150.5 -46t56.5 -107q0 -31 -11.5 -57.5t-35.5 -49t-48.5 -39t-64.5 -38.5q-107 -60 -139 -109h226v84h90v-171h-437l-19 54
q50 115 213 212q60 35 87 58.5t27 52.5q0 28 -28.5 46.5t-70.5 18.5z" />
    <glyph glyph-name="three" unicode="3" horiz-adv-x="503" 
d="M18 23q0 32 19 54t49 22q27 0 46.5 -19.5t19.5 -46.5q0 -21 -14 -40q37 -30 106 -30q52 0 85 28t33 73q0 64 -65 92q-39 17 -104 17h-30v86h33q64 0 108 22q54 29 54 81q0 39 -31 60t-78 21q-58 0 -84 -20q14 -19 14 -40q0 -27 -19.5 -46.5t-46.5 -19.5q-28 0 -48 22
t-20 57q0 29 20 58q54 79 188 79q94 0 155.5 -47.5t61.5 -119.5q0 -78 -79 -123q-30 -17 -62 -23q30 -8 57 -23q88 -49 88 -140q0 -83 -65 -133.5t-166 -50.5q-68 0 -122.5 24t-81.5 63q-21 31 -21 63z" />
    <glyph glyph-name="four" unicode="4" horiz-adv-x="565" 
d="M338 -120v166h-288l-25 54l335 444l79 -63l-261 -345h160v113l106 42v-155h98v-90h-98v-166h-106z" />
    <glyph glyph-name="five" unicode="5" horiz-adv-x="516" 
d="M36 -2q0 33 20 54.5t50 21.5q27 0 46.5 -19.5t19.5 -46.5q0 -14 -9 -32q29 -10 74 -10q60 0 94 35t34 88q0 50 -33.5 80.5t-99.5 30.5q-68 0 -122 -29l-51 28l40 326h342v-102h-260l-17 -140q38 10 85 10q99 0 162.5 -54t63.5 -150q0 -95 -65.5 -156t-165.5 -61
q-118 0 -175 55q-33 31 -33 71z" />
    <glyph glyph-name="six" unicode="6" horiz-adv-x="565" 
d="M308 557q-56 0 -106 -61t-53 -167q21 32 63 53.5t91 21.5q97 0 161 -57.5t64 -143.5q0 -90 -68 -150.5t-172 -60.5q-103 0 -170 67q-74 74 -74 226q0 170 78.5 266.5t195.5 96.5q100 0 152 -52q29 -29 29 -66q0 -30 -20 -51.5t-47 -21.5q-31 0 -51.5 20t-20.5 47
q0 14 4 23q-25 10 -56 10zM288 82q55 0 92 35.5t37 85.5q0 47 -34.5 79t-89.5 32q-56 0 -95 -33.5t-39 -82.5q0 -47 37 -81q38 -35 92 -35z" />
    <glyph glyph-name="seven" unicode="7" horiz-adv-x="531" 
d="M197 -122l-92 48l264 510h-239v-112h-96v201h435l28 -62z" />
    <glyph glyph-name="eight" unicode="8" horiz-adv-x="541" 
d="M270 -8q-105 0 -168.5 53t-63.5 130q0 50 29.5 89.5t82.5 61.5q-45 23 -71.5 60t-26.5 81q0 77 62 129t156 52t156 -52t62 -129q0 -44 -26.5 -81t-71.5 -60q53 -22 83 -61.5t30 -89.5q0 -77 -64 -130t-169 -53zM270 365q44 0 75 27.5t31 67.5q0 45 -29 71t-77 26t-77 -26
t-29 -71q0 -40 31 -67.5t75 -27.5zM270 83q55 0 88 29t33 72t-33 72.5t-88 29.5t-88 -29.5t-33 -72.5t33 -72t88 -29z" />
    <glyph glyph-name="nine" unicode="9" horiz-adv-x="565" 
d="M247 -127q-103 0 -154 54q-27 29 -27 64q0 30 20 51.5t47 21.5q31 0 51.5 -20t20.5 -47q0 -9 -4 -23q23 -10 56 -10q57 0 106.5 61.5t52.5 167.5q-21 -31 -63.5 -52.5t-90.5 -21.5q-96 0 -160.5 58t-64.5 144q0 90 68 151t172 61q103 0 165 -62q79 -79 79 -233
q0 -170 -79 -267.5t-195 -97.5zM369 408q-38 35 -92 35q-55 0 -92 -36t-37 -86q0 -47 34.5 -79.5t89.5 -32.5q56 0 95 34t39 83q0 48 -37 82z" />
    <glyph glyph-name="colon" unicode=":" horiz-adv-x="276" 
d="M138 256q-33 0 -56.5 23.5t-23.5 56.5t23.5 56.5t56.5 23.5t56.5 -23.5t23.5 -56.5t-23.5 -56.5t-56.5 -23.5zM138 -8q-33 0 -56.5 23.5t-23.5 56.5t23.5 56.5t56.5 23.5t56.5 -23.5t23.5 -56.5t-23.5 -56.5t-56.5 -23.5z" />
    <glyph glyph-name="semicolon" unicode=";" horiz-adv-x="276" 
d="M138 256q-33 0 -56.5 23.5t-23.5 56.5t23.5 56.5t56.5 23.5t56.5 -23.5t23.5 -56.5t-23.5 -56.5t-56.5 -23.5zM50 -168l-31 40q95 76 99 130q-27 8 -43.5 28t-16.5 48q0 30 23 52t56 22q36 0 60 -25t24 -71q0 -51 -41.5 -112t-129.5 -112z" />
    <glyph glyph-name="less" unicode="&#x3c;" horiz-adv-x="424" 
d="M309 68l-258 186v60l258 186l51 -68l-205 -148l205 -148z" />
    <glyph glyph-name="equal" unicode="=" horiz-adv-x="464" 
d="M52 331v92h360v-92h-360zM52 143v92h360v-92h-360z" />
    <glyph glyph-name="greater" unicode="&#x3e;" horiz-adv-x="424" 
d="M115 68l-51 68l205 148l-205 148l51 68l258 -186v-60z" />
    <glyph glyph-name="question" unicode="?" horiz-adv-x="489" 
d="M23 517q0 41 27 75q27 35 75 56.5t107 21.5q99 0 161 -53t62 -133q0 -73 -46 -124t-140 -69l-9 -92h-75l-20 162q89 12 130 44.5t41 76.5q0 39 -29.5 65.5t-79.5 26.5q-60 0 -87 -30q17 -14 17 -42q0 -27 -15.5 -45t-43.5 -18q-30 0 -52.5 21.5t-22.5 56.5zM223 -8
q-31 0 -52.5 21.5t-21.5 52.5t21.5 53t52.5 22t52.5 -22t21.5 -53t-21.5 -52.5t-52.5 -21.5z" />
    <glyph glyph-name="at" unicode="@" horiz-adv-x="813" 
d="M352 -179q-136 0 -224.5 91.5t-88.5 240.5q0 192 123 329.5t299 137.5q140 0 227 -83.5t87 -212.5q0 -123 -59 -208.5t-151 -85.5q-51 0 -83 23t-37 62q-52 -85 -128 -85q-47 0 -77 38t-30 97q0 94 52.5 165t125.5 71q63 0 98 -75l26 67h102l-59 -230q-18 -67 38 -67
q49 0 87 66t38 158q0 106 -70 177.5t-186 71.5q-102 0 -186.5 -57t-132 -153t-47.5 -208q0 -125 72.5 -202t185.5 -77q81 0 158 41l23 -44q-85 -48 -183 -48zM376 123q35 0 65 33t30 86q0 60 -56 60q-35 0 -62.5 -36t-27.5 -82q0 -25 13 -43t38 -18z" />
    <glyph glyph-name="A" unicode="A" horiz-adv-x="696" 
d="M13 0v101h57l164 457h-72v100h372v-100h-72l164 -457h57v-101h-253v100h76l-37 108h-246l-37 -108h80v-100h-253zM254 302h184l-92 259z" />
    <glyph glyph-name="B" unicode="B" horiz-adv-x="596" 
d="M37 0v101h75v456h-75v101h263q117 0 178.5 -48t61.5 -125q0 -55 -30.5 -92.5t-81.5 -54.5q131 -38 131 -154q0 -84 -65 -134t-183 -50h-274zM224 99h89q60 0 95 24.5t35 70.5t-34.5 70.5t-98.5 24.5h-86v-190zM224 379h77q59 0 91 25t32 68q0 42 -33 64.5t-93 22.5h-74
v-180z" />
    <glyph glyph-name="C" unicode="C" horiz-adv-x="702" 
d="M394 -12q-153 0 -250.5 94t-97.5 247q0 147 100 244t246 97q110 0 182.5 -48.5t72.5 -110.5q0 -36 -20.5 -58.5t-51.5 -22.5q-34 0 -55 19.5t-21 51.5q0 20 7 34q-38 30 -117 30q-97 0 -161.5 -66.5t-64.5 -168.5q0 -101 64.5 -169t166.5 -68q109 0 189 87l75 -78
q-49 -54 -117.5 -84t-146.5 -30z" />
    <glyph glyph-name="D" unicode="D" horiz-adv-x="711" 
d="M37 0v101h75v456h-75v101h249q178 0 278.5 -86.5t100.5 -236.5q0 -154 -101 -244.5t-290 -90.5h-237zM225 101h65q125 0 191.5 62.5t66.5 170.5q0 107 -71 165t-195 58h-57v-456z" />
    <glyph glyph-name="E" unicode="E" horiz-adv-x="577" 
d="M37 0v101h75v456h-75v101h491v-188h-108v88h-195v-176h199v-96h-199v-186h196v88h108v-188h-492z" />
    <glyph glyph-name="F" unicode="F" horiz-adv-x="559" 
d="M37 0v101h75v456h-75v101h485v-188h-108v88h-189v-188h194v-97h-194v-172h87v-101h-275z" />
    <glyph glyph-name="G" unicode="G" horiz-adv-x="726" 
d="M362 -12q-128 0 -222 93.5t-94 245.5q0 150 100 246.5t246 96.5q110 0 182.5 -48.5t72.5 -110.5q0 -36 -20.5 -58.5t-51.5 -22.5q-34 0 -55 19.5t-21 51.5q0 20 7 34q-38 30 -117 30q-97 0 -161.5 -66t-64.5 -171t64.5 -171.5t151.5 -66.5q94 0 159 42v113h-164v96h275
v-341h-108v49q-78 -61 -179 -61z" />
    <glyph glyph-name="H" unicode="H" horiz-adv-x="754" 
d="M37 0v101h75v456h-75v101h270v-101h-82v-174h304v174h-82v101h270v-101h-75v-456h75v-101h-270v101h82v183h-304v-183h82v-101h-270z" />
    <glyph glyph-name="I" unicode="I" horiz-adv-x="347" 
d="M37 0v101h80v456h-80v101h273v-101h-80v-456h80v-101h-273z" />
    <glyph glyph-name="J" unicode="J" horiz-adv-x="540" 
d="M233 -12q-86 0 -146 48t-60 118q0 39 21 62.5t54 23.5q28 0 47.5 -19.5t19.5 -47.5q0 -31 -23 -50q21 -33 87 -33q44 0 67 23q31 31 31 104v340h-99v101h281v-101h-72v-340q0 -115 -59 -174q-55 -55 -149 -55z" />
    <glyph glyph-name="K" unicode="K" horiz-adv-x="681" 
d="M37 0v101h75v456h-75v101h270v-99h-82v-223l221 223h-75v99h290v-101h-71l-184 -181l168 -275h87v-101h-158l-183 300l-95 -93v-106h82v-101h-270z" />
    <glyph glyph-name="L" unicode="L" horiz-adv-x="548" 
d="M37 0v101h75v456h-75v101h275v-101h-87v-457h181v93h109v-193h-478z" />
    <glyph glyph-name="M" unicode="M" horiz-adv-x="862" 
d="M32 0v101h78l21 456h-82v101h180l202 -366l202 366h179v-101h-82l21 -456h78v-101h-270v101h79l-13 339l-188 -330h-15l-188 330l-13 -339h79v-101h-268z" />
    <glyph glyph-name="N" unicode="N" horiz-adv-x="743" 
d="M581 -3l-359 457v-353h82v-101h-267v101h75v456h-75v101h171l324 -413v312h-82v101h264v-101h-72v-558z" />
    <glyph glyph-name="O" unicode="O" horiz-adv-x="767" 
d="M381 -12q-147 0 -241 97.5t-94 243.5t95.5 243.5t244.5 97.5q147 0 241 -97.5t94 -243.5t-95.5 -243.5t-244.5 -97.5zM384 93q96 0 158 66.5t62 169.5t-62.5 169.5t-157.5 66.5q-96 0 -158.5 -66.5t-62.5 -169.5t62.5 -169.5t158.5 -66.5z" />
    <glyph glyph-name="P" unicode="P" horiz-adv-x="581" 
d="M37 0v101h75v456h-75v101h265q108 0 178.5 -58.5t70.5 -156.5q0 -110 -71 -167.5t-191 -57.5q-50 0 -64 1v-118h82v-101h-270zM299 317q63 0 99 33.5t36 92.5q0 51 -38.5 82.5t-99.5 31.5h-71v-238q24 -2 74 -2z" />
    <glyph glyph-name="Q" unicode="Q" horiz-adv-x="767" 
d="M632 -138q-31 0 -66.5 12t-52 20.5t-57 34.5t-41.5 27q-39 26 -84 34q-114 19 -195 100q-90 90 -90 239q0 146 95.5 243.5t244.5 97.5q147 0 241 -97.5t94 -243.5q0 -122 -62.5 -203t-155.5 -110q19 -6 36 -16q49 -29 83 -29q45 0 92 35l59 -90q-52 -54 -141 -54zM384 93
q96 0 158 66.5t62 169.5t-62.5 169.5t-157.5 66.5q-96 0 -158.5 -66.5t-62.5 -169.5q0 -105 66 -173q61 -63 155 -63z" />
    <glyph glyph-name="R" unicode="R" horiz-adv-x="620" 
d="M37 0v101h75v456h-75v101h255q118 0 188.5 -51t70.5 -148q0 -62 -34 -109.5t-90 -69.5l101 -179h75v-101h-152l-132 250q-28 -2 -40 -2q-40 0 -54 1v-148h82v-101h-270zM289 344q65 0 105 30t40 81t-39 76.5t-109 25.5h-61v-211q24 -2 64 -2z" />
    <glyph glyph-name="S" unicode="S" horiz-adv-x="555" 
d="M275 -12q-96 0 -165.5 46t-69.5 107q0 35 19 56.5t50 21.5q32 0 52 -20t20 -45q0 -22 -9 -40q40 -28 104 -28q55 0 86.5 23.5t31.5 65.5q0 37 -31 60t-90 43q-109 39 -158.5 80.5t-49.5 124.5q0 80 60 133.5t158 53.5q92 0 155 -41.5t63 -100.5q0 -34 -19 -54t-48 -20
q-33 0 -52.5 20t-19.5 47q0 17 7 31q-33 20 -87 20q-48 0 -75.5 -22t-27.5 -59t30.5 -58.5t90.5 -43.5q52 -18 83.5 -33t63 -38.5t46 -56.5t14.5 -77q0 -92 -64 -144t-168 -52z" />
    <glyph glyph-name="T" unicode="T" horiz-adv-x="617" 
d="M170 0v101h82v459h-122v-104h-107v202h571v-202h-107v104h-122v-459h82v-101h-277z" />
    <glyph glyph-name="U" unicode="U" horiz-adv-x="692" 
d="M347 -12q-114 0 -181 64t-67 188v317h-72v101h264v-101h-79v-311q0 -75 35.5 -115t99.5 -40q65 0 100.5 38t35.5 113v315h-79v101h261v-101h-72v-315q0 -125 -66.5 -189.5t-179.5 -64.5z" />
    <glyph glyph-name="V" unicode="V" horiz-adv-x="688" 
d="M312 -7l-239 564h-60v101h260v-101h-69l142 -361l142 361h-73v101h260v-101h-60l-239 -564h-64z" />
    <glyph glyph-name="W" unicode="W" horiz-adv-x="1022" 
d="M273 -7l-180 564h-70v101h280v-101h-87l107 -346l163 383h60l163 -383l100 346h-90v101h280v-101h-70l-177 -564h-63l-176 405l-177 -405h-63z" />
    <glyph glyph-name="X" unicode="X" horiz-adv-x="707" 
d="M24 0v101h71l195 238l-178 218h-75v101h275v-99h-69l116 -158l117 158h-77v99h275v-101h-75l-177 -216l190 -240h71v-101h-270v99h68l-128 179l-134 -179h75v-99h-270z" />
    <glyph glyph-name="Y" unicode="Y" horiz-adv-x="645" 
d="M183 0v101h83v150l-187 306h-66v101h249v-101h-58l121 -211l120 211h-62v101h249v-101h-66l-187 -306v-150h83v-101h-279z" />
    <glyph glyph-name="Z" unicode="Z" horiz-adv-x="625" 
d="M44 0v64l372 499h-256v-110h-96v205h511v-64l-372 -499h283v110h95v-205h-537z" />
    <glyph glyph-name="bracketleft" unicode="[" horiz-adv-x="381" 
d="M91 -200v932h260v-94h-155v-743h155v-95h-260z" />
    <glyph glyph-name="backslash" unicode="\" horiz-adv-x="510" 
d="M415 -213l-409 920l89 40l409 -920z" />
    <glyph glyph-name="bracketright" unicode="]" horiz-adv-x="381" 
d="M30 -200v95h155v743h-155v94h260v-932h-260z" />
    <glyph glyph-name="asciicircum" unicode="^" horiz-adv-x="460" 
d="M102 322l-49 56l177 176l177 -176l-49 -56l-128 84z" />
    <glyph glyph-name="underscore" unicode="_" horiz-adv-x="572" 
d="M-8 -167v102h588v-102h-588z" />
    <glyph glyph-name="grave" unicode="`" horiz-adv-x="234" 
d="M200 491l-149 108q-31 24 -31 55q0 22 14.5 36.5t34.5 14.5q31 0 55 -31l110 -150z" />
    <glyph glyph-name="a" unicode="a" horiz-adv-x="509" 
d="M177 -8q-60 0 -101 32t-41 91q0 61 48.5 96.5t127.5 35.5q63 0 111 -12v35q0 38 -17 60q-25 32 -86 32q-25 0 -43 -7q4 -12 4 -22q0 -25 -17 -41t-42 -16t-41.5 16t-16.5 43q0 45 45 78t129 33q109 0 157 -59q34 -41 34 -110v-187h65v-90h-169v48q-65 -56 -147 -56z
M212 71q56 0 110 39v69q-42 10 -90 10q-40 0 -62.5 -17t-22.5 -47q0 -26 17.5 -40t47.5 -14z" />
    <glyph glyph-name="b" unicode="b" horiz-adv-x="548" 
d="M304 -8q-71 0 -133 50l-24 -44h-74v642h-66v92h175v-342q58 56 129 56q88 0 145.5 -63.5t57.5 -161.5q0 -96 -61 -162.5t-149 -66.5zM286 86q48 0 82 36t34 98q0 61 -33 96.5t-83 35.5q-53 0 -104 -44v-188q49 -34 104 -34z" />
    <glyph glyph-name="c" unicode="c" horiz-adv-x="499" 
d="M276 -8q-105 0 -173.5 63.5t-68.5 167.5q0 88 63.5 155.5t158.5 67.5q86 0 142.5 -46t56.5 -101q0 -34 -20 -54t-50 -20q-27 0 -46.5 19.5t-19.5 46.5q0 21 14 37q-22 30 -78 30q-43 0 -77.5 -35.5t-34.5 -101.5q0 -61 41 -99t101 -38q71 0 156 46l-9 -98
q-70 -40 -156 -40z" />
    <glyph glyph-name="d" unicode="d" horiz-adv-x="561" 
d="M237 -8q-88 0 -145.5 63.5t-57.5 161.5q0 96 61 162.5t149 66.5q72 0 122 -42v236h-66v92h175v-642h65v-90h-174v48q-58 -56 -129 -56zM262 86q53 0 104 44v188q-49 34 -104 34q-48 0 -82 -36t-34 -98q0 -61 33 -96.5t83 -35.5z" />
    <glyph glyph-name="e" unicode="e" horiz-adv-x="500" 
d="M464 182h-316q22 -98 144 -98q78 0 159 46l-9 -98q-68 -40 -166 -40q-108 0 -175 62t-67 164q0 96 61.5 162t160.5 66q101 0 157 -59.5t56 -150.5q0 -29 -5 -54zM255 358q-39 0 -69.5 -24.5t-38.5 -75.5h213q-2 46 -30 73t-75 27z" />
    <glyph glyph-name="f" unicode="f" horiz-adv-x="342" 
d="M319 604q-42 0 -63 41q-16 -7 -23 -18q-20 -29 -20 -88v-101h114v-92h-114v-256h85v-90h-259v90h66v256h-75v92h75v85q0 61 12.5 101t43.5 70q48 46 120 46q43 0 70 -20.5t27 -53.5q0 -28 -17.5 -45t-41.5 -17z" />
    <glyph glyph-name="g" unicode="g" horiz-adv-x="557" 
d="M469 346v-347q0 -82 -41 -132q-55 -67 -164 -67q-55 0 -101.5 15.5t-70.5 39.5t-24 57q0 24 16.5 42.5t42.5 18.5t43.5 -16t17.5 -41q0 -9 -2 -17q33 -11 65 -11q61 0 89 38q20 28 20 76v63q-56 -56 -126 -56q-85 0 -142.5 59.5t-57.5 155.5q0 93 59.5 157.5t145.5 64.5
q70 0 125 -47v39h170v-92h-65zM262 352q-52 0 -84 -33t-32 -94q0 -59 32 -91.5t84 -32.5t98 43v174q-44 34 -98 34z" />
    <glyph glyph-name="h" unicode="h" horiz-adv-x="566" 
d="M91 640h-65v92h174v-360q78 74 149 74t107 -47q29 -38 29 -99v-210h65v-90h-234v90h60v183q0 34 -14 53q-16 21 -49 21q-51 0 -113 -51v-206h60v-90h-234v90h65v550z" />
    <glyph glyph-name="i" unicode="i" horiz-adv-x="305" 
d="M142 505q-29 0 -50.5 21t-21.5 51t22 51t52 21q29 0 50.5 -21t21.5 -51t-22 -51t-52 -21zM32 0v90h67v256h-67v92h176v-348h65v-90h-241z" />
    <glyph glyph-name="j" unicode="j" horiz-adv-x="296" 
d="M-49 -121q0 25 17.5 43t42.5 18q23 0 39 -15t20 -38q31 7 45 45q10 29 10 69v345h-82v92h191v-431q0 -71 -25 -119q-44 -88 -151 -88q-52 0 -79.5 23.5t-27.5 55.5zM160 505q-29 0 -50.5 21t-21.5 51t22 51t52 21q29 0 50.5 -21t21.5 -51t-22 -51t-52 -21z" />
    <glyph glyph-name="k" unicode="k" horiz-adv-x="552" 
d="M26 0v90h65v550h-65v92h174v-491l128 110h-61v87h259v-92h-81l-102 -86l111 -168h72v-92h-137l-126 197l-63 -53v-56h55v-88h-229z" />
    <glyph glyph-name="l" unicode="l" horiz-adv-x="295" 
d="M26 0v90h68v550h-68v92h177v-642h65v-90h-242z" />
    <glyph glyph-name="m" unicode="m" horiz-adv-x="836" 
d="M31 0v90h65v256h-65v92h170v-69q71 77 147 77q68 0 104 -47q7 -9 14 -25q74 72 146 72q91 0 125 -63q18 -33 18 -82v-211h65v-90h-233v90h59v185q0 26 -7 41q-13 31 -52 31q-49 0 -107 -49v-208h59v-90h-228v90h60v185q0 26 -7 41q-13 31 -52 31q-49 0 -107 -49v-208h58
v-90h-232z" />
    <glyph glyph-name="n" unicode="n" horiz-adv-x="571" 
d="M201 438v-70q80 78 153 78q76 0 113 -56q23 -37 23 -90v-210h65v-90h-234v90h60v183q0 29 -9 45q-15 29 -54 29q-51 0 -113 -51v-206h60v-90h-234v90h65v256h-65v92h170z" />
    <glyph glyph-name="o" unicode="o" horiz-adv-x="534" 
d="M267 -8q-105 0 -169 66t-64 161q0 93 64.5 160t168.5 67q105 0 169 -66t64 -161q0 -93 -64.5 -160t-168.5 -67zM267 83q53 0 87 38t34 98t-34 98t-87 38t-87 -38t-34 -98t34 -98t87 -38z" />
    <glyph glyph-name="p" unicode="p" horiz-adv-x="560" 
d="M26 -196v90h65v452h-65v92h170v-50q62 58 130 58q86 0 143 -63.5t57 -161.5q0 -95 -60 -162t-147 -67q-64 0 -119 42v-140h71v-90h-245zM302 86q46 0 79 36t33 98q0 61 -32 96.5t-80 35.5q-53 0 -102 -44v-188q48 -34 102 -34z" />
    <glyph glyph-name="q" unicode="q" horiz-adv-x="532" 
d="M287 -196v92h79v152q-58 -56 -129 -56q-88 0 -145.5 63.5t-57.5 161.5q0 96 61 162.5t149 66.5q71 0 133 -50l24 45h74v-545h66v-92h-254zM262 86q53 0 104 44v188q-49 34 -104 34q-48 0 -82 -36t-34 -98q0 -61 33 -96.5t83 -35.5z" />
    <glyph glyph-name="r" unicode="r" horiz-adv-x="435" 
d="M340 446q39 0 60 -20.5t21 -51.5q0 -28 -19 -48t-46 -20q-46 0 -64 39q-23 -8 -47.5 -31.5t-39.5 -51.5v-172h76v-90h-250v90h65v256h-65v92h170v-99q67 107 139 107z" />
    <glyph glyph-name="s" unicode="s" horiz-adv-x="458" 
d="M406 341q0 -26 -15 -42.5t-39 -16.5q-26 0 -42.5 14.5t-16.5 39.5q0 13 2 19q-28 11 -62 11q-35 0 -54 -13t-19 -32q0 -18 20 -30t72 -26q88 -24 127 -51t39 -82q0 -66 -53.5 -103.5t-131.5 -37.5q-50 0 -98 15.5t-70 37.5q-25 25 -25 59q0 24 16.5 41.5t41.5 17.5
q24 0 41.5 -15.5t17.5 -42.5q0 -6 -2 -18q35 -14 79 -14q35 0 57.5 12t22.5 35q0 17 -18 28.5t-68 24.5q-95 25 -133.5 53.5t-38.5 82.5q0 56 46.5 97.5t132.5 41.5q41 0 83 -14t64 -36q24 -24 24 -56z" />
    <glyph glyph-name="t" unicode="t" horiz-adv-x="369" 
d="M227 -8q-87 0 -118 60q-15 27 -15 69v225h-85v92h85v92l108 47v-139h133v-92h-133v-204q0 -19 7 -32q12 -21 46 -21q36 0 86 23l-9 -94q-52 -26 -105 -26z" />
    <glyph glyph-name="u" unicode="u" horiz-adv-x="566" 
d="M217 -8q-79 0 -114 58q-22 36 -22 88v208h-65v92h174v-273q0 -27 9 -45q15 -29 54 -29q51 0 113 51v204h-68v92h177v-348h65v-90h-170v70q-80 -78 -153 -78z" />
    <glyph glyph-name="v" unicode="v" horiz-adv-x="538" 
d="M230 -8l-174 354h-51v92h224v-87h-63l105 -228l105 228h-66v87h223v-92h-51l-174 -354h-78z" />
    <glyph glyph-name="w" unicode="w" horiz-adv-x="726" 
d="M177 -17l-108 363h-64v92h225v-90h-62l60 -215l103 260h75l102 -260l60 215h-72v90h225v-92h-64l-108 -363h-77l-109 268l-109 -268h-77z" />
    <glyph glyph-name="x" unicode="x" horiz-adv-x="535" 
d="M12 0v92h58l136 129l-132 125h-52v92h221v-86h-55l81 -85l80 85h-56v86h217v-92h-54l-128 -122l139 -132h56v-92h-221v86h51l-89 93l-87 -93h52v-86h-217z" />
    <glyph glyph-name="y" unicode="y" horiz-adv-x="532" 
d="M235 -142q-49 -57 -116 -57q-42 0 -68 20.5t-26 48.5q0 27 15.5 41.5t38.5 14.5q34 0 48 -33q19 5 35 26q8 11 20 34l33 69l-156 324h-54v92h226v-87h-64l101 -231l102 231h-68v87h225v-92h-53l-205 -435q-16 -33 -34 -53z" />
    <glyph glyph-name="z" unicode="z" horiz-adv-x="463" 
d="M29 0v64l264 288h-155v-81h-93v167h384v-63l-264 -288h177v81h92v-168h-405z" />
    <glyph glyph-name="braceleft" unicode="{" horiz-adv-x="388" 
d="M343 -217q-141 4 -205.5 47.5t-64.5 115.5q0 45 21 77.5t61 66.5q23 21 33 35t10 33q0 26 -27.5 43t-82.5 17h-29v92h29q55 0 82.5 17t27.5 43q0 19 -10 33t-33 35q-40 34 -61 66.5t-21 77.5q0 72 64.5 115.5t205.5 47.5v-83q-167 -10 -167 -81q0 -28 59 -87
q38 -38 57 -67t19 -61q0 -41 -32.5 -67t-88.5 -35q56 -9 88.5 -35t32.5 -67q0 -32 -19 -61t-57 -67q-59 -59 -59 -87q0 -71 167 -81v-83z" />
    <glyph glyph-name="bar" unicode="|" horiz-adv-x="284" 
d="M95 -200v932h94v-932h-94z" />
    <glyph glyph-name="braceright" unicode="}" horiz-adv-x="388" 
d="M45 -217v83q167 10 167 81q0 28 -59 87q-38 38 -57 67t-19 61q0 41 32.5 67t88.5 35q-56 9 -88.5 35t-32.5 67q0 32 19 61t57 67q59 59 59 87q0 71 -167 81v83q141 -4 205.5 -47.5t64.5 -115.5q0 -45 -21 -77.5t-61 -66.5q-23 -21 -33 -35t-10 -33q0 -26 27.5 -43
t82.5 -17h29v-92h-29q-55 0 -82.5 -17t-27.5 -43q0 -19 10 -33t33 -35q40 -34 61 -66.5t21 -77.5q0 -72 -64.5 -115.5t-205.5 -47.5z" />
    <glyph glyph-name="asciitilde" unicode="~" horiz-adv-x="460" 
d="M308 184q-48 0 -89 37q-37 33 -60 33q-36 0 -52 -64l-74 19q8 70 42 110.5t77 40.5q48 0 89 -37q37 -33 60 -33q36 0 52 64l74 -19q-8 -70 -42 -110.5t-77 -40.5z" />
    <glyph glyph-name="uni00A0" unicode="&#xa0;" horiz-adv-x="220" 
 />
    <glyph glyph-name="exclamdown" unicode="&#xa1;" horiz-adv-x="278" 
d="M139 516q-31 0 -52.5 22t-21.5 53t21.5 52.5t52.5 21.5t52.5 -21.5t21.5 -52.5t-21.5 -53t-52.5 -22zM70 0l39 458h60l39 -458h-138z" />
    <glyph glyph-name="cent" unicode="&#xa2;" horiz-adv-x="549" 
d="M495 349q0 -33 -20 -52t-47 -19q-26 0 -44 18t-18 44q0 21 14 41q-23 19 -55 24l-26 -281h8q89 0 174 46l-8 -93q-70 -40 -177 -40h-2l-13 -144l-80 7l14 147q-81 21 -126 81t-45 140q0 82 60 146.5t154 74.5l9 102l80 -7l-9 -98q68 -13 112.5 -53t44.5 -84zM151 266
q0 -40 20.5 -74t57.5 -52l24 264q-46 -10 -74 -45.5t-28 -92.5z" />
    <glyph glyph-name="sterling" unicode="&#xa3;" horiz-adv-x="548" 
d="M422 111h-166v-5q0 -62 -39 -108q45 0 83 -11q66 -19 91 -19q29 0 45.5 13.5t37.5 50.5l69 -38q-21 -68 -56 -95t-94 -27q-49 0 -118 25q-61 22 -106 22q-31 -47 -89 -47q-28 0 -47 16t-19 38q0 35 32 58.5t84 18.5q28 46 28 100v8h-116v84h103q-1 2 -3.5 8.5t-3.5 10.5
q-34 83 -34 128q0 80 55 135t149 55q74 0 124.5 -37t50.5 -92q0 -34 -19 -53t-45 -19q-25 0 -43 17.5t-18 43.5q0 14 8 32q-17 17 -60 17q-48 0 -73 -30t-25 -68q0 -50 26 -118l10 -30h178v-84z" />
    <glyph glyph-name="yen" unicode="&#xa5;" horiz-adv-x="543" 
d="M73 249v82h86l-73 112h-69v82h223v-80h-59l90 -148l90 148h-63v80h223v-82h-69l-73 -112h86v-82h-139l-10 -15v-27h149v-82h-149v-45h88v-80h-270v80h88v45h-149v82h149v27l-10 15h-139z" />
    <glyph glyph-name="section" unicode="&#xa7;" horiz-adv-x="465" 
d="M234 533q69 0 113.5 -25t44.5 -67q0 -21 -15.5 -35.5t-39.5 -14.5t-39.5 13t-15.5 33q0 10 3 13q-17 10 -57 10q-54 0 -54 -28q0 -9 6.5 -16t20 -13.5t24.5 -10t31 -9.5t28 -9q31 -10 43 -14.5t33.5 -15t30 -19t16 -23t7.5 -31.5q0 -58 -73 -88q45 -30 45 -79
t-43.5 -80.5t-117.5 -31.5q-65 0 -111.5 23.5t-46.5 68.5q0 21 15.5 35.5t39.5 14.5q23 0 39 -13t16 -33q0 -11 -3 -14q15 -9 56 -9q54 0 54 30q0 8 -5.5 14.5t-18.5 12t-23.5 9t-32 9.5t-32.5 10q-30 9 -49 16.5t-39.5 20t-31 29.5t-10.5 38q0 62 78 87q-49 30 -49 80
q0 46 45.5 79t117.5 33zM228 225q12 -4 36 -10q53 12 53 40q0 14 -21 23.5t-57 19.5q-5 1 -8 2l-35 10q-55 -13 -55 -41q0 -21 87 -44z" />
    <glyph glyph-name="dieresis" unicode="&#xa8;" horiz-adv-x="382" 
d="M293 505q-29 0 -50.5 21t-21.5 51t22 51t52 21q29 0 50.5 -21t21.5 -51t-22 -51t-52 -21zM87 505q-29 0 -50.5 21t-21.5 51t22 51t52 21q29 0 50.5 -21t21.5 -51t-22 -51t-52 -21z" />
    <glyph glyph-name="copyright" unicode="&#xa9;" horiz-adv-x="620" 
d="M300 -8q-113 0 -191.5 78.5t-78.5 191.5t78.5 192t191.5 79t191.5 -79t78.5 -192q0 -112 -79 -191t-191 -79zM300 38q90 0 154 65.5t64 158.5q0 95 -63 160t-155 65t-155 -65t-63 -160t63 -159.5t155 -64.5zM307 357q-37 0 -62 -25.5t-25 -64.5t24.5 -65t64.5 -26
q41 0 73 32l27 -29q-36 -47 -101 -47q-60 0 -98 36.5t-38 96.5q0 58 39 96t96 38q43 0 71.5 -19t28.5 -44q0 -13 -8.5 -22t-21.5 -9q-11 0 -19.5 8.5t-8.5 19.5q0 7 3 12q-16 12 -45 12z" />
    <glyph glyph-name="ordfeminine" unicode="&#xaa;" horiz-adv-x="356" 
d="M116 399q-36 0 -60.5 19.5t-24.5 54.5q0 36 29 57.5t76 21.5q42 0 67 -7v20q0 29 -17 43q-16 12 -45 12q-15 0 -27 -4q3 -6 3 -14q0 -15 -10 -24.5t-25 -9.5t-24.5 10t-9.5 26q0 26 27 46t77 20q48 0 77 -19q38 -25 38 -82v-111h39v-54h-102v29q-40 -34 -88 -34zM39 282
v60h267v-60h-267zM137 447q33 0 66 23v41q-22 6 -54 6q-51 0 -51 -38q0 -32 39 -32z" />
    <glyph glyph-name="guillemotleft" unicode="&#xab;" horiz-adv-x="567" 
d="M465 91l-199 191l199 191l65 -65l-122 -126l122 -126zM223 91l-199 191l199 191l65 -65l-122 -126l122 -126z" />
    <glyph glyph-name="registered" unicode="&#xae;" horiz-adv-x="406" 
d="M203 336q-75 0 -127.5 51.5t-52.5 126.5t52.5 127t127.5 52t127.5 -52t52.5 -127t-52.5 -126.5t-127.5 -51.5zM203 656q-58 0 -99 -41t-41 -102q0 -59 41 -99.5t99 -40.5t99 40.5t41 99.5q0 61 -41 102t-99 41zM136 434v31h17v103h-17v31h67q30 0 49 -13t19 -37
q0 -31 -29 -45l19 -39h18v-31h-43l-28 60h-20v-29h17v-31h-69zM188 524h14q30 0 30 22t-31 22h-13v-44z" />
    <glyph glyph-name="macron" unicode="&#xaf;" horiz-adv-x="364" 
d="M15 524v89h334v-89h-334z" />
    <glyph glyph-name="degree" unicode="&#xb0;" horiz-adv-x="308" 
d="M154 398q-56 0 -96 40t-40 96t40 96t96 40t96 -40t40 -96t-40 -96t-96 -40zM154 466q28 0 48 20t20 48t-20 48t-48 20t-48 -20t-20 -48t20 -48t48 -20z" />
    <glyph glyph-name="plusminus" unicode="&#xb1;" horiz-adv-x="464" 
d="M186 191v134h-134v92h134v134h92v-134h134v-92h-134v-134h-92zM52 17v92h360v-92h-360z" />
    <glyph glyph-name="two.sup" unicode="&#xb2;" horiz-adv-x="353" 
d="M53 430l-21 33q17 40 47 75t48 49t49 35q22 15 30 21t17.5 19t9.5 28q0 23 -17 36t-46 13q-18 0 -35.5 -6t-23.5 -12q18 -9 18 -34q0 -17 -12 -29t-29 -12q-44 0 -44 53q0 44 36.5 72t95.5 28q54 0 91 -30.5t37 -79.5q0 -27 -14.5 -50t-29 -34t-38.5 -25
q-75 -45 -104 -91h138v63h58v-122h-261z" />
    <glyph glyph-name="three.sup" unicode="&#xb3;" horiz-adv-x="353" 
d="M171 423q-60 0 -99 25t-39 65q0 19 12.5 32.5t30.5 13.5t30 -12t12 -29q0 -13 -5 -25q22 -14 58 -14q27 0 46.5 13.5t19.5 38.5q0 23 -19.5 39.5t-66.5 16.5h-22v55h23q78 0 78 57q0 20 -17.5 30.5t-41.5 10.5q-26 0 -41 -10q4 -12 4 -23q0 -17 -12.5 -29.5t-29.5 -12.5
q-18 0 -30.5 14t-12.5 35q0 28 33.5 55t91.5 27q54 0 92 -27t38 -68q0 -31 -21 -54t-54 -32q33 -9 57.5 -31.5t24.5 -59.5q0 -47 -41 -74t-99 -27z" />
    <glyph glyph-name="acute" unicode="&#xb4;" horiz-adv-x="234" 
d="M34 491l-34 33l110 150q24 31 55 31q20 0 34.5 -14.5t14.5 -36.5q0 -31 -31 -55z" />
    <glyph glyph-name="paragraph" unicode="&#xb6;" horiz-adv-x="607" 
d="M178 0v93h80v100q-17 -1 -50 -1q-78 0 -127.5 42.5t-49.5 114.5q0 66 51.5 109t128.5 43h365v-95h-86v-311h86v-95h-398zM345 91h58v319h-58v-319z" />
    <glyph glyph-name="periodcentered" unicode="&#xb7;" horiz-adv-x="256" 
d="M128 180q-34 0 -58 24t-24 58t24 58.5t58 24.5t58 -24.5t24 -58.5t-24 -58t-58 -24z" />
    <glyph glyph-name="cedilla" unicode="&#xb8;" horiz-adv-x="240" 
d="M125 -200q-68 0 -125 34l17 33q49 -21 88 -21t39 26t-59 26l-11 -1l-21 25l41 100l32 -4l8 -62q48 -6 77 -27t29 -53q0 -30 -31.5 -53t-83.5 -23z" />
    <glyph glyph-name="one.sup" unicode="&#xb9;" horiz-adv-x="353" 
d="M57 431v64h91v224l-82 -21l-16 59l133 37h37v-299h88v-64h-251z" />
    <glyph glyph-name="ordmasculine" unicode="&#xba;" horiz-adv-x="348" 
d="M45 282v60h258v-60h-258zM174 399q-63 0 -101.5 39.5t-38.5 96.5q0 56 39 96t101 40q63 0 101.5 -39.5t38.5 -96.5q0 -56 -39 -96t-101 -40zM174 453q32 0 52.5 23t20.5 59t-20.5 59t-52.5 23t-52.5 -23t-20.5 -59t20.5 -59t52.5 -23z" />
    <glyph glyph-name="guillemotright" unicode="&#xbb;" horiz-adv-x="567" 
d="M344 91l-65 65l122 126l-122 126l65 65l199 -191zM102 91l-65 65l122 126l-122 126l65 65l199 -191z" />
    <glyph glyph-name="onequarter" unicode="&#xbc;" horiz-adv-x="795" 
d="M48 281v64h91v224l-82 -21l-16 59l133 37h37v-299h88v-64h-251zM238 -16l-49 32q99 153 200 316q91 146 189 326l49 -32q-85 -131 -200 -316q-98 -159 -189 -326zM559 0v52h68v52h-162l-23 42l195 231l51 -41l-165 -183h104v58l61 24v-76h55v-58h-55v-47h41v-54h-170z
" />
    <glyph glyph-name="onehalf" unicode="&#xbd;" horiz-adv-x="795" 
d="M494 -2l-21 33q17 40 47 75t48 49t49 35q22 15 30 21t17.5 19t9.5 28q0 23 -17 36t-46 13q-18 0 -35.5 -6t-23.5 -12q18 -9 18 -34q0 -17 -12 -29t-29 -12q-44 0 -44 53q0 44 36.5 72t95.5 28q54 0 91 -30.5t37 -79.5q0 -27 -14.5 -50t-29 -34t-38.5 -25
q-75 -45 -104 -91h138v63h58v-122h-261zM40 281v64h91v224l-82 -21l-16 59l133 37h37v-299h88v-64h-251zM224 -16l-49 32q99 153 200 316q91 146 189 326l49 -32q-85 -131 -200 -316q-98 -159 -189 -326z" />
    <glyph glyph-name="threequarters" unicode="&#xbe;" horiz-adv-x="795" 
d="M185 273q-60 0 -99 25t-39 65q0 19 12.5 32.5t30.5 13.5t30 -12t12 -29q0 -13 -5 -25q22 -14 58 -14q27 0 46.5 13.5t19.5 38.5q0 23 -19.5 39.5t-66.5 16.5h-22v55h23q78 0 78 57q0 20 -17.5 30.5t-41.5 10.5q-26 0 -41 -10q4 -12 4 -23q0 -17 -12.5 -29.5t-29.5 -12.5
q-18 0 -30.5 14t-12.5 35q0 28 33.5 55t91.5 27q54 0 92 -27t38 -68q0 -31 -21 -54t-54 -32q33 -9 57.5 -31.5t24.5 -59.5q0 -47 -41 -74t-99 -27zM248 -16l-49 32q99 153 200 316q91 146 189 326l49 -32q-85 -131 -200 -316q-98 -159 -189 -326zM561 0v52h68v52h-162
l-23 42l195 231l51 -41l-165 -183h104v58l61 24v-76h55v-58h-55v-47h41v-54h-170z" />
    <glyph glyph-name="questiondown" unicode="&#xbf;" horiz-adv-x="489" 
d="M466 141q0 -41 -27 -75q-27 -35 -75 -56.5t-107 -21.5q-99 0 -161 53t-62 133q0 73 46 124t140 69l9 92h75l20 -162q-89 -12 -130 -44.5t-41 -76.5q0 -39 29.5 -65.5t79.5 -26.5q60 0 87 30q-17 11 -17 42q0 27 15.5 45t43.5 18q30 0 52.5 -21.5t22.5 -56.5zM266 666
q31 0 52.5 -21.5t21.5 -52.5t-21.5 -53t-52.5 -22t-52.5 22t-21.5 53t21.5 52.5t52.5 21.5z" />
    <glyph glyph-name="Agrave" unicode="&#xc0;" horiz-adv-x="696" 
d="M13 0v101h57l164 457h-72v100h372v-100h-72l164 -457h57v-101h-253v100h76l-37 108h-246l-37 -108h80v-100h-253zM254 302h184l-92 259zM358 716l-149 108q-31 24 -31 55q0 22 14.5 36.5t34.5 14.5q31 0 55 -31l110 -150z" />
    <glyph glyph-name="Aacute" unicode="&#xc1;" horiz-adv-x="696" 
d="M13 0v101h57l164 457h-72v100h372v-100h-72l164 -457h57v-101h-253v100h76l-37 108h-246l-37 -108h80v-100h-253zM254 302h184l-92 259zM336 716l-34 33l110 150q24 31 55 31q20 0 34.5 -14.5t14.5 -36.5q0 -31 -31 -55z" />
    <glyph glyph-name="Acircumflex" unicode="&#xc2;" horiz-adv-x="696" 
d="M13 0v101h57l164 457h-72v100h372v-100h-72l164 -457h57v-101h-253v100h76l-37 108h-246l-37 -108h80v-100h-253zM254 302h184l-92 259zM216 719l-46 53l177 176l177 -176l-46 -53l-131 96z" />
    <glyph glyph-name="Atilde" unicode="&#xc3;" horiz-adv-x="696" 
d="M13 0v101h57l164 457h-72v100h372v-100h-72l164 -457h57v-101h-253v100h76l-37 108h-246l-37 -108h80v-100h-253zM254 302h184l-92 259zM427 731q-48 0 -89 37q-37 33 -60 33q-36 0 -52 -64l-74 19q8 70 42 110.5t77 40.5q48 0 89 -37q37 -33 60 -33q36 0 52 64l74 -19
q-8 -70 -42 -110.5t-77 -40.5z" />
    <glyph glyph-name="Adieresis" unicode="&#xc4;" horiz-adv-x="696" 
d="M13 0v101h57l164 457h-72v100h372v-100h-72l164 -457h57v-101h-253v100h76l-37 108h-246l-37 -108h80v-100h-253zM254 302h184l-92 259zM449 730q-29 0 -50.5 21t-21.5 51t22 51t52 21q29 0 50.5 -21t21.5 -51t-22 -51t-52 -21zM243 730q-29 0 -50.5 21t-21.5 51t22 51
t52 21q29 0 50.5 -21t21.5 -51t-22 -51t-52 -21z" />
    <glyph glyph-name="Aring" unicode="&#xc5;" horiz-adv-x="696" 
d="M482 740q0 -47 -35 -82h87v-100h-72l164 -457h57v-101h-253v100h76l-37 108h-246l-37 -108h80v-100h-253v101h57l164 457h-72v100h89q-37 37 -37 82q0 52 39 87.5t95 35.5t95 -35.5t39 -87.5zM254 302h184l-92 259zM348 674q23 0 37.5 17.5t14.5 41.5t-14.5 41.5
t-37.5 17.5t-37.5 -17.5t-14.5 -41.5t14.5 -41.5t37.5 -17.5z" />
    <glyph glyph-name="AE" unicode="&#xc6;" horiz-adv-x="914" 
d="M3 0v101h83l220 456h-83v101h642v-188h-108v88h-195v-176h199v-96h-199v-186h196v88h108v-188h-492v101h75v107h-202l-51 -108h70v-100h-263zM291 302h158v259h-37z" />
    <glyph glyph-name="Ccedilla" unicode="&#xc7;" horiz-adv-x="702" 
d="M394 -12q-2 0 -6 0.5t-6 0.5l4 -33q48 -6 77 -27t29 -53q0 -30 -31.5 -53t-83.5 -23q-68 0 -125 34l17 33q49 -21 88 -21t39 26t-59 26l-11 -1l-21 25l29 70q-130 18 -209 109t-79 228q0 147 100 244t246 97q110 0 182.5 -48.5t72.5 -110.5q0 -36 -20.5 -58.5
t-51.5 -22.5q-34 0 -55 19.5t-21 51.5q0 20 7 34q-38 30 -117 30q-97 0 -161.5 -66.5t-64.5 -168.5q0 -101 64.5 -169t166.5 -68q109 0 189 87l75 -78q-49 -54 -117.5 -84t-146.5 -30z" />
    <glyph glyph-name="Egrave" unicode="&#xc8;" horiz-adv-x="577" 
d="M37 0v101h75v456h-75v101h491v-188h-108v88h-195v-176h199v-96h-199v-186h196v88h108v-188h-492zM303 716l-149 108q-31 24 -31 55q0 22 14.5 36.5t34.5 14.5q31 0 55 -31l110 -150z" />
    <glyph glyph-name="Eacute" unicode="&#xc9;" horiz-adv-x="577" 
d="M37 0v101h75v456h-75v101h491v-188h-108v88h-195v-176h199v-96h-199v-186h196v88h108v-188h-492zM281 716l-34 33l110 150q24 31 55 31q20 0 34.5 -14.5t14.5 -36.5q0 -31 -31 -55z" />
    <glyph glyph-name="Ecircumflex" unicode="&#xca;" horiz-adv-x="577" 
d="M37 0v101h75v456h-75v101h491v-188h-108v88h-195v-176h199v-96h-199v-186h196v88h108v-188h-492zM161 719l-46 53l177 176l177 -176l-46 -53l-131 96z" />
    <glyph glyph-name="Edieresis" unicode="&#xcb;" horiz-adv-x="577" 
d="M37 0v101h75v456h-75v101h491v-188h-108v88h-195v-176h199v-96h-199v-186h196v88h108v-188h-492zM394 730q-29 0 -50.5 21t-21.5 51t22 51t52 21q29 0 50.5 -21t21.5 -51t-22 -51t-52 -21zM188 730q-29 0 -50.5 21t-21.5 51t22 51t52 21q29 0 50.5 -21t21.5 -51t-22 -51
t-52 -21z" />
    <glyph glyph-name="Igrave" unicode="&#xcc;" horiz-adv-x="347" 
d="M37 0v101h80v456h-80v101h273v-101h-80v-456h80v-101h-273zM184 716l-149 108q-31 24 -31 55q0 22 14.5 36.5t34.5 14.5q31 0 55 -31l110 -150z" />
    <glyph glyph-name="Iacute" unicode="&#xcd;" horiz-adv-x="347" 
d="M37 0v101h80v456h-80v101h273v-101h-80v-456h80v-101h-273zM162 716l-34 33l110 150q24 31 55 31q20 0 34.5 -14.5t14.5 -36.5q0 -31 -31 -55z" />
    <glyph glyph-name="Icircumflex" unicode="&#xce;" horiz-adv-x="347" 
d="M37 0v101h80v456h-80v101h273v-101h-80v-456h80v-101h-273zM42 719l-46 53l177 176l177 -176l-46 -53l-131 96z" />
    <glyph glyph-name="Idieresis" unicode="&#xcf;" horiz-adv-x="347" 
d="M37 0v101h80v456h-80v101h273v-101h-80v-456h80v-101h-273zM275 730q-29 0 -50.5 21t-21.5 51t22 51t52 21q29 0 50.5 -21t21.5 -51t-22 -51t-52 -21zM69 730q-29 0 -50.5 21t-21.5 51t22 51t52 21q29 0 50.5 -21t21.5 -51t-22 -51t-52 -21z" />
    <glyph glyph-name="Eth" unicode="&#xd0;" horiz-adv-x="721" 
d="M122 291h-85v91h85v175h-75v101h249q174 0 276.5 -88.5t102.5 -234.5q0 -154 -99 -244.5t-282 -90.5h-247v101h75v190zM235 101h65q125 0 191.5 62.5t66.5 170.5q0 107 -71 165t-195 58h-57v-175h137v-91h-137v-190z" />
    <glyph glyph-name="Ntilde" unicode="&#xd1;" horiz-adv-x="743" 
d="M581 -3l-359 457v-353h82v-101h-267v101h75v456h-75v101h171l324 -413v312h-82v101h264v-101h-72v-558zM451 731q-48 0 -89 37q-37 33 -60 33q-36 0 -52 -64l-74 19q8 70 42 110.5t77 40.5q48 0 89 -37q37 -33 60 -33q36 0 52 64l74 -19q-8 -70 -42 -110.5t-77 -40.5z
" />
    <glyph glyph-name="Ograve" unicode="&#xd2;" horiz-adv-x="767" 
d="M381 -12q-147 0 -241 97.5t-94 243.5t95.5 243.5t244.5 97.5q147 0 241 -97.5t94 -243.5t-95.5 -243.5t-244.5 -97.5zM384 93q96 0 158 66.5t62 169.5t-62.5 169.5t-157.5 66.5q-96 0 -158.5 -66.5t-62.5 -169.5t62.5 -169.5t158.5 -66.5zM394 716l-149 108
q-31 24 -31 55q0 22 14.5 36.5t34.5 14.5q31 0 55 -31l110 -150z" />
    <glyph glyph-name="Oacute" unicode="&#xd3;" horiz-adv-x="767" 
d="M381 -12q-147 0 -241 97.5t-94 243.5t95.5 243.5t244.5 97.5q147 0 241 -97.5t94 -243.5t-95.5 -243.5t-244.5 -97.5zM384 93q96 0 158 66.5t62 169.5t-62.5 169.5t-157.5 66.5q-96 0 -158.5 -66.5t-62.5 -169.5t62.5 -169.5t158.5 -66.5zM372 716l-34 33l110 150
q24 31 55 31q20 0 34.5 -14.5t14.5 -36.5q0 -31 -31 -55z" />
    <glyph glyph-name="Ocircumflex" unicode="&#xd4;" horiz-adv-x="767" 
d="M381 -12q-147 0 -241 97.5t-94 243.5t95.5 243.5t244.5 97.5q147 0 241 -97.5t94 -243.5t-95.5 -243.5t-244.5 -97.5zM384 93q96 0 158 66.5t62 169.5t-62.5 169.5t-157.5 66.5q-96 0 -158.5 -66.5t-62.5 -169.5t62.5 -169.5t158.5 -66.5zM252 719l-46 53l177 176
l177 -176l-46 -53l-131 96z" />
    <glyph glyph-name="Otilde" unicode="&#xd5;" horiz-adv-x="767" 
d="M381 -12q-147 0 -241 97.5t-94 243.5t95.5 243.5t244.5 97.5q147 0 241 -97.5t94 -243.5t-95.5 -243.5t-244.5 -97.5zM384 93q96 0 158 66.5t62 169.5t-62.5 169.5t-157.5 66.5q-96 0 -158.5 -66.5t-62.5 -169.5t62.5 -169.5t158.5 -66.5zM463 731q-48 0 -89 37
q-37 33 -60 33q-36 0 -52 -64l-74 19q8 70 42 110.5t77 40.5q48 0 89 -37q37 -33 60 -33q36 0 52 64l74 -19q-8 -70 -42 -110.5t-77 -40.5z" />
    <glyph glyph-name="Odieresis" unicode="&#xd6;" horiz-adv-x="767" 
d="M381 -12q-147 0 -241 97.5t-94 243.5t95.5 243.5t244.5 97.5q147 0 241 -97.5t94 -243.5t-95.5 -243.5t-244.5 -97.5zM384 93q96 0 158 66.5t62 169.5t-62.5 169.5t-157.5 66.5q-96 0 -158.5 -66.5t-62.5 -169.5t62.5 -169.5t158.5 -66.5zM485 730q-29 0 -50.5 21
t-21.5 51t22 51t52 21q29 0 50.5 -21t21.5 -51t-22 -51t-52 -21zM279 730q-29 0 -50.5 21t-21.5 51t22 51t52 21q29 0 50.5 -21t21.5 -51t-22 -51t-52 -21z" />
    <glyph glyph-name="multiply" unicode="&#xd7;" horiz-adv-x="464" 
d="M333 105l-101 111l-101 -111l-67 67l101 111l-101 111l67 67l101 -111l101 111l67 -67l-101 -111l101 -111z" />
    <glyph glyph-name="Oslash" unicode="&#xd8;" horiz-adv-x="767" 
d="M381 -12q-103 0 -183 53l-77 -89l-72 64l76 89q-79 95 -79 224q0 146 95.5 243.5t244.5 97.5q106 0 191 -59l80 93l72 -64l-82 -94q74 -95 74 -217q0 -146 -95.5 -243.5t-244.5 -97.5zM163 329q0 -90 43 -150l304 350q-55 36 -126 36q-96 0 -158.5 -66.5t-62.5 -169.5z
M384 93q96 0 158 66.5t62 169.5q0 81 -37 140l-302 -345q51 -31 119 -31z" />
    <glyph glyph-name="Ugrave" unicode="&#xd9;" horiz-adv-x="692" 
d="M347 -12q-114 0 -181 64t-67 188v317h-72v101h264v-101h-79v-311q0 -75 35.5 -115t99.5 -40q65 0 100.5 38t35.5 113v315h-79v101h261v-101h-72v-315q0 -125 -66.5 -189.5t-179.5 -64.5zM357 716l-149 108q-31 24 -31 55q0 22 14.5 36.5t34.5 14.5q31 0 55 -31l110 -150z
" />
    <glyph glyph-name="Uacute" unicode="&#xda;" horiz-adv-x="692" 
d="M347 -12q-114 0 -181 64t-67 188v317h-72v101h264v-101h-79v-311q0 -75 35.5 -115t99.5 -40q65 0 100.5 38t35.5 113v315h-79v101h261v-101h-72v-315q0 -125 -66.5 -189.5t-179.5 -64.5zM335 716l-34 33l110 150q24 31 55 31q20 0 34.5 -14.5t14.5 -36.5q0 -31 -31 -55z
" />
    <glyph glyph-name="Ucircumflex" unicode="&#xdb;" horiz-adv-x="692" 
d="M347 -12q-114 0 -181 64t-67 188v317h-72v101h264v-101h-79v-311q0 -75 35.5 -115t99.5 -40q65 0 100.5 38t35.5 113v315h-79v101h261v-101h-72v-315q0 -125 -66.5 -189.5t-179.5 -64.5zM215 719l-46 53l177 176l177 -176l-46 -53l-131 96z" />
    <glyph glyph-name="Udieresis" unicode="&#xdc;" horiz-adv-x="692" 
d="M347 -12q-114 0 -181 64t-67 188v317h-72v101h264v-101h-79v-311q0 -75 35.5 -115t99.5 -40q65 0 100.5 38t35.5 113v315h-79v101h261v-101h-72v-315q0 -125 -66.5 -189.5t-179.5 -64.5zM448 730q-29 0 -50.5 21t-21.5 51t22 51t52 21q29 0 50.5 -21t21.5 -51t-22 -51
t-52 -21zM242 730q-29 0 -50.5 21t-21.5 51t22 51t52 21q29 0 50.5 -21t21.5 -51t-22 -51t-52 -21z" />
    <glyph glyph-name="Yacute" unicode="&#xdd;" horiz-adv-x="645" 
d="M183 0v101h83v150l-187 306h-66v101h249v-101h-58l121 -211l120 211h-62v101h249v-101h-66l-187 -306v-150h83v-101h-279zM311 716l-34 33l110 150q24 31 55 31q20 0 34.5 -14.5t14.5 -36.5q0 -31 -31 -55z" />
    <glyph glyph-name="Thorn" unicode="&#xde;" horiz-adv-x="581" 
d="M37 0v101h75v456h-75v101h268v-98h-80v-57q14 1 99 1q101 0 164 -41.5t63 -124.5q0 -90 -64.5 -134t-167.5 -44q-80 0 -94 1v-63h80v-98h-268zM329 253q44 0 74.5 20t30.5 60q0 42 -30 60.5t-75 18.5q-80 0 -104 -2v-155q24 -2 104 -2z" />
    <glyph glyph-name="germandbls" unicode="&#xdf;" horiz-adv-x="615" 
d="M429 -8q-80 0 -119 36.5t-39 75.5q0 24 16.5 41.5t41.5 17.5q22 0 40.5 -15t18.5 -39q0 -14 -7 -29q14 -6 38 -6q67 0 67 61q0 19 -11.5 35t-25.5 26t-45 28q-27 15 -43 26t-35.5 29t-29 40.5t-9.5 49.5q0 25 10.5 48t20.5 36t29 32q45 45 45 83q0 33 -25 57t-65 24
q-53 0 -77 -52q-15 -31 -15 -78v-519h-174v90h66v256h-75v92h75v65q0 90 34 148q52 89 172 89q86 0 139 -47t53 -120q0 -29 -11.5 -54.5t-23 -38t-32.5 -32.5q-48 -45 -48 -74q0 -16 16 -30t50 -33q46 -26 71 -43.5t47 -51.5t22 -76q0 -74 -45.5 -111t-116.5 -37z" />
    <glyph glyph-name="agrave" unicode="&#xe0;" horiz-adv-x="509" 
d="M177 -8q-60 0 -101 32t-41 91q0 61 48.5 96.5t127.5 35.5q63 0 111 -12v35q0 38 -17 60q-25 32 -86 32q-25 0 -43 -7q4 -12 4 -22q0 -25 -17 -41t-42 -16t-41.5 16t-16.5 43q0 45 45 78t129 33q109 0 157 -59q34 -41 34 -110v-187h65v-90h-169v48q-65 -56 -147 -56z
M212 71q56 0 110 39v69q-42 10 -90 10q-40 0 -62.5 -17t-22.5 -47q0 -26 17.5 -40t47.5 -14zM263 491l-149 108q-31 24 -31 55q0 22 14.5 36.5t34.5 14.5q31 0 55 -31l110 -150z" />
    <glyph glyph-name="aacute" unicode="&#xe1;" horiz-adv-x="509" 
d="M177 -8q-60 0 -101 32t-41 91q0 61 48.5 96.5t127.5 35.5q63 0 111 -12v35q0 38 -17 60q-25 32 -86 32q-25 0 -43 -7q4 -12 4 -22q0 -25 -17 -41t-42 -16t-41.5 16t-16.5 43q0 45 45 78t129 33q109 0 157 -59q34 -41 34 -110v-187h65v-90h-169v48q-65 -56 -147 -56z
M212 71q56 0 110 39v69q-42 10 -90 10q-40 0 -62.5 -17t-22.5 -47q0 -26 17.5 -40t47.5 -14zM241 491l-34 33l110 150q24 31 55 31q20 0 34.5 -14.5t14.5 -36.5q0 -31 -31 -55z" />
    <glyph glyph-name="acircumflex" unicode="&#xe2;" horiz-adv-x="509" 
d="M177 -8q-60 0 -101 32t-41 91q0 61 48.5 96.5t127.5 35.5q63 0 111 -12v35q0 38 -17 60q-25 32 -86 32q-25 0 -43 -7q4 -12 4 -22q0 -25 -17 -41t-42 -16t-41.5 16t-16.5 43q0 45 45 78t129 33q109 0 157 -59q34 -41 34 -110v-187h65v-90h-169v48q-65 -56 -147 -56z
M212 71q56 0 110 39v69q-42 10 -90 10q-40 0 -62.5 -17t-22.5 -47q0 -26 17.5 -40t47.5 -14zM121 494l-46 53l177 176l177 -176l-46 -53l-131 96z" />
    <glyph glyph-name="atilde" unicode="&#xe3;" horiz-adv-x="509" 
d="M177 -8q-60 0 -101 32t-41 91q0 61 48.5 96.5t127.5 35.5q63 0 111 -12v35q0 38 -17 60q-25 32 -86 32q-25 0 -43 -7q4 -12 4 -22q0 -25 -17 -41t-42 -16t-41.5 16t-16.5 43q0 45 45 78t129 33q109 0 157 -59q34 -41 34 -110v-187h65v-90h-169v48q-65 -56 -147 -56z
M212 71q56 0 110 39v69q-42 10 -90 10q-40 0 -62.5 -17t-22.5 -47q0 -26 17.5 -40t47.5 -14zM332 506q-48 0 -89 37q-37 33 -60 33q-36 0 -52 -64l-74 19q8 70 42 110.5t77 40.5q48 0 89 -37q37 -33 60 -33q36 0 52 64l74 -19q-8 -70 -42 -110.5t-77 -40.5z" />
    <glyph glyph-name="adieresis" unicode="&#xe4;" horiz-adv-x="509" 
d="M177 -8q-60 0 -101 32t-41 91q0 61 48.5 96.5t127.5 35.5q63 0 111 -12v35q0 38 -17 60q-25 32 -86 32q-25 0 -43 -7q4 -12 4 -22q0 -25 -17 -41t-42 -16t-41.5 16t-16.5 43q0 45 45 78t129 33q109 0 157 -59q34 -41 34 -110v-187h65v-90h-169v48q-65 -56 -147 -56z
M212 71q56 0 110 39v69q-42 10 -90 10q-40 0 -62.5 -17t-22.5 -47q0 -26 17.5 -40t47.5 -14zM354 505q-29 0 -50.5 21t-21.5 51t22 51t52 21q29 0 50.5 -21t21.5 -51t-22 -51t-52 -21zM148 505q-29 0 -50.5 21t-21.5 51t22 51t52 21q29 0 50.5 -21t21.5 -51t-22 -51t-52 -21
z" />
    <glyph glyph-name="aring" unicode="&#xe5;" horiz-adv-x="509" 
d="M177 -8q-60 0 -101 32t-41 91q0 61 48.5 96.5t127.5 35.5q63 0 111 -12v35q0 38 -17 60q-25 32 -86 32q-25 0 -43 -7q4 -12 4 -22q0 -25 -17 -41t-42 -16t-41.5 16t-16.5 43q0 45 45 78t129 33q109 0 157 -59q34 -41 34 -110v-187h65v-90h-169v48q-65 -56 -147 -56z
M212 71q56 0 110 39v69q-42 10 -90 10q-40 0 -62.5 -17t-22.5 -47q0 -26 17.5 -40t47.5 -14zM252 486q-56 0 -95 37.5t-39 92.5t39 92.5t95 37.5t95 -37.5t39 -92.5t-39 -92.5t-95 -37.5zM252 557q23 0 37.5 17.5t14.5 41.5t-14.5 41.5t-37.5 17.5t-37.5 -17.5t-14.5 -41.5
t14.5 -41.5t37.5 -17.5z" />
    <glyph glyph-name="ae" unicode="&#xe6;" horiz-adv-x="775" 
d="M219 362q-25 0 -43 -7q4 -12 4 -22q0 -25 -17 -41t-42 -16t-41.5 16t-16.5 43q0 45 45 78t129 33q83 0 124 -51q11 -15 17 -30q56 81 163 81q94 0 148.5 -60t54.5 -150q0 -29 -5 -54h-316q22 -98 144 -98q78 0 159 46l-9 -98q-68 -40 -156 -40q-129 0 -195 85
q-37 -41 -89 -63t-90 -22q-67 0 -109.5 32t-42.5 91q0 61 48.5 96.5t127.5 35.5q63 0 111 -12v35q0 39 -17 61q-24 31 -86 31zM217 71q58 0 119 58q-10 29 -14 53q-56 7 -90 7q-40 0 -62.5 -17t-22.5 -47q0 -54 70 -54zM530 358q-39 0 -69.5 -24.5t-38.5 -75.5h213
q-2 46 -30 73t-75 27z" />
    <glyph glyph-name="ccedilla" unicode="&#xe7;" horiz-adv-x="499" 
d="M262 -200q-68 0 -125 34l17 33q49 -21 88 -21t39 26t-59 26l-11 -1l-21 25l31 75q-84 16 -135.5 76t-51.5 150q0 88 63.5 155.5t158.5 67.5q86 0 142.5 -46t56.5 -101q0 -34 -20 -54t-50 -20q-27 0 -46.5 19.5t-19.5 46.5q0 21 14 37q-22 30 -78 30q-43 0 -77.5 -35.5
t-34.5 -101.5q0 -61 41 -99t101 -38q71 0 156 46l-9 -98q-70 -40 -156 -40h-10l5 -36q48 -6 77 -27t29 -53q0 -30 -31.5 -53t-83.5 -23z" />
    <glyph glyph-name="egrave" unicode="&#xe8;" horiz-adv-x="500" 
d="M464 182h-316q22 -98 144 -98q78 0 159 46l-9 -98q-68 -40 -166 -40q-108 0 -175 62t-67 164q0 96 61.5 162t160.5 66q101 0 157 -59.5t56 -150.5q0 -29 -5 -54zM270 491l-149 108q-31 24 -31 55q0 22 14.5 36.5t34.5 14.5q31 0 55 -31l110 -150zM255 358
q-39 0 -69.5 -24.5t-38.5 -75.5h213q-2 46 -30 73t-75 27z" />
    <glyph glyph-name="eacute" unicode="&#xe9;" horiz-adv-x="500" 
d="M464 182h-316q22 -98 144 -98q78 0 159 46l-9 -98q-68 -40 -166 -40q-108 0 -175 62t-67 164q0 96 61.5 162t160.5 66q101 0 157 -59.5t56 -150.5q0 -29 -5 -54zM248 491l-34 33l110 150q24 31 55 31q20 0 34.5 -14.5t14.5 -36.5q0 -31 -31 -55zM255 358
q-39 0 -69.5 -24.5t-38.5 -75.5h213q-2 46 -30 73t-75 27z" />
    <glyph glyph-name="ecircumflex" unicode="&#xea;" horiz-adv-x="500" 
d="M464 182h-316q22 -98 144 -98q78 0 159 46l-9 -98q-68 -40 -166 -40q-108 0 -175 62t-67 164q0 96 61.5 162t160.5 66q101 0 157 -59.5t56 -150.5q0 -29 -5 -54zM128 494l-46 53l177 176l177 -176l-46 -53l-131 96zM255 358q-39 0 -69.5 -24.5t-38.5 -75.5h213
q-2 46 -30 73t-75 27z" />
    <glyph glyph-name="edieresis" unicode="&#xeb;" horiz-adv-x="500" 
d="M464 182h-316q22 -98 144 -98q78 0 159 46l-9 -98q-68 -40 -166 -40q-108 0 -175 62t-67 164q0 96 61.5 162t160.5 66q101 0 157 -59.5t56 -150.5q0 -29 -5 -54zM255 358q-39 0 -69.5 -24.5t-38.5 -75.5h213q-2 46 -30 73t-75 27zM361 505q-29 0 -50.5 21t-21.5 51t22 51
t52 21q29 0 50.5 -21t21.5 -51t-22 -51t-52 -21zM155 505q-29 0 -50.5 21t-21.5 51t22 51t52 21q29 0 50.5 -21t21.5 -51t-22 -51t-52 -21z" />
    <glyph glyph-name="igrave" unicode="&#xec;" horiz-adv-x="305" 
d="M32 0v90h67v256h-67v92h176v-348h65v-90h-241zM153 491l-149 108q-31 24 -31 55q0 22 14.5 36.5t34.5 14.5q31 0 55 -31l110 -150z" />
    <glyph glyph-name="iacute" unicode="&#xed;" horiz-adv-x="305" 
d="M32 0v90h67v256h-67v92h176v-348h65v-90h-241zM131 491l-34 33l110 150q24 31 55 31q20 0 34.5 -14.5t14.5 -36.5q0 -31 -31 -55z" />
    <glyph glyph-name="icircumflex" unicode="&#xee;" horiz-adv-x="305" 
d="M32 0v90h67v256h-67v92h176v-348h65v-90h-241zM11 494l-46 53l177 176l177 -176l-46 -53l-131 96z" />
    <glyph glyph-name="idieresis" unicode="&#xef;" horiz-adv-x="305" 
d="M32 0v90h67v256h-67v92h176v-348h65v-90h-241zM244 505q-29 0 -50.5 21t-21.5 51t22 51t52 21q29 0 50.5 -21t21.5 -51t-22 -51t-52 -21zM38 505q-29 0 -50.5 21t-21.5 51t22 51t52 21q29 0 50.5 -21t21.5 -51t-22 -51t-52 -21z" />
    <glyph glyph-name="eth" unicode="&#xf0;" horiz-adv-x="543" 
d="M223 465l-56 66l86 72q-38 28 -81 42q-20 -41 -63 -41q-24 0 -41.5 17t-17.5 45q0 33 26 53.5t65 20.5q43 0 86 -18q52 -21 103 -64l97 81l56 -66l-93 -78q119 -148 119 -341q0 -136 -77 -206q-62 -56 -160 -56q-105 0 -171.5 62.5t-66.5 154.5q0 91 66 154t167 63
q72 0 130 -53q-17 96 -81 171zM406 208q0 53 -38 90t-96 37t-96 -37t-38 -90t38 -89.5t96 -36.5q56 0 93 34q41 36 41 92z" />
    <glyph glyph-name="ntilde" unicode="&#xf1;" horiz-adv-x="571" 
d="M201 438v-70q80 78 153 78q76 0 113 -56q23 -37 23 -90v-210h65v-90h-234v90h60v183q0 29 -9 45q-15 29 -54 29q-51 0 -113 -51v-206h60v-90h-234v90h65v256h-65v92h170zM373 506q-48 0 -89 37q-37 33 -60 33q-36 0 -52 -64l-74 19q8 70 42 110.5t77 40.5q48 0 89 -37
q37 -33 60 -33q36 0 52 64l74 -19q-8 -70 -42 -110.5t-77 -40.5z" />
    <glyph glyph-name="ograve" unicode="&#xf2;" horiz-adv-x="534" 
d="M267 -8q-105 0 -169 66t-64 161q0 93 64.5 160t168.5 67q105 0 169 -66t64 -161q0 -93 -64.5 -160t-168.5 -67zM267 83q53 0 87 38t34 98t-34 98t-87 38t-87 -38t-34 -98t34 -98t87 -38zM278 491l-149 108q-31 24 -31 55q0 22 14.5 36.5t34.5 14.5q31 0 55 -31l110 -150z
" />
    <glyph glyph-name="oacute" unicode="&#xf3;" horiz-adv-x="534" 
d="M267 -8q-105 0 -169 66t-64 161q0 93 64.5 160t168.5 67q105 0 169 -66t64 -161q0 -93 -64.5 -160t-168.5 -67zM267 83q53 0 87 38t34 98t-34 98t-87 38t-87 -38t-34 -98t34 -98t87 -38zM256 491l-34 33l110 150q24 31 55 31q20 0 34.5 -14.5t14.5 -36.5q0 -31 -31 -55z
" />
    <glyph glyph-name="ocircumflex" unicode="&#xf4;" horiz-adv-x="534" 
d="M267 -8q-105 0 -169 66t-64 161q0 93 64.5 160t168.5 67q105 0 169 -66t64 -161q0 -93 -64.5 -160t-168.5 -67zM267 83q53 0 87 38t34 98t-34 98t-87 38t-87 -38t-34 -98t34 -98t87 -38zM136 494l-46 53l177 176l177 -176l-46 -53l-131 96z" />
    <glyph glyph-name="otilde" unicode="&#xf5;" horiz-adv-x="534" 
d="M267 -8q-105 0 -169 66t-64 161q0 93 64.5 160t168.5 67q105 0 169 -66t64 -161q0 -93 -64.5 -160t-168.5 -67zM267 83q53 0 87 38t34 98t-34 98t-87 38t-87 -38t-34 -98t34 -98t87 -38zM347 506q-48 0 -89 37q-37 33 -60 33q-36 0 -52 -64l-74 19q8 70 42 110.5t77 40.5
q48 0 89 -37q37 -33 60 -33q36 0 52 64l74 -19q-8 -70 -42 -110.5t-77 -40.5z" />
    <glyph glyph-name="odieresis" unicode="&#xf6;" horiz-adv-x="534" 
d="M267 -8q-105 0 -169 66t-64 161q0 93 64.5 160t168.5 67q105 0 169 -66t64 -161q0 -93 -64.5 -160t-168.5 -67zM267 83q53 0 87 38t34 98t-34 98t-87 38t-87 -38t-34 -98t34 -98t87 -38zM369 505q-29 0 -50.5 21t-21.5 51t22 51t52 21q29 0 50.5 -21t21.5 -51t-22 -51
t-52 -21zM163 505q-29 0 -50.5 21t-21.5 51t22 51t52 21q29 0 50.5 -21t21.5 -51t-22 -51t-52 -21z" />
    <glyph glyph-name="divide" unicode="&#xf7;" horiz-adv-x="464" 
d="M412 237h-360v92h360v-92zM232 369q-26 0 -45.5 19t-19.5 46t20 46t47 19q26 0 45.5 -19t19.5 -46t-20 -46t-47 -19zM232 67q-26 0 -45.5 19t-19.5 46t20 46t47 19q26 0 45.5 -19t19.5 -46t-20 -46t-47 -19z" />
    <glyph glyph-name="oslash" unicode="&#xf8;" horiz-adv-x="534" 
d="M267 -8q-59 0 -110 24l-49 -59l-67 55l48 57q-55 63 -55 150q0 93 64.5 160t168.5 67q61 0 115 -28l52 62l67 -55l-52 -62q51 -62 51 -144q0 -93 -64.5 -160t-168.5 -67zM146 219q0 -48 17 -80l163 203q-28 13 -59 13q-53 0 -87 -38t-34 -98zM267 83q53 0 87 38t34 98
q0 42 -14 72l-162 -198q23 -10 55 -10z" />
    <glyph glyph-name="ugrave" unicode="&#xf9;" horiz-adv-x="566" 
d="M217 -8q-79 0 -114 58q-22 36 -22 88v208h-65v92h174v-273q0 -27 9 -45q15 -29 54 -29q51 0 113 51v204h-68v92h177v-348h65v-90h-170v70q-80 -78 -153 -78zM279 491l-149 108q-31 24 -31 55q0 22 14.5 36.5t34.5 14.5q31 0 55 -31l110 -150z" />
    <glyph glyph-name="uacute" unicode="&#xfa;" horiz-adv-x="566" 
d="M217 -8q-79 0 -114 58q-22 36 -22 88v208h-65v92h174v-273q0 -27 9 -45q15 -29 54 -29q51 0 113 51v204h-68v92h177v-348h65v-90h-170v70q-80 -78 -153 -78zM257 491l-34 33l110 150q24 31 55 31q20 0 34.5 -14.5t14.5 -36.5q0 -31 -31 -55z" />
    <glyph glyph-name="ucircumflex" unicode="&#xfb;" horiz-adv-x="566" 
d="M217 -8q-79 0 -114 58q-22 36 -22 88v208h-65v92h174v-273q0 -27 9 -45q15 -29 54 -29q51 0 113 51v204h-68v92h177v-348h65v-90h-170v70q-80 -78 -153 -78zM137 494l-46 53l177 176l177 -176l-46 -53l-131 96z" />
    <glyph glyph-name="udieresis" unicode="&#xfc;" horiz-adv-x="566" 
d="M217 -8q-79 0 -114 58q-22 36 -22 88v208h-65v92h174v-273q0 -27 9 -45q15 -29 54 -29q51 0 113 51v204h-68v92h177v-348h65v-90h-170v70q-80 -78 -153 -78zM370 505q-29 0 -50.5 21t-21.5 51t22 51t52 21q29 0 50.5 -21t21.5 -51t-22 -51t-52 -21zM164 505
q-29 0 -50.5 21t-21.5 51t22 51t52 21q29 0 50.5 -21t21.5 -51t-22 -51t-52 -21z" />
    <glyph glyph-name="yacute" unicode="&#xfd;" horiz-adv-x="532" 
d="M235 -142q-49 -57 -116 -57q-42 0 -68 20.5t-26 48.5q0 27 15.5 41.5t38.5 14.5q34 0 48 -33q19 5 35 26q8 11 20 34l33 69l-156 324h-54v92h226v-87h-64l101 -231l102 231h-68v87h225v-92h-53l-205 -435q-16 -33 -34 -53zM255 491l-34 33l110 150q24 31 55 31
q20 0 34.5 -14.5t14.5 -36.5q0 -31 -31 -55z" />
    <glyph glyph-name="thorn" unicode="&#xfe;" horiz-adv-x="533" 
d="M-4 -196v90h65v746h-68v92h177v-342q57 55 126 55q86 0 143 -63t57 -161q0 -95 -60 -161.5t-147 -66.5q-64 0 -119 42v-141h71v-90h-245zM272 87q46 0 79 35.5t33 97.5q0 61 -32 96t-80 35q-53 0 -102 -44v-186q48 -34 102 -34z" />
    <glyph glyph-name="ydieresis" unicode="&#xff;" horiz-adv-x="532" 
d="M235 -142q-49 -57 -116 -57q-42 0 -68 20.5t-26 48.5q0 27 15.5 41.5t38.5 14.5q34 0 48 -33q19 5 35 26q8 11 20 34l33 69l-156 324h-54v92h226v-87h-64l101 -231l102 231h-68v87h225v-92h-53l-205 -435q-16 -33 -34 -53zM162 505q-29 0 -50.5 21t-21.5 51t22 51t52 21
q29 0 50.5 -21t21.5 -51t-22 -51t-52 -21zM368 505q-29 0 -50.5 21t-21.5 51t22 51t52 21q29 0 50.5 -21t21.5 -51t-22 -51t-52 -21z" />
    <glyph glyph-name="Amacron" unicode="&#x100;" horiz-adv-x="696" 
d="M13 0v101h57l164 457h-72v100h372v-100h-72l164 -457h57v-101h-253v100h76l-37 108h-246l-37 -108h80v-100h-253zM254 302h184l-92 259zM180 749v89h334v-89h-334z" />
    <glyph glyph-name="amacron" unicode="&#x101;" horiz-adv-x="509" 
d="M177 -8q-60 0 -101 32t-41 91q0 61 48.5 96.5t127.5 35.5q63 0 111 -12v35q0 38 -17 60q-25 32 -86 32q-25 0 -43 -7q4 -12 4 -22q0 -25 -17 -41t-42 -16t-41.5 16t-16.5 43q0 45 45 78t129 33q109 0 157 -59q34 -41 34 -110v-187h65v-90h-169v48q-65 -56 -147 -56z
M212 71q56 0 110 39v69q-42 10 -90 10q-40 0 -62.5 -17t-22.5 -47q0 -26 17.5 -40t47.5 -14zM85 524v89h334v-89h-334z" />
    <glyph glyph-name="Abreve" unicode="&#x102;" horiz-adv-x="696" 
d="M13 0v101h57l164 457h-72v100h372v-100h-72l164 -457h57v-101h-253v100h76l-37 108h-246l-37 -108h80v-100h-253zM254 302h184l-92 259zM345 730q-62 0 -111.5 43t-72.5 131l69 27q42 -103 115 -103q72 0 115 103l69 -27q-23 -88 -72.5 -131t-111.5 -43z" />
    <glyph glyph-name="abreve" unicode="&#x103;" horiz-adv-x="509" 
d="M177 -8q-60 0 -101 32t-41 91q0 61 48.5 96.5t127.5 35.5q63 0 111 -12v35q0 38 -17 60q-25 32 -86 32q-25 0 -43 -7q4 -12 4 -22q0 -25 -17 -41t-42 -16t-41.5 16t-16.5 43q0 45 45 78t129 33q109 0 157 -59q34 -41 34 -110v-187h65v-90h-169v48q-65 -56 -147 -56z
M212 71q56 0 110 39v69q-42 10 -90 10q-40 0 -62.5 -17t-22.5 -47q0 -26 17.5 -40t47.5 -14zM250 505q-62 0 -111.5 43t-72.5 131l69 27q42 -103 115 -103q72 0 115 103l69 -27q-23 -88 -72.5 -131t-111.5 -43z" />
    <glyph glyph-name="Aogonek" unicode="&#x104;" horiz-adv-x="696" 
d="M564 -201q-54 0 -84 28.5t-30 74.5q0 56 50 98h-70v100h76l-37 108h-246l-37 -108h80v-100h-253v101h57l164 457h-72v100h372v-100h-72l164 -457h57v-101h-94q-48 -31 -48 -71q0 -46 52 -46q38 0 70 17l-5 -79q-36 -22 -94 -22zM254 302h184l-92 259z" />
    <glyph glyph-name="aogonek" unicode="&#x105;" horiz-adv-x="509" 
d="M385 -201q-54 0 -84 28.5t-30 74.5q0 59 53 100v46q-65 -56 -147 -56q-60 0 -101 32t-41 91q0 61 48.5 96.5t127.5 35.5q63 0 111 -12v35q0 38 -17 60q-25 32 -86 32q-25 0 -43 -7q4 -12 4 -22q0 -25 -17 -41t-42 -16t-41.5 16t-16.5 43q0 45 45 78t129 33q109 0 157 -59
q34 -41 34 -110v-187h65v-90h-83q-48 -31 -48 -71q0 -46 52 -46q38 0 70 17l-5 -79q-36 -22 -94 -22zM212 71q56 0 110 39v69q-42 10 -90 10q-40 0 -62.5 -17t-22.5 -47q0 -26 17.5 -40t47.5 -14z" />
    <glyph glyph-name="Cacute" unicode="&#x106;" horiz-adv-x="702" 
d="M394 -12q-153 0 -250.5 94t-97.5 247q0 147 100 244t246 97q110 0 182.5 -48.5t72.5 -110.5q0 -36 -20.5 -58.5t-51.5 -22.5q-34 0 -55 19.5t-21 51.5q0 20 7 34q-38 30 -117 30q-97 0 -161.5 -66.5t-64.5 -168.5q0 -101 64.5 -169t166.5 -68q109 0 189 87l75 -78
q-49 -54 -117.5 -84t-146.5 -30zM371 716l-34 33l110 150q24 31 55 31q20 0 34.5 -14.5t14.5 -36.5q0 -31 -31 -55z" />
    <glyph glyph-name="cacute" unicode="&#x107;" horiz-adv-x="499" 
d="M276 -8q-105 0 -173.5 63.5t-68.5 167.5q0 88 63.5 155.5t158.5 67.5q86 0 142.5 -46t56.5 -101q0 -34 -20 -54t-50 -20q-27 0 -46.5 19.5t-19.5 46.5q0 21 14 37q-22 30 -78 30q-43 0 -77.5 -35.5t-34.5 -101.5q0 -61 41 -99t101 -38q71 0 156 46l-9 -98
q-70 -40 -156 -40zM248 491l-34 33l110 150q24 31 55 31q20 0 34.5 -14.5t14.5 -36.5q0 -31 -31 -55z" />
    <glyph glyph-name="Cdotaccent" unicode="&#x10a;" horiz-adv-x="702" 
d="M394 -12q-153 0 -250.5 94t-97.5 247q0 147 100 244t246 97q110 0 182.5 -48.5t72.5 -110.5q0 -36 -20.5 -58.5t-51.5 -22.5q-34 0 -55 19.5t-21 51.5q0 20 7 34q-38 30 -117 30q-97 0 -161.5 -66.5t-64.5 -168.5q0 -101 64.5 -169t166.5 -68q109 0 189 87l75 -78
q-49 -54 -117.5 -84t-146.5 -30zM381 720q-29 0 -50.5 21t-21.5 51t22 51t52 21q29 0 50.5 -21t21.5 -51t-22 -51t-52 -21z" />
    <glyph glyph-name="cdotaccent" unicode="&#x10b;" horiz-adv-x="499" 
d="M276 -8q-105 0 -173.5 63.5t-68.5 167.5q0 88 63.5 155.5t158.5 67.5q86 0 142.5 -46t56.5 -101q0 -34 -20 -54t-50 -20q-27 0 -46.5 19.5t-19.5 46.5q0 21 14 37q-22 30 -78 30q-43 0 -77.5 -35.5t-34.5 -101.5q0 -61 41 -99t101 -38q71 0 156 46l-9 -98
q-70 -40 -156 -40zM258 495q-29 0 -50.5 21t-21.5 51t22 51t52 21q29 0 50.5 -21t21.5 -51t-22 -51t-52 -21z" />
    <glyph glyph-name="Ccaron" unicode="&#x10c;" horiz-adv-x="702" 
d="M394 -12q-153 0 -250.5 94t-97.5 247q0 147 100 244t246 97q110 0 182.5 -48.5t72.5 -110.5q0 -36 -20.5 -58.5t-51.5 -22.5q-34 0 -55 19.5t-21 51.5q0 20 7 34q-38 30 -117 30q-97 0 -161.5 -66.5t-64.5 -168.5q0 -101 64.5 -169t166.5 -68q109 0 189 87l75 -78
q-49 -54 -117.5 -84t-146.5 -30zM512 941l46 -53l-177 -176l-177 176l46 53l131 -96z" />
    <glyph glyph-name="ccaron" unicode="&#x10d;" horiz-adv-x="499" 
d="M276 -8q-105 0 -173.5 63.5t-68.5 167.5q0 88 63.5 155.5t158.5 67.5q86 0 142.5 -46t56.5 -101q0 -34 -20 -54t-50 -20q-27 0 -46.5 19.5t-19.5 46.5q0 21 14 37q-22 30 -78 30q-43 0 -77.5 -35.5t-34.5 -101.5q0 -61 41 -99t101 -38q71 0 156 46l-9 -98
q-70 -40 -156 -40zM389 716l46 -53l-177 -176l-177 176l46 53l131 -96z" />
    <glyph glyph-name="Dcaron" unicode="&#x10e;" horiz-adv-x="711" 
d="M37 0v101h75v456h-75v101h249q178 0 278.5 -86.5t100.5 -236.5q0 -154 -101 -244.5t-290 -90.5h-237zM225 101h65q125 0 191.5 62.5t66.5 170.5q0 107 -71 165t-195 58h-57v-456zM461 941l46 -53l-177 -176l-177 176l46 53l131 -96z" />
    <glyph glyph-name="dcaron" unicode="&#x10f;" horiz-adv-x="561" 
d="M237 -8q-88 0 -145.5 63.5t-57.5 161.5q0 96 61 162.5t149 66.5q72 0 122 -42v236h-66v92h175v-642h65v-90h-174v48q-58 -56 -129 -56zM262 86q53 0 104 44v188q-49 34 -104 34q-48 0 -82 -36t-34 -98q0 -61 33 -96.5t83 -35.5zM534 468l-35 26q42 61 42 112
q0 18 -9.5 44t-9.5 46q0 27 17 46t47 19q29 0 45 -19t16 -51q0 -106 -113 -223z" />
    <glyph glyph-name="Dcroat" unicode="&#x110;" horiz-adv-x="721" 
d="M122 291h-85v91h85v175h-75v101h249q174 0 276.5 -88.5t102.5 -234.5q0 -154 -99 -244.5t-282 -90.5h-247v101h75v190zM235 101h65q125 0 191.5 62.5t66.5 170.5q0 107 -71 165t-195 58h-57v-175h137v-91h-137v-190z" />
    <glyph glyph-name="dcroat" unicode="&#x111;" horiz-adv-x="561" 
d="M221 499v80h145v61h-66v92h175v-153h65v-80h-65v-409h65v-90h-174v48q-58 -56 -129 -56q-88 0 -145.5 63.5t-57.5 161.5q0 96 61 162.5t149 66.5q72 0 122 -42v95h-145zM262 86q53 0 104 44v188q-49 34 -104 34q-48 0 -82 -36t-34 -98q0 -61 33 -96.5t83 -35.5z" />
    <glyph glyph-name="Emacron" unicode="&#x112;" horiz-adv-x="577" 
d="M37 0v101h75v456h-75v101h491v-188h-108v88h-195v-176h199v-96h-199v-186h196v88h108v-188h-492zM125 749v89h334v-89h-334z" />
    <glyph glyph-name="emacron" unicode="&#x113;" horiz-adv-x="500" 
d="M464 182h-316q22 -98 144 -98q78 0 159 46l-9 -98q-68 -40 -166 -40q-108 0 -175 62t-67 164q0 96 61.5 162t160.5 66q101 0 157 -59.5t56 -150.5q0 -29 -5 -54zM92 524v89h334v-89h-334zM255 358q-39 0 -69.5 -24.5t-38.5 -75.5h213q-2 46 -30 73t-75 27z" />
    <glyph glyph-name="Ebreve" unicode="&#x114;" horiz-adv-x="577" 
d="M37 0v101h75v456h-75v101h491v-188h-108v88h-195v-176h199v-96h-199v-186h196v88h108v-188h-492zM290 730q-62 0 -111.5 43t-72.5 131l69 27q42 -103 115 -103q72 0 115 103l69 -27q-23 -88 -72.5 -131t-111.5 -43z" />
    <glyph glyph-name="ebreve" unicode="&#x115;" horiz-adv-x="500" 
d="M464 182h-316q22 -98 144 -98q78 0 159 46l-9 -98q-68 -40 -166 -40q-108 0 -175 62t-67 164q0 96 61.5 162t160.5 66q101 0 157 -59.5t56 -150.5q0 -29 -5 -54zM257 505q-62 0 -111.5 43t-72.5 131l69 27q42 -103 115 -103q72 0 115 103l69 -27q-23 -88 -72.5 -131
t-111.5 -43zM255 358q-39 0 -69.5 -24.5t-38.5 -75.5h213q-2 46 -30 73t-75 27z" />
    <glyph glyph-name="Edotaccent" unicode="&#x116;" horiz-adv-x="577" 
d="M37 0v101h75v456h-75v101h491v-188h-108v88h-195v-176h199v-96h-199v-186h196v88h108v-188h-492zM291 720q-29 0 -50.5 21t-21.5 51t22 51t52 21q29 0 50.5 -21t21.5 -51t-22 -51t-52 -21z" />
    <glyph glyph-name="edotaccent" unicode="&#x117;" horiz-adv-x="500" 
d="M464 182h-316q22 -98 144 -98q78 0 159 46l-9 -98q-68 -40 -166 -40q-108 0 -175 62t-67 164q0 96 61.5 162t160.5 66q101 0 157 -59.5t56 -150.5q0 -29 -5 -54zM255 358q-39 0 -69.5 -24.5t-38.5 -75.5h213q-2 46 -30 73t-75 27zM258 495q-29 0 -50.5 21t-21.5 51t22 51
t52 21q29 0 50.5 -21t21.5 -51t-22 -51t-52 -21z" />
    <glyph glyph-name="Eogonek" unicode="&#x118;" horiz-adv-x="577" 
d="M37 0v101h75v456h-75v101h491v-188h-108v88h-195v-176h199v-96h-199v-186h196v88h108v-188h-74q-48 -31 -48 -71q0 -46 52 -46q38 0 70 17l-5 -79q-36 -22 -94 -22q-54 0 -84 28.5t-30 74.5q0 56 50 98h-329z" />
    <glyph glyph-name="eogonek" unicode="&#x119;" horiz-adv-x="500" 
d="M464 182h-316q22 -98 144 -98q78 0 159 46l-9 -100q-125 -46 -125 -103q0 -44 52 -44q38 0 70 17l-5 -79q-36 -22 -94 -22q-54 0 -84 28.5t-30 74.5q0 51 41 90q-104 3 -168.5 65t-64.5 161q0 96 61.5 162t160.5 66q101 0 157 -59.5t56 -150.5q0 -29 -5 -54zM255 358
q-39 0 -69.5 -24.5t-38.5 -75.5h213q-2 46 -30 73t-75 27z" />
    <glyph glyph-name="Ecaron" unicode="&#x11a;" horiz-adv-x="577" 
d="M37 0v101h75v456h-75v101h491v-188h-108v88h-195v-176h199v-96h-199v-186h196v88h108v-188h-492zM422 941l46 -53l-177 -176l-177 176l46 53l131 -96z" />
    <glyph glyph-name="ecaron" unicode="&#x11b;" horiz-adv-x="500" 
d="M464 182h-316q22 -98 144 -98q78 0 159 46l-9 -98q-68 -40 -166 -40q-108 0 -175 62t-67 164q0 96 61.5 162t160.5 66q101 0 157 -59.5t56 -150.5q0 -29 -5 -54zM389 716l46 -53l-177 -176l-177 176l46 53l131 -96zM255 358q-39 0 -69.5 -24.5t-38.5 -75.5h213
q-2 46 -30 73t-75 27z" />
    <glyph glyph-name="Gbreve" unicode="&#x11e;" horiz-adv-x="726" 
d="M362 -12q-128 0 -222 93.5t-94 245.5q0 150 100 246.5t246 96.5q110 0 182.5 -48.5t72.5 -110.5q0 -36 -20.5 -58.5t-51.5 -22.5q-34 0 -55 19.5t-21 51.5q0 20 7 34q-38 30 -117 30q-97 0 -161.5 -66t-64.5 -171t64.5 -171.5t151.5 -66.5q94 0 159 42v113h-164v96h275
v-341h-108v49q-78 -61 -179 -61zM380 730q-62 0 -111.5 43t-72.5 131l69 27q42 -103 115 -103q72 0 115 103l69 -27q-23 -88 -72.5 -131t-111.5 -43z" />
    <glyph glyph-name="gbreve" unicode="&#x11f;" horiz-adv-x="557" 
d="M469 346v-347q0 -82 -41 -132q-55 -67 -164 -67q-55 0 -101.5 15.5t-70.5 39.5t-24 57q0 24 16.5 42.5t42.5 18.5t43.5 -16t17.5 -41q0 -9 -2 -17q33 -11 65 -11q61 0 89 38q20 28 20 76v63q-56 -56 -126 -56q-85 0 -142.5 59.5t-57.5 155.5q0 93 59.5 157.5t145.5 64.5
q70 0 125 -47v39h170v-92h-65zM262 352q-52 0 -84 -33t-32 -94q0 -59 32 -91.5t84 -32.5t98 43v174q-44 34 -98 34zM282 505q-62 0 -111.5 43t-72.5 131l69 27q42 -103 115 -103q72 0 115 103l69 -27q-23 -88 -72.5 -131t-111.5 -43z" />
    <glyph glyph-name="Gdotaccent" unicode="&#x120;" horiz-adv-x="726" 
d="M362 -12q-128 0 -222 93.5t-94 245.5q0 150 100 246.5t246 96.5q110 0 182.5 -48.5t72.5 -110.5q0 -36 -20.5 -58.5t-51.5 -22.5q-34 0 -55 19.5t-21 51.5q0 20 7 34q-38 30 -117 30q-97 0 -161.5 -66t-64.5 -171t64.5 -171.5t151.5 -66.5q94 0 159 42v113h-164v96h275
v-341h-108v49q-78 -61 -179 -61zM381 720q-29 0 -50.5 21t-21.5 51t22 51t52 21q29 0 50.5 -21t21.5 -51t-22 -51t-52 -21z" />
    <glyph glyph-name="gdotaccent" unicode="&#x121;" horiz-adv-x="557" 
d="M469 346v-347q0 -82 -41 -132q-55 -67 -164 -67q-55 0 -101.5 15.5t-70.5 39.5t-24 57q0 24 16.5 42.5t42.5 18.5t43.5 -16t17.5 -41q0 -9 -2 -17q33 -11 65 -11q61 0 89 38q20 28 20 76v63q-56 -56 -126 -56q-85 0 -142.5 59.5t-57.5 155.5q0 93 59.5 157.5t145.5 64.5
q70 0 125 -47v39h170v-92h-65zM262 352q-52 0 -84 -33t-32 -94q0 -59 32 -91.5t84 -32.5t98 43v174q-44 34 -98 34zM273 495q-29 0 -50.5 21t-21.5 51t22 51t52 21q29 0 50.5 -21t21.5 -51t-22 -51t-52 -21z" />
    <glyph glyph-name="Gcommaaccent" unicode="&#x122;" horiz-adv-x="726" 
d="M362 -12q-128 0 -222 93.5t-94 245.5q0 150 100 246.5t246 96.5q110 0 182.5 -48.5t72.5 -110.5q0 -36 -20.5 -58.5t-51.5 -22.5q-34 0 -55 19.5t-21 51.5q0 20 7 34q-38 30 -117 30q-97 0 -161.5 -66t-64.5 -171t64.5 -171.5t151.5 -66.5q94 0 159 42v113h-164v96h275
v-341h-108v49q-78 -61 -179 -61zM308 -313l-26 33q79 62 83 109q-23 6 -36.5 23.5t-13.5 41.5t19.5 42.5t46.5 18.5q30 0 50.5 -21t20.5 -59q0 -43 -35 -94.5t-109 -93.5z" />
    <glyph glyph-name="gcommaaccent" unicode="&#x123;" horiz-adv-x="557" 
d="M469 346v-347q0 -82 -41 -132q-55 -67 -164 -67q-55 0 -101.5 15.5t-70.5 39.5t-24 57q0 24 16.5 42.5t42.5 18.5t43.5 -16t17.5 -41q0 -9 -2 -17q33 -11 65 -11q61 0 89 38q20 28 20 76v63q-56 -56 -126 -56q-85 0 -142.5 59.5t-57.5 155.5q0 93 59.5 157.5t145.5 64.5
q70 0 125 -47v39h170v-92h-65zM262 352q-52 0 -84 -33t-32 -94q0 -59 32 -91.5t84 -32.5t98 43v174q-44 34 -98 34zM408 754l26 -33q-79 -62 -83 -109q23 -6 36.5 -23.5t13.5 -41.5t-19.5 -42.5t-46.5 -18.5q-30 0 -50.5 21t-20.5 59q0 44 35 95t109 93z" />
    <glyph glyph-name="Hbar" unicode="&#x126;" horiz-adv-x="754" 
d="M56 420v83h56v62h-75v93h270v-93h-82v-62h304v62h-82v93h270v-93h-75v-62h56v-83h-56v-319h75v-101h-270v101h82v162h-304v-162h82v-101h-270v101h75v319h-56zM225 362h304v58h-304v-58z" />
    <glyph glyph-name="hbar" unicode="&#x127;" horiz-adv-x="566" 
d="M91 640h-65v92h174v-153h145v-80h-145v-127q78 74 149 74t107 -47q29 -38 29 -99v-210h65v-90h-234v90h60v183q0 34 -14 53q-16 21 -49 21q-51 0 -113 -51v-206h60v-90h-234v90h65v409h-65v80h65v61z" />
    <glyph glyph-name="Imacron" unicode="&#x12a;" horiz-adv-x="347" 
d="M37 0v101h80v456h-80v101h273v-101h-80v-456h80v-101h-273zM6 749v89h334v-89h-334z" />
    <glyph glyph-name="imacron" unicode="&#x12b;" horiz-adv-x="305" 
d="M32 0v90h67v256h-67v92h176v-348h65v-90h-241zM-25 524v89h334v-89h-334z" />
    <glyph glyph-name="Ibreve" unicode="&#x12c;" horiz-adv-x="347" 
d="M37 0v101h80v456h-80v101h273v-101h-80v-456h80v-101h-273zM171 730q-62 0 -111.5 43t-72.5 131l69 27q42 -103 115 -103q72 0 115 103l69 -27q-23 -88 -72.5 -131t-111.5 -43z" />
    <glyph glyph-name="ibreve" unicode="&#x12d;" horiz-adv-x="305" 
d="M32 0v90h67v256h-67v92h176v-348h65v-90h-241zM140 505q-62 0 -111.5 43t-72.5 131l69 27q42 -103 115 -103q72 0 115 103l69 -27q-23 -88 -72.5 -131t-111.5 -43z" />
    <glyph glyph-name="Iogonek" unicode="&#x12e;" horiz-adv-x="347" 
d="M37 0v101h80v456h-80v101h273v-101h-80v-456h80v-101h-94q-48 -31 -48 -71q0 -46 52 -46q38 0 70 17l-5 -79q-36 -22 -94 -22q-54 0 -84 28.5t-30 74.5q0 56 50 98h-90z" />
    <glyph glyph-name="iogonek" unicode="&#x12f;" horiz-adv-x="305" 
d="M32 0v90h67v256h-67v92h176v-348h65v-90h-94q-48 -31 -48 -71q0 -46 52 -46q38 0 70 17l-5 -79q-36 -22 -94 -22q-54 0 -84 28.5t-30 74.5q0 56 50 98h-58zM142 505q-29 0 -50.5 21t-21.5 51t22 51t52 21q29 0 50.5 -21t21.5 -51t-22 -51t-52 -21z" />
    <glyph glyph-name="Idotaccent" unicode="&#x130;" horiz-adv-x="347" 
d="M37 0v101h80v456h-80v101h273v-101h-80v-456h80v-101h-273zM172 720q-29 0 -50.5 21t-21.5 51t22 51t52 21q29 0 50.5 -21t21.5 -51t-22 -51t-52 -21z" />
    <glyph glyph-name="dotlessi" unicode="&#x131;" horiz-adv-x="305" 
d="M32 0v90h67v256h-67v92h176v-348h65v-90h-241z" />
    <glyph glyph-name="Kcommaaccent" unicode="&#x136;" horiz-adv-x="681" 
d="M37 0v101h75v456h-75v101h270v-99h-82v-223l221 223h-75v99h290v-101h-71l-184 -181l168 -275h87v-101h-158l-183 300l-95 -93v-106h82v-101h-270zM275 -313l-26 33q79 62 83 109q-23 6 -36.5 23.5t-13.5 41.5t19.5 42.5t46.5 18.5q30 0 50.5 -21t20.5 -59
q0 -43 -35 -94.5t-109 -93.5z" />
    <glyph glyph-name="kcommaaccent" unicode="&#x137;" horiz-adv-x="552" 
d="M26 0v90h65v550h-65v92h174v-491l128 110h-61v87h259v-92h-81l-102 -86l111 -168h72v-92h-137l-126 197l-63 -53v-56h55v-88h-229zM202 -313l-26 33q79 62 83 109q-23 6 -36.5 23.5t-13.5 41.5t19.5 42.5t46.5 18.5q30 0 50.5 -21t20.5 -59q0 -43 -35 -94.5t-109 -93.5z
" />
    <glyph glyph-name="Lacute" unicode="&#x139;" horiz-adv-x="548" 
d="M37 0v101h75v456h-75v101h275v-101h-87v-457h181v93h109v-193h-478zM203 716l-34 33l110 150q24 31 55 31q20 0 34.5 -14.5t14.5 -36.5q0 -31 -31 -55z" />
    <glyph glyph-name="lacute" unicode="&#x13a;" horiz-adv-x="295" 
d="M26 0v90h68v550h-68v92h177v-642h65v-90h-242zM144 791l-34 33l110 150q24 31 55 31q20 0 34.5 -14.5t14.5 -36.5q0 -31 -31 -55z" />
    <glyph glyph-name="Lcommaaccent" unicode="&#x13b;" horiz-adv-x="548" 
d="M37 0v101h75v456h-75v101h275v-101h-87v-457h181v93h109v-193h-478zM202 -313l-26 33q79 62 83 109q-23 6 -36.5 23.5t-13.5 41.5t19.5 42.5t46.5 18.5q30 0 50.5 -21t20.5 -59q0 -43 -35 -94.5t-109 -93.5z" />
    <glyph glyph-name="lcommaaccent" unicode="&#x13c;" horiz-adv-x="295" 
d="M26 0v90h68v550h-68v92h177v-642h65v-90h-242zM73 -313l-26 33q79 62 83 109q-23 6 -36.5 23.5t-13.5 41.5t19.5 42.5t46.5 18.5q30 0 50.5 -21t20.5 -59q0 -43 -35 -94.5t-109 -93.5z" />
    <glyph glyph-name="Lcaron" unicode="&#x13d;" horiz-adv-x="548" 
d="M37 0v101h75v456h-75v101h275v-101h-87v-457h181v93h109v-193h-478zM389 368l-35 26q42 61 42 112q0 18 -9.5 44t-9.5 46q0 27 17 46t47 19q29 0 45 -19t16 -51q0 -106 -113 -223z" />
    <glyph glyph-name="lcaron" unicode="&#x13e;" horiz-adv-x="295" 
d="M26 0v90h68v550h-68v92h177v-642h65v-90h-242zM263 468l-35 26q42 61 42 112q0 18 -9.5 44t-9.5 46q0 27 17 46t47 19q29 0 45 -19t16 -51q0 -106 -113 -223z" />
    <glyph glyph-name="Ldot" unicode="&#x13f;" horiz-adv-x="548" 
d="M442 304q-29 0 -50.5 21t-21.5 51t22 51t52 21q29 0 50.5 -21t21.5 -51t-22 -51t-52 -21zM37 0v101h75v456h-75v101h275v-101h-87v-457h181v93h109v-193h-478z" />
    <glyph glyph-name="ldot" unicode="&#x140;" horiz-adv-x="373" 
d="M26 0v90h68v550h-68v92h177v-642h65v-90h-242zM334 274q-29 0 -50.5 21t-21.5 51t22 51t52 21q29 0 50.5 -21t21.5 -51t-22 -51t-52 -21z" />
    <glyph glyph-name="Lslash" unicode="&#x141;" horiz-adv-x="548" 
d="M37 0v101h75v150l-80 -44l-45 77l125 69v204h-75v101h275v-101h-87v-142l111 62l44 -78l-155 -86v-213h181v93h109v-193h-478z" />
    <glyph glyph-name="lslash" unicode="&#x142;" horiz-adv-x="295" 
d="M26 0v90h68v246l-69 -40l-43 76l112 64v204h-68v92h177v-241l71 41l43 -76l-114 -66v-300h65v-90h-242z" />
    <glyph glyph-name="Nacute" unicode="&#x143;" horiz-adv-x="743" 
d="M581 -3l-359 457v-353h82v-101h-267v101h75v456h-75v101h171l324 -413v312h-82v101h264v-101h-72v-558zM360 716l-34 33l110 150q24 31 55 31q20 0 34.5 -14.5t14.5 -36.5q0 -31 -31 -55z" />
    <glyph glyph-name="nacute" unicode="&#x144;" horiz-adv-x="571" 
d="M201 438v-70q80 78 153 78q76 0 113 -56q23 -37 23 -90v-210h65v-90h-234v90h60v183q0 29 -9 45q-15 29 -54 29q-51 0 -113 -51v-206h60v-90h-234v90h65v256h-65v92h170zM282 491l-34 33l110 150q24 31 55 31q20 0 34.5 -14.5t14.5 -36.5q0 -31 -31 -55z" />
    <glyph glyph-name="Ncommaaccent" unicode="&#x145;" horiz-adv-x="743" 
d="M581 -3l-359 457v-353h82v-101h-267v101h75v456h-75v101h171l324 -413v312h-82v101h264v-101h-72v-558zM307 -306l-26 33q79 62 83 109q-23 6 -36.5 23.5t-13.5 41.5t19.5 42.5t46.5 18.5q30 0 50.5 -21t20.5 -59q0 -44 -35 -95t-109 -93z" />
    <glyph glyph-name="ncommaaccent" unicode="&#x146;" horiz-adv-x="571" 
d="M201 438v-70q80 78 153 78q76 0 113 -56q23 -37 23 -90v-210h65v-90h-234v90h60v183q0 29 -9 45q-15 29 -54 29q-51 0 -113 -51v-206h60v-90h-234v90h65v256h-65v92h170zM219 -313l-26 33q79 62 83 109q-23 6 -36.5 23.5t-13.5 41.5t19.5 42.5t46.5 18.5q30 0 50.5 -21
t20.5 -59q0 -43 -35 -94.5t-109 -93.5z" />
    <glyph glyph-name="Ncaron" unicode="&#x147;" horiz-adv-x="743" 
d="M581 -3l-359 457v-353h82v-101h-267v101h75v456h-75v101h171l324 -413v312h-82v101h264v-101h-72v-558zM501 941l46 -53l-177 -176l-177 176l46 53l131 -96z" />
    <glyph glyph-name="ncaron" unicode="&#x148;" horiz-adv-x="571" 
d="M201 438v-70q80 78 153 78q76 0 113 -56q23 -37 23 -90v-210h65v-90h-234v90h60v183q0 29 -9 45q-15 29 -54 29q-51 0 -113 -51v-206h60v-90h-234v90h65v256h-65v92h170zM423 716l46 -53l-177 -176l-177 176l46 53l131 -96z" />
    <glyph glyph-name="Omacron" unicode="&#x14c;" horiz-adv-x="767" 
d="M381 -12q-147 0 -241 97.5t-94 243.5t95.5 243.5t244.5 97.5q147 0 241 -97.5t94 -243.5t-95.5 -243.5t-244.5 -97.5zM384 93q96 0 158 66.5t62 169.5t-62.5 169.5t-157.5 66.5q-96 0 -158.5 -66.5t-62.5 -169.5t62.5 -169.5t158.5 -66.5zM216 749v89h334v-89h-334z" />
    <glyph glyph-name="omacron" unicode="&#x14d;" horiz-adv-x="534" 
d="M267 -8q-105 0 -169 66t-64 161q0 93 64.5 160t168.5 67q105 0 169 -66t64 -161q0 -93 -64.5 -160t-168.5 -67zM267 83q53 0 87 38t34 98t-34 98t-87 38t-87 -38t-34 -98t34 -98t87 -38zM100 524v89h334v-89h-334z" />
    <glyph glyph-name="Obreve" unicode="&#x14e;" horiz-adv-x="767" 
d="M381 -12q-147 0 -241 97.5t-94 243.5t95.5 243.5t244.5 97.5q147 0 241 -97.5t94 -243.5t-95.5 -243.5t-244.5 -97.5zM384 93q96 0 158 66.5t62 169.5t-62.5 169.5t-157.5 66.5q-96 0 -158.5 -66.5t-62.5 -169.5t62.5 -169.5t158.5 -66.5zM381 730q-62 0 -111.5 43
t-72.5 131l69 27q42 -103 115 -103q72 0 115 103l69 -27q-23 -88 -72.5 -131t-111.5 -43z" />
    <glyph glyph-name="obreve" unicode="&#x14f;" horiz-adv-x="534" 
d="M267 -8q-105 0 -169 66t-64 161q0 93 64.5 160t168.5 67q105 0 169 -66t64 -161q0 -93 -64.5 -160t-168.5 -67zM267 83q53 0 87 38t34 98t-34 98t-87 38t-87 -38t-34 -98t34 -98t87 -38zM265 505q-62 0 -111.5 43t-72.5 131l69 27q42 -103 115 -103q72 0 115 103l69 -27
q-23 -88 -72.5 -131t-111.5 -43z" />
    <glyph glyph-name="Ohungarumlaut" unicode="&#x150;" horiz-adv-x="767" 
d="M381 -12q-147 0 -241 97.5t-94 243.5t95.5 243.5t244.5 97.5q147 0 241 -97.5t94 -243.5t-95.5 -243.5t-244.5 -97.5zM384 93q96 0 158 66.5t62 169.5t-62.5 169.5t-157.5 66.5q-96 0 -158.5 -66.5t-62.5 -169.5t62.5 -169.5t158.5 -66.5zM242 718l-25 35l146 143
q28 28 54 28q22 0 37 -15t15 -36q0 -39 -44 -62zM460 718l-22 36l163 145q27 24 53 24q21 0 35.5 -15.5t14.5 -36.5q0 -37 -45 -60z" />
    <glyph glyph-name="ohungarumlaut" unicode="&#x151;" horiz-adv-x="534" 
d="M267 -8q-105 0 -169 66t-64 161q0 93 64.5 160t168.5 67q105 0 169 -66t64 -161q0 -93 -64.5 -160t-168.5 -67zM267 83q53 0 87 38t34 98t-34 98t-87 38t-87 -38t-34 -98t34 -98t87 -38zM126 493l-25 35l146 143q28 28 54 28q22 0 37 -15t15 -36q0 -39 -44 -62zM344 493
l-22 36l163 145q27 24 53 24q21 0 35.5 -15.5t14.5 -36.5q0 -38 -45 -60z" />
    <glyph glyph-name="OE" unicode="&#x152;" horiz-adv-x="931" 
d="M425 0q-174 0 -276.5 88.5t-102.5 234.5q0 154 99 244.5t282 90.5h455v-188h-108v88h-195v-176h199v-96h-199v-186h196v88h108v-188h-458zM429 101h37v456h-45q-125 0 -191.5 -62.5t-66.5 -170.5q0 -107 71 -165t195 -58z" />
    <glyph glyph-name="oe" unicode="&#x153;" horiz-adv-x="844" 
d="M646 84q78 0 159 46l-9 -98q-68 -40 -161 -40q-60 0 -114 27.5t-78 67.5q-26 -43 -74.5 -69t-106.5 -26q-102 0 -165 66t-63 161q0 93 63.5 160t164.5 67q60 0 107.5 -26t73.5 -68q28 44 75.5 69t96.5 25q98 0 153 -59.5t55 -150.5q0 -29 -5 -54h-316q22 -98 144 -98z
M267 83q53 0 87 38t34 98t-34 98t-87 38t-87 -38t-34 -98t34 -98t87 -38zM609 358q-39 0 -69.5 -24.5t-38.5 -75.5h213q-2 46 -30 73t-75 27z" />
    <glyph glyph-name="Racute" unicode="&#x154;" horiz-adv-x="620" 
d="M37 0v101h75v456h-75v101h255q118 0 188.5 -51t70.5 -148q0 -62 -34 -109.5t-90 -69.5l101 -179h75v-101h-152l-132 250q-28 -2 -40 -2q-40 0 -54 1v-148h82v-101h-270zM289 344q65 0 105 30t40 81t-39 76.5t-109 25.5h-61v-211q24 -2 64 -2zM289 716l-34 33l110 150
q24 31 55 31q20 0 34.5 -14.5t14.5 -36.5q0 -31 -31 -55z" />
    <glyph glyph-name="racute" unicode="&#x155;" horiz-adv-x="435" 
d="M340 446q39 0 60 -20.5t21 -51.5q0 -28 -19 -48t-46 -20q-46 0 -64 39q-23 -8 -47.5 -31.5t-39.5 -51.5v-172h76v-90h-250v90h65v256h-65v92h170v-99q67 107 139 107zM215 491l-34 33l110 150q24 31 55 31q20 0 34.5 -14.5t14.5 -36.5q0 -31 -31 -55z" />
    <glyph glyph-name="Rcommaaccent" unicode="&#x156;" horiz-adv-x="620" 
d="M37 0v101h75v456h-75v101h255q118 0 188.5 -51t70.5 -148q0 -62 -34 -109.5t-90 -69.5l101 -179h75v-101h-152l-132 250q-28 -2 -40 -2q-40 0 -54 1v-148h82v-101h-270zM289 344q65 0 105 30t40 81t-39 76.5t-109 25.5h-61v-211q24 -2 64 -2zM226 -313l-26 33
q79 62 83 109q-23 6 -36.5 23.5t-13.5 41.5t19.5 42.5t46.5 18.5q30 0 50.5 -21t20.5 -59q0 -43 -35 -94.5t-109 -93.5z" />
    <glyph glyph-name="rcommaaccent" unicode="&#x157;" horiz-adv-x="435" 
d="M340 446q39 0 60 -20.5t21 -51.5q0 -28 -19 -48t-46 -20q-46 0 -64 39q-23 -8 -47.5 -31.5t-39.5 -51.5v-172h76v-90h-250v90h65v256h-65v92h170v-99q67 107 139 107zM82 -313l-26 33q79 62 83 109q-23 6 -36.5 23.5t-13.5 41.5t19.5 42.5t46.5 18.5q30 0 50.5 -21
t20.5 -59q0 -43 -35 -94.5t-109 -93.5z" />
    <glyph glyph-name="Rcaron" unicode="&#x158;" horiz-adv-x="620" 
d="M37 0v101h75v456h-75v101h255q118 0 188.5 -51t70.5 -148q0 -62 -34 -109.5t-90 -69.5l101 -179h75v-101h-152l-132 250q-28 -2 -40 -2q-40 0 -54 1v-148h82v-101h-270zM289 344q65 0 105 30t40 81t-39 76.5t-109 25.5h-61v-211q24 -2 64 -2zM430 941l46 -53l-177 -176
l-177 176l46 53l131 -96z" />
    <glyph glyph-name="rcaron" unicode="&#x159;" horiz-adv-x="435" 
d="M340 446q39 0 60 -20.5t21 -51.5q0 -28 -19 -48t-46 -20q-46 0 -64 39q-23 -8 -47.5 -31.5t-39.5 -51.5v-172h76v-90h-250v90h65v256h-65v92h170v-99q67 107 139 107zM356 716l46 -53l-177 -176l-177 176l46 53l131 -96z" />
    <glyph glyph-name="Sacute" unicode="&#x15a;" horiz-adv-x="555" 
d="M275 -12q-96 0 -165.5 46t-69.5 107q0 35 19 56.5t50 21.5q32 0 52 -20t20 -45q0 -22 -9 -40q40 -28 104 -28q55 0 86.5 23.5t31.5 65.5q0 37 -31 60t-90 43q-109 39 -158.5 80.5t-49.5 124.5q0 80 60 133.5t158 53.5q92 0 155 -41.5t63 -100.5q0 -34 -19 -54t-48 -20
q-33 0 -52.5 20t-19.5 47q0 17 7 31q-33 20 -87 20q-48 0 -75.5 -22t-27.5 -59t30.5 -58.5t90.5 -43.5q52 -18 83.5 -33t63 -38.5t46 -56.5t14.5 -77q0 -92 -64 -144t-168 -52zM269 716l-34 33l110 150q24 31 55 31q20 0 34.5 -14.5t14.5 -36.5q0 -31 -31 -55z" />
    <glyph glyph-name="sacute" unicode="&#x15b;" horiz-adv-x="458" 
d="M406 341q0 -26 -15 -42.5t-39 -16.5q-26 0 -42.5 14.5t-16.5 39.5q0 13 2 19q-28 11 -62 11q-35 0 -54 -13t-19 -32q0 -18 20 -30t72 -26q88 -24 127 -51t39 -82q0 -66 -53.5 -103.5t-131.5 -37.5q-50 0 -98 15.5t-70 37.5q-25 25 -25 59q0 24 16.5 41.5t41.5 17.5
q24 0 41.5 -15.5t17.5 -42.5q0 -6 -2 -18q35 -14 79 -14q35 0 57.5 12t22.5 35q0 17 -18 28.5t-68 24.5q-95 25 -133.5 53.5t-38.5 82.5q0 56 46.5 97.5t132.5 41.5q41 0 83 -14t64 -36q24 -24 24 -56zM218 491l-34 33l110 150q24 31 55 31q20 0 34.5 -14.5t14.5 -36.5
q0 -31 -31 -55z" />
    <glyph glyph-name="Scedilla" unicode="&#x15e;" horiz-adv-x="555" 
d="M292 -200q-68 0 -125 34l17 33q49 -21 88 -21t39 26t-59 26l-11 -1l-21 25l27 67q-88 7 -147.5 51.5t-59.5 100.5q0 35 19 56.5t50 21.5q32 0 52 -20t20 -45q0 -22 -9 -40q40 -28 104 -28q55 0 86.5 23.5t31.5 65.5q0 37 -31 60t-90 43q-109 39 -158.5 80.5t-49.5 124.5
q0 80 60 133.5t158 53.5q92 0 155 -41.5t63 -100.5q0 -34 -19 -54t-48 -20q-33 0 -52.5 20t-19.5 47q0 17 7 31q-33 20 -87 20q-48 0 -75.5 -22t-27.5 -59t30.5 -58.5t90.5 -43.5q52 -18 83.5 -33t63 -38.5t46 -56.5t14.5 -77q0 -87 -57.5 -138.5t-152.5 -56.5l4 -33
q48 -6 77 -27t29 -53q0 -30 -31.5 -53t-83.5 -23z" />
    <glyph glyph-name="scedilla" unicode="&#x15f;" horiz-adv-x="458" 
d="M234 -200q-68 0 -125 34l17 33q49 -21 88 -21t39 26t-59 26l-11 -1l-21 25l29 72q-86 10 -126 50q-25 25 -25 59q0 24 16.5 41.5t41.5 17.5q24 0 41.5 -15.5t17.5 -42.5q0 -6 -2 -18q35 -14 79 -14q35 0 57.5 12t22.5 35q0 17 -18 28.5t-68 24.5q-95 25 -133.5 53.5
t-38.5 82.5q0 56 46.5 97.5t132.5 41.5q41 0 83 -14t64 -36q24 -24 24 -56q0 -26 -15 -42.5t-39 -16.5q-26 0 -42.5 14.5t-16.5 39.5q0 13 2 19q-28 11 -62 11q-35 0 -54 -13t-19 -32q0 -18 20 -30t72 -26q88 -24 127 -51t39 -82q0 -65 -51.5 -102t-128.5 -39l5 -35
q48 -6 77 -27t29 -53q0 -30 -31.5 -53t-83.5 -23z" />
    <glyph glyph-name="Scaron" unicode="&#x160;" horiz-adv-x="555" 
d="M275 -12q-96 0 -165.5 46t-69.5 107q0 35 19 56.5t50 21.5q32 0 52 -20t20 -45q0 -22 -9 -40q40 -28 104 -28q55 0 86.5 23.5t31.5 65.5q0 37 -31 60t-90 43q-109 39 -158.5 80.5t-49.5 124.5q0 80 60 133.5t158 53.5q92 0 155 -41.5t63 -100.5q0 -34 -19 -54t-48 -20
q-33 0 -52.5 20t-19.5 47q0 17 7 31q-33 20 -87 20q-48 0 -75.5 -22t-27.5 -59t30.5 -58.5t90.5 -43.5q52 -18 83.5 -33t63 -38.5t46 -56.5t14.5 -77q0 -92 -64 -144t-168 -52zM410 941l46 -53l-177 -176l-177 176l46 53l131 -96z" />
    <glyph glyph-name="scaron" unicode="&#x161;" horiz-adv-x="458" 
d="M406 341q0 -26 -15 -42.5t-39 -16.5q-26 0 -42.5 14.5t-16.5 39.5q0 13 2 19q-28 11 -62 11q-35 0 -54 -13t-19 -32q0 -18 20 -30t72 -26q88 -24 127 -51t39 -82q0 -66 -53.5 -103.5t-131.5 -37.5q-50 0 -98 15.5t-70 37.5q-25 25 -25 59q0 24 16.5 41.5t41.5 17.5
q24 0 41.5 -15.5t17.5 -42.5q0 -6 -2 -18q35 -14 79 -14q35 0 57.5 12t22.5 35q0 17 -18 28.5t-68 24.5q-95 25 -133.5 53.5t-38.5 82.5q0 56 46.5 97.5t132.5 41.5q41 0 83 -14t64 -36q24 -24 24 -56zM359 716l46 -53l-177 -176l-177 176l46 53l131 -96z" />
    <glyph glyph-name="Tcommaaccent" unicode="&#x162;" horiz-adv-x="617" 
d="M170 0v101h82v459h-122v-104h-107v202h571v-202h-107v104h-122v-459h82v-101h-277zM234 -313l-26 33q79 62 83 109q-23 6 -36.5 23.5t-13.5 41.5t19.5 42.5t46.5 18.5q30 0 50.5 -21t20.5 -59q0 -43 -35 -94.5t-109 -93.5z" />
    <glyph glyph-name="tcommaaccent" unicode="&#x163;" horiz-adv-x="369" 
d="M227 -8q-87 0 -118 60q-15 27 -15 69v225h-85v92h85v92l108 47v-139h133v-92h-133v-204q0 -19 7 -32q12 -21 46 -21q36 0 86 23l-9 -94q-52 -26 -105 -26zM122 -313l-26 33q79 62 83 109q-23 6 -36.5 23.5t-13.5 41.5t19.5 42.5t46.5 18.5q30 0 50.5 -21t20.5 -59
q0 -43 -35 -94.5t-109 -93.5z" />
    <glyph glyph-name="Tcaron" unicode="&#x164;" horiz-adv-x="617" 
d="M170 0v101h82v459h-122v-104h-107v202h571v-202h-107v104h-122v-459h82v-101h-277zM438 941l46 -53l-177 -176l-177 176l46 53l131 -96z" />
    <glyph glyph-name="tcaron" unicode="&#x165;" horiz-adv-x="369" 
d="M227 -8q-87 0 -118 60q-15 27 -15 69v225h-85v92h85v92l108 47v-139h133v-92h-133v-204q0 -19 7 -32q12 -21 46 -21q36 0 86 23l-9 -94q-52 -26 -105 -26zM265 481l-35 26q42 61 42 112q0 18 -9.5 44t-9.5 46q0 27 17 46t47 19q29 0 45 -19t16 -51q0 -106 -113 -223z" />
    <glyph glyph-name="Umacron" unicode="&#x16a;" horiz-adv-x="692" 
d="M347 -12q-114 0 -181 64t-67 188v317h-72v101h264v-101h-79v-311q0 -75 35.5 -115t99.5 -40q65 0 100.5 38t35.5 113v315h-79v101h261v-101h-72v-315q0 -125 -66.5 -189.5t-179.5 -64.5zM179 749v89h334v-89h-334z" />
    <glyph glyph-name="umacron" unicode="&#x16b;" horiz-adv-x="566" 
d="M217 -8q-79 0 -114 58q-22 36 -22 88v208h-65v92h174v-273q0 -27 9 -45q15 -29 54 -29q51 0 113 51v204h-68v92h177v-348h65v-90h-170v70q-80 -78 -153 -78zM101 524v89h334v-89h-334z" />
    <glyph glyph-name="Ubreve" unicode="&#x16c;" horiz-adv-x="692" 
d="M347 -12q-114 0 -181 64t-67 188v317h-72v101h264v-101h-79v-311q0 -75 35.5 -115t99.5 -40q65 0 100.5 38t35.5 113v315h-79v101h261v-101h-72v-315q0 -125 -66.5 -189.5t-179.5 -64.5zM344 730q-62 0 -111.5 43t-72.5 131l69 27q42 -103 115 -103q72 0 115 103l69 -27
q-23 -88 -72.5 -131t-111.5 -43z" />
    <glyph glyph-name="ubreve" unicode="&#x16d;" horiz-adv-x="566" 
d="M217 -8q-79 0 -114 58q-22 36 -22 88v208h-65v92h174v-273q0 -27 9 -45q15 -29 54 -29q51 0 113 51v204h-68v92h177v-348h65v-90h-170v70q-80 -78 -153 -78zM266 505q-62 0 -111.5 43t-72.5 131l69 27q42 -103 115 -103q72 0 115 103l69 -27q-23 -88 -72.5 -131
t-111.5 -43z" />
    <glyph glyph-name="Uring" unicode="&#x16e;" horiz-adv-x="692" 
d="M347 -12q-114 0 -181 64t-67 188v317h-72v101h264v-101h-79v-311q0 -75 35.5 -115t99.5 -40q65 0 100.5 38t35.5 113v315h-79v101h261v-101h-72v-315q0 -125 -66.5 -189.5t-179.5 -64.5zM346 711q-56 0 -95 37.5t-39 92.5t39 92.5t95 37.5t95 -37.5t39 -92.5t-39 -92.5
t-95 -37.5zM346 782q23 0 37.5 17.5t14.5 41.5t-14.5 41.5t-37.5 17.5t-37.5 -17.5t-14.5 -41.5t14.5 -41.5t37.5 -17.5z" />
    <glyph glyph-name="uring" unicode="&#x16f;" horiz-adv-x="566" 
d="M217 -8q-79 0 -114 58q-22 36 -22 88v208h-65v92h174v-273q0 -27 9 -45q15 -29 54 -29q51 0 113 51v204h-68v92h177v-348h65v-90h-170v70q-80 -78 -153 -78zM268 486q-56 0 -95 37.5t-39 92.5t39 92.5t95 37.5t95 -37.5t39 -92.5t-39 -92.5t-95 -37.5zM268 557
q23 0 37.5 17.5t14.5 41.5t-14.5 41.5t-37.5 17.5t-37.5 -17.5t-14.5 -41.5t14.5 -41.5t37.5 -17.5z" />
    <glyph glyph-name="Uhungarumlaut" unicode="&#x170;" horiz-adv-x="692" 
d="M347 -12q-114 0 -181 64t-67 188v317h-72v101h264v-101h-79v-311q0 -75 35.5 -115t99.5 -40q65 0 100.5 38t35.5 113v315h-79v101h261v-101h-72v-315q0 -125 -66.5 -189.5t-179.5 -64.5zM205 718l-25 35l146 143q28 28 54 28q22 0 37 -15t15 -36q0 -39 -44 -62zM423 718
l-22 36l163 145q27 24 53 24q21 0 35.5 -15.5t14.5 -36.5q0 -37 -45 -60z" />
    <glyph glyph-name="uhungarumlaut" unicode="&#x171;" horiz-adv-x="566" 
d="M217 -8q-79 0 -114 58q-22 36 -22 88v208h-65v92h174v-273q0 -27 9 -45q15 -29 54 -29q51 0 113 51v204h-68v92h177v-348h65v-90h-170v70q-80 -78 -153 -78zM127 493l-25 35l146 143q28 28 54 28q22 0 37 -15t15 -36q0 -39 -44 -62zM345 493l-22 36l163 145q27 24 53 24
q21 0 35.5 -15.5t14.5 -36.5q0 -38 -45 -60z" />
    <glyph glyph-name="Uogonek" unicode="&#x172;" horiz-adv-x="692" 
d="M376 -201q-54 0 -84 28.5t-30 74.5q0 51 40 89q-94 12 -148.5 75t-54.5 174v317h-72v101h264v-101h-79v-311q0 -75 35.5 -115t99.5 -40q65 0 100.5 38t35.5 113v315h-79v101h261v-101h-72v-315q0 -113 -55 -176.5t-150 -74.5q-35 -29 -35 -62q0 -46 52 -46q38 0 70 17
l-5 -79q-36 -22 -94 -22z" />
    <glyph glyph-name="uogonek" unicode="&#x173;" horiz-adv-x="566" 
d="M429 -201q-54 0 -84 28.5t-30 74.5q0 59 55 101v67q-80 -78 -153 -78q-79 0 -114 58q-22 36 -22 88v208h-65v92h174v-273q0 -27 9 -45q15 -29 54 -29q51 0 113 51v204h-68v92h177v-348h65v-90h-86q-48 -31 -48 -71q0 -46 52 -46q38 0 70 17l-5 -79q-36 -22 -94 -22z" />
    <glyph glyph-name="Wcircumflex" unicode="&#x174;" horiz-adv-x="1022" 
d="M273 -7l-180 564h-70v101h280v-101h-87l107 -346l163 383h60l163 -383l100 346h-90v101h280v-101h-70l-177 -564h-63l-176 405l-177 -405h-63zM380 719l-46 53l177 176l177 -176l-46 -53l-131 96z" />
    <glyph glyph-name="wcircumflex" unicode="&#x175;" horiz-adv-x="726" 
d="M177 -17l-108 363h-64v92h225v-90h-62l60 -215l103 260h75l102 -260l60 215h-72v90h225v-92h-64l-108 -363h-77l-109 268l-109 -268h-77zM232 494l-46 53l177 176l177 -176l-46 -53l-131 96z" />
    <glyph glyph-name="Ycircumflex" unicode="&#x176;" horiz-adv-x="645" 
d="M183 0v101h83v150l-187 306h-66v101h249v-101h-58l121 -211l120 211h-62v101h249v-101h-66l-187 -306v-150h83v-101h-279zM191 719l-46 53l177 176l177 -176l-46 -53l-131 96z" />
    <glyph glyph-name="ycircumflex" unicode="&#x177;" horiz-adv-x="532" 
d="M235 -142q-49 -57 -116 -57q-42 0 -68 20.5t-26 48.5q0 27 15.5 41.5t38.5 14.5q34 0 48 -33q19 5 35 26q8 11 20 34l33 69l-156 324h-54v92h226v-87h-64l101 -231l102 231h-68v87h225v-92h-53l-205 -435q-16 -33 -34 -53zM135 494l-46 53l177 176l177 -176l-46 -53
l-131 96z" />
    <glyph glyph-name="Ydieresis" unicode="&#x178;" horiz-adv-x="645" 
d="M183 0v101h83v150l-187 306h-66v101h249v-101h-58l121 -211l120 211h-62v101h249v-101h-66l-187 -306v-150h83v-101h-279zM424 730q-29 0 -50.5 21t-21.5 51t22 51t52 21q29 0 50.5 -21t21.5 -51t-22 -51t-52 -21zM218 730q-29 0 -50.5 21t-21.5 51t22 51t52 21
q29 0 50.5 -21t21.5 -51t-22 -51t-52 -21z" />
    <glyph glyph-name="Zacute" unicode="&#x179;" horiz-adv-x="625" 
d="M44 0v64l372 499h-256v-110h-96v205h511v-64l-372 -499h283v110h95v-205h-537zM301 716l-34 33l110 150q24 31 55 31q20 0 34.5 -14.5t14.5 -36.5q0 -31 -31 -55z" />
    <glyph glyph-name="zacute" unicode="&#x17a;" horiz-adv-x="463" 
d="M29 0v64l264 288h-155v-81h-93v167h384v-63l-264 -288h177v81h92v-168h-405zM220 491l-34 33l110 150q24 31 55 31q20 0 34.5 -14.5t14.5 -36.5q0 -31 -31 -55z" />
    <glyph glyph-name="Zdotaccent" unicode="&#x17b;" horiz-adv-x="625" 
d="M44 0v64l372 499h-256v-110h-96v205h511v-64l-372 -499h283v110h95v-205h-537zM311 720q-29 0 -50.5 21t-21.5 51t22 51t52 21q29 0 50.5 -21t21.5 -51t-22 -51t-52 -21z" />
    <glyph glyph-name="zdotaccent" unicode="&#x17c;" horiz-adv-x="463" 
d="M29 0v64l264 288h-155v-81h-93v167h384v-63l-264 -288h177v81h92v-168h-405zM230 495q-29 0 -50.5 21t-21.5 51t22 51t52 21q29 0 50.5 -21t21.5 -51t-22 -51t-52 -21z" />
    <glyph glyph-name="Zcaron" unicode="&#x17d;" horiz-adv-x="625" 
d="M44 0v64l372 499h-256v-110h-96v205h511v-64l-372 -499h283v110h95v-205h-537zM442 941l46 -53l-177 -176l-177 176l46 53l131 -96z" />
    <glyph glyph-name="zcaron" unicode="&#x17e;" horiz-adv-x="463" 
d="M29 0v64l264 288h-155v-81h-93v167h384v-63l-264 -288h177v81h92v-168h-405zM361 716l46 -53l-177 -176l-177 176l46 53l131 -96z" />
    <glyph glyph-name="Aringacute" unicode="&#x1fa;" horiz-adv-x="696" 
d="M482 740q0 -47 -35 -82h87v-100h-72l164 -457h57v-101h-253v100h76l-37 108h-246l-37 -108h80v-100h-253v101h57l164 457h-72v100h89q-37 37 -37 82q0 52 39 87.5t95 35.5t95 -35.5t39 -87.5zM254 302h184l-92 259zM348 674q23 0 37.5 17.5t14.5 41.5t-14.5 41.5
t-37.5 17.5t-37.5 -17.5t-14.5 -41.5t14.5 -41.5t37.5 -17.5zM345 908l-34 33l110 150q24 31 55 31q20 0 34.5 -14.5t14.5 -36.5q0 -31 -31 -55z" />
    <glyph glyph-name="aringacute" unicode="&#x1fb;" horiz-adv-x="509" 
d="M177 -8q-60 0 -101 32t-41 91q0 61 48.5 96.5t127.5 35.5q63 0 111 -12v35q0 38 -17 60q-25 32 -86 32q-25 0 -43 -7q4 -12 4 -22q0 -25 -17 -41t-42 -16t-41.5 16t-16.5 43q0 45 45 78t129 33q109 0 157 -59q34 -41 34 -110v-187h65v-90h-169v48q-65 -56 -147 -56z
M212 71q56 0 110 39v69q-42 10 -90 10q-40 0 -62.5 -17t-22.5 -47q0 -26 17.5 -40t47.5 -14zM254 486q-56 0 -95 37.5t-39 92.5t39 92.5t95 37.5t95 -37.5t39 -92.5t-39 -92.5t-95 -37.5zM254 557q23 0 37.5 17.5t14.5 41.5t-14.5 41.5t-37.5 17.5t-37.5 -17.5t-14.5 -41.5
t14.5 -41.5t37.5 -17.5zM251 791l-34 33l110 150q24 31 55 31q20 0 34.5 -14.5t14.5 -36.5q0 -31 -31 -55z" />
    <glyph glyph-name="AEacute" unicode="&#x1fc;" horiz-adv-x="914" 
d="M3 0v101h83l220 456h-83v101h642v-188h-108v88h-195v-176h199v-96h-199v-186h196v88h108v-188h-492v101h75v107h-202l-51 -108h70v-100h-263zM291 302h158v259h-37zM494 716l-34 33l110 150q24 31 55 31q20 0 34.5 -14.5t14.5 -36.5q0 -31 -31 -55z" />
    <glyph glyph-name="aeacute" unicode="&#x1fd;" horiz-adv-x="775" 
d="M219 362q-25 0 -43 -7q4 -12 4 -22q0 -25 -17 -41t-42 -16t-41.5 16t-16.5 43q0 45 45 78t129 33q83 0 124 -51q11 -15 17 -30q56 81 163 81q94 0 148.5 -60t54.5 -150q0 -29 -5 -54h-316q22 -98 144 -98q78 0 159 46l-9 -98q-68 -40 -156 -40q-129 0 -195 85
q-37 -41 -89 -63t-90 -22q-67 0 -109.5 32t-42.5 91q0 61 48.5 96.5t127.5 35.5q63 0 111 -12v35q0 39 -17 61q-24 31 -86 31zM378 491l-34 33l110 150q24 31 55 31q20 0 34.5 -14.5t14.5 -36.5q0 -31 -31 -55zM217 71q58 0 119 58q-10 29 -14 53q-56 7 -90 7
q-40 0 -62.5 -17t-22.5 -47q0 -54 70 -54zM530 358q-39 0 -69.5 -24.5t-38.5 -75.5h213q-2 46 -30 73t-75 27z" />
    <glyph glyph-name="Oslashacute" unicode="&#x1fe;" horiz-adv-x="767" 
d="M381 -12q-103 0 -183 53l-77 -89l-72 64l76 89q-79 95 -79 224q0 146 95.5 243.5t244.5 97.5q106 0 191 -59l80 93l72 -64l-82 -94q74 -95 74 -217q0 -146 -95.5 -243.5t-244.5 -97.5zM163 329q0 -90 43 -150l304 350q-55 36 -126 36q-96 0 -158.5 -66.5t-62.5 -169.5z
M384 93q96 0 158 66.5t62 169.5q0 81 -37 140l-302 -345q51 -31 119 -31zM376 716l-34 33l110 150q24 31 55 31q20 0 34.5 -14.5t14.5 -36.5q0 -31 -31 -55z" />
    <glyph glyph-name="oslashacute" unicode="&#x1ff;" horiz-adv-x="534" 
d="M267 -8q-59 0 -110 24l-49 -59l-67 55l48 57q-55 63 -55 150q0 93 64.5 160t168.5 67q61 0 115 -28l52 62l67 -55l-52 -62q51 -62 51 -144q0 -93 -64.5 -160t-168.5 -67zM256 491l-34 33l110 150q24 31 55 31q20 0 34.5 -14.5t14.5 -36.5q0 -31 -31 -55zM146 219
q0 -48 17 -80l163 203q-28 13 -59 13q-53 0 -87 -38t-34 -98zM267 83q53 0 87 38t34 98q0 42 -14 72l-162 -198q23 -10 55 -10z" />
    <glyph glyph-name="Scommaaccent" unicode="&#x218;" horiz-adv-x="555" 
d="M275 -12q-96 0 -165.5 46t-69.5 107q0 35 19 56.5t50 21.5q32 0 52 -20t20 -45q0 -22 -9 -40q40 -28 104 -28q55 0 86.5 23.5t31.5 65.5q0 37 -31 60t-90 43q-109 39 -158.5 80.5t-49.5 124.5q0 80 60 133.5t158 53.5q92 0 155 -41.5t63 -100.5q0 -34 -19 -54t-48 -20
q-33 0 -52.5 20t-19.5 47q0 17 7 31q-33 20 -87 20q-48 0 -75.5 -22t-27.5 -59t30.5 -58.5t90.5 -43.5q52 -18 83.5 -33t63 -38.5t46 -56.5t14.5 -77q0 -92 -64 -144t-168 -52zM206 -313l-26 33q79 62 83 109q-23 6 -36.5 23.5t-13.5 41.5t19.5 42.5t46.5 18.5
q30 0 50.5 -21t20.5 -59q0 -43 -35 -94.5t-109 -93.5z" />
    <glyph glyph-name="scommaaccent" unicode="&#x219;" horiz-adv-x="458" 
d="M406 341q0 -26 -15 -42.5t-39 -16.5q-26 0 -42.5 14.5t-16.5 39.5q0 13 2 19q-28 11 -62 11q-35 0 -54 -13t-19 -32q0 -18 20 -30t72 -26q88 -24 127 -51t39 -82q0 -66 -53.5 -103.5t-131.5 -37.5q-50 0 -98 15.5t-70 37.5q-25 25 -25 59q0 24 16.5 41.5t41.5 17.5
q24 0 41.5 -15.5t17.5 -42.5q0 -6 -2 -18q35 -14 79 -14q35 0 57.5 12t22.5 35q0 17 -18 28.5t-68 24.5q-95 25 -133.5 53.5t-38.5 82.5q0 56 46.5 97.5t132.5 41.5q41 0 83 -14t64 -36q24 -24 24 -56zM155 -313l-26 33q79 62 83 109q-23 6 -36.5 23.5t-13.5 41.5t19.5 42.5
t46.5 18.5q30 0 50.5 -21t20.5 -59q0 -43 -35 -94.5t-109 -93.5z" />
    <glyph glyph-name="schwa" unicode="&#x259;" horiz-adv-x="500" 
d="M244 -8q-101 0 -157 59.5t-56 150.5q0 29 5 54h316q-12 49 -50 73.5t-94 24.5q-78 0 -159 -46l9 98q68 40 166 40q108 0 175 -62t67 -164q0 -96 -61.5 -162t-160.5 -66zM245 80q39 0 69.5 24.5t38.5 75.5h-213q2 -46 30 -73t75 -27z" />
    <glyph glyph-name="circumflex" unicode="&#x2c6;" horiz-adv-x="384" 
d="M61 494l-46 53l177 176l177 -176l-46 -53l-131 96z" />
    <glyph glyph-name="caron" unicode="&#x2c7;" horiz-adv-x="384" 
d="M323 716l46 -53l-177 -176l-177 176l46 53l131 -96z" />
    <glyph glyph-name="breve" unicode="&#x2d8;" horiz-adv-x="398" 
d="M199 505q-62 0 -111.5 43t-72.5 131l69 27q42 -103 115 -103q72 0 115 103l69 -27q-23 -88 -72.5 -131t-111.5 -43z" />
    <glyph glyph-name="dotaccent" unicode="&#x2d9;" horiz-adv-x="186" 
d="M92 495q-29 0 -50.5 21t-21.5 51t22 51t52 21q29 0 50.5 -21t21.5 -51t-22 -51t-52 -21z" />
    <glyph glyph-name="ring" unicode="&#x2da;" horiz-adv-x="308" 
d="M154 486q-56 0 -95 37.5t-39 92.5t39 92.5t95 37.5t95 -37.5t39 -92.5t-39 -92.5t-95 -37.5zM154 557q23 0 37.5 17.5t14.5 41.5t-14.5 41.5t-37.5 17.5t-37.5 -17.5t-14.5 -41.5t14.5 -41.5t37.5 -17.5z" />
    <glyph glyph-name="ogonek" unicode="&#x2db;" horiz-adv-x="213" 
d="M114 -201q-54 0 -84 28.5t-30 74.5q0 81 119 141l91 -10q-52 -17 -85.5 -44t-33.5 -60q0 -46 52 -46q38 0 70 17l-5 -79q-36 -22 -94 -22z" />
    <glyph glyph-name="tilde" unicode="&#x2dc;" horiz-adv-x="424" 
d="M290 506q-48 0 -89 37q-37 33 -60 33q-36 0 -52 -64l-74 19q8 70 42 110.5t77 40.5q48 0 89 -37q37 -33 60 -33q36 0 52 64l74 -19q-8 -70 -42 -110.5t-77 -40.5z" />
    <glyph glyph-name="hungarumlaut" unicode="&#x2dd;" horiz-adv-x="507" 
d="M25 493l-25 35l146 143q28 28 54 28q22 0 37 -15t15 -36q0 -39 -44 -62zM243 493l-22 36l163 145q27 24 53 24q21 0 35.5 -15.5t14.5 -36.5q0 -38 -45 -60z" />
    <glyph glyph-name="commaaccent" unicode="&#x326;" horiz-adv-x="170" 
d="M26 -313l-26 33q79 62 83 109q-23 6 -36.5 23.5t-13.5 41.5t19.5 42.5t46.5 18.5q30 0 50.5 -21t20.5 -59q0 -43 -35 -94.5t-109 -93.5z" />
    <glyph glyph-name="Wgrave" unicode="&#x1e80;" horiz-adv-x="1022" 
d="M273 -7l-180 564h-70v101h280v-101h-87l107 -346l163 383h60l163 -383l100 346h-90v101h280v-101h-70l-177 -564h-63l-176 405l-177 -405h-63zM522 716l-149 108q-31 24 -31 55q0 22 14.5 36.5t34.5 14.5q31 0 55 -31l110 -150z" />
    <glyph glyph-name="wgrave" unicode="&#x1e81;" horiz-adv-x="726" 
d="M177 -17l-108 363h-64v92h225v-90h-62l60 -215l103 260h75l102 -260l60 215h-72v90h225v-92h-64l-108 -363h-77l-109 268l-109 -268h-77zM374 491l-149 108q-31 24 -31 55q0 22 14.5 36.5t34.5 14.5q31 0 55 -31l110 -150z" />
    <glyph glyph-name="Wacute" unicode="&#x1e82;" horiz-adv-x="1022" 
d="M273 -7l-180 564h-70v101h280v-101h-87l107 -346l163 383h60l163 -383l100 346h-90v101h280v-101h-70l-177 -564h-63l-176 405l-177 -405h-63zM500 716l-34 33l110 150q24 31 55 31q20 0 34.5 -14.5t14.5 -36.5q0 -31 -31 -55z" />
    <glyph glyph-name="wacute" unicode="&#x1e83;" horiz-adv-x="726" 
d="M177 -17l-108 363h-64v92h225v-90h-62l60 -215l103 260h75l102 -260l60 215h-72v90h225v-92h-64l-108 -363h-77l-109 268l-109 -268h-77zM352 491l-34 33l110 150q24 31 55 31q20 0 34.5 -14.5t14.5 -36.5q0 -31 -31 -55z" />
    <glyph glyph-name="Wdieresis" unicode="&#x1e84;" horiz-adv-x="1022" 
d="M273 -7l-180 564h-70v101h280v-101h-87l107 -346l163 383h60l163 -383l100 346h-90v101h280v-101h-70l-177 -564h-63l-176 405l-177 -405h-63zM613 730q-29 0 -50.5 21t-21.5 51t22 51t52 21q29 0 50.5 -21t21.5 -51t-22 -51t-52 -21zM407 730q-29 0 -50.5 21t-21.5 51
t22 51t52 21q29 0 50.5 -21t21.5 -51t-22 -51t-52 -21z" />
    <glyph glyph-name="wdieresis" unicode="&#x1e85;" horiz-adv-x="726" 
d="M177 -17l-108 363h-64v92h225v-90h-62l60 -215l103 260h75l102 -260l60 215h-72v90h225v-92h-64l-108 -363h-77l-109 268l-109 -268h-77zM465 505q-29 0 -50.5 21t-21.5 51t22 51t52 21q29 0 50.5 -21t21.5 -51t-22 -51t-52 -21zM259 505q-29 0 -50.5 21t-21.5 51t22 51
t52 21q29 0 50.5 -21t21.5 -51t-22 -51t-52 -21z" />
    <glyph glyph-name="Ygrave" unicode="&#x1ef2;" horiz-adv-x="645" 
d="M183 0v101h83v150l-187 306h-66v101h249v-101h-58l121 -211l120 211h-62v101h249v-101h-66l-187 -306v-150h83v-101h-279zM333 716l-149 108q-31 24 -31 55q0 22 14.5 36.5t34.5 14.5q31 0 55 -31l110 -150z" />
    <glyph glyph-name="ygrave" unicode="&#x1ef3;" horiz-adv-x="532" 
d="M235 -142q-49 -57 -116 -57q-42 0 -68 20.5t-26 48.5q0 27 15.5 41.5t38.5 14.5q34 0 48 -33q19 5 35 26q8 11 20 34l33 69l-156 324h-54v92h226v-87h-64l101 -231l102 231h-68v87h225v-92h-53l-205 -435q-16 -33 -34 -53zM277 491l-149 108q-31 24 -31 55
q0 22 14.5 36.5t34.5 14.5q31 0 55 -31l110 -150z" />
    <glyph glyph-name="enspace" unicode="&#x2002;" horiz-adv-x="500" 
 />
    <glyph glyph-name="emspace" unicode="&#x2003;" horiz-adv-x="1000" 
 />
    <glyph glyph-name="threeperemspace" unicode="&#x2004;" horiz-adv-x="333" 
 />
    <glyph glyph-name="fourperemspace" unicode="&#x2005;" horiz-adv-x="250" 
 />
    <glyph glyph-name="figurespace" unicode="&#x2007;" 
 />
    <glyph glyph-name="thinspace" unicode="&#x2009;" horiz-adv-x="133" 
 />
    <glyph glyph-name="hairspace" unicode="&#x200a;" horiz-adv-x="75" 
 />
    <glyph glyph-name="endash" unicode="&#x2013;" horiz-adv-x="569" 
d="M22 232v102h525v-102h-525z" />
    <glyph glyph-name="emdash" unicode="&#x2014;" horiz-adv-x="855" 
d="M22 232v102h811v-102h-811z" />
    <glyph glyph-name="quoteleft" unicode="&#x2018;" horiz-adv-x="244" 
d="M115 362q-34 0 -57.5 24.5t-23.5 68.5q0 50 40 109t126 109l30 -39q-45 -36 -69.5 -69.5t-26.5 -56.5q58 -17 58 -74q0 -29 -22.5 -50.5t-54.5 -21.5z" />
    <glyph glyph-name="quoteright" unicode="&#x2019;" horiz-adv-x="244" 
d="M44 359l-30 39q45 36 69.5 69.5t26.5 56.5q-58 17 -58 74q0 29 22.5 50.5t54.5 21.5q34 0 57.5 -24.5t23.5 -68.5q0 -50 -40 -109t-126 -109z" />
    <glyph glyph-name="quotesinglbase" unicode="&#x201a;" horiz-adv-x="266" 
d="M42 -173l-32 41q98 78 102 134q-28 8 -45 29t-17 50q0 30 24.5 53t57.5 23q37 0 61.5 -26t24.5 -73q0 -54 -42.5 -116.5t-133.5 -114.5z" />
    <glyph glyph-name="quotedblleft" unicode="&#x201c;" horiz-adv-x="475" 
d="M346 362q-34 0 -57.5 24.5t-23.5 68.5q0 50 40 109t126 109l30 -39q-45 -36 -69.5 -69.5t-26.5 -56.5q58 -17 58 -74q0 -29 -22.5 -50.5t-54.5 -21.5zM115 362q-34 0 -57.5 24.5t-23.5 68.5q0 50 40 109t126 109l30 -39q-45 -36 -69.5 -69.5t-26.5 -56.5q58 -17 58 -74
q0 -29 -22.5 -50.5t-54.5 -21.5z" />
    <glyph glyph-name="quotedblright" unicode="&#x201d;" horiz-adv-x="475" 
d="M275 359l-30 39q45 36 69.5 69.5t26.5 56.5q-58 17 -58 74q0 29 22.5 50.5t54.5 21.5q34 0 57.5 -24.5t23.5 -68.5q0 -50 -40 -109t-126 -109zM44 359l-30 39q45 36 69.5 69.5t26.5 56.5q-58 17 -58 74q0 29 22.5 50.5t54.5 21.5q34 0 57.5 -24.5t23.5 -68.5
q0 -50 -40 -109t-126 -109z" />
    <glyph glyph-name="quotedblbase" unicode="&#x201e;" horiz-adv-x="495" 
d="M275 -165l-30 39q45 36 69.5 69.5t26.5 56.5q-58 17 -58 74q0 29 22.5 50.5t54.5 21.5q34 0 57.5 -24.5t23.5 -68.5q0 -111 -166 -218zM44 -165l-30 39q45 36 69.5 69.5t26.5 56.5q-58 17 -58 74q0 29 22.5 50.5t54.5 21.5q34 0 57.5 -24.5t23.5 -68.5q0 -111 -166 -218z
" />
    <glyph glyph-name="dagger" unicode="&#x2020;" horiz-adv-x="514" 
d="M232 -2l-25 372l-68 7q-4 -25 -21 -40t-39 -15q-25 0 -42.5 17.5t-17.5 42.5q0 31 23.5 51t61.5 20q16 0 34 -4l91 -19l-30 144q-6 30 12.5 52t45.5 22t45.5 -22t12.5 -52l-30 -144l91 19q18 4 34 4q38 0 61.5 -20t23.5 -51q0 -25 -17.5 -42.5t-42.5 -17.5q-22 0 -39 15
t-21 40l-68 -7l-25 -372h-50z" />
    <glyph glyph-name="daggerdbl" unicode="&#x2021;" horiz-adv-x="544" 
d="M272 -128q-28 0 -45 23.5t-8 58.5l30 126l-88 -16q-15 -3 -28 -3q-37 0 -61 17t-24 49q0 24 16 39.5t40 15.5q22 0 38.5 -14.5t18.5 -40.5l61 4l22 129l-22 129l-61 4q-2 -26 -18.5 -40.5t-38.5 -14.5q-24 0 -40 15.5t-16 39.5q0 32 24 49t61 17q13 0 28 -3l88 -16
l-30 126q-9 37 7.5 59.5t45.5 22.5q28 0 45 -23t8 -59l-30 -126l88 16q15 3 28 3q37 0 61 -17t24 -49q0 -24 -16 -39.5t-40 -15.5q-22 0 -38.5 14.5t-18.5 40.5l-61 -4l-22 -129l22 -129l61 -4q2 26 18.5 40.5t38.5 14.5q24 0 40 -15.5t16 -39.5q0 -32 -24 -49t-61 -17
q-13 0 -28 3l-88 16l30 -126q9 -36 -8 -59t-45 -23z" />
    <glyph glyph-name="bullet" unicode="&#x2022;" horiz-adv-x="344" 
d="M172 149q-53 0 -90.5 38t-37.5 92t37.5 92.5t90.5 38.5t90.5 -38.5t37.5 -92.5t-37.5 -92t-90.5 -38z" />
    <glyph glyph-name="ellipsis" unicode="&#x2026;" horiz-adv-x="684" 
d="M572 -8q-32 0 -54.5 22.5t-22.5 54.5t22.5 54.5t54.5 22.5t54.5 -22.5t22.5 -54.5t-22.5 -54.5t-54.5 -22.5zM342 -8q-32 0 -54.5 22.5t-22.5 54.5t22.5 54.5t54.5 22.5t54.5 -22.5t22.5 -54.5t-22.5 -54.5t-54.5 -22.5zM112 -8q-32 0 -54.5 22.5t-22.5 54.5t22.5 54.5
t54.5 22.5t54.5 -22.5t22.5 -54.5t-22.5 -54.5t-54.5 -22.5z" />
    <glyph glyph-name="perthousand" unicode="&#x2030;" horiz-adv-x="1001" 
d="M182 273q-55 0 -94.5 38t-39.5 92t39.5 92t94.5 38t94.5 -38t39.5 -92t-39.5 -92t-94.5 -38zM130 -15l-42 41q121 122 246 252q123 129 237 262l42 -41q-163 -163 -247 -251q-104 -109 -236 -263zM182 341q24 0 39 17t15 43q0 27 -15 44.5t-39 17.5t-39 -17.5t-15 -44.5
q0 -26 15 -43t39 -17zM519 -8q-55 0 -94.5 38t-39.5 92t39.5 92t94.5 38t94.5 -38t39.5 -92t-39.5 -92t-94.5 -38zM519 60q24 0 39 17t15 43q0 27 -15 44.5t-39 17.5t-39 -17.5t-15 -44.5q0 -26 15 -43t39 -17zM819 -8q-55 0 -94.5 38t-39.5 92t39.5 92t94.5 38t94.5 -38
t39.5 -92t-39.5 -92t-94.5 -38zM819 60q24 0 39 17t15 43q0 27 -15 44.5t-39 17.5t-39 -17.5t-15 -44.5q0 -26 15 -43t39 -17z" />
    <glyph glyph-name="guilsinglleft" unicode="&#x2039;" horiz-adv-x="325" 
d="M223 91l-199 191l199 191l65 -65l-122 -126l122 -126z" />
    <glyph glyph-name="guilsinglright" unicode="&#x203a;" horiz-adv-x="325" 
d="M102 91l-65 65l122 126l-122 126l65 65l199 -191z" />
    <glyph glyph-name="fraction" unicode="&#x2044;" horiz-adv-x="500" 
d="M79 -16l-49 32q99 153 200 316q91 146 189 326l49 -32q-85 -131 -200 -316q-98 -159 -189 -326z" />
    <glyph glyph-name="zero.sup" unicode="&#x2070;" horiz-adv-x="353" 
d="M176 423q-66 0 -107 51.5t-41 133.5q0 85 41 136.5t108 51.5q66 0 107 -51.5t41 -134.5q0 -85 -41 -136t-108 -51zM176 489q34 0 54 33.5t20 85.5q0 54 -20 88t-54 34t-53.5 -34t-19.5 -86q0 -53 19.5 -87t53.5 -34z" />
    <glyph glyph-name="four.sup" unicode="&#x2074;" horiz-adv-x="353" 
d="M138 432v52h68v52h-162l-23 42l195 231l51 -41l-165 -183h104v58l61 24v-76h55v-58h-55v-47h41v-54h-170z" />
    <glyph glyph-name="five.sup" unicode="&#x2075;" horiz-adv-x="353" 
d="M172 423q-65 0 -99 23.5t-34 52.5q0 20 11 32t32 12t32.5 -12.5t11.5 -28.5q0 -8 -2 -14q28 -4 40 -4q37 0 58 17.5t21 47.5q0 27 -19 43t-54 16q-44 0 -81 -16l-34 19l17 181h217v-65h-159l-5 -62q18 5 49 5q59 0 98.5 -33.5t39.5 -87.5t-39.5 -90t-100.5 -36z" />
    <glyph glyph-name="six.sup" unicode="&#x2076;" horiz-adv-x="353" 
d="M299 727q0 -19 -11.5 -30t-29.5 -11q-21 0 -31 12t-10 28q0 6 1 9q-18 3 -23 3q-35 0 -61.5 -32t-28.5 -75q34 29 80 29q57 0 93.5 -33t36.5 -82q0 -52 -39 -87t-98 -35q-58 0 -98 40q-45 45 -45 141q0 83 45.5 139t114.5 56q56 0 85 -29q19 -19 19 -43zM179 484
q27 0 46 17.5t19 41.5q0 26 -17.5 41t-49.5 15q-29 0 -48.5 -15.5t-19.5 -39.5q0 -28 21 -45q20 -15 49 -15z" />
    <glyph glyph-name="seven.sup" unicode="&#x2077;" horiz-adv-x="353" 
d="M94 430l149 303h-134v-75h-63v134h258l19 -42l-150 -320h-79z" />
    <glyph glyph-name="eight.sup" unicode="&#x2078;" horiz-adv-x="353" 
d="M176 424q-66 0 -105 29.5t-39 69.5q0 66 83 93q-74 20 -74 82q0 39 38 69t97 30t97.5 -30t38.5 -69q0 -62 -76 -82q85 -27 85 -93q0 -39 -39.5 -69t-105.5 -30zM176 640q24 0 41.5 14t17.5 35q0 22 -17 35t-42 13q-26 0 -42.5 -13t-16.5 -35q0 -21 17 -35t42 -14z
M176 486q30 0 49 15t19 35q0 21 -19 36t-49 15q-31 0 -49.5 -15t-18.5 -36q0 -20 19 -35t49 -15z" />
    <glyph glyph-name="nine.sup" unicode="&#x2079;" horiz-adv-x="353" 
d="M54 495q0 19 11.5 30t29.5 11q21 0 31 -12t10 -28q0 -2 -0.5 -5t-0.5 -4q9 -3 23 -3q35 0 61.5 31.5t28.5 74.5q-36 -28 -80 -28q-57 0 -93.5 33t-36.5 82q0 52 39 87t98 35q58 0 98 -40q45 -45 45 -141q0 -83 -45.5 -139t-114.5 -56q-56 0 -85 29q-19 19 -19 43z
M174 738q-27 0 -46 -17.5t-19 -41.5q0 -26 17.5 -41t49.5 -15q29 0 48.5 15.5t19.5 39.5q0 28 -21 45q-20 15 -49 15z" />
    <glyph glyph-name="zero.inf" unicode="&#x2080;" horiz-adv-x="353" 
d="M176 -147q-66 0 -107 51.5t-41 133.5q0 85 41 136.5t108 51.5q66 0 107 -51.5t41 -134.5q0 -85 -41 -136t-108 -51zM176 -81q34 0 54 33.5t20 85.5q0 54 -20 88t-54 34t-53.5 -34t-19.5 -86q0 -53 19.5 -87t53.5 -34z" />
    <glyph glyph-name="one.inf" unicode="&#x2081;" horiz-adv-x="353" 
d="M57 -139v64h91v224l-82 -21l-16 59l133 37h37v-299h88v-64h-251z" />
    <glyph glyph-name="two.inf" unicode="&#x2082;" horiz-adv-x="353" 
d="M53 -140l-21 33q17 40 47 75t48 49t49 35q22 15 30 21t17.5 19t9.5 28q0 23 -17 36t-46 13q-18 0 -35.5 -6t-23.5 -12q18 -9 18 -34q0 -17 -12 -29t-29 -12q-44 0 -44 53q0 44 36.5 72t95.5 28q54 0 91 -30.5t37 -79.5q0 -27 -14.5 -50t-29 -34t-38.5 -25
q-75 -45 -104 -91h138v63h58v-122h-261z" />
    <glyph glyph-name="three.inf" unicode="&#x2083;" horiz-adv-x="353" 
d="M171 -147q-60 0 -99 25t-39 65q0 19 12.5 32.5t30.5 13.5t30 -12t12 -29q0 -13 -5 -25q22 -14 58 -14q27 0 46.5 13.5t19.5 38.5q0 23 -19.5 39.5t-66.5 16.5h-22v55h23q78 0 78 57q0 20 -17.5 30.5t-41.5 10.5q-26 0 -41 -10q4 -12 4 -23q0 -17 -12.5 -29.5t-29.5 -12.5
q-18 0 -30.5 14t-12.5 35q0 28 33.5 55t91.5 27q54 0 92 -27t38 -68q0 -31 -21 -54t-54 -32q33 -9 57.5 -31.5t24.5 -59.5q0 -47 -41 -74t-99 -27z" />
    <glyph glyph-name="four.inf" unicode="&#x2084;" horiz-adv-x="353" 
d="M138 -138v52h68v52h-162l-23 42l195 231l51 -41l-165 -183h104v58l61 24v-76h55v-58h-55v-47h41v-54h-170z" />
    <glyph glyph-name="five.inf" unicode="&#x2085;" horiz-adv-x="353" 
d="M172 -147q-65 0 -99 23.5t-34 52.5q0 20 11 32t32 12t32.5 -12.5t11.5 -28.5q0 -8 -2 -14q28 -4 40 -4q37 0 58 17.5t21 47.5q0 27 -19 43t-54 16q-44 0 -81 -16l-34 19l17 181h217v-65h-159l-5 -62q18 5 49 5q59 0 98.5 -33.5t39.5 -87.5t-39.5 -90t-100.5 -36z" />
    <glyph glyph-name="six.inf" unicode="&#x2086;" horiz-adv-x="353" 
d="M299 157q0 -19 -11.5 -30t-29.5 -11q-21 0 -31 12t-10 28q0 6 1 9q-18 3 -23 3q-35 0 -61.5 -32t-28.5 -75q34 29 80 29q57 0 93.5 -33t36.5 -82q0 -52 -39 -87t-98 -35q-58 0 -98 40q-45 45 -45 141q0 83 45.5 139t114.5 56q56 0 85 -29q19 -19 19 -43zM179 -86
q27 0 46 17.5t19 41.5q0 26 -17.5 41t-49.5 15q-29 0 -48.5 -15.5t-19.5 -39.5q0 -28 21 -45q20 -15 49 -15z" />
    <glyph glyph-name="seven.inf" unicode="&#x2087;" horiz-adv-x="353" 
d="M94 -140l149 303h-134v-75h-63v134h258l19 -42l-150 -320h-79z" />
    <glyph glyph-name="eight.inf" unicode="&#x2088;" horiz-adv-x="353" 
d="M176 -146q-66 0 -105 29.5t-39 69.5q0 66 83 93q-74 20 -74 82q0 39 38 69t97 30t97.5 -30t38.5 -69q0 -62 -76 -82q85 -27 85 -93q0 -39 -39.5 -69t-105.5 -30zM176 70q24 0 41.5 14t17.5 35q0 22 -17 35t-42 13q-26 0 -42.5 -13t-16.5 -35q0 -21 17 -35t42 -14z
M176 -84q30 0 49 15t19 35q0 21 -19 36t-49 15q-31 0 -49.5 -15t-18.5 -36q0 -20 19 -35t49 -15z" />
    <glyph glyph-name="nine.inf" unicode="&#x2089;" horiz-adv-x="353" 
d="M54 -75q0 19 11.5 30t29.5 11q21 0 31 -12t10 -28q0 -2 -0.5 -5t-0.5 -4q18 -3 23 -3q35 0 61.5 32t28.5 74q-36 -28 -80 -28q-57 0 -93.5 33t-36.5 82q0 52 39 87t98 35q58 0 98 -40q45 -45 45 -141q0 -83 -45.5 -139t-114.5 -56q-56 0 -85 29q-19 19 -19 43zM174 168
q-27 0 -46 -17.5t-19 -41.5q0 -26 17.5 -41t49.5 -15q29 0 48.5 15.5t19.5 39.5q0 28 -21 45q-20 15 -49 15z" />
    <glyph glyph-name="Euro" unicode="&#x20ac;" horiz-adv-x="670" 
d="M52 291v82h94q31 73 99 116.5t154 43.5q93 0 152 -45t59 -99q0 -34 -22.5 -55t-51.5 -21q-28 0 -47 19t-19 47q0 27 14 41q-24 22 -87 22q-96 0 -146 -74h141v-77h-170q-1 -9 -1 -27t1 -26h170v-77h-142q51 -78 150 -78q80 0 145 67l64 -67q-83 -91 -209 -91
q-93 0 -161 43.5t-97 120.5h-90v82h73q-1 8 -1 24q0 19 1 29h-73z" />
    <glyph glyph-name="published" unicode="&#x2117;" horiz-adv-x="620" 
d="M300 -8q-113 0 -191.5 78.5t-78.5 191.5t78.5 192t191.5 79t191.5 -79t78.5 -192q0 -112 -79 -191t-191 -79zM300 38q90 0 154 65.5t64 158.5q0 95 -63 160t-155 65t-155 -65t-63 -160t63 -159.5t155 -64.5zM312 217h-26v-47h33v-40h-108v40h30v183h-30v40h106
q43 0 71 -23t28 -63q0 -44 -28 -67t-76 -23zM316 257q25 0 39.5 13.5t14.5 36.5q0 21 -15.5 33.5t-40.5 12.5h-28v-95q5 -1 30 -1z" />
    <glyph glyph-name="servicemark" unicode="&#x2120;" horiz-adv-x="603" 
d="M244 403v48h31l8 159h-36v48h105l58 -132l54 132h105v-48h-36l8 -159h31v-48h-118v48h32l-5 125l-60 -129h-26l-61 129l-5 -125h32v-48h-117zM117 397q-41 0 -67.5 17.5t-26.5 43.5q0 14 9.5 23t22.5 9q14 0 22.5 -7.5t8.5 -16.5t-4 -14q15 -10 33 -10q40 0 40 28
q0 24 -41 39q-42 15 -62 32t-20 51q0 31 24.5 51.5t63.5 20.5q40 0 64 -15.5t24 -39.5q0 -14 -9 -23t-21 -9q-14 0 -21.5 7.5t-7.5 16.5q0 7 2 11q-11 6 -29 6q-35 0 -35 -25q0 -9 7 -16t13.5 -10t21.5 -8q82 -29 82 -87q0 -36 -26 -55.5t-68 -19.5z" />
    <glyph glyph-name="trademark" unicode="&#x2122;" horiz-adv-x="657" 
d="M298 403v48h31l8 159h-36v48h105l58 -132l54 132h105v-48h-36l8 -159h31v-48h-118v48h32l-5 125l-60 -129h-26l-61 129l-5 -125h32v-48h-117zM80 403v48h33v160h-42v-44h-48v91h239v-91h-48v44h-42v-160h33v-48h-125z" />
    <glyph glyph-name="onethird" unicode="&#x2153;" horiz-adv-x="795" 
d="M41 281v64h91v224l-82 -21l-16 59l133 37h37v-299h88v-64h-251zM223 -16l-49 32q99 153 200 316q91 146 189 326l49 -32q-85 -131 -200 -316q-98 -159 -189 -326zM613 -9q-60 0 -99 25t-39 65q0 19 12.5 32.5t30.5 13.5t30 -12t12 -29q0 -13 -5 -25q22 -14 58 -14
q27 0 46.5 13.5t19.5 38.5q0 23 -19.5 39.5t-66.5 16.5h-22v55h23q78 0 78 57q0 20 -17.5 30.5t-41.5 10.5q-26 0 -41 -10q4 -12 4 -23q0 -17 -12.5 -29.5t-29.5 -12.5q-18 0 -30.5 14t-12.5 35q0 28 33.5 55t91.5 27q54 0 92 -27t38 -68q0 -31 -21 -54t-54 -32
q33 -9 57.5 -31.5t24.5 -59.5q0 -47 -41 -74t-99 -27z" />
    <glyph glyph-name="twothirds" unicode="&#x2154;" horiz-adv-x="795" 
d="M51 280l-21 33q17 40 47 75t48 49t49 35q22 15 30 21t17.5 19t9.5 28q0 23 -17 36t-46 13q-18 0 -35.5 -6t-23.5 -12q18 -9 18 -34q0 -17 -12 -29t-29 -12q-44 0 -44 53q0 44 36.5 72t95.5 28q54 0 91 -30.5t37 -79.5q0 -27 -14.5 -50t-29 -34t-38.5 -25
q-75 -45 -104 -91h138v63h58v-122h-261zM617 -9q-60 0 -99 25t-39 65q0 19 12.5 32.5t30.5 13.5t30 -12t12 -29q0 -13 -5 -25q22 -14 58 -14q27 0 46.5 13.5t19.5 38.5q0 23 -19.5 39.5t-66.5 16.5h-22v55h23q78 0 78 57q0 20 -17.5 30.5t-41.5 10.5q-26 0 -41 -10
q4 -12 4 -23q0 -17 -12.5 -29.5t-29.5 -12.5q-18 0 -30.5 14t-12.5 35q0 28 33.5 55t91.5 27q54 0 92 -27t38 -68q0 -31 -21 -54t-54 -32q33 -9 57.5 -31.5t24.5 -59.5q0 -47 -41 -74t-99 -27zM246 -16l-49 32q99 153 200 316q91 146 189 326l49 -32q-85 -131 -200 -316
q-98 -159 -189 -326z" />
    <glyph glyph-name="onefifth" unicode="&#x2155;" horiz-adv-x="795" 
d="M44 281v64h91v224l-82 -21l-16 59l133 37h37v-299h88v-64h-251zM229 -16l-49 32q99 153 200 316q91 146 189 326l49 -32q-85 -131 -200 -316q-98 -159 -189 -326zM619 -9q-65 0 -99 23.5t-34 52.5q0 20 11 32t32 12t32.5 -12.5t11.5 -28.5q0 -8 -2 -14q28 -4 40 -4
q37 0 58 17.5t21 47.5q0 27 -19 43t-54 16q-44 0 -81 -16l-34 19l17 181h217v-65h-159l-5 -62q18 5 49 5q59 0 98.5 -33.5t39.5 -87.5t-39.5 -90t-100.5 -36z" />
    <glyph glyph-name="twofifths" unicode="&#x2156;" horiz-adv-x="795" 
d="M51 280l-21 33q17 40 47 75t48 49t49 35q22 15 30 21t17.5 19t9.5 28q0 23 -17 36t-46 13q-18 0 -35.5 -6t-23.5 -12q18 -9 18 -34q0 -17 -12 -29t-29 -12q-44 0 -44 53q0 44 36.5 72t95.5 28q54 0 91 -30.5t37 -79.5q0 -27 -14.5 -50t-29 -34t-38.5 -25
q-75 -45 -104 -91h138v63h58v-122h-261zM626 -9q-65 0 -99 23.5t-34 52.5q0 20 11 32t32 12t32.5 -12.5t11.5 -28.5q0 -8 -2 -14q28 -4 40 -4q37 0 58 17.5t21 47.5q0 27 -19 43t-54 16q-44 0 -81 -16l-34 19l17 181h217v-65h-159l-5 -62q18 5 49 5q59 0 98.5 -33.5
t39.5 -87.5t-39.5 -90t-100.5 -36zM252 -16l-49 32q99 153 200 316q91 146 189 326l49 -32q-85 -131 -200 -316q-98 -159 -189 -326z" />
    <glyph glyph-name="threefifths" unicode="&#x2157;" horiz-adv-x="795" 
d="M176 273q-60 0 -99 25t-39 65q0 19 12.5 32.5t30.5 13.5t30 -12t12 -29q0 -13 -5 -25q22 -14 58 -14q27 0 46.5 13.5t19.5 38.5q0 23 -19.5 39.5t-66.5 16.5h-22v55h23q78 0 78 57q0 20 -17.5 30.5t-41.5 10.5q-26 0 -41 -10q4 -12 4 -23q0 -17 -12.5 -29.5t-29.5 -12.5
q-18 0 -30.5 14t-12.5 35q0 28 33.5 55t91.5 27q54 0 92 -27t38 -68q0 -31 -21 -54t-54 -32q33 -9 57.5 -31.5t24.5 -59.5q0 -47 -41 -74t-99 -27zM234 -16l-49 32q99 153 200 316q91 146 189 326l49 -32q-85 -131 -200 -316q-98 -159 -189 -326zM617 -9q-65 0 -99 23.5
t-34 52.5q0 20 11 32t32 12t32.5 -12.5t11.5 -28.5q0 -8 -2 -14q28 -4 40 -4q37 0 58 17.5t21 47.5q0 27 -19 43t-54 16q-44 0 -81 -16l-34 19l17 181h217v-65h-159l-5 -62q18 5 49 5q59 0 98.5 -33.5t39.5 -87.5t-39.5 -90t-100.5 -36z" />
    <glyph glyph-name="fourfifths" unicode="&#x2158;" horiz-adv-x="795" 
d="M144 282v52h68v52h-162l-23 42l195 231l51 -41l-165 -183h104v58l61 24v-76h55v-58h-55v-47h41v-54h-170zM259 -16l-49 32q99 153 200 316q91 146 189 326l49 -32q-85 -131 -200 -316q-98 -159 -189 -326zM627 -9q-65 0 -99 23.5t-34 52.5q0 20 11 32t32 12t32.5 -12.5
t11.5 -28.5q0 -8 -2 -14q28 -4 40 -4q37 0 58 17.5t21 47.5q0 27 -19 43t-54 16q-44 0 -81 -16l-34 19l17 181h217v-65h-159l-5 -62q18 5 49 5q59 0 98.5 -33.5t39.5 -87.5t-39.5 -90t-100.5 -36z" />
    <glyph glyph-name="onesixth" unicode="&#x2159;" horiz-adv-x="795" 
d="M736 295q0 -19 -11.5 -30t-29.5 -11q-21 0 -31 12t-10 28q0 6 1 9q-18 3 -23 3q-35 0 -61.5 -32t-28.5 -75q34 29 80 29q57 0 93.5 -33t36.5 -82q0 -52 -39 -87t-98 -35q-58 0 -98 40q-45 45 -45 141q0 83 45.5 139t114.5 56q56 0 85 -29q19 -19 19 -43zM48 281v64h91
v224l-82 -21l-16 59l133 37h37v-299h88v-64h-251zM233 -16l-49 32q99 153 200 316q91 146 189 326l49 -32q-85 -131 -200 -316q-98 -159 -189 -326zM616 52q27 0 46 17.5t19 41.5q0 26 -17.5 41t-49.5 15q-29 0 -48.5 -15.5t-19.5 -39.5q0 -28 21 -45q20 -15 49 -15z" />
    <glyph glyph-name="fivesixths" unicode="&#x215a;" horiz-adv-x="795" 
d="M734 295q0 -19 -11.5 -30t-29.5 -11q-21 0 -31 12t-10 28q0 6 1 9q-18 3 -23 3q-35 0 -61.5 -32t-28.5 -75q34 29 80 29q57 0 93.5 -33t36.5 -82q0 -52 -39 -87t-98 -35q-58 0 -98 40q-45 45 -45 141q0 83 45.5 139t114.5 56q56 0 85 -29q19 -19 19 -43zM173 273
q-65 0 -99 23.5t-34 52.5q0 20 11 32t32 12t32.5 -12.5t11.5 -28.5q0 -8 -2 -14q28 -4 40 -4q37 0 58 17.5t21 47.5q0 27 -19 43t-54 16q-44 0 -81 -16l-34 19l17 181h217v-65h-159l-5 -62q18 5 49 5q59 0 98.5 -33.5t39.5 -87.5t-39.5 -90t-100.5 -36zM231 -16l-49 32
q99 153 200 316q91 146 189 326l49 -32q-85 -131 -200 -316q-98 -159 -189 -326zM614 52q27 0 46 17.5t19 41.5q0 26 -17.5 41t-49.5 15q-29 0 -48.5 -15.5t-19.5 -39.5q0 -28 21 -45q20 -15 49 -15z" />
    <glyph glyph-name="oneeighth" unicode="&#x215b;" horiz-adv-x="795" 
d="M41 281v64h91v224l-82 -21l-16 59l133 37h37v-299h88v-64h-251zM224 -16l-49 32q99 153 200 316q91 146 189 326l49 -32q-85 -131 -200 -316q-98 -159 -189 -326zM611 -8q-66 0 -105 29.5t-39 69.5q0 66 83 93q-74 20 -74 82q0 39 38 69t97 30t97.5 -30t38.5 -69
q0 -62 -76 -82q85 -27 85 -93q0 -39 -39.5 -69t-105.5 -30zM611 208q24 0 41.5 14t17.5 35q0 22 -17 35t-42 13q-26 0 -42.5 -13t-16.5 -35q0 -21 17 -35t42 -14zM611 54q30 0 49 15t19 35q0 21 -19 36t-49 15q-31 0 -49.5 -15t-18.5 -36q0 -20 19 -35t49 -15z" />
    <glyph glyph-name="threeeighths" unicode="&#x215c;" horiz-adv-x="795" 
d="M174 273q-60 0 -99 25t-39 65q0 19 12.5 32.5t30.5 13.5t30 -12t12 -29q0 -13 -5 -25q22 -14 58 -14q27 0 46.5 13.5t19.5 38.5q0 23 -19.5 39.5t-66.5 16.5h-22v55h23q78 0 78 57q0 20 -17.5 30.5t-41.5 10.5q-26 0 -41 -10q4 -12 4 -23q0 -17 -12.5 -29.5t-29.5 -12.5
q-18 0 -30.5 14t-12.5 35q0 28 33.5 55t91.5 27q54 0 92 -27t38 -68q0 -31 -21 -54t-54 -32q33 -9 57.5 -31.5t24.5 -59.5q0 -47 -41 -74t-99 -27zM229 -16l-49 32q99 153 200 316q91 146 189 326l49 -32q-85 -131 -200 -316q-98 -159 -189 -326zM608 -8q-66 0 -105 29.5
t-39 69.5q0 66 83 93q-74 20 -74 82q0 39 38 69t97 30t97.5 -30t38.5 -69q0 -62 -76 -82q85 -27 85 -93q0 -39 -39.5 -69t-105.5 -30zM608 208q24 0 41.5 14t17.5 35q0 22 -17 35t-42 13q-26 0 -42.5 -13t-16.5 -35q0 -21 17 -35t42 -14zM608 54q30 0 49 15t19 35
q0 21 -19 36t-49 15q-31 0 -49.5 -15t-18.5 -36q0 -20 19 -35t49 -15z" />
    <glyph glyph-name="fiveeighths" unicode="&#x215d;" horiz-adv-x="795" 
d="M172 273q-65 0 -99 23.5t-34 52.5q0 20 11 32t32 12t32.5 -12.5t11.5 -28.5q0 -8 -2 -14q28 -4 40 -4q37 0 58 17.5t21 47.5q0 27 -19 43t-54 16q-44 0 -81 -16l-34 19l17 181h217v-65h-159l-5 -62q18 5 49 5q59 0 98.5 -33.5t39.5 -87.5t-39.5 -90t-100.5 -36zM225 -16
l-49 32q99 153 200 316q91 146 189 326l49 -32q-85 -131 -200 -316q-98 -159 -189 -326zM609 -8q-66 0 -105 29.5t-39 69.5q0 66 83 93q-74 20 -74 82q0 39 38 69t97 30t97.5 -30t38.5 -69q0 -62 -76 -82q85 -27 85 -93q0 -39 -39.5 -69t-105.5 -30zM609 208q24 0 41.5 14
t17.5 35q0 22 -17 35t-42 13q-26 0 -42.5 -13t-16.5 -35q0 -21 17 -35t42 -14zM609 54q30 0 49 15t19 35q0 21 -19 36t-49 15q-31 0 -49.5 -15t-18.5 -36q0 -20 19 -35t49 -15z" />
    <glyph glyph-name="seveneighths" unicode="&#x215e;" horiz-adv-x="795" 
d="M111 280l149 303h-134v-75h-63v134h258l19 -42l-150 -320h-79zM195 -16l-49 32q99 153 200 316q91 146 189 326l49 -32q-85 -131 -200 -316q-98 -159 -189 -326zM590 -8q-66 0 -105 29.5t-39 69.5q0 66 83 93q-74 20 -74 82q0 39 38 69t97 30t97.5 -30t38.5 -69
q0 -62 -76 -82q85 -27 85 -93q0 -39 -39.5 -69t-105.5 -30zM590 208q24 0 41.5 14t17.5 35q0 22 -17 35t-42 13q-26 0 -42.5 -13t-16.5 -35q0 -21 17 -35t42 -14zM590 54q30 0 49 15t19 35q0 21 -19 36t-49 15q-31 0 -49.5 -15t-18.5 -36q0 -20 19 -35t49 -15z" />
    <glyph glyph-name="minus" unicode="&#x2212;" horiz-adv-x="464" 
d="M52 237v92h360v-92h-360z" />
    <glyph glyph-name="Q.alt" horiz-adv-x="767" 
d="M588 -113l-80 124q-64 -23 -127 -23q-147 0 -241 97.5t-94 243.5t95.5 243.5t244.5 97.5q147 0 241 -97.5t94 -243.5q0 -80 -33 -150t-92 -117l78 -121zM384 91q36 0 67 9l-66 105l85 54l69 -108q65 67 65 178q0 103 -62.5 169.5t-157.5 66.5q-96 0 -158.5 -66.5
t-62.5 -169.5t62.5 -170.5t158.5 -67.5z" />
    <glyph glyph-name="a.sc" horiz-adv-x="598" 
d="M123 525h352v-91h-69l122 -343h55v-91h-237v89h73l-27 76h-189l-26 -76h73v-89h-235v91h56l122 343h-70v91zM297 441l-65 -190h131z" />
    <glyph glyph-name="b.sc" horiz-adv-x="544" 
d="M226 89h79q41 0 64.5 18t23.5 52q0 32 -23.5 50t-66.5 18h-77v-138zM226 303h69q40 0 62 18t22 50q0 31 -22.5 48t-63.5 17h-67v-133zM303 0h-263v91h77v343h-77v91h255q96 0 145 -38t49 -100q0 -88 -89 -117q104 -30 104 -123q0 -68 -51.5 -107.5t-149.5 -39.5z" />
    <glyph glyph-name="c.sc" horiz-adv-x="573" 
d="M468 158l68 -73q-87 -98 -224 -98q-124 0 -200.5 79t-76.5 196q0 123 81.5 200.5t204.5 77.5q90 0 149.5 -42.5t59.5 -97.5q0 -34 -19 -55t-50 -21q-32 0 -51.5 17.5t-19.5 48.5q0 21 8 34q-32 19 -84 19q-73 0 -120 -49.5t-47 -130.5q0 -79 47.5 -128t117.5 -49
q91 0 156 72z" />
    <glyph glyph-name="d.sc" horiz-adv-x="606" 
d="M226 91h49q92 0 139 46.5t47 128.5q0 81 -50.5 124.5t-141.5 43.5h-43v-343zM259 0h-219v91h77v343h-77v91h229q141 0 221.5 -69t80.5 -189q0 -123 -80.5 -195t-231.5 -72z" />
    <glyph glyph-name="e.sc" horiz-adv-x="524" 
d="M476 0h-436v91h77v343h-77v91h435v-183h-100v94h-149v-133h150v-85h-150v-129h150v90h100v-179z" />
    <glyph glyph-name="f.sc" horiz-adv-x="502" 
d="M308 0h-268v91h77v343h-77v91h432v-183h-101v94h-145v-138h147v-85h-147v-122h82v-91z" />
    <glyph glyph-name="g.sc" horiz-adv-x="593" 
d="M314 443q-73 0 -120 -49.5t-47 -129.5q0 -78 48 -130.5t118 -52.5q69 0 109 30v79h-126v86h233v-276h-104v34q-61 -47 -137 -47q-103 0 -178 76t-75 200q0 123 80.5 200t205.5 77q90 0 149.5 -42.5t59.5 -97.5q0 -34 -19 -55t-50 -21q-32 0 -51.5 17.5t-19.5 48.5
q0 21 8 34q-32 19 -84 19z" />
    <glyph glyph-name="h.sc" horiz-adv-x="671" 
d="M40 0v91h77v343h-77v91h265v-91h-79v-129h219v129h-79v91h265v-91h-77v-343h77v-91h-265v91h79v125h-219v-125h79v-91h-265z" />
    <glyph glyph-name="i.sc" horiz-adv-x="349" 
d="M309 0h-269v91h80v343h-80v91h269v-91h-80v-343h80v-91z" />
    <glyph glyph-name="j.sc" horiz-adv-x="480" 
d="M199 84q35 0 53 19q22 23 22 79v252h-81v91h262v-91h-74v-253q0 -98 -50 -148q-47 -46 -129 -46q-74 0 -125.5 41t-51.5 100q0 35 20 56.5t52 21.5q26 0 45.5 -19t19.5 -44q0 -27 -18 -45q19 -14 55 -14z" />
    <glyph glyph-name="k.sc" horiz-adv-x="610" 
d="M525 434l-153 -146l132 -197h79v-91h-149l-142 219l-66 -61v-67h76v-91h-262v91h77v343h-77v91h251v-89h-65v-167l175 167h-63v89h241v-91h-54z" />
    <glyph glyph-name="l.sc" horiz-adv-x="497" 
d="M376 91v98h101v-189h-437v91h77v343h-77v91h267v-91h-81v-343h150z" />
    <glyph glyph-name="m.sc" horiz-adv-x="754" 
d="M525 525h180v-91h-77l15 -343h77v-91h-261v91h74l-10 252l-137 -249h-20l-140 249l-10 -252h79v-91h-261v91h77l15 343h-77v91h182l150 -267z" />
    <glyph glyph-name="n.sc" horiz-adv-x="659" 
d="M209 525l244 -316v225h-75v91h256v-91h-77v-437h-75l-259 341v-247h70v-91h-253v91h77v343h-77v91h169z" />
    <glyph glyph-name="o.sc" horiz-adv-x="622" 
d="M311 540q123 0 199.5 -79t76.5 -196q0 -119 -76 -198.5t-200 -79.5t-200 79.5t-76 198.5q0 117 76.5 196t199.5 79zM311 86q71 0 118 48.5t47 128.5t-46.5 129t-118.5 49q-71 0 -117.5 -49t-46.5 -129t46.5 -128.5t117.5 -48.5z" />
    <glyph glyph-name="p.sc" horiz-adv-x="518" 
d="M40 525h240q89 0 148.5 -48t59.5 -127q0 -88 -60 -134.5t-160 -46.5q-27 0 -42 1v-79h79v-91h-265v91h77v343h-77v91zM279 258q46 0 72.5 25t26.5 67q0 37 -28.5 60.5t-72.5 23.5h-51v-174q24 -2 53 -2z" />
    <glyph glyph-name="q.sc" horiz-adv-x="622" 
d="M499 -120q-25 0 -46 4t-41.5 14.5t-30.5 16t-32.5 22t-26.5 19.5q-33 23 -67 32q-95 24 -151 86q-69 77 -69 191q0 117 76.5 196t199.5 79t199.5 -79t76.5 -196q0 -90 -45 -159.5t-123 -99.5l11 -7q34 -22 58 -22q37 0 79 35l54 -79q-52 -53 -122 -53zM311 86
q71 0 118 48.5t47 128.5t-46.5 129t-118.5 49q-71 0 -117.5 -49t-46.5 -129q0 -76 42 -124q47 -53 122 -53z" />
    <glyph glyph-name="q.sc_alt" horiz-adv-x="622" 
d="M587 265q0 -138 -95 -216l55 -84l-81 -52l-58 89q-48 -15 -97 -15q-124 0 -200 79.5t-76 198.5q0 117 76.5 196t199.5 79t199.5 -79t76.5 -196zM476 263q0 80 -46.5 129t-118.5 49q-71 0 -117.5 -49t-46.5 -129t46.5 -128.5t117.5 -48.5q24 0 41 4l-46 72l80 52l48 -75
q42 50 42 124z" />
    <glyph glyph-name="r.sc" horiz-adv-x="568" 
d="M284 434h-58v-151q27 -3 63 -3q49 0 77 21.5t28 57.5q0 35 -29 55t-81 20zM226 191v-100h70v-91h-256v91h77v343h-77v91h251q97 0 155.5 -42t58.5 -123q0 -46 -25 -83t-66 -58l62 -128h72v-91h-153l-86 192q-19 -2 -39 -2q-30 0 -44 1z" />
    <glyph glyph-name="s.sc" horiz-adv-x="505" 
d="M321 405q0 15 6 27q-30 18 -78 18q-37 0 -60 -15.5t-23 -43.5q0 -7 2 -13t6 -11.5t8 -9.5t12 -8.5t13 -7t14.5 -6t14 -5.5t15.5 -5.5t14 -4.5q39 -13 59.5 -20.5t51 -23t45.5 -31t27 -40.5t12 -56q0 -80 -56.5 -121t-152.5 -41q-86 0 -148.5 40t-62.5 98q0 33 17.5 52.5
t48.5 19.5t51.5 -19.5t20.5 -44.5q0 -20 -7 -34q30 -22 85 -22q98 0 98 62q0 15 -8.5 27t-27.5 21.5t-31.5 14t-37.5 12.5q-51 16 -76.5 26.5t-57 30t-45 46.5t-13.5 64q0 70 55 114.5t145 44.5q86 0 142.5 -37t56.5 -92q0 -32 -17.5 -50.5t-45.5 -18.5q-34 0 -53 19t-19 44
z" />
    <glyph glyph-name="t.sc" horiz-adv-x="555" 
d="M143 0v91h80v346h-95v-106h-100v194h499v-194h-100v106h-95v-346h80v-91h-269z" />
    <glyph glyph-name="u.sc" horiz-adv-x="624" 
d="M208 434v-233q0 -58 28 -90.5t77 -32.5q50 0 77.5 31t27.5 89v236h-74v91h255v-91h-74v-228q0 -108 -57.5 -164t-155.5 -56q-100 0 -156.5 55t-56.5 162v231h-74v91h257v-91h-74z" />
    <glyph glyph-name="v.sc" horiz-adv-x="583" 
d="M252 -7l-183 441h-59v91h244v-91h-70l111 -290l111 290h-70v91h237v-91h-59l-183 -441h-79z" />
    <glyph glyph-name="w.sc" horiz-adv-x="815" 
d="M215 -7l-138 441h-65v91h257v-91h-76l78 -268l114 296h53l114 -295l79 267h-79v91h251v-91h-65l-138 -441h-79l-114 289l-113 -289h-79z" />
    <glyph glyph-name="x.sc" horiz-adv-x="605" 
d="M585 91v-91h-253v89h69l-104 123l-99 -123h71v-89h-249v91h67l149 179l-142 164h-67v91h246v-89h-58l92 -111l88 111h-59v89h242v-91h-72l-137 -166l154 -177h62z" />
    <glyph glyph-name="y.sc" horiz-adv-x="543" 
d="M537 525v-91h-55l-156 -242v-101h80v-91h-269v91h80v101l-156 242h-55v91h238v-89h-68l98 -159l99 159h-72v89h236z" />
    <glyph glyph-name="z.sc" 
d="M41 0v63l296 374h-190v-102h-92v190h432v-63l-295 -374h203v101h92v-189h-446z" />
    <glyph glyph-name="aacute.sc" horiz-adv-x="598" 
d="M123 525h352v-91h-69l122 -343h55v-91h-237v89h73l-27 76h-189l-26 -76h73v-89h-235v91h56l122 343h-70v91zM286 586l-34 33l110 150q24 31 55 31q20 0 34.5 -14.5t14.5 -36.5q0 -31 -31 -55zM297 441l-65 -190h131z" />
    <glyph glyph-name="abreve.sc" horiz-adv-x="598" 
d="M123 525h352v-91h-69l122 -343h55v-91h-237v89h73l-27 76h-189l-26 -76h73v-89h-235v91h56l122 343h-70v91zM295 600q-62 0 -111.5 43t-72.5 131l69 27q42 -103 115 -103q72 0 115 103l69 -27q-23 -88 -72.5 -131t-111.5 -43zM297 441l-65 -190h131z" />
    <glyph glyph-name="acircumflex.sc" horiz-adv-x="598" 
d="M123 525h352v-91h-69l122 -343h55v-91h-237v89h73l-27 76h-189l-26 -76h73v-89h-235v91h56l122 343h-70v91zM166 589l-46 53l177 176l177 -176l-46 -53l-131 96zM297 441l-65 -190h131z" />
    <glyph glyph-name="adieresis.sc" horiz-adv-x="598" 
d="M123 525h352v-91h-69l122 -343h55v-91h-237v89h73l-27 76h-189l-26 -76h73v-89h-235v91h56l122 343h-70v91zM399 600q-29 0 -50.5 21t-21.5 51t22 51t52 21q29 0 50.5 -21t21.5 -51t-22 -51t-52 -21zM193 600q-29 0 -50.5 21t-21.5 51t22 51t52 21q29 0 50.5 -21
t21.5 -51t-22 -51t-52 -21zM297 441l-65 -190h131z" />
    <glyph glyph-name="ae.sc" horiz-adv-x="754" 
d="M274 0v89h73v76h-153l-37 -76h69v-89h-226v91h52l173 343h-66v91h546v-183h-100v94h-149v-133h150v-85h-150v-129h150v90h100v-179h-432zM326 434l-91 -184h112v184h-21z" />
    <glyph glyph-name="aeacute.sc" horiz-adv-x="754" 
d="M274 0v89h73v76h-153l-37 -76h69v-89h-226v91h52l173 343h-66v91h546v-183h-100v94h-149v-133h150v-85h-150v-129h150v90h100v-179h-432zM395 586l-34 33l110 150q24 31 55 31q20 0 34.5 -14.5t14.5 -36.5q0 -31 -31 -55zM326 434l-91 -184h112v184h-21z" />
    <glyph glyph-name="agrave.sc" horiz-adv-x="598" 
d="M123 525h352v-91h-69l122 -343h55v-91h-237v89h73l-27 76h-189l-26 -76h73v-89h-235v91h56l122 343h-70v91zM308 586l-149 108q-31 24 -31 55q0 22 14.5 36.5t34.5 14.5q31 0 55 -31l110 -150zM297 441l-65 -190h131z" />
    <glyph glyph-name="amacron.sc" horiz-adv-x="598" 
d="M123 525h352v-91h-69l122 -343h55v-91h-237v89h73l-27 76h-189l-26 -76h73v-89h-235v91h56l122 343h-70v91zM130 619v89h334v-89h-334zM297 441l-65 -190h131z" />
    <glyph glyph-name="aogonek.sc" horiz-adv-x="598" 
d="M483 -201q-54 0 -84 28.5t-30 74.5q0 56 50 98h-73v89h73l-27 76h-189l-26 -76h73v-89h-235v91h56l122 343h-70v91h352v-91h-69l122 -343h55v-91h-75q-48 -31 -48 -71q0 -46 52 -46q38 0 70 17l-5 -79q-36 -22 -94 -22zM297 441l-65 -190h131z" />
    <glyph glyph-name="aring.sc" horiz-adv-x="598" 
d="M250 0h-235v91h56l122 343h-70v91h59q-18 29 -18 63q0 55 39 92.5t95 37.5t95 -37.5t39 -92.5q0 -34 -18 -63h61v-91h-69l122 -343h55v-91h-237v89h73l-27 76h-189l-26 -76h73v-89zM297 441l-65 -190h131zM298 529q23 0 37.5 17.5t14.5 41.5t-14.5 41.5t-37.5 17.5
t-37.5 -17.5t-14.5 -41.5t14.5 -41.5t37.5 -17.5z" />
    <glyph glyph-name="aringacute.sc" horiz-adv-x="598" 
d="M250 0h-235v91h56l122 343h-70v91h59q-18 29 -18 63q0 55 39 92.5t95 37.5t95 -37.5t39 -92.5q0 -34 -18 -63h61v-91h-69l122 -343h55v-91h-237v89h73l-27 76h-189l-26 -76h73v-89zM288 749l-34 33l110 150q24 31 55 31q20 0 34.5 -14.5t14.5 -36.5q0 -31 -31 -55z
M297 441l-65 -190h131zM298 529q23 0 37.5 17.5t14.5 41.5t-14.5 41.5t-37.5 17.5t-37.5 -17.5t-14.5 -41.5t14.5 -41.5t37.5 -17.5z" />
    <glyph glyph-name="atilde.sc" horiz-adv-x="598" 
d="M123 525h352v-91h-69l122 -343h55v-91h-237v89h73l-27 76h-189l-26 -76h73v-89h-235v91h56l122 343h-70v91zM377 601q-48 0 -89 37q-37 33 -60 33q-36 0 -52 -64l-74 19q8 70 42 110.5t77 40.5q48 0 89 -37q37 -33 60 -33q36 0 52 64l74 -19q-8 -70 -42 -110.5t-77 -40.5
zM297 441l-65 -190h131z" />
    <glyph glyph-name="cacute.sc" horiz-adv-x="578" 
d="M468 158l68 -73q-87 -98 -224 -98q-124 0 -200.5 79t-76.5 196q0 123 81.5 200.5t204.5 77.5q90 0 149.5 -42.5t59.5 -97.5q0 -34 -19 -55t-50 -21q-32 0 -51.5 17.5t-19.5 48.5q0 21 8 34q-32 19 -84 19q-73 0 -120 -49.5t-47 -130.5q0 -79 47.5 -128t117.5 -49
q91 0 156 72zM290 586l-34 33l110 150q24 31 55 31q20 0 34.5 -14.5t14.5 -36.5q0 -31 -31 -55z" />
    <glyph glyph-name="ccaron.sc" horiz-adv-x="578" 
d="M468 158l68 -73q-87 -98 -224 -98q-124 0 -200.5 79t-76.5 196q0 123 81.5 200.5t204.5 77.5q90 0 149.5 -42.5t59.5 -97.5q0 -34 -19 -55t-50 -21q-32 0 -51.5 17.5t-19.5 48.5q0 21 8 34q-32 19 -84 19q-73 0 -120 -49.5t-47 -130.5q0 -79 47.5 -128t117.5 -49
q91 0 156 72zM431 811l46 -53l-177 -176l-177 176l46 53l131 -96z" />
    <glyph glyph-name="ccedilla.sc" horiz-adv-x="578" 
d="M296 -200q-68 0 -125 34l17 33q49 -21 88 -21t39 26t-59 26l-11 -1l-21 25l29 71q-100 18 -159 92t-59 177q0 123 81.5 200.5t204.5 77.5q90 0 149.5 -42.5t59.5 -97.5q0 -34 -19 -55t-50 -21q-32 0 -51.5 17.5t-19.5 48.5q0 21 8 34q-32 19 -84 19q-73 0 -120 -49.5
t-47 -130.5q0 -79 47.5 -128t117.5 -49q91 0 156 72l68 -73q-87 -98 -224 -98h-11l4 -31q48 -6 77 -27t29 -53q0 -30 -31.5 -53t-83.5 -23z" />
    <glyph glyph-name="cdotaccent.sc" horiz-adv-x="578" 
d="M468 158l68 -73q-87 -98 -224 -98q-124 0 -200.5 79t-76.5 196q0 123 81.5 200.5t204.5 77.5q90 0 149.5 -42.5t59.5 -97.5q0 -34 -19 -55t-50 -21q-32 0 -51.5 17.5t-19.5 48.5q0 21 8 34q-32 19 -84 19q-73 0 -120 -49.5t-47 -130.5q0 -79 47.5 -128t117.5 -49
q91 0 156 72zM300 590q-29 0 -50.5 21t-21.5 51t22 51t52 21q29 0 50.5 -21t21.5 -51t-22 -51t-52 -21z" />
    <glyph glyph-name="dcaron.sc" horiz-adv-x="606" 
d="M226 91h49q92 0 139 46.5t47 128.5q0 81 -50.5 124.5t-141.5 43.5h-43v-343zM259 0h-219v91h77v343h-77v91h229q141 0 221.5 -69t80.5 -189q0 -123 -80.5 -195t-231.5 -72zM419 811l46 -53l-177 -176l-177 176l46 53l131 -96z" />
    <glyph glyph-name="dcroat.sc" horiz-adv-x="606" 
d="M259 0h-219v91h77v125h-65v91h65v127h-77v91h229q141 0 221.5 -69t80.5 -189q0 -123 -80.5 -195t-231.5 -72zM226 91h49q92 0 139 46.5t47 128.5q0 81 -50.5 124.5t-141.5 43.5h-43v-127h109v-91h-109v-125z" />
    <glyph glyph-name="eacute.sc" horiz-adv-x="524" 
d="M476 0h-436v91h77v343h-77v91h435v-183h-100v94h-149v-133h150v-85h-150v-129h150v90h100v-179zM255 586l-34 33l110 150q24 31 55 31q20 0 34.5 -14.5t14.5 -36.5q0 -31 -31 -55z" />
    <glyph glyph-name="ebreve.sc" horiz-adv-x="524" 
d="M476 0h-436v91h77v343h-77v91h435v-183h-100v94h-149v-133h150v-85h-150v-129h150v90h100v-179zM264 600q-62 0 -111.5 43t-72.5 131l69 27q42 -103 115 -103q72 0 115 103l69 -27q-23 -88 -72.5 -131t-111.5 -43z" />
    <glyph glyph-name="ecaron.sc" horiz-adv-x="524" 
d="M476 0h-436v91h77v343h-77v91h435v-183h-100v94h-149v-133h150v-85h-150v-129h150v90h100v-179zM396 811l46 -53l-177 -176l-177 176l46 53l131 -96z" />
    <glyph glyph-name="ecircumflex.sc" horiz-adv-x="524" 
d="M476 0h-436v91h77v343h-77v91h435v-183h-100v94h-149v-133h150v-85h-150v-129h150v90h100v-179zM135 589l-46 53l177 176l177 -176l-46 -53l-131 96z" />
    <glyph glyph-name="edieresis.sc" horiz-adv-x="524" 
d="M476 0h-436v91h77v343h-77v91h435v-183h-100v94h-149v-133h150v-85h-150v-129h150v90h100v-179zM368 600q-29 0 -50.5 21t-21.5 51t22 51t52 21q29 0 50.5 -21t21.5 -51t-22 -51t-52 -21zM162 600q-29 0 -50.5 21t-21.5 51t22 51t52 21q29 0 50.5 -21t21.5 -51t-22 -51
t-52 -21z" />
    <glyph glyph-name="edotaccent.sc" horiz-adv-x="524" 
d="M476 0h-436v91h77v343h-77v91h435v-183h-100v94h-149v-133h150v-85h-150v-129h150v90h100v-179zM265 590q-29 0 -50.5 21t-21.5 51t22 51t52 21q29 0 50.5 -21t21.5 -51t-22 -51t-52 -21z" />
    <glyph glyph-name="egrave.sc" horiz-adv-x="524" 
d="M476 0h-436v91h77v343h-77v91h435v-183h-100v94h-149v-133h150v-85h-150v-129h150v90h100v-179zM277 586l-149 108q-31 24 -31 55q0 22 14.5 36.5t34.5 14.5q31 0 55 -31l110 -150z" />
    <glyph glyph-name="emacron.sc" horiz-adv-x="524" 
d="M476 0h-436v91h77v343h-77v91h435v-183h-100v94h-149v-133h150v-85h-150v-129h150v90h100v-179zM99 619v89h334v-89h-334z" />
    <glyph glyph-name="eogonek.sc" horiz-adv-x="524" 
d="M377 -201q-54 0 -84 28.5t-30 74.5q0 56 50 98h-273v91h77v343h-77v91h435v-183h-100v94h-149v-133h150v-85h-150v-129h150v90h100v-179h-74q-48 -31 -48 -71q0 -46 52 -46q38 0 70 17l-5 -79q-36 -22 -94 -22z" />
    <glyph glyph-name="eth.sc" horiz-adv-x="606" 
d="M259 0h-219v91h77v125h-65v91h65v127h-77v91h229q141 0 221.5 -69t80.5 -189q0 -123 -80.5 -195t-231.5 -72zM226 91h49q92 0 139 46.5t47 128.5q0 81 -50.5 124.5t-141.5 43.5h-43v-127h109v-91h-109v-125z" />
    <glyph glyph-name="gbreve.sc" horiz-adv-x="590" 
d="M314 443q-73 0 -120 -49.5t-47 -129.5q0 -78 48 -130.5t118 -52.5q69 0 109 30v79h-126v86h233v-276h-104v34q-61 -47 -137 -47q-103 0 -178 76t-75 200q0 123 80.5 200t205.5 77q90 0 149.5 -42.5t59.5 -97.5q0 -34 -19 -55t-50 -21q-32 0 -51.5 17.5t-19.5 48.5
q0 21 8 34q-32 19 -84 19zM309 600q-62 0 -111.5 43t-72.5 131l69 27q42 -103 115 -103q72 0 115 103l69 -27q-23 -88 -72.5 -131t-111.5 -43z" />
    <glyph glyph-name="gcommaaccent.sc" horiz-adv-x="590" 
d="M314 443q-73 0 -120 -49.5t-47 -129.5q0 -78 48 -130.5t118 -52.5q69 0 109 30v79h-126v86h233v-276h-104v34q-61 -47 -137 -47q-103 0 -178 76t-75 200q0 123 80.5 200t205.5 77q90 0 149.5 -42.5t59.5 -97.5q0 -34 -19 -55t-50 -21q-32 0 -51.5 17.5t-19.5 48.5
q0 21 8 34q-32 19 -84 19zM237 -328l-26 33q79 62 83 109q-23 6 -36.5 23.5t-13.5 41.5t19.5 42.5t46.5 18.5q30 0 50.5 -21t20.5 -59q0 -44 -35 -95t-109 -93z" />
    <glyph glyph-name="gdotaccent.sc" horiz-adv-x="590" 
d="M314 443q-73 0 -120 -49.5t-47 -129.5q0 -78 48 -130.5t118 -52.5q69 0 109 30v79h-126v86h233v-276h-104v34q-61 -47 -137 -47q-103 0 -178 76t-75 200q0 123 80.5 200t205.5 77q90 0 149.5 -42.5t59.5 -97.5q0 -34 -19 -55t-50 -21q-32 0 -51.5 17.5t-19.5 48.5
q0 21 8 34q-32 19 -84 19zM310 590q-29 0 -50.5 21t-21.5 51t22 51t52 21q29 0 50.5 -21t21.5 -51t-22 -51t-52 -21z" />
    <glyph glyph-name="hbar.sc" horiz-adv-x="671" 
d="M609 397v-74h-55v-232h77v-91h-265v91h79v117h-219v-117h79v-91h-265v91h77v232h-55v74h55v37h-77v91h265v-88h-79v-44h219v44h-79v88h265v-91h-77v-37h55zM226 285h219v41h-219v-41z" />
    <glyph glyph-name="iacute.sc" horiz-adv-x="349" 
d="M309 0h-269v91h80v343h-80v91h269v-91h-80v-343h80v-91zM163 586l-34 33l110 150q24 31 55 31q20 0 34.5 -14.5t14.5 -36.5q0 -31 -31 -55z" />
    <glyph glyph-name="ibreve.sc" horiz-adv-x="349" 
d="M309 0h-269v91h80v343h-80v91h269v-91h-80v-343h80v-91zM172 600q-62 0 -111.5 43t-72.5 131l69 27q42 -103 115 -103q72 0 115 103l69 -27q-23 -88 -72.5 -131t-111.5 -43z" />
    <glyph glyph-name="icircumflex.sc" horiz-adv-x="349" 
d="M309 0h-269v91h80v343h-80v91h269v-91h-80v-343h80v-91zM43 589l-46 53l177 176l177 -176l-46 -53l-131 96z" />
    <glyph glyph-name="idieresis.sc" horiz-adv-x="349" 
d="M309 0h-269v91h80v343h-80v91h269v-91h-80v-343h80v-91zM276 600q-29 0 -50.5 21t-21.5 51t22 51t52 21q29 0 50.5 -21t21.5 -51t-22 -51t-52 -21zM70 600q-29 0 -50.5 21t-21.5 51t22 51t52 21q29 0 50.5 -21t21.5 -51t-22 -51t-52 -21z" />
    <glyph glyph-name="idotaccent.sc" horiz-adv-x="349" 
d="M309 0h-269v91h80v343h-80v91h269v-91h-80v-343h80v-91zM173 590q-29 0 -50.5 21t-21.5 51t22 51t52 21q29 0 50.5 -21t21.5 -51t-22 -51t-52 -21z" />
    <glyph glyph-name="dotlessi.sc" horiz-adv-x="349" 
d="M309 0h-269v91h80v343h-80v91h269v-91h-80v-343h80v-91z" />
    <glyph glyph-name="igrave.sc" horiz-adv-x="349" 
d="M309 0h-269v91h80v343h-80v91h269v-91h-80v-343h80v-91zM185 586l-149 108q-31 24 -31 55q0 22 14.5 36.5t34.5 14.5q31 0 55 -31l110 -150z" />
    <glyph glyph-name="imacron.sc" horiz-adv-x="349" 
d="M309 0h-269v91h80v343h-80v91h269v-91h-80v-343h80v-91zM7 619v89h334v-89h-334z" />
    <glyph glyph-name="iogonek.sc" horiz-adv-x="349" 
d="M184 -201q-54 0 -84 28.5t-30 74.5q0 56 50 98h-80v91h80v343h-80v91h269v-91h-80v-343h80v-91h-100q-48 -31 -48 -71q0 -46 52 -46q38 0 70 17l-5 -79q-36 -22 -94 -22z" />
    <glyph glyph-name="kcommaaccent.sc" horiz-adv-x="610" 
d="M525 434l-153 -146l132 -197h79v-91h-149l-142 219l-66 -61v-67h76v-91h-262v91h77v343h-77v91h251v-89h-65v-167l175 167h-63v89h241v-91h-54zM238 -328l-26 33q79 62 83 109q-23 6 -36.5 23.5t-13.5 41.5t19.5 42.5t46.5 18.5q30 0 50.5 -21t20.5 -59q0 -44 -35 -95
t-109 -93z" />
    <glyph glyph-name="lacute.sc" horiz-adv-x="497" 
d="M376 91v98h101v-189h-437v91h77v343h-77v91h267v-91h-81v-343h150zM167 576l-34 33l110 150q24 31 55 31q20 0 34.5 -14.5t14.5 -36.5q0 -31 -31 -55z" />
    <glyph glyph-name="lcaron.sc" horiz-adv-x="497" 
d="M376 91v98h101v-189h-437v91h77v343h-77v91h267v-91h-81v-343h150zM369 272l-35 26q42 61 42 112q0 18 -9.5 44t-9.5 46q0 27 17 46t47 19q29 0 45 -19t16 -51q0 -106 -113 -223z" />
    <glyph glyph-name="lcommaaccent.sc" horiz-adv-x="497" 
d="M376 91v98h101v-189h-437v91h77v343h-77v91h267v-91h-81v-343h150zM184 -328l-26 33q79 62 83 109q-23 6 -36.5 23.5t-13.5 41.5t19.5 42.5t46.5 18.5q30 0 50.5 -21t20.5 -59q0 -44 -35 -95t-109 -93z" />
    <glyph glyph-name="ldot.sc" horiz-adv-x="497" 
d="M376 91v98h101v-189h-437v91h77v343h-77v91h267v-91h-81v-343h150zM419 238q-29 0 -50.5 21t-21.5 51t22 51t52 21q29 0 50.5 -21t21.5 -51t-22 -51t-52 -21z" />
    <glyph glyph-name="lslash.sc" horiz-adv-x="497" 
d="M376 91v98h101v-189h-437v91h77v99l-75 -34l-38 76l113 52v150h-77v91h267v-91h-81v-100l99 46l36 -77l-135 -62v-150h150z" />
    <glyph glyph-name="nacute.sc" horiz-adv-x="664" 
d="M209 525l244 -316v225h-75v91h256v-91h-77v-437h-75l-259 341v-247h70v-91h-253v91h77v343h-77v91h169zM322 586l-34 33l110 150q24 31 55 31q20 0 34.5 -14.5t14.5 -36.5q0 -31 -31 -55z" />
    <glyph glyph-name="ncaron.sc" horiz-adv-x="664" 
d="M209 525l244 -316v225h-75v91h256v-91h-77v-437h-75l-259 341v-247h70v-91h-253v91h77v343h-77v91h169zM463 811l46 -53l-177 -176l-177 176l46 53l131 -96z" />
    <glyph glyph-name="ncommaaccent.sc" horiz-adv-x="664" 
d="M209 525l244 -316v225h-75v91h256v-91h-77v-437h-75l-259 341v-247h70v-91h-253v91h77v343h-77v91h169zM259 -328l-26 33q79 62 83 109q-23 6 -36.5 23.5t-13.5 41.5t19.5 42.5t46.5 18.5q30 0 50.5 -21t20.5 -59q0 -44 -35 -95t-109 -93z" />
    <glyph glyph-name="ntilde.sc" horiz-adv-x="664" 
d="M209 525l244 -316v225h-75v91h256v-91h-77v-437h-75l-259 341v-247h70v-91h-253v91h77v343h-77v91h169zM413 601q-48 0 -89 37q-37 33 -60 33q-36 0 -52 -64l-74 19q8 70 42 110.5t77 40.5q48 0 89 -37q37 -33 60 -33q36 0 52 64l74 -19q-8 -70 -42 -110.5t-77 -40.5z
" />
    <glyph glyph-name="oacute.sc" horiz-adv-x="622" 
d="M311 540q123 0 199.5 -79t76.5 -196q0 -119 -76 -198.5t-200 -79.5t-200 79.5t-76 198.5q0 117 76.5 196t199.5 79zM311 86q71 0 118 48.5t47 128.5t-46.5 129t-118.5 49q-71 0 -117.5 -49t-46.5 -129t46.5 -128.5t117.5 -48.5zM302 586l-34 33l110 150q24 31 55 31
q20 0 34.5 -14.5t14.5 -36.5q0 -31 -31 -55z" />
    <glyph glyph-name="obreve.sc" horiz-adv-x="622" 
d="M311 540q123 0 199.5 -79t76.5 -196q0 -119 -76 -198.5t-200 -79.5t-200 79.5t-76 198.5q0 117 76.5 196t199.5 79zM311 86q71 0 118 48.5t47 128.5t-46.5 129t-118.5 49q-71 0 -117.5 -49t-46.5 -129t46.5 -128.5t117.5 -48.5zM311 600q-62 0 -111.5 43t-72.5 131l69 27
q42 -103 115 -103q72 0 115 103l69 -27q-23 -88 -72.5 -131t-111.5 -43z" />
    <glyph glyph-name="ocircumflex.sc" horiz-adv-x="622" 
d="M311 540q123 0 199.5 -79t76.5 -196q0 -119 -76 -198.5t-200 -79.5t-200 79.5t-76 198.5q0 117 76.5 196t199.5 79zM311 86q71 0 118 48.5t47 128.5t-46.5 129t-118.5 49q-71 0 -117.5 -49t-46.5 -129t46.5 -128.5t117.5 -48.5zM182 589l-46 53l177 176l177 -176l-46 -53
l-131 96z" />
    <glyph glyph-name="odieresis.sc" horiz-adv-x="622" 
d="M311 540q123 0 199.5 -79t76.5 -196q0 -119 -76 -198.5t-200 -79.5t-200 79.5t-76 198.5q0 117 76.5 196t199.5 79zM311 86q71 0 118 48.5t47 128.5t-46.5 129t-118.5 49q-71 0 -117.5 -49t-46.5 -129t46.5 -128.5t117.5 -48.5zM415 600q-29 0 -50.5 21t-21.5 51t22 51
t52 21q29 0 50.5 -21t21.5 -51t-22 -51t-52 -21zM209 600q-29 0 -50.5 21t-21.5 51t22 51t52 21q29 0 50.5 -21t21.5 -51t-22 -51t-52 -21z" />
    <glyph glyph-name="oe.sc" horiz-adv-x="778" 
d="M371 91v343h-40q-92 0 -139 -46.5t-47 -128.5q0 -81 50.5 -124.5t141.5 -43.5h34zM347 525h382v-183h-100v94h-149v-133h150v-85h-150v-129h150v90h100v-179h-393q-141 0 -221.5 69t-80.5 189q0 123 80.5 195t231.5 72z" />
    <glyph glyph-name="ograve.sc" horiz-adv-x="622" 
d="M311 540q123 0 199.5 -79t76.5 -196q0 -119 -76 -198.5t-200 -79.5t-200 79.5t-76 198.5q0 117 76.5 196t199.5 79zM311 86q71 0 118 48.5t47 128.5t-46.5 129t-118.5 49q-71 0 -117.5 -49t-46.5 -129t46.5 -128.5t117.5 -48.5zM324 586l-149 108q-31 24 -31 55
q0 22 14.5 36.5t34.5 14.5q31 0 55 -31l110 -150z" />
    <glyph glyph-name="ohungarumlaut.sc" horiz-adv-x="622" 
d="M311 540q123 0 199.5 -79t76.5 -196q0 -119 -76 -198.5t-200 -79.5t-200 79.5t-76 198.5q0 117 76.5 196t199.5 79zM311 86q71 0 118 48.5t47 128.5t-46.5 129t-118.5 49q-71 0 -117.5 -49t-46.5 -129t46.5 -128.5t117.5 -48.5zM172 588l-25 35l146 143q28 28 54 28
q22 0 37 -15t15 -36q0 -39 -44 -62zM390 588l-22 36l163 145q27 24 53 24q21 0 35.5 -15.5t14.5 -36.5q0 -37 -45 -60z" />
    <glyph glyph-name="omacron.sc" horiz-adv-x="622" 
d="M311 540q123 0 199.5 -79t76.5 -196q0 -119 -76 -198.5t-200 -79.5t-200 79.5t-76 198.5q0 117 76.5 196t199.5 79zM311 86q71 0 118 48.5t47 128.5t-46.5 129t-118.5 49q-71 0 -117.5 -49t-46.5 -129t46.5 -128.5t117.5 -48.5zM146 619v89h334v-89h-334z" />
    <glyph glyph-name="oslash.sc" horiz-adv-x="622" 
d="M311 -13q-85 0 -149 39l-59 -67l-71 62l60 67q-57 74 -57 177q0 117 76.5 196t199.5 79q88 0 156 -44l64 72l71 -62l-68 -73q53 -73 53 -168q0 -119 -76 -198.5t-200 -79.5zM147 263q0 -61 26 -102l227 254q-38 26 -89 26q-71 0 -117.5 -49t-46.5 -129zM311 86
q71 0 118 48.5t47 128.5q0 54 -23 95l-226 -251q36 -21 84 -21z" />
    <glyph glyph-name="oslashacute.sc" horiz-adv-x="622" 
d="M311 -13q-85 0 -149 39l-59 -67l-71 62l60 67q-57 74 -57 177q0 117 76.5 196t199.5 79q88 0 156 -44l64 72l71 -62l-68 -73q53 -73 53 -168q0 -119 -76 -198.5t-200 -79.5zM147 263q0 -61 26 -102l227 254q-38 26 -89 26q-71 0 -117.5 -49t-46.5 -129zM311 86
q71 0 118 48.5t47 128.5q0 54 -23 95l-226 -251q36 -21 84 -21zM306 586l-34 33l110 150q24 31 55 31q20 0 34.5 -14.5t14.5 -36.5q0 -31 -31 -55z" />
    <glyph glyph-name="otilde.sc" horiz-adv-x="622" 
d="M311 540q123 0 199.5 -79t76.5 -196q0 -119 -76 -198.5t-200 -79.5t-200 79.5t-76 198.5q0 117 76.5 196t199.5 79zM311 86q71 0 118 48.5t47 128.5t-46.5 129t-118.5 49q-71 0 -117.5 -49t-46.5 -129t46.5 -128.5t117.5 -48.5zM393 601q-48 0 -89 37q-37 33 -60 33
q-36 0 -52 -64l-74 19q8 70 42 110.5t77 40.5q48 0 89 -37q37 -33 60 -33q36 0 52 64l74 -19q-8 -70 -42 -110.5t-77 -40.5z" />
    <glyph glyph-name="racute.sc" horiz-adv-x="568" 
d="M284 434h-58v-151q27 -3 63 -3q49 0 77 21.5t28 57.5q0 35 -29 55t-81 20zM226 191v-100h70v-91h-256v91h77v343h-77v91h251q97 0 155.5 -42t58.5 -123q0 -46 -25 -83t-66 -58l62 -128h72v-91h-153l-86 192q-19 -2 -39 -2q-30 0 -44 1zM265 586l-34 33l110 150
q24 31 55 31q20 0 34.5 -14.5t14.5 -36.5q0 -31 -31 -55z" />
    <glyph glyph-name="rcaron.sc" horiz-adv-x="568" 
d="M284 434h-58v-151q27 -3 63 -3q49 0 77 21.5t28 57.5q0 35 -29 55t-81 20zM226 191v-100h70v-91h-256v91h77v343h-77v91h251q97 0 155.5 -42t58.5 -123q0 -46 -25 -83t-66 -58l62 -128h72v-91h-153l-86 192q-19 -2 -39 -2q-30 0 -44 1zM406 811l46 -53l-177 -176
l-177 176l46 53l131 -96z" />
    <glyph glyph-name="rcommaaccent.sc" horiz-adv-x="568" 
d="M284 434h-58v-151q27 -3 63 -3q49 0 77 21.5t28 57.5q0 35 -29 55t-81 20zM226 191v-100h70v-91h-256v91h77v343h-77v91h251q97 0 155.5 -42t58.5 -123q0 -46 -25 -83t-66 -58l62 -128h72v-91h-153l-86 192q-19 -2 -39 -2q-30 0 -44 1zM214 -328l-26 33q79 62 83 109
q-23 6 -36.5 23.5t-13.5 41.5t19.5 42.5t46.5 18.5q30 0 50.5 -21t20.5 -59q0 -44 -35 -95t-109 -93z" />
    <glyph glyph-name="sacute.sc" horiz-adv-x="510" 
d="M326 405q0 15 6 27q-30 18 -78 18q-37 0 -60 -15.5t-23 -43.5q0 -7 2 -13t6 -11.5t8 -9.5t12 -8.5t13 -7t14.5 -6t14 -5.5t15.5 -5.5t14 -4.5q39 -13 59.5 -20.5t51 -23t45.5 -31t27 -40.5t12 -56q0 -80 -56.5 -121t-152.5 -41q-86 0 -148.5 40t-62.5 98q0 33 17.5 52.5
t48.5 19.5t51.5 -19.5t20.5 -44.5q0 -20 -7 -34q30 -22 85 -22q98 0 98 62q0 15 -8.5 27t-27.5 21.5t-31.5 14t-37.5 12.5q-51 16 -76.5 26.5t-57 30t-45 46.5t-13.5 64q0 70 55 114.5t145 44.5q86 0 142.5 -37t56.5 -92q0 -32 -17.5 -50.5t-45.5 -18.5q-34 0 -53 19t-19 44
zM250 586l-34 33l110 150q24 31 55 31q20 0 34.5 -14.5t14.5 -36.5q0 -31 -31 -55z" />
    <glyph glyph-name="scaron.sc" horiz-adv-x="510" 
d="M326 405q0 15 6 27q-30 18 -78 18q-37 0 -60 -15.5t-23 -43.5q0 -7 2 -13t6 -11.5t8 -9.5t12 -8.5t13 -7t14.5 -6t14 -5.5t15.5 -5.5t14 -4.5q39 -13 59.5 -20.5t51 -23t45.5 -31t27 -40.5t12 -56q0 -80 -56.5 -121t-152.5 -41q-86 0 -148.5 40t-62.5 98q0 33 17.5 52.5
t48.5 19.5t51.5 -19.5t20.5 -44.5q0 -20 -7 -34q30 -22 85 -22q98 0 98 62q0 15 -8.5 27t-27.5 21.5t-31.5 14t-37.5 12.5q-51 16 -76.5 26.5t-57 30t-45 46.5t-13.5 64q0 70 55 114.5t145 44.5q86 0 142.5 -37t56.5 -92q0 -32 -17.5 -50.5t-45.5 -18.5q-34 0 -53 19t-19 44
zM391 811l46 -53l-177 -176l-177 176l46 53l131 -96z" />
    <glyph glyph-name="scedilla.sc" horiz-adv-x="510" 
d="M269 -200q-68 0 -125 34l17 33q49 -21 88 -21t39 26t-59 26l-11 -1l-21 25l27 67q-76 8 -127.5 46t-51.5 90q0 33 17.5 52.5t48.5 19.5t51.5 -19.5t20.5 -44.5q0 -20 -7 -34q30 -22 85 -22q98 0 98 62q0 15 -8.5 27t-27.5 21.5t-31.5 14t-37.5 12.5q-51 16 -76.5 26.5
t-57 30t-45 46.5t-13.5 64q0 70 55 114.5t145 44.5q86 0 142.5 -37t56.5 -92q0 -32 -17.5 -50.5t-45.5 -18.5q-34 0 -53 19t-19 44q0 15 6 27q-30 18 -78 18q-37 0 -60 -15.5t-23 -43.5q0 -7 2 -13t6 -11.5t8 -9.5t12 -8.5t13 -7t14.5 -6t14 -5.5t15.5 -5.5t14 -4.5
q39 -13 59.5 -20.5t51 -23t45.5 -31t27 -40.5t12 -56q0 -77 -51.5 -117t-139.5 -44l4 -32q48 -6 77 -27t29 -53q0 -30 -31.5 -53t-83.5 -23z" />
    <glyph glyph-name="scommaaccent.sc" horiz-adv-x="510" 
d="M326 405q0 15 6 27q-30 18 -78 18q-37 0 -60 -15.5t-23 -43.5q0 -7 2 -13t6 -11.5t8 -9.5t12 -8.5t13 -7t14.5 -6t14 -5.5t15.5 -5.5t14 -4.5q39 -13 59.5 -20.5t51 -23t45.5 -31t27 -40.5t12 -56q0 -80 -56.5 -121t-152.5 -41q-86 0 -148.5 40t-62.5 98q0 33 17.5 52.5
t48.5 19.5t51.5 -19.5t20.5 -44.5q0 -20 -7 -34q30 -22 85 -22q98 0 98 62q0 15 -8.5 27t-27.5 21.5t-31.5 14t-37.5 12.5q-51 16 -76.5 26.5t-57 30t-45 46.5t-13.5 64q0 70 55 114.5t145 44.5q86 0 142.5 -37t56.5 -92q0 -32 -17.5 -50.5t-45.5 -18.5q-34 0 -53 19t-19 44
zM187 -328l-26 33q79 62 83 109q-23 6 -36.5 23.5t-13.5 41.5t19.5 42.5t46.5 18.5q30 0 50.5 -21t20.5 -59q0 -44 -35 -95t-109 -93z" />
    <glyph glyph-name="tcaron.sc" horiz-adv-x="545" 
d="M138 0v91h80v346h-95v-106h-100v194h499v-194h-100v106h-95v-346h80v-91h-269zM402 811l46 -53l-177 -176l-177 176l46 53l131 -96z" />
    <glyph glyph-name="tcommaaccent.sc" horiz-adv-x="545" 
d="M138 0v91h80v346h-95v-106h-100v194h499v-194h-100v106h-95v-346h80v-91h-269zM198 -328l-26 33q79 62 83 109q-23 6 -36.5 23.5t-13.5 41.5t19.5 42.5t46.5 18.5q30 0 50.5 -21t20.5 -59q0 -44 -35 -95t-109 -93z" />
    <glyph glyph-name="thorn.sc" horiz-adv-x="503" 
d="M226 397q31 1 72 1q79 0 129.5 -32.5t50.5 -99.5q0 -70 -51 -103t-133 -33q-37 0 -68 1v-42h79v-89h-265v91h77v343h-77v91h265v-89h-79v-39zM226 215q19 -1 75 -1q30 0 51.5 12t21.5 36q0 26 -21 38t-52 12q-51 0 -75 -1v-96z" />
    <glyph glyph-name="uacute.sc" horiz-adv-x="624" 
d="M208 434v-233q0 -58 28 -90.5t77 -32.5q50 0 77.5 31t27.5 89v236h-74v91h255v-91h-74v-228q0 -108 -57.5 -164t-155.5 -56q-100 0 -156.5 55t-56.5 162v231h-74v91h257v-91h-74zM301 586l-34 33l110 150q24 31 55 31q20 0 34.5 -14.5t14.5 -36.5q0 -31 -31 -55z" />
    <glyph glyph-name="ubreve.sc" horiz-adv-x="624" 
d="M208 434v-233q0 -58 28 -90.5t77 -32.5q50 0 77.5 31t27.5 89v236h-74v91h255v-91h-74v-228q0 -108 -57.5 -164t-155.5 -56q-100 0 -156.5 55t-56.5 162v231h-74v91h257v-91h-74zM310 600q-62 0 -111.5 43t-72.5 131l69 27q42 -103 115 -103q72 0 115 103l69 -27
q-23 -88 -72.5 -131t-111.5 -43z" />
    <glyph glyph-name="ucircumflex.sc" horiz-adv-x="624" 
d="M208 434v-233q0 -58 28 -90.5t77 -32.5q50 0 77.5 31t27.5 89v236h-74v91h255v-91h-74v-228q0 -108 -57.5 -164t-155.5 -56q-100 0 -156.5 55t-56.5 162v231h-74v91h257v-91h-74zM181 589l-46 53l177 176l177 -176l-46 -53l-131 96z" />
    <glyph glyph-name="udieresis.sc" horiz-adv-x="624" 
d="M208 434v-233q0 -58 28 -90.5t77 -32.5q50 0 77.5 31t27.5 89v236h-74v91h255v-91h-74v-228q0 -108 -57.5 -164t-155.5 -56q-100 0 -156.5 55t-56.5 162v231h-74v91h257v-91h-74zM414 600q-29 0 -50.5 21t-21.5 51t22 51t52 21q29 0 50.5 -21t21.5 -51t-22 -51t-52 -21z
M208 600q-29 0 -50.5 21t-21.5 51t22 51t52 21q29 0 50.5 -21t21.5 -51t-22 -51t-52 -21z" />
    <glyph glyph-name="ugrave.sc" horiz-adv-x="624" 
d="M208 434v-233q0 -58 28 -90.5t77 -32.5q50 0 77.5 31t27.5 89v236h-74v91h255v-91h-74v-228q0 -108 -57.5 -164t-155.5 -56q-100 0 -156.5 55t-56.5 162v231h-74v91h257v-91h-74zM323 586l-149 108q-31 24 -31 55q0 22 14.5 36.5t34.5 14.5q31 0 55 -31l110 -150z" />
    <glyph glyph-name="uhungarumlaut.sc" horiz-adv-x="624" 
d="M208 434v-233q0 -58 28 -90.5t77 -32.5q50 0 77.5 31t27.5 89v236h-74v91h255v-91h-74v-228q0 -108 -57.5 -164t-155.5 -56q-100 0 -156.5 55t-56.5 162v231h-74v91h257v-91h-74zM171 588l-25 35l146 143q28 28 54 28q22 0 37 -15t15 -36q0 -39 -44 -62zM389 588l-22 36
l163 145q27 24 53 24q21 0 35.5 -15.5t14.5 -36.5q0 -37 -45 -60z" />
    <glyph glyph-name="umacron.sc" horiz-adv-x="624" 
d="M208 434v-233q0 -58 28 -90.5t77 -32.5q50 0 77.5 31t27.5 89v236h-74v91h255v-91h-74v-228q0 -108 -57.5 -164t-155.5 -56q-100 0 -156.5 55t-56.5 162v231h-74v91h257v-91h-74zM145 619v89h334v-89h-334z" />
    <glyph glyph-name="uogonek.sc" horiz-adv-x="624" 
d="M208 434v-233q0 -58 28 -90.5t77 -32.5q50 0 77.5 31t27.5 89v236h-74v91h255v-91h-74v-228q0 -101 -50.5 -156.5t-137.5 -62.5q-31 -28 -31 -58q0 -46 52 -46q38 0 70 17l-5 -79q-36 -22 -94 -22q-54 0 -84 28.5t-30 74.5q0 50 41 89q-75 14 -116 67.5t-41 144.5v231
h-74v91h257v-91h-74z" />
    <glyph glyph-name="uring.sc" horiz-adv-x="624" 
d="M208 434v-233q0 -58 28 -90.5t77 -32.5q50 0 77.5 31t27.5 89v236h-74v91h255v-91h-74v-228q0 -108 -57.5 -164t-155.5 -56q-100 0 -156.5 55t-56.5 162v231h-74v91h257v-91h-74zM312 581q-56 0 -95 37.5t-39 92.5t39 92.5t95 37.5t95 -37.5t39 -92.5t-39 -92.5
t-95 -37.5zM312 652q23 0 37.5 17.5t14.5 41.5t-14.5 41.5t-37.5 17.5t-37.5 -17.5t-14.5 -41.5t14.5 -41.5t37.5 -17.5z" />
    <glyph glyph-name="wacute.sc" horiz-adv-x="815" 
d="M215 -7l-138 441h-65v91h257v-91h-76l78 -268l114 296h53l114 -295l79 267h-79v91h251v-91h-65l-138 -441h-79l-114 289l-113 -289h-79zM397 586l-34 33l110 150q24 31 55 31q20 0 34.5 -14.5t14.5 -36.5q0 -31 -31 -55z" />
    <glyph glyph-name="wcircumflex.sc" horiz-adv-x="815" 
d="M215 -7l-138 441h-65v91h257v-91h-76l78 -268l114 296h53l114 -295l79 267h-79v91h251v-91h-65l-138 -441h-79l-114 289l-113 -289h-79zM277 589l-46 53l177 176l177 -176l-46 -53l-131 96z" />
    <glyph glyph-name="wdieresis.sc" horiz-adv-x="815" 
d="M215 -7l-138 441h-65v91h257v-91h-76l78 -268l114 296h53l114 -295l79 267h-79v91h251v-91h-65l-138 -441h-79l-114 289l-113 -289h-79zM510 600q-29 0 -50.5 21t-21.5 51t22 51t52 21q29 0 50.5 -21t21.5 -51t-22 -51t-52 -21zM304 600q-29 0 -50.5 21t-21.5 51t22 51
t52 21q29 0 50.5 -21t21.5 -51t-22 -51t-52 -21z" />
    <glyph glyph-name="wgrave.sc" horiz-adv-x="815" 
d="M215 -7l-138 441h-65v91h257v-91h-76l78 -268l114 296h53l114 -295l79 267h-79v91h251v-91h-65l-138 -441h-79l-114 289l-113 -289h-79zM419 586l-149 108q-31 24 -31 55q0 22 14.5 36.5t34.5 14.5q31 0 55 -31l110 -150z" />
    <glyph glyph-name="yacute.sc" horiz-adv-x="543" 
d="M537 525v-91h-55l-156 -242v-101h80v-91h-269v91h80v101l-156 242h-55v91h238v-89h-68l98 -159l99 159h-72v89h236zM260 586l-34 33l110 150q24 31 55 31q20 0 34.5 -14.5t14.5 -36.5q0 -31 -31 -55z" />
    <glyph glyph-name="ycircumflex.sc" horiz-adv-x="543" 
d="M537 525v-91h-55l-156 -242v-101h80v-91h-269v91h80v101l-156 242h-55v91h238v-89h-68l98 -159l99 159h-72v89h236zM140 589l-46 53l177 176l177 -176l-46 -53l-131 96z" />
    <glyph glyph-name="ydieresis.sc" horiz-adv-x="543" 
d="M537 525v-91h-55l-156 -242v-101h80v-91h-269v91h80v101l-156 242h-55v91h238v-89h-68l98 -159l99 159h-72v89h236zM373 600q-29 0 -50.5 21t-21.5 51t22 51t52 21q29 0 50.5 -21t21.5 -51t-22 -51t-52 -21zM167 600q-29 0 -50.5 21t-21.5 51t22 51t52 21q29 0 50.5 -21
t21.5 -51t-22 -51t-52 -21z" />
    <glyph glyph-name="ygrave.sc" horiz-adv-x="543" 
d="M537 525v-91h-55l-156 -242v-101h80v-91h-269v91h80v101l-156 242h-55v91h238v-89h-68l98 -159l99 159h-72v89h236zM282 586l-149 108q-31 24 -31 55q0 22 14.5 36.5t34.5 14.5q31 0 55 -31l110 -150z" />
    <glyph glyph-name="zacute.sc" 
d="M41 0v63l296 374h-190v-102h-92v190h432v-63l-295 -374h203v101h92v-189h-446zM253 586l-34 33l110 150q24 31 55 31q20 0 34.5 -14.5t14.5 -36.5q0 -31 -31 -55z" />
    <glyph glyph-name="zcaron.sc" 
d="M41 0v63l296 374h-190v-102h-92v190h432v-63l-295 -374h203v101h92v-189h-446zM394 811l46 -53l-177 -176l-177 176l46 53l131 -96z" />
    <glyph glyph-name="zdotaccent.sc" 
d="M41 0v63l296 374h-190v-102h-92v190h432v-63l-295 -374h203v101h92v-189h-446zM263 590q-29 0 -50.5 21t-21.5 51t22 51t52 21q29 0 50.5 -21t21.5 -51t-22 -51t-52 -21z" />
    <glyph glyph-name="zero.lin" horiz-adv-x="663" 
d="M330 -12q-116 0 -197.5 96t-81.5 244q0 151 82 246.5t200 95.5q116 0 197.5 -96t81.5 -244q0 -150 -82 -246t-200 -96zM331 93q75 0 119.5 66t44.5 169q0 104 -44.5 170.5t-119.5 66.5q-74 0 -118.5 -66t-44.5 -169q0 -104 44.5 -170.5t118.5 -66.5z" />
    <glyph glyph-name="one.lin" horiz-adv-x="437" 
d="M57 0v101h118v441l-108 -26l-26 96l190 49h57v-560h116v-101h-347z" />
    <glyph glyph-name="two.lin" horiz-adv-x="584" 
d="M57 497q0 39 20 73q26 45 83 72.5t133 27.5q97 0 163.5 -54.5t66.5 -139.5q0 -37 -13 -68.5t-39 -57.5t-47.5 -42t-57.5 -38q-141 -88 -190 -175h267v110h95v-205h-467q-2 0 -10.5 13t-16.5 26l-7 13q22 54 53 100t69.5 82t66.5 57.5t67 47.5q40 27 59.5 42.5t36.5 41.5
t17 55q0 39 -34.5 66t-87.5 27q-80 0 -113 -38q30 -20 30 -56q0 -29 -20.5 -49t-48.5 -20q-37 0 -56 25.5t-19 63.5z" />
    <glyph glyph-name="three.lin" horiz-adv-x="568" 
d="M273 84q55 0 94.5 26.5t39.5 70.5q0 66 -68 91q-43 16 -108 16h-42v101h45q66 0 106 21q53 28 53 84q0 39 -35 59.5t-84 20.5q-61 0 -92 -22q13 -18 13 -39q0 -28 -20.5 -48t-48.5 -20q-29 0 -50 22.5t-21 58.5q0 29 23 61q62 83 200 83q99 0 165.5 -49t66.5 -123
q0 -85 -77 -132q-25 -16 -58 -23q33 -10 59 -25q90 -51 90 -144q0 -84 -73 -135t-179 -51q-71 0 -130 25.5t-89 65.5q-24 32 -24 66q0 33 20 55.5t51 22.5q29 0 49 -19.5t20 -48.5q0 -23 -13 -41q40 -30 117 -30z" />
    <glyph glyph-name="four.lin" horiz-adv-x="586" 
d="M235 0v92h111v96h-302l-27 54l360 440l82 -65l-284 -340h171v106l113 45v-149h101v-93h-101v-91h76v-95h-300z" />
    <glyph glyph-name="five.lin" horiz-adv-x="540" 
d="M256 86q66 0 103 36t37 93q0 50 -37 83t-104 33q-76 0 -130 -29l-51 28l30 328h362v-104h-270l-12 -134q50 10 88 10q99 0 166.5 -59t67.5 -156q0 -99 -68.5 -163t-172.5 -64q-122 0 -184 58q-35 34 -35 74q0 32 20 52.5t51 20.5q32 0 51 -20t19 -48q0 -10 -4 -26
q27 -13 73 -13z" />
    <glyph glyph-name="six.lin" horiz-adv-x="584" 
d="M523 547q0 -36 -19.5 -53.5t-48.5 -17.5q-33 0 -51 20t-18 46q0 8 2 22q-24 8 -55 8q-72 0 -122.5 -63t-51.5 -160q10 10 22 19q60 46 137 46q101 0 168 -59.5t67 -148.5q0 -92 -70.5 -155t-175.5 -63q-108 0 -179 71q-79 79 -79 247t81 266t203 98q90 0 145 -41
q45 -34 45 -82zM309 85q54 0 91.5 35t37.5 83q0 52 -38.5 83t-100.5 31q-56 0 -94.5 -31t-38.5 -78q0 -51 42 -87q43 -36 101 -36z" />
    <glyph glyph-name="seven.lin" horiz-adv-x="513" 
d="M102 0l267 563h-234v-126h-101v221h435l28 -62l-273 -596h-122z" />
    <glyph glyph-name="eight.lin" horiz-adv-x="578" 
d="M288 -12q-115 0 -183 54.5t-68 135.5q0 55 32.5 99.5t94.5 61.5q-54 19 -83 57.5t-29 86.5q0 80 66.5 133.5t169.5 53.5t170.5 -54t67.5 -133q0 -48 -30 -86.5t-84 -57.5q62 -17 95.5 -61.5t33.5 -99.5q0 -81 -69 -135.5t-184 -54.5zM288 379q48 0 82.5 28t34.5 69
q0 44 -33 70.5t-84 26.5t-83.5 -26.5t-32.5 -70.5q0 -41 34 -69t82 -28zM288 86q59 0 96 29.5t37 72.5t-37.5 74t-95.5 31t-95 -31t-37 -74t36.5 -72.5t95.5 -29.5z" />
    <glyph glyph-name="nine.lin" horiz-adv-x="584" 
d="M62 111q0 36 19.5 53.5t48.5 17.5q33 0 51 -20t18 -46q0 -4 -3 -22q22 -8 56 -8q72 0 122.5 64t51.5 159q-29 -30 -72 -47.5t-87 -17.5q-101 0 -168 59.5t-67 148.5q0 92 70.5 155t175.5 63q108 0 179 -71q79 -79 79 -247t-81 -266t-203 -98q-90 0 -145 41q-45 34 -45 82
zM286 341q56 0 94.5 31t38.5 78q0 50 -41 86q-42 37 -102 37q-54 0 -91.5 -35t-37.5 -83q0 -52 38.5 -83t100.5 -31z" />
    <glyph glyph-name="bullet.alt" horiz-adv-x="641" 
d="M320 -49q-126 0 -202.5 79.5t-76.5 193.5q0 112 77.5 192t201.5 80q126 0 203 -79t77 -193q0 -112 -77.5 -192.5t-202.5 -80.5z" />
    <glyph glyph-name="hyphen.lin" horiz-adv-x="374" 
d="M42 277v112h290v-112h-290z" />
    <glyph glyph-name="endash.lin" horiz-adv-x="569" 
d="M22 282v102h525v-102h-525z" />
    <glyph glyph-name="emdash.lin" horiz-adv-x="855" 
d="M22 282v102h811v-102h-811z" />
    <glyph glyph-name="parenleft.lin" horiz-adv-x="440" 
d="M385 -167q-38 19 -76.5 46.5t-82.5 72t-77.5 96.5t-55.5 123.5t-22 149.5t22 149.5t55.5 123.5t77.5 96.5t82.5 72t76.5 46.5l52 -77q-39 -25 -69.5 -49t-65.5 -61.5t-57.5 -78.5t-38 -98.5t-15.5 -123.5t15.5 -123.5t38 -98.5t57.5 -78.5t65.5 -61.5t69.5 -49z" />
    <glyph glyph-name="parenright.lin" horiz-adv-x="440" 
d="M55 -167l-52 77q39 25 69.5 49t65.5 61.5t57.5 78.5t38 98.5t15.5 123.5t-15.5 123.5t-38 98.5t-57.5 78.5t-65.5 61.5t-69.5 49l52 77q38 -19 76.5 -46.5t82.5 -72t77.5 -96.5t55.5 -123.5t22 -149.5t-22 -149.5t-55.5 -123.5t-77.5 -96.5t-82.5 -72t-76.5 -46.5z" />
    <glyph glyph-name="bracketleft.lin" horiz-adv-x="381" 
d="M91 -140v932h260v-94h-162v-743h162v-95h-260z" />
    <glyph glyph-name="bracketright.lin" horiz-adv-x="381" 
d="M30 -140v95h162v743h-162v94h260v-932h-260z" />
    <glyph glyph-name="braceleft.lin" horiz-adv-x="388" 
d="M343 -157q-141 4 -205.5 47.5t-64.5 115.5q0 45 21 77.5t61 66.5q23 21 33 35t10 33q0 26 -27.5 43t-82.5 17h-29v92h29q55 0 82.5 17t27.5 43q0 19 -10 33t-33 35q-40 34 -61 66.5t-21 77.5q0 72 64.5 115.5t205.5 47.5v-83q-167 -10 -167 -81q0 -28 59 -87
q38 -38 57 -67t19 -61q0 -41 -32.5 -67t-88.5 -35q56 -9 88.5 -35t32.5 -67q0 -32 -19 -61t-57 -67q-59 -59 -59 -87q0 -71 167 -81v-83z" />
    <glyph glyph-name="braceright.lin" horiz-adv-x="388" 
d="M45 -157v83q167 10 167 81q0 28 -59 87q-38 38 -57 67t-19 61q0 41 32.5 67t88.5 35q-56 9 -88.5 35t-32.5 67q0 32 19 61t57 67q59 59 59 87q0 71 -167 81v83q141 -4 205.5 -47.5t64.5 -115.5q0 -45 -21 -77.5t-61 -66.5q-23 -21 -33 -35t-10 -33q0 -26 27.5 -43
t82.5 -17h29v-92h-29q-55 0 -82.5 -17t-27.5 -43q0 -19 10 -33t33 -35q40 -34 61 -66.5t21 -77.5q0 -72 -64.5 -115.5t-205.5 -47.5z" />
    <glyph glyph-name="registered.alt" horiz-adv-x="620" 
d="M300 -8q-113 0 -191.5 78.5t-78.5 191.5t78.5 192t191.5 79t191.5 -79t78.5 -192q0 -112 -79 -191t-191 -79zM300 38q90 0 154 65.5t64 158.5q0 95 -63 160t-155 65t-155 -65t-63 -160t63 -159.5t155 -64.5zM304 135h-108v41h30v182h-30v40h102q47 0 75.5 -20t28.5 -59
q0 -51 -50 -72l41 -71h30v-41h-61l-53 100h-38v-59h33v-41zM296 358h-25v-84h26q27 0 42.5 11.5t15.5 31.5q0 41 -59 41z" />
    <glyph glyph-name="copyright.lin" horiz-adv-x="782" 
d="M391 -12q-140 0 -237 99.5t-97 241.5t97 241.5t237 99.5t237 -99.5t97 -241.5t-97 -241.5t-237 -99.5zM391 37q121 0 200.5 85t79.5 207t-79.5 207t-200.5 85t-200.5 -85t-79.5 -207t79.5 -207t200.5 -85zM397 444q-43 0 -74 -30.5t-31 -77.5q0 -45 29 -76t72 -31
q58 0 97 42l43 -44q-46 -62 -140 -62q-69 0 -120 47.5t-51 123.5q0 71 52.5 120.5t123.5 49.5q59 0 96.5 -26t37.5 -57q0 -18 -13 -31.5t-30 -13.5t-28.5 12t-11.5 28q0 10 3 13q-17 13 -55 13z" />
    <glyph glyph-name="published.lin" horiz-adv-x="782" 
d="M391 -12q-140 0 -237 99.5t-97 241.5t97 241.5t237 99.5t237 -99.5t97 -241.5t-97 -241.5t-237 -99.5zM391 37q121 0 200.5 85t79.5 207t-79.5 207t-200.5 85t-200.5 -85t-79.5 -207t79.5 -207t200.5 -85zM400 269h-26v-48h39v-58h-139v58h35v213h-35v58h135
q54 0 89.5 -30t35.5 -80q0 -57 -36 -85t-98 -28zM406 322q29 0 45 16.5t16 43.5q0 23 -17.5 37.5t-45.5 14.5h-30v-111q8 -1 32 -1z" />
    <glyph glyph-name="registered.lin" horiz-adv-x="782" 
d="M391 -12q-140 0 -237 99.5t-97 241.5t97 241.5t237 99.5t237 -99.5t97 -241.5t-97 -241.5t-237 -99.5zM391 37q121 0 200.5 85t79.5 207t-79.5 207t-200.5 85t-200.5 -85t-79.5 -207t79.5 -207t200.5 -85zM360 293v-63h41v-58h-141v58h36v213h-36v58h129q60 0 96.5 -25.5
t36.5 -75.5q0 -66 -57 -90l42 -80h36v-58h-80l-60 121h-43zM360 345h36q27 0 43 13t16 36q0 49 -62 49h-33v-98z" />
    <glyph glyph-name="dollar.lin" horiz-adv-x="601" 
d="M304 -105l-88 7l9 104q-81 14 -133 53t-52 88q0 35 21.5 57t52.5 22q29 0 48 -20t19 -45q0 -22 -9 -40q18 -14 69 -23l17 195q-86 24 -138.5 65.5t-52.5 118.5q0 76 60 126t161 54l8 94l88 -7l-8 -92q76 -12 123.5 -47.5t47.5 -83.5q0 -34 -19 -54t-48 -20
q-33 0 -52.5 20t-19.5 47q0 17 7 31q-18 10 -57 16l-16 -184q101 -26 156 -67.5t55 -119.5q0 -88 -66 -137.5t-174 -52.5zM440 185q0 35 -26 55t-83 36l-16 -183q55 4 90 28.5t35 63.5zM181 481q0 -33 23 -53t65 -33l15 169q-45 -5 -74 -28t-29 -55z" />
    <glyph glyph-name="sterling.lin" horiz-adv-x="598" 
d="M23 48q0 82 131 68q33 34 33 107v9h-135v93h117l-6 17q-34 88 -34 126q0 86 63.5 143.5t156.5 57.5q77 0 133 -39t56 -93q0 -30 -19.5 -54t-51.5 -24q-31 0 -50 18.5t-19 44.5q0 21 9 35q-19 19 -61 19q-45 0 -77 -30t-32 -79t25 -114q1 -3 4.5 -12.5t5.5 -15.5h190v-93
h-174v-6q0 -77 -34 -107q46 0 85 -11q69 -19 94 -19q29 0 46 13.5t39 51.5l71 -39q-22 -69 -57.5 -97t-96.5 -28q-50 0 -122 25q-56 19 -124 20q-39 -47 -97 -47q-34 0 -51.5 16t-17.5 44z" />
    <glyph glyph-name="Euro.lin" horiz-adv-x="716" 
d="M42 363v93h101q33 99 111 156.5t180 57.5q98 0 164.5 -56.5t66.5 -119.5q0 -37 -22 -62t-55 -25q-29 0 -50 21t-21 50q0 32 23 52q-33 35 -108 35q-130 0 -180 -114h204v-86h-224q-2 -26 -2 -38q0 -28 2 -41h224v-86h-202q48 -106 168 -106q97 0 180 80l65 -73
q-97 -112 -246 -112q-96 0 -170.5 54.5t-107.5 151.5h-101v93h85q-2 24 -2 39q0 12 2 36h-85z" />
    <glyph glyph-name="yen.lin" horiz-adv-x="645" 
d="M183 1v82h83v51h-159v82h159v59h-159v82h102l-135 208h-61v93h249v-93h-63l126 -216l125 216h-67v93h249v-93h-61l-136 -208h103v-82h-159v-59h159v-82h-159v-51h83v-82h-279z" />
    <glyph glyph-name="cent.lin" horiz-adv-x="529" 
d="M201 -17l14 147q-81 21 -126 81t-45 140q0 82 60 146.5t154 74.5l9 102l80 -7l-9 -98q68 -13 112.5 -53t44.5 -84q0 -33 -20 -52t-47 -19q-26 0 -44 18.5t-18 43.5q0 21 14 41q-23 19 -55 24l-26 -281h8q89 0 174 46l-8 -93q-70 -40 -177 -40h-2l-13 -144zM151 349
q0 -40 20.5 -74t57.5 -52l24 264q-46 -10 -74 -45.5t-28 -92.5z" />
    <glyph glyph-name="numbersign.lin" horiz-adv-x="624" 
d="M60 387v100h110l26 171h112l-26 -171h110l26 171h112l-26 -171h98v-100h-114l-19 -128h95l-6 -100h-104l-24 -159h-112l24 159h-110l-24 -159h-112l24 159h-98v100h113l19 128h-94zM262 392l-21 -138h120l21 138h-120z" />
    <glyph glyph-name="paragraph.lin" horiz-adv-x="749" 
d="M234 0v101h102v117q-18 -1 -41 -1q-120 0 -191 58t-71 168q0 98 70.5 156.5t178.5 58.5h434v-101h-75v-456h75v-101h-482zM446 96h85v466h-85v-466z" />
    <glyph glyph-name="section.lin" horiz-adv-x="535" 
d="M127 157q30 0 48.5 -17.5t18.5 -45.5q0 -7 -1 -14q23 -9 69 -9q83 0 83 45q0 31 -106 61q-9 3 -13 4q-94 27 -142 56.5t-48 81.5q0 78 94 113q-59 34 -59 101q0 52 54 94.5t148 42.5q80 0 133 -25q64 -30 64 -84q0 -25 -17.5 -43t-44.5 -18q-30 0 -48.5 17.5t-18.5 45.5
v15q-24 8 -68 8q-83 0 -83 -45q0 -31 106 -61q9 -3 13 -4q94 -27 142 -56.5t48 -81.5q0 -79 -94 -113q59 -36 59 -101q0 -52 -54 -94.5t-148 -42.5q-115 0 -168 47q-29 26 -29 62q0 25 17.5 43t44.5 18zM270 383q-29 6 -50 13q-69 -25 -69 -59q0 -21 26 -34t88 -29
q4 -1 48 -13q71 24 71 59q0 21 -26.5 34.5t-87.5 28.5z" />
    <glyph glyph-name="ordfeminine.lin" horiz-adv-x="356" 
d="M116 449q-36 0 -60.5 19.5t-24.5 54.5q0 36 29 57.5t76 21.5q42 0 67 -7v20q0 29 -17 43q-16 12 -45 12q-15 0 -27 -4q3 -6 3 -14q0 -15 -10 -24.5t-25 -9.5t-24.5 10t-9.5 26q0 26 27 46t77 20q48 0 77 -19q38 -25 38 -82v-111h39v-54h-102v29q-40 -34 -88 -34zM39 332
v60h267v-60h-267zM137 497q33 0 66 23v41q-22 6 -54 6q-51 0 -51 -38q0 -32 39 -32z" />
    <glyph glyph-name="ordmasculine.lin" horiz-adv-x="348" 
d="M45 332v60h258v-60h-258zM174 449q-63 0 -101.5 39.5t-38.5 96.5q0 56 39 96t101 40q63 0 101.5 -39.5t38.5 -96.5q0 -56 -39 -96t-101 -40zM174 503q32 0 52.5 23t20.5 59t-20.5 59t-52.5 23t-52.5 -23t-20.5 -59t20.5 -59t52.5 -23z" />
    <glyph glyph-name="degree.lin" horiz-adv-x="308" 
d="M154 448q-56 0 -96 40t-40 96t40 96t96 40t96 -40t40 -96t-40 -96t-96 -40zM154 516q28 0 48 20t20 48t-20 48t-48 20t-48 -20t-20 -48t20 -48t48 -20z" />
    <glyph glyph-name="percent.lin" horiz-adv-x="665" 
d="M29 521q0 62 43.5 105.5t105.5 43.5t105 -43.5t43 -105.5t-43 -106t-105 -44t-105.5 44t-43.5 106zM92 521q0 -39 25 -67t61 -28t60.5 28t24.5 67t-24.5 66.5t-60.5 27.5t-61 -27.5t-25 -66.5zM121 -13l-41 29q18 24 233 326q187 263 231 330l42 -29q-10 -13 -235 -328
q-192 -270 -230 -328zM338 137q0 62 43.5 106t105.5 44t105.5 -44t43.5 -106t-43.5 -105.5t-105.5 -43.5t-105.5 43.5t-43.5 105.5zM401 137q0 -39 25 -66.5t61 -27.5t60.5 27.5t24.5 66.5t-24.5 67t-60.5 28t-61 -28t-25 -67z" />
    <glyph glyph-name="perthousand.lin" horiz-adv-x="1015" 
d="M29 521q0 62 43.5 105.5t105.5 43.5t105 -43.5t43 -105.5t-43 -106t-105 -44t-105.5 44t-43.5 106zM92 521q0 -39 25 -67t61 -28t60.5 28t24.5 67t-24.5 66.5t-60.5 27.5t-61 -27.5t-25 -66.5zM121 -13l-41 29q18 24 233 326q187 263 231 330l42 -29q-10 -13 -235 -328
q-192 -270 -230 -328zM338 137q0 62 43.5 106t105.5 44t105.5 -44t43.5 -106t-43.5 -105.5t-105.5 -43.5t-105.5 43.5t-43.5 105.5zM401 137q0 -39 25 -66.5t61 -27.5t60.5 27.5t24.5 66.5t-24.5 67t-60.5 28t-61 -28t-25 -67zM688 137q0 62 43.5 106t105.5 44t105.5 -44
t43.5 -106t-43.5 -105.5t-105.5 -43.5t-105.5 43.5t-43.5 105.5zM752 137q0 -39 24.5 -66.5t60.5 -27.5t61 27.5t25 66.5t-25 67t-61 28t-60.5 -28t-24.5 -67z" />
    <glyph glyph-name="quotedbl.lin" horiz-adv-x="424" 
d="M295 424l-43 202q-9 42 11.5 68t55.5 26t55.5 -26t11.5 -68l-44 -202h-47zM80 424l-43 202q-9 42 11.5 68t55.5 26t55.5 -26t11.5 -68l-44 -202h-47z" />
    <glyph glyph-name="quotesingle.lin" horiz-adv-x="209" 
d="M80 424l-43 202q-9 42 11.5 68t55.5 26t55.5 -26t11.5 -68l-44 -202h-47z" />
    <glyph glyph-name="plus.lin" horiz-adv-x="464" 
d="M186 153v134h-134v92h134v134h92v-134h134v-92h-134v-134h-92z" />
    <glyph glyph-name="minus.lin" horiz-adv-x="464" 
d="M52 287v92h360v-92h-360z" />
    <glyph glyph-name="divide.lin" horiz-adv-x="464" 
d="M412 287h-360v92h360v-92zM232 419q-26 0 -45.5 19t-19.5 46t20 46t47 19q26 0 45.5 -19t19.5 -46t-20 -46t-47 -19zM232 117q-26 0 -45.5 19t-19.5 46t20 46t47 19q26 0 45.5 -19t19.5 -46t-20 -46t-47 -19z" />
    <glyph glyph-name="equal.lin" horiz-adv-x="464" 
d="M52 381v92h360v-92h-360zM52 193v92h360v-92h-360z" />
    <glyph glyph-name="multiply.lin" horiz-adv-x="464" 
d="M333 155l-101 111l-101 -111l-67 67l101 111l-101 111l67 67l101 -111l101 111l67 -67l-101 -111l101 -111z" />
    <glyph glyph-name="less.lin" horiz-adv-x="424" 
d="M309 118l-258 186v60l258 186l51 -68l-205 -148l205 -148z" />
    <glyph glyph-name="greater.lin" horiz-adv-x="424" 
d="M115 118l-51 68l205 148l-205 148l51 68l258 -186v-60z" />
    <glyph glyph-name="plusminus.lin" horiz-adv-x="464" 
d="M186 241v134h-134v92h134v134h92v-134h134v-92h-134v-134h-92zM52 67v92h360v-92h-360z" />
    <glyph glyph-name="zero.tab" 
d="M266 -12q-107 0 -169 92t-62 248q0 158 62 250t169 92t169 -92t62 -250q0 -156 -62 -248t-169 -92zM266 564q-58 0 -86 -63t-28 -171t28 -172t86 -64t86 64t28 172t-28 171t-86 63z" />
    <glyph glyph-name="one.tab" 
d="M74 0v101h148v441l-138 -34l-26 96l220 57h57v-560h146v-101h-407z" />
    <glyph glyph-name="two.tab" 
d="M478 476q0 -37 -11 -68t-36.5 -58t-42 -41t-50.5 -39q-64 -46 -104 -86t-62 -89h219v108h95v-203h-419l-34 55q33 95 90.5 160.5t135.5 123.5q37 27 54 42t33 41.5t16 55.5q0 39 -28.5 66t-74.5 27q-69 0 -97 -38q30 -18 30 -56q0 -29 -20 -49t-49 -20q-37 0 -56 25.5
t-19 63.5q0 40 18 73q24 45 77 72.5t125 27.5q89 0 149.5 -54.5t60.5 -139.5z" />
    <glyph glyph-name="three.tab" 
d="M253 -12q-67 0 -122 24.5t-83 64.5q-23 31 -23 68q0 33 20 55.5t51 22.5q29 0 49 -19.5t20 -48.5q0 -23 -14 -42q35 -29 103 -29q49 0 84.5 26.5t35.5 70.5q0 65 -63 91q-40 16 -99 16h-42v101h45q63 0 97 20q49 28 49 85q0 39 -31 59.5t-76 20.5q-54 0 -83 -21
q14 -17 14 -40q0 -28 -20.5 -48t-48.5 -20q-29 0 -50 22.5t-21 58.5q0 30 21 61q58 83 191 83q95 0 158 -49t63 -123q0 -85 -78 -132q-29 -17 -59 -23q33 -10 59 -25q90 -51 90 -144q0 -84 -68.5 -135t-168.5 -51z" />
    <glyph glyph-name="four.tab" 
d="M207 0v89h101v95h-272l-27 54l318 444l82 -65l-246 -344h145v110l113 45v-153h91v-93h-91v-90h66v-92h-280z" />
    <glyph glyph-name="five.tab" 
d="M260 -12q-120 0 -182 58q-35 34 -35 74q0 32 20 52.5t51 20.5q32 0 51 -20t19 -48q0 -10 -4 -26q26 -13 71 -13q66 0 102 36t36 93q0 50 -36.5 83t-102.5 33q-74 0 -128 -29l-51 28l30 328h358v-104h-266l-12 -134q50 10 86 10q99 0 165.5 -59t66.5 -156
q0 -99 -67.5 -163t-171.5 -64z" />
    <glyph glyph-name="six.tab" 
d="M405 476q-33 0 -51 20t-18 46q0 16 3 26q-15 7 -42 7q-57 0 -98 -59t-46 -152l1 1q25 23 63 35.5t72 12.5q96 0 155 -58t59 -149q0 -92 -64.5 -155t-160.5 -63q-101 0 -165 71q-70 77 -70 247q0 168 73.5 266t184.5 98q81 0 131 -41q41 -33 41 -82q0 -36 -19.5 -53.5
t-48.5 -17.5zM279 85q46 0 77.5 34.5t31.5 83.5q0 52 -32 83.5t-85 31.5q-46 0 -78 -31.5t-32 -78.5q0 -51 34 -87t84 -36z" />
    <glyph glyph-name="seven.tab" 
d="M113 0l268 563h-240v-126h-101v221h441l28 -62l-274 -596h-122z" />
    <glyph glyph-name="eight.tab" 
d="M265 86q50 0 81.5 29.5t31.5 72.5t-31.5 74t-81.5 31t-81.5 -31t-31.5 -74t31.5 -72.5t81.5 -29.5zM265 670q94 0 155.5 -53.5t61.5 -133.5q0 -48 -30 -86.5t-86 -57.5q64 -18 97.5 -62t33.5 -99q0 -81 -63 -135.5t-169 -54.5t-169 54.5t-63 135.5q0 55 33.5 99t97.5 62
q-56 19 -86 57.5t-30 86.5q0 80 61.5 133.5t155.5 53.5zM265 379q40 0 68.5 27.5t28.5 68.5q0 45 -27.5 71.5t-69.5 26.5t-69.5 -26.5t-27.5 -71.5q0 -41 28.5 -68.5t68.5 -27.5z" />
    <glyph glyph-name="nine.tab" 
d="M487 352q0 -168 -73.5 -266t-184.5 -98q-81 0 -131 41q-41 33 -41 82q0 36 19.5 53.5t48.5 17.5q33 0 51 -20t18 -46q0 -16 -4 -27q18 -6 43 -6q57 0 98 59t45 151q-25 -23 -63 -35.5t-72 -12.5q-96 0 -155 58t-59 149q0 92 64.5 155t160.5 63q101 0 165 -71
q70 -77 70 -247zM251 573q-46 0 -77.5 -34.5t-31.5 -83.5q0 -52 32 -83.5t85 -31.5q46 0 78 31.5t32 78.5q0 51 -34 87t-84 36z" />
    <glyph glyph-name="period.tab" horiz-adv-x="265" 
d="M133 -8q-34 0 -58 24t-24 58t24 58.5t58 24.5t58 -24.5t24 -58.5t-24 -58t-58 -24z" />
    <glyph glyph-name="comma.tab" horiz-adv-x="265" 
d="M42 -173l-32 41q98 78 102 134q-28 8 -45 29t-17 50q0 30 24.5 53t57.5 23q37 0 61.5 -26t24.5 -73q0 -54 -42.5 -116.5t-133.5 -114.5z" />
    <glyph glyph-name="colon.tab" horiz-adv-x="265" 
d="M133 -8q-33 0 -56.5 23.5t-23.5 56.5t23.5 56.5t56.5 23.5t56.5 -23.5t23.5 -56.5t-23.5 -56.5t-56.5 -23.5zM133 256q-33 0 -56.5 23.5t-23.5 56.5t23.5 56.5t56.5 23.5t56.5 -23.5t23.5 -56.5t-23.5 -56.5t-56.5 -23.5z" />
    <glyph glyph-name="semicolon.tab" horiz-adv-x="265" 
d="M45 -168l-31 40q95 76 99 130q-27 8 -43.5 28t-16.5 48q0 30 23 52t56 22q36 0 60 -25t24 -71q0 -51 -41.5 -112t-129.5 -112zM133 256q-33 0 -56.5 23.5t-23.5 56.5t23.5 56.5t56.5 23.5t56.5 -23.5t23.5 -56.5t-23.5 -56.5t-56.5 -23.5z" />
    <glyph glyph-name="twodotleader.tab" 
d="M133 -8q-34 0 -58 24t-24 58t24 58.5t58 24.5t58 -24.5t24 -58.5t-24 -58t-58 -24zM398 -8q-34 0 -58 24t-24 58t24 58.5t58 24.5t58 -24.5t24 -58.5t-24 -58t-58 -24z" />
    <glyph glyph-name="periodcentered.tab" horiz-adv-x="265" 
d="M133 180q-34 0 -58 24t-24 58t24 58.5t58 24.5t58 -24.5t24 -58.5t-24 -58t-58 -24z" />
    <glyph glyph-name="slash.tab" 
d="M100 -215l-87 44l419 920l87 -44z" />
    <glyph glyph-name="bar.tab" horiz-adv-x="265" 
d="M86 -200v932h94v-932h-94z" />
    <glyph glyph-name="underscore.tab" 
d="M-8 -167v102h546v-102h-546z" />
    <glyph glyph-name="dollar.tab" 
d="M267 -105l-88 7l10 105q-70 15 -114.5 53.5t-44.5 86.5q0 35 21.5 57t52.5 22q29 0 48 -20t19 -45q0 -23 -9 -41q15 -14 43 -20l18 193q-166 53 -166 181q0 75 52.5 126t140.5 57l8 94l88 -7l-7 -92q71 -12 114 -48t42 -85q0 -34 -19 -54t-48 -20q-33 0 -52.5 20
t-19.5 47q0 18 7 32q-13 10 -42 16l-16 -181q87 -26 137.5 -69t50.5 -117q0 -88 -59.5 -138.5t-156.5 -54.5zM386 182q0 34 -22 54t-69 36l-16 -179q46 4 76.5 27.5t30.5 61.5zM163 484q0 -56 70 -83l14 162q-36 -5 -60 -27t-24 -52z" />
    <glyph glyph-name="sterling.tab" 
d="M19 48q0 75 113 68q32 36 32 114v2h-116v93h98l-7 21q-30 84 -30 130q0 85 54 139t142 54q69 0 119 -39t50 -93q0 -30 -19.5 -54t-51.5 -24q-31 0 -50 18.5t-19 44.5q0 21 9 35q-13 18 -45 18q-39 0 -60.5 -26t-21.5 -74q0 -40 23 -118l8 -32h161v-93h-148
q0 -67 -31 -113h4q36 0 76 -12q60 -18 78 -18q23 0 36.5 13t30.5 50l72 -35q-19 -69 -50 -98t-83 -29q-42 0 -105 25q-47 19 -103 20q-39 -47 -97 -47q-34 0 -51.5 16t-17.5 44z" />
    <glyph glyph-name="Euro.tab" 
d="M354 501q0 32 24 54q-29 21 -66 21q-92 0 -122 -133h123v-86h-134v-30q0 -24 1 -35h133v-90h-119q31 -113 122 -113q64 0 124 76l65 -65q-79 -114 -194 -114q-81 0 -140.5 56.5t-84.5 154.5h-65v93h51q-1 12 -1 37v28h-50v93h63q25 104 88 164.5t149 60.5
q76 0 128.5 -48.5t52.5 -107.5q0 -37 -22 -62t-55 -25q-29 0 -50 20.5t-21 50.5z" />
    <glyph glyph-name="yen.tab" 
d="M129 0v82h82v51h-138v80h138v51h-138v81h102l-127 220h-54v93h233v-90h-67l108 -201l108 201h-72v90h233v-93h-60l-122 -220h102v-81h-137v-51h137v-80h-137v-51h82v-82h-273z" />
    <glyph glyph-name="cent.tab" 
d="M482 253l-8 -93q-70 -40 -177 -40h-2l-13 -144l-80 7l14 147q-81 21 -126 81t-45 140q0 82 60 146.5t154 74.5l9 102l80 -7l-9 -98q68 -13 112.5 -53t44.5 -84q0 -33 -20 -52t-47 -19q-25 0 -43.5 18.5t-18.5 43.5q0 21 14 41q-23 19 -55 24l-26 -281h8q89 0 174 46z
M152 349q0 -40 20.5 -74t57.5 -52l24 264q-46 -10 -74 -45.5t-28 -92.5z" />
    <glyph glyph-name="numbersign.tab" 
d="M53 392v94h94l24 172h102l-24 -172h76l24 172h102l-24 -172h88v-94h-100l-19 -138h81l-6 -94h-88l-22 -160h-102l22 160h-76l-22 -160h-102l22 160h-88v94h101l19 138h-82zM231 397l-21 -148h89l21 148h-89z" />
    <glyph glyph-name="paragraph.tab" 
d="M19 443q0 99 64.5 157t170.5 58h259v-101h-65v-456h65v-101h-365v101h81v116h-2q-86 0 -147 59.5t-61 166.5zM313 96h46v466h-46v-466z" />
    <glyph glyph-name="section.tab" 
d="M127 157q30 0 48.5 -17.5t18.5 -45.5q0 -7 -1 -14q23 -9 67 -9q81 0 81 45q0 21 -23 33t-84 29q-7 2 -10 3q-93 27 -140.5 56.5t-47.5 81.5q0 78 93 113q-58 34 -58 101q0 52 53 94.5t147 42.5q78 0 131 -25q64 -30 64 -84q0 -25 -17.5 -43t-44.5 -18q-30 0 -48.5 17.5
t-18.5 45.5v15q-24 8 -66 8q-81 0 -81 -45q0 -21 23 -33t84 -29q7 -2 10 -3q93 -27 140.5 -56.5t47.5 -81.5q0 -77 -93 -113q58 -35 58 -101q0 -52 -53 -94t-147 -42q-114 0 -166 46q-29 26 -29 62q0 25 17.5 43t44.5 18zM268 383q-30 7 -49 13q-68 -25 -68 -59
q0 -22 25 -34.5t87 -28.5q4 -1 48 -13q69 24 69 59q0 22 -26 35t-86 28z" />
    <glyph glyph-name="degree.tab" 
d="M263 377q-78 0 -127.5 52.5t-49.5 127.5t49.5 127.5t127.5 52.5t127.5 -52.5t49.5 -127.5t-49.5 -127.5t-127.5 -52.5zM263 670q-48 0 -78.5 -32.5t-30.5 -80.5t30.5 -80.5t78.5 -32.5q49 0 79 32.5t30 80.5t-30 80.5t-79 32.5z" />
    <glyph glyph-name="percent.tab" 
d="M83 521q0 -42 16 -69t42 -27t42 27t16 69t-16 68.5t-42 26.5t-42 -26.5t-16 -68.5zM84 -12l-42 27l205 326l200 330l43 -27l-207 -328zM22 521q0 65 33.5 107t85.5 42t85.5 -42t33.5 -107t-33.5 -107.5t-85.5 -42.5t-85.5 42.5t-33.5 107.5zM271 138q0 65 33.5 107
t85.5 42t85.5 -42t33.5 -107t-33.5 -107.5t-85.5 -42.5t-85.5 42.5t-33.5 107.5zM332 138q0 -42 16 -69t42 -27t42 27t16 69t-16 68.5t-42 26.5t-42 -26.5t-16 -68.5z" />
    <glyph glyph-name="quotedbl.tab" 
d="M123 363l-44 257q-8 45 12 72.5t56 27.5t56 -27.5t12 -72.5l-45 -257h-47zM358 363l-44 257q-8 45 12 72.5t56 27.5t56 -27.5t12 -72.5l-45 -257h-47z" />
    <glyph glyph-name="quotesingle.tab" horiz-adv-x="265" 
d="M108 363l-44 257q-8 45 12 72.5t56 27.5t56 -27.5t12 -72.5l-45 -257h-47z" />
    <glyph glyph-name="plus.tab" 
d="M219 133v154h-154v92h154v154h92v-154h154v-92h-154v-154h-92z" />
    <glyph glyph-name="minus.tab" 
d="M65 287v92h400v-92h-400z" />
    <glyph glyph-name="divide.tab" 
d="M465 287h-400v92h400v-92zM265 439q-26 0 -45.5 19t-19.5 46t20 46t47 19q26 0 45.5 -19t19.5 -46t-20 -46t-47 -19zM265 97q-26 0 -45.5 19t-19.5 46t20 46t47 19q26 0 45.5 -19t19.5 -46t-20 -46t-47 -19z" />
    <glyph glyph-name="equal.tab" 
d="M65 391v92h400v-92h-400zM65 183v92h400v-92h-400z" />
    <glyph glyph-name="multiply.tab" 
d="M386 135l-121 131l-121 -131l-67 67l121 131l-121 131l67 67l121 -131l121 131l67 -67l-121 -131l121 -131z" />
    <glyph glyph-name="less.tab" 
d="M382 98l-298 213v46l298 213l51 -68l-236 -168l236 -168z" />
    <glyph glyph-name="greater.tab" 
d="M148 570l298 -213v-46l-298 -213l-51 68l236 168l-236 168z" />
    <glyph glyph-name="plusminus.tab" 
d="M219 231v154h-154v92h154v154h92v-154h154v-92h-154v-154h-92zM65 57v92h400v-92h-400z" />
    <glyph glyph-name="zero.idx_P2D" horiz-adv-x="1100" 
d="M550 802q140 0 253.5 -68.5t176 -183.5t62.5 -250t-62.5 -250t-176 -183.5t-253.5 -68.5t-253.5 68.5t-176 183.5t-62.5 250t62.5 250t176 183.5t253.5 68.5zM550 729q-117 0 -211.5 -58.5t-147 -156.5t-52.5 -214t52.5 -214t147 -156.5t211.5 -58.5t211.5 58.5
t147 156.5t52.5 214t-52.5 214t-147 156.5t-211.5 58.5zM549 64q-84 0 -144.5 69t-60.5 173q0 106 60.5 174.5t146.5 68.5q84 0 144 -68.5t60 -173.5q0 -106 -60.5 -174.5t-145.5 -68.5zM549 150q50 0 80 44t30 112t-30 112.5t-80 44.5q-49 0 -79 -44t-30 -112t30 -112.5
t79 -44.5z" />
    <glyph glyph-name="one.idx_P2D" horiz-adv-x="1100" 
d="M550 802q140 0 253.5 -68.5t176 -183.5t62.5 -250t-62.5 -250t-176 -183.5t-253.5 -68.5t-253.5 68.5t-176 183.5t-62.5 250t62.5 250t176 183.5t253.5 68.5zM550 729q-117 0 -211.5 -58.5t-147 -156.5t-52.5 -214t52.5 -214t147 -156.5t211.5 -58.5t211.5 58.5
t147 156.5t52.5 214t-52.5 214t-147 156.5t-211.5 58.5zM700 74h-290v83h99v289l-93 -17l-17 79l156 34h47v-385h98v-83z" />
    <glyph glyph-name="two.idx_P2D" horiz-adv-x="1100" 
d="M550 802q140 0 253.5 -68.5t176 -183.5t62.5 -250t-62.5 -250t-176 -183.5t-253.5 -68.5t-253.5 68.5t-176 183.5t-62.5 250t62.5 250t176 183.5t253.5 68.5zM550 729q-117 0 -211.5 -58.5t-147 -156.5t-52.5 -214t52.5 -214t147 -156.5t211.5 -58.5t211.5 58.5
t147 156.5t52.5 214t-52.5 214t-147 156.5t-211.5 58.5zM373 420q0 30 15 56q20 34 62 53.5t98 19.5q72 0 121 -39.5t49 -102.5q0 -34 -19.5 -64t-39 -44.5t-50.5 -32.5q-98 -57 -136 -115h181v80h76v-157h-343l-29 42q23 52 61.5 96.5t64 63.5t64.5 45q28 18 39.5 27
t23.5 25.5t12 35.5q0 25 -23 42t-60 17q-47 0 -74 -20q20 -15 20 -43q0 -22 -16 -38t-38 -16q-30 0 -44.5 20.5t-14.5 48.5z" />
    <glyph glyph-name="three.idx_P2D" horiz-adv-x="1100" 
d="M550 802q140 0 253.5 -68.5t176 -183.5t62.5 -250t-62.5 -250t-176 -183.5t-253.5 -68.5t-253.5 68.5t-176 183.5t-62.5 250t62.5 250t176 183.5t253.5 68.5zM550 729q-117 0 -211.5 -58.5t-147 -156.5t-52.5 -214t52.5 -214t147 -156.5t211.5 -58.5t211.5 58.5
t147 156.5t52.5 214t-52.5 214t-147 156.5t-211.5 58.5zM368 180q0 25 16 42.5t40 17.5q23 0 39 -15.5t16 -37.5q0 -15 -7 -29q26 -17 79 -17q35 0 62 16t27 46q0 44 -46 62q-28 11 -74 11h-27v73h30q43 0 71 14q36 19 36 59q0 25 -23.5 37.5t-55.5 12.5q-41 0 -57 -11
q5 -20 5 -27q0 -22 -16 -37.5t-39 -15.5q-22 0 -38.5 17.5t-16.5 45.5q0 24 19 47q46 58 146 58q73 0 122.5 -35.5t49.5 -88.5q0 -58 -49 -91q-21 -14 -43 -18q26 -10 39 -18q63 -38 63 -102q0 -61 -54 -96.5t-132 -35.5q-103 0 -157 59q-25 27 -25 57z" />
    <glyph glyph-name="four.idx_P2D" horiz-adv-x="1100" 
d="M550 802q140 0 253.5 -68.5t176 -183.5t62.5 -250t-62.5 -250t-176 -183.5t-253.5 -68.5t-253.5 68.5t-176 183.5t-62.5 250t62.5 250t176 183.5t253.5 68.5zM550 729q-117 0 -211.5 -58.5t-147 -156.5t-52.5 -214t52.5 -214t147 -156.5t211.5 -58.5t211.5 58.5
t147 156.5t52.5 214t-52.5 214t-147 156.5t-211.5 58.5zM483 74v72h81v61h-218l-23 43l260 309l67 -53l-201 -231h115v67l86 34v-98h71v-75h-71v-55h52v-74h-219z" />
    <glyph glyph-name="five.idx_P2D" horiz-adv-x="1100" 
d="M550 802q140 0 253.5 -68.5t176 -183.5t62.5 -250t-62.5 -250t-176 -183.5t-253.5 -68.5t-253.5 68.5t-176 183.5t-62.5 250t62.5 250t176 183.5t253.5 68.5zM550 729q-117 0 -211.5 -58.5t-147 -156.5t-52.5 -214t52.5 -214t147 -156.5t211.5 -58.5t211.5 58.5
t147 156.5t52.5 214t-52.5 214t-147 156.5t-211.5 58.5zM544 64q-80 0 -121.5 30t-41.5 68q0 25 15.5 41t39.5 16q26 0 41 -16t15 -38q0 -3 -0.5 -9t-0.5 -8q2 0 16 -2.5t27 -2.5q45 0 69.5 23.5t24.5 60.5q0 33 -25 54t-71 21q-55 0 -90 -20l-41 25l20 233h267v-84h-192
l-6 -78q1 0 24 2.5t33 2.5q71 0 120.5 -43.5t49.5 -112.5q0 -70 -49 -116.5t-124 -46.5z" />
    <glyph glyph-name="six.idx_P2D" horiz-adv-x="1100" 
d="M550 802q140 0 253.5 -68.5t176 -183.5t62.5 -250t-62.5 -250t-176 -183.5t-253.5 -68.5t-253.5 68.5t-176 183.5t-62.5 250t62.5 250t176 183.5t253.5 68.5zM550 729q-117 0 -211.5 -58.5t-147 -156.5t-52.5 -214t52.5 -214t147 -156.5t211.5 -58.5t211.5 58.5
t147 156.5t52.5 214t-52.5 214t-147 156.5t-211.5 58.5zM704 459q0 -29 -15 -42t-38 -13q-26 0 -40 15.5t-14 35.5v12q-16 3 -34 3q-48 0 -82.5 -39t-35.5 -98q48 37 108 37q73 0 122 -43t49 -106q0 -66 -51.5 -111.5t-129.5 -45.5q-79 0 -131 52q-56 56 -56 181
q0 112 58 182t148 70q59 0 97 -23q45 -26 45 -67zM449 224q0 -35 28 -58t68 -23q35 0 60 22.5t25 53.5q0 33 -25.5 52.5t-68.5 19.5q-37 0 -62 -18.5t-25 -48.5z" />
    <glyph glyph-name="seven.idx_P2D" horiz-adv-x="1100" 
d="M550 802q140 0 253.5 -68.5t176 -183.5t62.5 -250t-62.5 -250t-176 -183.5t-253.5 -68.5t-253.5 68.5t-176 183.5t-62.5 250t62.5 250t176 183.5t253.5 68.5zM550 729q-117 0 -211.5 -58.5t-147 -156.5t-52.5 -214t52.5 -214t147 -156.5t211.5 -58.5t211.5 58.5
t147 156.5t52.5 214t-52.5 214t-147 156.5t-211.5 58.5zM538 74h-101l197 390h-162v-96h-81v172h321l24 -54z" />
    <glyph glyph-name="eight.idx_P2D" horiz-adv-x="1100" 
d="M550 802q140 0 253.5 -68.5t176 -183.5t62.5 -250t-62.5 -250t-176 -183.5t-253.5 -68.5t-253.5 68.5t-176 183.5t-62.5 250t62.5 250t176 183.5t253.5 68.5zM550 729q-117 0 -211.5 -58.5t-147 -156.5t-52.5 -214t52.5 -214t147 -156.5t211.5 -58.5t211.5 58.5
t147 156.5t52.5 214t-52.5 214t-147 156.5t-211.5 58.5zM549 64q-86 0 -135.5 39.5t-49.5 95.5q0 38 25 70.5t73 43.5q-87 21 -87 100q0 56 48.5 96t125.5 40t126.5 -40t49.5 -96q0 -34 -22.5 -61.5t-66.5 -38.5q49 -11 74 -43.5t25 -70.5q0 -56 -50 -95.5t-136 -39.5z
M549 342q31 0 54.5 19t23.5 47q0 29 -22.5 47t-55.5 18t-55 -18t-22 -47q0 -28 23 -47t54 -19zM549 141q39 0 64.5 20t25.5 47q0 28 -25 49t-65 21t-64.5 -21t-24.5 -49q0 -27 25 -47t64 -20z" />
    <glyph glyph-name="nine.idx_P2D" horiz-adv-x="1100" 
d="M550 802q140 0 253.5 -68.5t176 -183.5t62.5 -250t-62.5 -250t-176 -183.5t-253.5 -68.5t-253.5 68.5t-176 183.5t-62.5 250t62.5 250t176 183.5t253.5 68.5zM550 729q-117 0 -211.5 -58.5t-147 -156.5t-52.5 -214t52.5 -214t147 -156.5t211.5 -58.5t211.5 58.5
t147 156.5t52.5 214t-52.5 214t-147 156.5t-211.5 58.5zM398 155q0 28 15.5 41t38.5 13q26 0 40 -15.5t14 -35.5v-13q10 -1 32 -1q48 0 81.5 40.5t35.5 98.5q-46 -37 -108 -37q-72 0 -121 42.5t-49 104.5q0 65 52 110.5t129 45.5q78 0 131 -53q57 -57 57 -178
q0 -112 -59.5 -183t-148.5 -71q-82 0 -120 41q-20 22 -20 50zM652 392q0 33 -28 56t-68 23q-35 0 -60 -23t-25 -53q0 -32 25.5 -51.5t68.5 -19.5q36 0 61.5 19t25.5 49z" />
    <glyph glyph-name="space.tab" horiz-adv-x="265" 
 />
    <glyph glyph-name="NUL" horiz-adv-x="0" 
 />
    <glyph glyph-name="hfjslug" horiz-adv-x="694" 
d="M644 -200h-208l-8 14h-163l-8 -14h-207v303q14 0 23 9.5t9 22.5t-9.5 22.5t-22.5 9.5v554h100l30 79h334l29 -79h101v-921zM400 563v-172h15v78h38v14h-38v66h43v14h-58zM184 563v-172h15v79h47v-79h15v172h-15v-79h-47v79h-15zM460 394q10 -4 21 -4q31 0 31 36v137h-16
v-137q0 -22 -16 -22q-8 0 -20 5v-15zM371 465l-13 3q-4 -18 -8 -30h-1l-16 31q23 21 23 42q0 12 -7 21.5t-20 9.5q-12 0 -20 -9.5t-8 -21.5q0 -13 14 -39q-23 -18 -23 -47q0 -16 8 -26.5t21 -10.5q19 0 29 24h1l12 -24l12 6l-17 32q6 14 13 39zM523 323v-46h8v12l8 8l15 -20
h10l-20 26l18 20h-10l-20 -24h-1v24h-8zM488 292l10 -15h9l-12 17q10 4 10 14q0 15 -17 15h-20v-46h8v15h12zM426 276q10 0 17 7t7 17q0 9 -7 16.5t-17 7.5t-17 -7.5t-7 -16.5q0 -10 7 -17t17 -7zM370 301l-13 22h-9l18 -29v-17h8v17l18 29h-9zM193 323v-46h34v7h-26v13h23
v7h-23v12h26v7h-34zM132 323v-46h8v32l25 -32h7v46h-8v-32l-25 32h-7zM241 323l14 -47h8l11 34h1l11 -34h8l14 47h-8l-10 -35h-1l-11 35h-7l-11 -35h-1l-10 35h-8zM327 479q-12 22 -12 32q0 19 14 19q13 0 13 -19q0 -15 -15 -32zM342 423q-8 -21 -20 -21q-16 0 -16 25
q0 19 16 35zM487 299h-11v17h11q10 0 10 -8q0 -9 -10 -9zM426 283q-16 0 -16 17q0 6 4.5 11.5t11.5 5.5t11.5 -5.5t4.5 -11.5q0 -17 -16 -17z" />
    <glyph glyph-name="A.sc" horiz-adv-x="598" 
d="M123 525h352v-91h-69l122 -343h55v-91h-237v89h73l-27 76h-189l-26 -76h73v-89h-235v91h56l122 343h-70v91zM297 441l-65 -190h131z" />
    <glyph glyph-name="B.sc" horiz-adv-x="544" 
d="M226 89h79q41 0 64.5 18t23.5 52q0 32 -23.5 50t-66.5 18h-77v-138zM226 303h69q40 0 62 18t22 50q0 31 -22.5 48t-63.5 17h-67v-133zM303 0h-263v91h77v343h-77v91h255q96 0 145 -38t49 -100q0 -88 -89 -117q104 -30 104 -123q0 -68 -51.5 -107.5t-149.5 -39.5z" />
    <glyph glyph-name="C.sc" horiz-adv-x="573" 
d="M468 158l68 -73q-87 -98 -224 -98q-124 0 -200.5 79t-76.5 196q0 123 81.5 200.5t204.5 77.5q90 0 149.5 -42.5t59.5 -97.5q0 -34 -19 -55t-50 -21q-32 0 -51.5 17.5t-19.5 48.5q0 21 8 34q-32 19 -84 19q-73 0 -120 -49.5t-47 -130.5q0 -79 47.5 -128t117.5 -49
q91 0 156 72z" />
    <glyph glyph-name="D.sc" horiz-adv-x="606" 
d="M226 91h49q92 0 139 46.5t47 128.5q0 81 -50.5 124.5t-141.5 43.5h-43v-343zM259 0h-219v91h77v343h-77v91h229q141 0 221.5 -69t80.5 -189q0 -123 -80.5 -195t-231.5 -72z" />
    <glyph glyph-name="E.sc" horiz-adv-x="524" 
d="M476 0h-436v91h77v343h-77v91h435v-183h-100v94h-149v-133h150v-85h-150v-129h150v90h100v-179z" />
    <glyph glyph-name="F.sc" horiz-adv-x="502" 
d="M308 0h-268v91h77v343h-77v91h432v-183h-101v94h-145v-138h147v-85h-147v-122h82v-91z" />
    <glyph glyph-name="G.sc" horiz-adv-x="593" 
d="M314 443q-73 0 -120 -49.5t-47 -129.5q0 -78 48 -130t118 -52q69 0 109 30v78h-126v86h233v-276h-104v35q-61 -47 -137 -47q-103 0 -178 75.5t-75 199.5q0 123 80.5 200t205.5 77q90 0 149.5 -42.5t59.5 -97.5q0 -34 -19 -55t-50 -21q-32 0 -51.5 17.5t-19.5 48.5
q0 21 8 34q-32 19 -84 19z" />
    <glyph glyph-name="H.sc" horiz-adv-x="671" 
d="M40 0v91h77v343h-77v91h265v-91h-79v-129h219v129h-79v91h265v-91h-77v-343h77v-91h-265v91h79v125h-219v-125h79v-91h-265z" />
    <glyph glyph-name="I.sc" horiz-adv-x="349" 
d="M309 0h-269v91h80v343h-80v91h269v-91h-80v-343h80v-91z" />
    <glyph glyph-name="J.sc" horiz-adv-x="480" 
d="M199 86q35 0 53 19q22 23 22 79v250h-81v91h262v-91h-74v-251q0 -98 -50 -148q-47 -46 -129 -46q-74 0 -125.5 41t-51.5 100q0 35 20 56.5t52 21.5q26 0 45.5 -19t19.5 -44q0 -27 -18 -45q19 -14 55 -14z" />
    <glyph glyph-name="K.sc" horiz-adv-x="610" 
d="M525 434l-153 -146l132 -197h79v-91h-149l-142 219l-66 -61v-67h76v-91h-262v91h77v343h-77v91h251v-89h-65v-167l175 167h-63v89h241v-91h-54z" />
    <glyph glyph-name="L.sc" horiz-adv-x="497" 
d="M376 91v98h101v-189h-437v91h77v343h-77v91h267v-91h-81v-343h150z" />
    <glyph glyph-name="M.sc" horiz-adv-x="754" 
d="M525 525h180v-91h-77l15 -343h77v-91h-261v91h74l-10 252l-137 -249h-20l-140 249l-10 -252h79v-91h-261v91h77l15 343h-77v91h182l150 -267z" />
    <glyph glyph-name="N.sc" horiz-adv-x="659" 
d="M209 525l244 -316v225h-75v91h256v-91h-77v-437h-75l-259 341v-247h70v-91h-253v91h77v343h-77v91h169z" />
    <glyph glyph-name="O.sc" horiz-adv-x="622" 
d="M311 540q123 0 199.5 -79t76.5 -196q0 -119 -76 -198.5t-200 -79.5t-200 79.5t-76 198.5q0 117 76.5 196t199.5 79zM311 86q71 0 118 48.5t47 128.5t-46.5 129t-118.5 49q-71 0 -117.5 -49t-46.5 -129t46.5 -128.5t117.5 -48.5z" />
    <glyph glyph-name="P.sc" horiz-adv-x="518" 
d="M40 525h240q89 0 148.5 -48t59.5 -127q0 -88 -60 -134.5t-160 -46.5q-27 0 -42 1v-79h79v-91h-265v91h77v343h-77v91zM279 258q46 0 72.5 25t26.5 67q0 37 -28.5 60.5t-72.5 23.5h-51v-174q24 -2 53 -2z" />
    <glyph glyph-name="Q.sc" horiz-adv-x="622" 
d="M499 -120q-25 0 -46 4t-41.5 14.5t-30.5 16t-32.5 22t-26.5 19.5q-33 23 -67 32q-95 24 -151 86q-69 77 -69 191q0 117 76.5 196t199.5 79t199.5 -79t76.5 -196q0 -90 -45 -159.5t-123 -99.5l11 -7q34 -22 58 -22q37 0 79 35l54 -79q-52 -53 -122 -53zM311 86
q71 0 118 48.5t47 128.5t-46.5 129t-118.5 49q-71 0 -117.5 -49t-46.5 -129q0 -76 42 -124q47 -53 122 -53z" />
    <glyph glyph-name="Q.sc_alt" horiz-adv-x="622" 
d="M466 -87l-58 89q-48 -15 -97 -15q-124 0 -200 79.5t-76 198.5q0 117 76.5 196t199.5 79t199.5 -79t76.5 -196q0 -138 -95 -216l55 -84zM311 86q24 0 41 4l-46 72l80 52l48 -75q42 50 42 124q0 80 -46.5 129t-118.5 49q-71 0 -117.5 -49t-46.5 -129t46.5 -128.5
t117.5 -48.5z" />
    <glyph glyph-name="R.sc" horiz-adv-x="568" 
d="M284 434h-58v-151q27 -3 63 -3q49 0 77 21.5t28 57.5q0 35 -29 55t-81 20zM226 191v-100h70v-91h-256v91h77v343h-77v91h251q97 0 155.5 -42t58.5 -123q0 -46 -25 -83t-66 -58l62 -128h72v-91h-153l-86 192q-19 -2 -39 -2q-30 0 -44 1z" />
    <glyph glyph-name="S.sc" horiz-adv-x="505" 
d="M321 404q0 15 6 27q-28 17 -78 17q-37 0 -60 -15t-23 -43q0 -7 2 -13t6 -11.5t8 -9.5t12 -8.5t13 -7t14.5 -6t14 -5.5t15.5 -5.5t14 -4.5q40 -13 60 -20.5t51 -23t45.5 -31t26.5 -40t12 -55.5q0 -80 -56.5 -121t-152.5 -41q-86 0 -148.5 40t-62.5 98q0 33 17.5 52.5
t48.5 19.5t51.5 -19.5t20.5 -44.5q0 -20 -7 -34q30 -22 85 -22q98 0 98 62q0 15 -8.5 26.5t-28 21t-31 14t-37.5 12.5q-51 16 -76.5 26.5t-57 30t-45 46.5t-13.5 64q0 70 55 114t145 44q86 0 142.5 -36.5t56.5 -91.5q0 -32 -17.5 -50.5t-45.5 -18.5q-34 0 -53 19t-19 44z
" />
    <glyph glyph-name="T.sc" horiz-adv-x="555" 
d="M143 0v91h80v346h-95v-106h-100v194h499v-194h-100v106h-95v-346h80v-91h-269z" />
    <glyph glyph-name="U.sc" horiz-adv-x="624" 
d="M312 -8q-100 0 -156.5 54.5t-56.5 161.5v226h-74v91h257v-91h-74v-228q0 -58 28 -90t77 -32q50 0 77.5 30.5t27.5 88.5v231h-74v91h255v-91h-74v-223q0 -108 -57.5 -163.5t-155.5 -55.5z" />
    <glyph glyph-name="V.sc" horiz-adv-x="583" 
d="M252 -7l-183 441h-59v91h244v-91h-70l111 -290l111 290h-70v91h237v-91h-59l-183 -441h-79z" />
    <glyph glyph-name="W.sc" horiz-adv-x="815" 
d="M215 -7l-138 441h-65v91h257v-91h-76l78 -268l114 296h53l114 -295l79 267h-79v91h251v-91h-65l-138 -441h-79l-114 289l-113 -289h-79z" />
    <glyph glyph-name="X.sc" horiz-adv-x="605" 
d="M585 91v-91h-253v89h69l-104 123l-99 -123h71v-89h-249v91h67l149 179l-142 164h-67v91h246v-89h-58l92 -111l88 111h-59v89h242v-91h-72l-137 -166l154 -177h62z" />
    <glyph glyph-name="Y.sc" horiz-adv-x="543" 
d="M537 525v-91h-55l-156 -242v-101h80v-91h-269v91h80v101l-156 242h-55v91h238v-89h-68l98 -159l99 159h-72v89h236z" />
    <glyph glyph-name="Z.sc" 
d="M41 0v63l296 374h-190v-102h-92v190h432v-63l-295 -374h203v101h92v-189h-446z" />
    <glyph glyph-name="Aacute.sc" horiz-adv-x="598" 
d="M123 525h352v-91h-69l122 -343h55v-91h-237v89h73l-27 76h-189l-26 -76h73v-89h-235v91h56l122 343h-70v91zM286 586l-34 33l110 150q24 31 55 31q20 0 34.5 -14.5t14.5 -36.5q0 -31 -31 -55zM297 441l-65 -190h131z" />
    <glyph glyph-name="Abreve.sc" horiz-adv-x="598" 
d="M123 525h352v-91h-69l122 -343h55v-91h-237v89h73l-27 76h-189l-26 -76h73v-89h-235v91h56l122 343h-70v91zM295 600q-62 0 -111.5 43t-72.5 131l69 27q42 -103 115 -103q72 0 115 103l69 -27q-23 -88 -72.5 -131t-111.5 -43zM297 441l-65 -190h131z" />
    <glyph glyph-name="Acircumflex.sc" horiz-adv-x="598" 
d="M123 525h352v-91h-69l122 -343h55v-91h-237v89h73l-27 76h-189l-26 -76h73v-89h-235v91h56l122 343h-70v91zM166 589l-46 53l177 176l177 -176l-46 -53l-131 96zM297 441l-65 -190h131z" />
    <glyph glyph-name="Adieresis.sc" horiz-adv-x="598" 
d="M123 525h352v-91h-69l122 -343h55v-91h-237v89h73l-27 76h-189l-26 -76h73v-89h-235v91h56l122 343h-70v91zM399 600q-29 0 -50.5 21t-21.5 51t22 51t52 21q29 0 50.5 -21t21.5 -51t-22 -51t-52 -21zM193 600q-29 0 -50.5 21t-21.5 51t22 51t52 21q29 0 50.5 -21
t21.5 -51t-22 -51t-52 -21zM297 441l-65 -190h131z" />
    <glyph glyph-name="AE.sc" horiz-adv-x="754" 
d="M274 0v89h73v76h-153l-37 -76h69v-89h-226v91h52l173 343h-66v91h546v-183h-100v94h-149v-133h150v-85h-150v-129h150v90h100v-179h-432zM326 434l-91 -184h112v184h-21z" />
    <glyph glyph-name="AEacute.sc" horiz-adv-x="754" 
d="M274 0v89h73v76h-153l-37 -76h69v-89h-226v91h52l173 343h-66v91h546v-183h-100v94h-149v-133h150v-85h-150v-129h150v90h100v-179h-432zM395 586l-34 33l110 150q24 31 55 31q20 0 34.5 -14.5t14.5 -36.5q0 -31 -31 -55zM326 434l-91 -184h112v184h-21z" />
    <glyph glyph-name="Agrave.sc" horiz-adv-x="598" 
d="M123 525h352v-91h-69l122 -343h55v-91h-237v89h73l-27 76h-189l-26 -76h73v-89h-235v91h56l122 343h-70v91zM308 586l-149 108q-31 24 -31 55q0 22 14.5 36.5t34.5 14.5q31 0 55 -31l110 -150zM297 441l-65 -190h131z" />
    <glyph glyph-name="Amacron.sc" horiz-adv-x="598" 
d="M123 525h352v-91h-69l122 -343h55v-91h-237v89h73l-27 76h-189l-26 -76h73v-89h-235v91h56l122 343h-70v91zM130 619v89h334v-89h-334zM297 441l-65 -190h131z" />
    <glyph glyph-name="Aogonek.sc" horiz-adv-x="598" 
d="M483 -201q-54 0 -84 28.5t-30 74.5q0 56 50 98h-73v89h73l-27 76h-189l-26 -76h73v-89h-235v91h56l122 343h-70v91h352v-91h-69l122 -343h55v-91h-75q-48 -31 -48 -71q0 -46 52 -46q38 0 70 17l-5 -79q-36 -22 -94 -22zM297 441l-65 -190h131z" />
    <glyph glyph-name="Aring.sc" horiz-adv-x="598" 
d="M419 89l-27 76h-189l-26 -76h73v-89h-235v91h56l122 343h-70v91h59q-18 29 -18 63q0 55 39 92.5t95 37.5t95 -37.5t39 -92.5q0 -34 -18 -63h61v-91h-69l122 -343h55v-91h-237v89h73zM297 441l-65 -190h131zM298 529q23 0 37.5 17.5t14.5 41.5t-14.5 41.5t-37.5 17.5
t-37.5 -17.5t-14.5 -41.5t14.5 -41.5t37.5 -17.5z" />
    <glyph glyph-name="Aringacute.sc" horiz-adv-x="598" 
d="M250 0h-235v91h56l122 343h-70v91h59q-18 29 -18 63q0 55 39 92.5t95 37.5t95 -37.5t39 -92.5q0 -34 -18 -63h61v-91h-69l122 -343h55v-91h-237v89h73l-27 76h-189l-26 -76h73v-89zM288 749l-34 33l110 150q24 31 55 31q20 0 34.5 -14.5t14.5 -36.5q0 -31 -31 -55z
M297 441l-65 -190h131zM298 529q23 0 37.5 17.5t14.5 41.5t-14.5 41.5t-37.5 17.5t-37.5 -17.5t-14.5 -41.5t14.5 -41.5t37.5 -17.5z" />
    </font>
</defs>
</svg>
